osu file format v14

[General]
AudioFilename: audio.mp3
AudioLeadIn: 0
PreviewTime: -1
Countdown: 0
SampleSet: None
StackLeniency: 0.3
Mode: 0
LetterboxInBreaks: 0
WidescreenStoryboard: 0

[Editor]
Bookmarks: 62120,180709
DistanceSpacing: 0.5
BeatDivisor: 4
GridSize: 16
TimelineZoom: 3.499999

[Metadata]
Title:Acid Rain
TitleUnicode:Acid Rain
Artist:Culprate
ArtistUnicode:Culprate
Creator:Kondou-Shinichi
Version:not aspire lol
Source:
Tags:
BeatmapID:1851409
BeatmapSetID:885835

[Difficulty]
HPDrainRate:6
CircleSize:4.2
OverallDifficulty:9
ApproachRate:9.6
SliderMultiplier:1.6
SliderTickRate:1

[Events]
//Background and Video events
0,0,"hit300k-1.png",0,0
//Break Periods
//Storyboard Layer 0 (Background)
//Storyboard Layer 1 (Fail)
//Storyboard Layer 2 (Pass)
//Storyboard Layer 3 (Foreground)
//Storyboard Sound Samples

[TimingPoints]
1415,352.941176470588,4,2,0,100,1,0
62120,-100,4,2,0,100,0,0
81885,-133.333333333333,4,2,0,100,0,0
82591,-100,4,2,0,100,0,0
83297,-66.6666666666667,4,2,0,100,0,0
84003,-50,4,2,0,100,0,0
86120,-133.333333333333,4,2,0,100,0,0
86826,-200,4,2,0,100,0,0
87532,-66.6666666666667,4,2,0,100,0,0
95297,-40,4,2,0,100,0,0
96003,-66.6666666666667,4,2,0,100,0,0
107297,-200,4,2,0,100,0,0
108709,-66.6666666666667,4,2,0,100,0,0
110826,-200,4,2,0,100,0,0
111709,-66.6666666666667,4,2,0,100,0,0
111885,-200,4,2,0,100,0,0
112944,-66.6666666666667,4,2,0,100,0,0
113826,-200,4,2,0,100,0,0
114709,-66.6666666666667,4,2,0,100,0,0
118591,-100,4,2,0,100,0,0
121414,-200,4,2,0,100,0,0
122120,-100,4,2,0,100,0,0
122650,-66.6666666666667,4,2,0,100,0,0
123179,-100,4,2,0,100,0,0
123885,-50,4,2,0,100,0,0
124238,-66.6666666666667,4,2,0,100,0,0
129532,-133.333333333333,4,2,0,100,0,0
133062,-100,4,2,0,100,0,0
181439,352.941176470588,4,2,0,100,1,0
182145,352.941176470588,4,2,0,100,1,0
186539,352.941176470588,4,2,0,100,1,0
187612,352.941176470588,4,2,0,100,1,0
188214,352.941176470588,4,2,0,100,1,0
188851,352.941176470588,4,2,0,100,1,0
189203,352.941176470588,4,2,0,100,1,0
190786,352.941176470588,4,2,0,100,1,0
192021,352.941176470588,4,2,0,100,1,0
197829,352.941176470588,4,2,0,100,1,0
199064,352.941176470588,4,2,0,100,1,0
200667,352.941176470588,4,2,0,100,1,0
203314,352.941176470588,4,2,0,100,1,0
208247,352.941176470588,4,2,0,100,1,0
208952,352.941176470588,4,2,0,100,1,0
220942,352.941176470588,4,2,0,100,1,0
221304,352.941176470588,4,2,0,100,1,0
221656,352.941176470588,4,2,0,100,1,0

[HitObjects]
81,202,62120,6,0,P|58:154|58:102,1,80
74,59,62473,1,0,0:0:0:0:
74,59,62650,1,0,0:0:0:0:
144,252,62826,2,0,B|210:286|244:269,1,80
310,132,63179,2,0,P|271:129|225:138,1,80
262,365,63532,6,0,L|285:276,1,80
156,227,63885,2,0,L|179:316,1,80
339,370,64238,1,0,0:0:0:0:
339,370,64414,1,0,0:0:0:0:
98,166,64591,2,0,P|77:205|81:256,1,80
236,82,64944,5,0,0:0:0:0:
198,11,65120,2,0,P|239:6|285:15,1,80
424,213,65473,1,0,0:0:0:0:
462,142,65649,2,0,P|421:137|375:146,1,80
244,296,66003,1,0,0:0:0:0:
317,173,66179,1,0,0:0:0:0:
224,314,66356,6,0,L|134:320,1,80
53,320,66709,1,0,0:0:0:0:
154,181,66885,2,0,L|272:177,1,80
28,243,67238,5,0,0:0:0:0:
188,384,67414,1,0,0:0:0:0:
331,260,67591,1,0,0:0:0:0:
474,329,67767,2,0,L|456:248,2,80
393,374,68297,5,0,0:0:0:0:
249,237,68473,2,0,P|267:200|331:172,1,80
379,156,68826,1,0,0:0:0:0:
183,304,69003,6,0,L|88:299,1,80
11,142,69356,2,0,L|106:137,1,80
214,131,69709,1,0,0:0:0:0:
34,257,69885,5,0,0:0:0:0:
113,384,70062,1,0,0:0:0:0:
50,233,70238,1,0,0:0:0:0:
87,383,70414,1,0,0:0:0:0:
218,293,70591,6,0,P|272:272|317:274,1,80
365,289,70944,1,0,0:0:0:0:
251,176,71120,1,0,0:0:0:0:
428,338,71297,6,0,P|446:291|442:257,1,80
380,213,71650,1,0,0:0:0:0:
251,176,71826,1,0,0:0:0:0:
434,110,72003,5,0,0:0:0:0:
392,26,72179,1,0,0:0:0:0:
487,37,72356,1,0,0:0:0:0:
434,110,72532,1,0,0:0:0:0:
283,71,72709,5,0,0:0:0:0:
392,26,72885,1,0,0:0:0:0:
177,34,73062,5,0,0:0:0:0:
133,217,73238,1,0,0:0:0:0:
133,217,73326,1,0,0:0:0:0:
133,217,73414,6,0,B|123:259|124:264|146:332,1,80
194,339,73767,1,0,0:0:0:0:
211,185,73944,1,0,0:0:0:0:
348,300,74120,6,0,P|287:291|238:302,1,80
370,177,74473,2,0,P|427:199|464:233,1,80
194,339,74826,6,0,L|107:334,1,80
368,291,75179,2,0,L|451:312,1,80
217,198,75532,2,0,L|138:247,1,80
313,85,75885,2,0,L|341:177,1,80
134,247,76238,6,0,P|121:191|130:140,1,80
172,70,76591,1,0,0:0:0:0:
52,127,76767,1,0,0:0:0:0:
203,198,76944,1,0,0:0:0:0:
34,358,77120,6,0,P|56:299|64:260,1,80
27,207,77473,1,0,0:0:0:0:
205,333,77650,6,0,L|317:322,1,80
493,106,78003,2,0,L|404:114,1,80
300,129,78356,1,0,0:0:0:0:
486,352,78532,5,0,0:0:0:0:
422,192,78709,1,0,0:0:0:0:
314,323,78885,1,0,0:0:0:0:
473,332,79062,5,0,0:0:0:0:
421,212,79238,1,0,0:0:0:0:
328,306,79414,1,0,0:0:0:0:
280,194,79591,1,0,0:0:0:0:
142,336,79767,6,0,P|113:293|106:254,1,80
118,181,80120,1,0,0:0:0:0:
323,123,80297,6,0,L|428:86,1,80
139,98,80650,2,0,L|63:124,1,80
275,55,81003,1,0,0:0:0:0:
195,244,81179,6,0,P|193:195|207:142,1,80
355,302,81532,2,0,P|357:351|343:404,1,80
392,234,81885,6,0,B|440:206|503:213,1,90.0000034332277
460,344,82238,1,0,0:0:0:0:
460,344,82414,1,0,0:0:0:0:
315,199,82591,6,0,P|314:140|354:66,1,120
497,212,82944,1,0,0:0:0:0:
497,212,83120,1,0,0:0:0:0:
212,236,83297,6,0,P|120:200|81:108,1,180.000006866455
211,86,83650,1,0,0:0:0:0:
247,133,83738,1,0,0:0:0:0:
199,168,83826,1,0,0:0:0:0:
163,119,83914,1,0,0:0:0:0:
223,61,84003,6,0,P|268:60|317:92,1,80
468,242,84179,2,0,P|431:258|392:256,1,80
261,345,84356,1,0,0:0:0:0:
181,334,84444,1,0,0:0:0:0:
102,322,84532,1,0,0:0:0:0:
22,311,84620,1,0,0:0:0:0:
70,246,84709,5,0,0:0:0:0:
70,246,85767,2,0,L|341:232,1,240
382,264,86120,6,0,P|387:220|363:166,1,90.0000034332277
400,266,86473,2,0,P|405:222|381:168,1,90.0000034332277
428,270,86826,2,0,P|433:226|426:199,1,60
452,272,87179,2,0,P|457:228|450:201,1,60
475,276,87532,6,0,P|481:242|474:190,1,60.0000022888184
301,133,87709,2,0,P|295:167|302:219,1,60.0000022888184
196,370,87885,2,0,P|134:386|52:374,1,120.000004577637
19,336,88150,1,0,0:0:0:0:
122,257,88238,6,0,L|247:239,1,120.000004577637
336,226,88502,5,0,0:0:0:0:
328,343,88591,1,0,0:0:0:0:
336,242,88679,5,0,0:0:0:0:
329,322,88767,1,0,0:0:0:0:
400,286,88856,1,0,0:0:0:0:
451,215,88944,5,0,0:0:0:0:
454,132,89032,2,0,P|462:176|452:214,1,60.0000022888184
268,112,89209,1,0,0:0:0:0:
265,29,89297,2,0,P|257:73|267:111,1,60.0000022888184
105,253,89473,2,0,P|76:243|50:228,1,60.0000022888184
128,135,89650,5,0,0:0:0:0:
145,140,89738,1,0,0:0:0:0:
216,231,89826,6,0,P|282:233|346:204,2,120.000004577637
263,138,90267,1,0,0:0:0:0:
283,254,90356,6,0,L|297:339,1,60.0000022888184
404,356,90532,2,0,L|394:296,1,60.0000022888184
189,317,90709,2,0,L|50:338,1,120.000004577637
119,294,90973,1,0,0:0:0:0:
251,165,91062,6,0,P|310:167|362:202,1,120.000004577637
378,5,91414,1,0,0:0:0:0:
124,179,91591,6,0,P|127:137|142:95,1,60.0000022888184
353,10,91767,1,0,0:0:0:0:
274,220,91944,6,0,P|255:182|247:138,1,60.0000022888184
331,14,92120,1,0,0:0:0:0:
424,214,92297,6,0,P|389:190|360:156,1,60.0000022888184
307,19,92473,1,0,0:0:0:0:
378,5,92562,1,0,0:0:0:0:
392,75,92650,1,0,0:0:0:0:
322,91,92738,1,0,0:0:0:0:
252,107,92826,2,0,L|149:128,1,60.0000022888184
442,229,93003,2,0,L|500:217,1,60.0000022888184
280,340,93179,6,0,P|247:255|254:224,1,120.000004577637
327,268,93444,1,0,0:0:0:0:
229,275,93532,5,0,0:0:0:0:
208,271,93620,1,0,0:0:0:0:
188,268,93709,1,0,0:0:0:0:
130,318,93797,1,0,0:0:0:0:
98,243,93885,5,0,0:0:0:0:
79,161,93973,2,0,L|107:227,1,60.0000022888184
138,340,94150,1,0,0:0:0:0:
148,366,94238,5,0,0:0:0:0:
190,376,94326,1,0,0:0:0:0:
245,383,94414,2,0,L|322:388,1,60.0000022888184
379,272,94591,5,0,0:0:0:0:
320,231,94679,2,0,P|342:210|369:198,1,60.0000022888184
453,276,94856,1,0,0:0:0:0:
512,317,94944,2,0,P|489:337|462:349,1,60.0000022888184
306,225,95120,2,0,L|303:131,1,60.0000022888184
305,140,95297,6,0,B|38:155|38:155|100:208,1,300
123,221,95650,5,0,0:0:0:0:
156,227,95738,1,0,0:0:0:0:
141,256,95826,1,0,0:0:0:0:
111,250,95914,1,0,0:0:0:0:
130,241,96003,6,0,P|203:246|280:294,1,120.000004577637
394,372,96267,2,0,P|321:367|244:319,1,120.000004577637
409,217,96532,1,0,0:0:0:0:
407,196,96620,1,0,0:0:0:0:
323,177,96709,5,0,0:0:0:0:
246,160,96797,2,0,P|192:131|178:52,1,120.000004577637
245,264,97062,2,0,P|216:318|194:335,1,60.0000022888184
74,373,97238,2,0,P|126:340|153:337,1,60.0000022888184
292,344,97414,5,0,0:0:0:0:
369,291,97503,1,0,0:0:0:0:
245,264,97591,2,0,L|165:262,1,60.0000022888184
16,238,97767,6,0,P|62:176|109:156,1,120.000004577637
36,168,98032,1,0,0:0:0:0:
174,159,98120,6,0,L|315:162,1,120.000004577637
236,125,98385,1,0,0:0:0:0:
98,250,98473,6,0,P|121:294|191:328,1,120.000004577637
184,244,98738,1,0,0:0:0:0:
117,332,98826,6,0,L|-20:320,1,120.000004577637
227,384,99091,1,0,0:0:0:0:
392,358,99179,2,0,P|372:335|269:338,1,120.000004577637
217,361,99444,1,0,0:0:0:0:
282,244,99532,6,0,P|369:246|408:262,1,120.000004577637
344,134,99797,1,0,0:0:0:0:
278,93,99885,5,0,0:0:0:0:
254,92,99973,1,0,0:0:0:0:
199,142,100062,2,0,L|194:183,1,30.0000011444092
180,142,100150,2,0,L|175:183,1,30.0000011444092
161,141,100238,5,0,0:0:0:0:
142,239,100326,2,0,L|127:363,1,120.000004577637
83,111,100591,6,0,P|118:70|166:60,1,60.0000022888184
284,315,100767,2,0,L|157:313,1,120.000004577637
71,312,101032,1,0,0:0:0:0:
264,326,101120,6,0,P|261:368|247:401,1,60.0000022888184
210,218,101297,2,0,P|298:213|364:256,1,120.000004577637
273,184,101562,1,0,0:0:0:0:
389,269,101650,6,0,P|461:277|514:251,1,120.000004577637
439,195,101914,1,0,0:0:0:0:
302,168,102003,2,0,P|302:123|310:94,1,60.0000022888184
128,218,102179,2,0,P|89:195|67:174,1,60.0000022888184
221,350,102356,6,0,P|289:345|332:303,1,120.000004577637
256,277,102620,1,0,0:0:0:0:
332,357,102709,2,0,L|394:352,1,60.0000022888184
138,188,102885,2,0,L|57:184,1,60.0000022888184
1,182,103062,5,0,0:0:0:0:
221,74,103238,2,0,P|282:55|332:57,1,60.0000022888184
422,234,103414,6,0,L|346:228,1,60.0000022888184
285,135,103591,2,0,L|344:139,1,60.0000022888184
436,251,103767,2,0,L|376:246,1,60.0000022888184
247,235,103944,1,0,0:0:0:0:
282,301,104032,1,0,0:0:0:0:
360,321,104120,6,0,L|384:375,1,60.0000022888184
232,230,104297,2,0,L|207:175,1,60.0000022888184
151,340,104473,6,0,P|93:297|77:239,1,120.000004577637
90,185,104738,1,0,0:0:0:0:
299,131,104826,6,0,L|232:230,1,120.000004577637
310,115,105091,1,0,0:0:0:0:
389,64,105179,6,0,P|395:136|330:227,1,180.000006866455
221,181,105532,2,0,P|219:92|272:22,1,180.000006866455
456,209,105885,6,0,L|310:225,1,120.000004577637
474,222,106150,2,0,L|328:238,1,120.000004577637
61,292,106414,6,0,L|207:308,1,120.000004577637
43,305,106679,2,0,L|189:321,1,120.000004577637
452,346,106944,6,0,P|427:301|449:350,1,180.000006866455
179,83,107297,6,0,L|57:70,2,120
107,225,108532,1,0,0:0:0:0:
107,225,108620,1,0,0:0:0:0:
107,225,108709,6,0,L|205:210,1,60.0000022888184
246,208,108885,2,0,P|233:246|201:275,1,60.0000022888184
24,340,109062,5,0,0:0:0:0:
94,335,109150,1,0,0:0:0:0:
143,356,109238,1,0,0:0:0:0:
196,358,109326,1,0,0:0:0:0:
271,314,109414,5,0,0:0:0:0:
336,365,109503,1,0,0:0:0:0:
358,287,109591,2,0,P|329:249|287:235,1,60.0000022888184
144,161,109767,5,0,0:0:0:0:
125,142,109856,1,0,0:0:0:0:
201,112,109944,5,0,0:0:0:0:
204,42,110032,1,0,0:0:0:0:
300,191,110120,6,0,L|306:238,6,30.0000011444092
349,130,110473,6,0,L|397:127,1,30.0000011444092
358,114,110562,2,0,L|406:111,1,30.0000011444092
367,96,110650,1,0,0:0:0:0:
378,80,110738,1,0,0:0:0:0:
491,88,110826,6,0,P|448:107|390:99,1,100
448,202,111356,1,0,0:0:0:0:
454,274,111444,1,0,0:0:0:0:
460,344,111532,5,0,0:0:0:0:
369,298,111620,1,0,0:0:0:0:
359,227,111709,2,0,P|370:180|395:145,1,60.0000022888184
169,333,111885,6,0,L|84:346,1,80
228,253,112414,1,0,0:0:0:0:
228,253,112503,1,0,0:0:0:0:
232,257,112591,2,0,L|224:206,1,40
224,199,112856,1,0,0:0:0:0:
159,170,112944,5,0,0:0:0:0:
217,128,113032,1,0,0:0:0:0:
282,159,113120,1,0,0:0:0:0:
341,123,113209,1,0,0:0:0:0:
345,195,113297,6,0,L|342:268,1,60.0000022888184
282,89,113473,1,0,0:0:0:0:
283,68,113562,1,0,0:0:0:0:
290,2,113650,5,0,0:0:0:0:
359,10,113738,1,0,0:0:0:0:
429,24,113826,1,0,0:0:0:0:
444,50,113914,2,0,L|440:105,1,40
471,164,114179,5,0,0:0:0:0:
474,238,114267,1,0,0:0:0:0:
476,314,114356,2,0,L|422:311,1,40
165,298,114709,1,0,0:0:0:0:
162,279,114797,1,0,0:0:0:0:
144,189,114885,6,0,L|138:154,2,30.0000011444092
160,259,115062,1,0,0:0:0:0:
231,265,115150,1,0,0:0:0:0:
295,220,115238,1,0,0:0:0:0:
242,167,115326,1,0,0:0:0:0:
316,232,115414,6,0,L|450:225,1,120.000004577637
487,174,115679,1,0,0:0:0:0:
462,299,115767,5,0,0:0:0:0:
487,174,115944,1,0,0:0:0:0:
428,74,116120,1,0,0:0:0:0:
297,48,116297,1,0,0:0:0:0:
59,16,116473,2,0,L|180:32,1,120.000004577637
215,37,116738,1,0,0:0:0:0:
155,104,116826,5,0,0:0:0:0:
164,151,116914,1,0,0:0:0:0:
173,194,117003,2,0,L|318:183,1,120.000004577637
120,361,117356,1,0,0:0:0:0:
19,84,117532,6,0,L|1:218,1,120.000004577637
199,348,117885,1,0,0:0:0:0:
176,298,117973,1,0,0:0:0:0:
124,279,118062,1,0,0:0:0:0:
71,292,118150,1,0,0:0:0:0:
133,270,118238,5,0,0:0:0:0:
194,247,118326,1,0,0:0:0:0:
250,280,118414,1,0,0:0:0:0:
310,252,118503,1,0,0:0:0:0:
371,275,118591,6,0,L|386:274,44,10
407,208,119650,6,0,L|424:207,12,10
355,158,120003,6,0,L|343:159,8,10
411,107,120267,6,0,L|429:105,4,10
346,54,120444,1,0,0:0:0:0:
346,54,120532,6,0,L|345:38,4,10
278,100,120709,1,0,0:0:0:0:
256,99,120797,1,0,0:0:0:0:
234,97,120885,1,0,0:0:0:0:
208,95,120973,1,0,0:0:0:0:
164,148,121062,5,0,0:0:0:0:
141,110,121150,1,0,0:0:0:0:
144,66,121238,1,0,0:0:0:0:
177,37,121326,1,0,0:0:0:0:
278,100,121414,6,0,P|287:157|246:243,1,140
196,260,122120,6,0,P|281:230|409:263,1,200
266,309,122650,6,0,P|307:301|360:317,1,60.0000022888184
303,384,122826,1,0,0:0:0:0:
302,372,122914,1,0,0:0:0:0:
283,303,123003,2,0,L|369:310,1,60.0000022888184
476,328,123179,6,0,L|342:317,1,120
212,379,123532,1,0,0:0:0:0:
142,357,123620,1,0,0:0:0:0:
197,308,123709,1,0,0:0:0:0:
436,243,123885,6,0,P|466:215|447:191,1,80
234,41,124062,2,0,P|214:71|244:93,1,80
308,56,124238,5,0,0:0:0:0:
308,56,124414,1,0,0:0:0:0:
277,234,124591,5,0,0:0:0:0:
224,222,124679,1,0,0:0:0:0:
170,216,124767,1,0,0:0:0:0:
116,204,124856,1,0,0:0:0:0:
76,261,124944,5,0,0:0:0:0:
70,231,125032,1,0,0:0:0:0:
62,201,125120,1,0,0:0:0:0:
51,134,125209,2,0,L|132:125,1,60.0000022888184
202,62,125385,1,0,0:0:0:0:
267,102,125473,5,0,0:0:0:0:
270,25,125562,1,0,0:0:0:0:
267,121,125650,1,0,0:0:0:0:
420,216,125826,6,0,L|444:221,7,15.0000005722046
420,222,126003,2,0,L|444:217,14,15.0000005722046
420,222,126356,6,0,L|291:230,1,120.000004577637
232,191,126620,1,0,0:0:0:0:
223,244,126709,5,0,0:0:0:0:
226,268,126797,1,0,0:0:0:0:
251,308,126885,5,0,0:0:0:0:
248,332,126973,1,0,0:0:0:0:
226,363,127062,5,0,0:0:0:0:
62,288,127238,2,0,L|72:208,1,60.0000022888184
82,156,127414,5,0,0:0:0:0:
111,159,127503,1,0,0:0:0:0:
140,163,127591,1,0,0:0:0:0:
170,167,127679,1,0,0:0:0:0:
224,120,127767,5,0,0:0:0:0:
296,114,127856,1,0,0:0:0:0:
371,109,127944,2,0,L|445:106,1,60.0000022888184
500,104,128120,5,0,0:0:0:0:
453,211,128209,1,0,0:0:0:0:
490,128,128297,1,0,0:0:0:0:
463,195,128385,1,0,0:0:0:0:
400,268,128473,6,0,P|328:310|246:307,1,120.000004577637
223,293,128738,1,0,0:0:0:0:
167,363,128826,5,0,0:0:0:0:
230,271,128914,2,0,P|235:232|229:195,1,60.0000022888184
91,244,129091,1,0,0:0:0:0:
155,157,129179,6,0,P|237:129|288:138,1,120.000004577637
207,104,129444,1,0,0:0:0:0:
331,167,129532,6,0,B|340:182|340:182|350:174|350:174|356:188|356:188|367:184|367:184|371:191|371:192|373:193|373:193|382:190|382:190|392:197|392:197|402:190|402:190|410:196|410:196|421:186|421:186|444:192|444:191|444:191|444:173|444:173|453:176|455:176|458:179|458:179|452:155|452:155|472:159|473:159|473:159|450:130|450:130|476:121|476:121|442:116|442:116|457:96|457:96|431:107|431:107|429:78|429:78|411:101|411:101|407:77|407:77|396:95|396:95|387:79|387:79|380:93|380:93|363:79|363:79|363:94|363:94|336:88|336:88,1,570.000021743775
281,117,131297,5,0,0:0:0:0:
256,192,131385,12,0,135532,0:0:0:0:
