osu file format v14

[General]
AudioFilename: audio.mp3
AudioLeadIn: 0
PreviewTime: 135532
Countdown: 0
SampleSet: None
StackLeniency: 0.2
Mode: 0
LetterboxInBreaks: 0
EpilepsyWarning: 1
WidescreenStoryboard: 1

[Editor]
Bookmarks: 709,6003,16944,25591,28238,62120,87532,96002,107296,110120,129532,135532,158120,180708,203314,225891,248391
DistanceSpacing: 0.7
BeatDivisor: 4
GridSize: 32
TimelineZoom: 1.5

[Metadata]
Title:Acid Rain
TitleUnicode:Acid Rain
Artist:Culprate
ArtistUnicode:Culprate
Creator:Alvieee
Version:SaTuRN
Source:
Tags:aspire
BeatmapID:2086121
BeatmapSetID:997301

[Difficulty]
HPDrainRate:5
CircleSize:6
OverallDifficulty:8
ApproachRate:9.2
SliderMultiplier:1.4
SliderTickRate:1

[Events]
//Background and Video events
0,0,"bg.jpg",0,0
//Break Periods
//Storyboard Layer 0 (Background)
//Storyboard Layer 1 (Fail)
//Storyboard Layer 2 (Pass)
//Storyboard Layer 3 (Foreground)
//Storyboard Sound Samples

[TimingPoints]
-999999999,352.941176470588,4,2,1,5,1,0
709,352.941176470588,4,2,1,5,1,0
709,-333.333333333333,4,2,23,5,0,0
28238,-250,4,2,1,10,0,0
55062,-142.857142857143,4,2,1,20,0,0
55767,-100,4,2,1,20,0,0
56473,-142.857142857143,4,2,1,20,0,0
58547,352.941176470588,4,2,1,20,1,0
59297,352.941176470588,4,2,1,20,1,0
59297,-200,4,2,1,20,0,0
60709,-133.333333333333,4,2,1,29,0,0
84002,-66.6666666666667,4,2,1,29,0,0
85767,-100,4,2,1,29,0,0
86120,-90.9090909090909,4,2,1,29,0,0
86473,-83.3333333333333,4,2,1,29,0,0
86826,-76.9230769230769,4,2,1,29,0,0
87179,-71.4285714285714,4,2,1,29,0,0
87532,-133.333333333333,4,2,1,29,0,0
96002,-66.6666666666667,4,2,1,29,0,0
104120,-100,4,2,1,29,0,0
104473,-80,4,2,1,29,0,0
104826,-66.6666666666667,4,2,1,29,0,0
105179,-57.1428571428571,4,2,1,29,0,0
105532,-50,4,2,1,29,0,0
105885,-44.4444444444445,4,2,1,29,0,0
107296,-250,4,2,1,100,0,1
108532,-133.333333333333,4,2,1,40,0,1
115061,-66.6666666666667,4,2,1,40,0,1
115326,-133.333333333333,4,2,1,40,0,1
118591,-100,4,2,1,40,0,1
120444,-133.333333333333,4,2,1,40,0,1
122826,-66.6666666666667,4,2,1,40,0,1
123002,-133.333333333333,4,2,1,40,0,1
125826,-100,4,2,1,40,0,1
126179,-66.6666666666667,4,2,1,40,0,1
126620,-133.333333333333,4,2,1,40,0,1
128385,-66.6666666666667,4,2,1,40,0,1
129179,-133.333333333333,4,2,1,40,0,1
129532,-100,4,2,1,40,0,0
130591,-100,4,2,1,5,0,0
130631,352.941176470588,4,2,1,5,1,0
130719,-100,4,2,1,5,0,0
130833,352.941176470588,4,2,1,5,1,0
130921,-100,4,2,1,5,0,0
130987,352.941176470588,4,2,1,5,1,0
131075,352.941176470588,4,2,1,5,1,0
131163,352.941176470588,4,2,1,5,1,0
131251,352.941176470588,4,2,1,5,1,0
131327,352.941176470588,4,2,1,5,1,0
131403,352.941176470588,4,2,1,5,1,0
131473,352.941176470588,4,2,1,5,1,0
131541,352.941176470588,4,2,1,5,1,0
131599,352.941176470588,4,2,1,5,1,0
131651,352.941176470588,4,2,1,5,1,0
131699,352.941176470588,4,2,1,5,1,0
132852,352.941176470588,4,2,1,5,1,0
132908,352.941176470588,4,2,1,5,1,0
132970,352.941176470588,4,2,1,5,1,0
133040,352.941176470588,4,2,1,5,1,0
133128,352.941176470588,4,2,1,5,1,0
133224,352.941176470588,4,2,1,5,1,0
133336,352.941176470588,4,2,1,5,1,0
133472,352.941176470588,4,2,1,23,1,0
133560,-100,4,2,1,5,0,0
133648,352.941176470588,4,2,1,23,1,0
133736,-100,4,2,1,5,0,0
133874,352.941176470588,4,2,1,23,1,0
133962,-100,4,2,1,5,0,0
134154,352.941176470588,4,2,1,23,1,0
134242,-100,4,2,1,5,0,0
134520,352.941176470588,4,2,1,23,1,0
134607,-100,4,2,1,5,0,0
134696,352.941176470588,4,2,1,23,1,0
135137,-100,4,2,1,5,0,0
135251,352.941176470588,4,2,1,23,1,0
135532,352.941176470588,4,2,1,23,1,0
135532,-50,4,2,1,100,0,1
135620,-50,4,2,1,40,0,1
135884,-50,4,2,1,100,0,1
135973,-50,4,2,1,40,0,1
136237,-50,4,2,1,100,0,1
136326,-50,4,2,1,40,0,1
136590,-50,4,2,1,100,0,1
136679,-50,4,2,1,40,0,1
136943,-50,4,2,1,100,0,1
137032,-50,4,2,1,40,0,1
137296,-50,4,2,1,100,0,1
137384,-50,4,2,1,40,0,1
137649,-50,4,2,1,100,0,1
137737,-50,4,2,1,40,0,1
138002,-50,4,2,1,100,0,1
138090,-50,4,2,1,40,0,1
138355,-50,4,2,1,100,0,1
138443,-50,4,2,1,40,0,1
138708,-50,4,2,1,100,0,1
138796,-50,4,2,1,40,0,1
139061,-50,4,2,1,100,0,1
139149,-50,4,2,1,40,0,1
139414,-50,4,2,1,100,0,1
139502,-50,4,2,1,40,0,1
139767,-50,4,2,1,100,0,1
139855,-50,4,2,1,40,0,1
140120,-50,4,2,1,100,0,1
140208,-50,4,2,1,40,0,1
140473,-50,4,2,1,100,0,1
140561,-50,4,2,1,40,0,1
140826,-50,4,2,1,100,0,1
140914,-50,4,2,1,40,0,1
141179,-50,4,2,1,100,0,1
141267,-50,4,2,1,40,0,1
141532,-50,4,2,1,100,0,1
141620,-50,4,2,1,40,0,1
141884,-50,4,2,1,100,0,1
141973,-50,4,2,1,40,0,1
142237,-50,4,2,1,100,0,1
142326,-50,4,2,1,40,0,1
142590,-50,4,2,1,100,0,1
142679,-50,4,2,1,40,0,1
142943,-50,4,2,1,100,0,1
143032,-50,4,2,1,40,0,1
143296,-50,4,2,1,100,0,1
143384,-50,4,2,1,40,0,1
143649,-50,4,2,1,100,0,1
143737,-50,4,2,1,40,0,1
144002,-50,4,2,1,100,0,1
144090,-50,4,2,1,40,0,1
144355,-50,4,2,1,100,0,1
144443,-50,4,2,1,40,0,1
144708,-50,4,2,1,100,0,1
144796,-50,4,2,1,40,0,1
145061,-50,4,2,1,100,0,1
145149,-50,4,2,1,40,0,1
145414,-50,4,2,1,100,0,1
145502,-50,4,2,1,40,0,1
145767,-50,4,2,1,100,0,1
145855,-50,4,2,1,40,0,1
146120,-50,4,2,1,100,0,1
146208,-50,4,2,1,40,0,1
146473,-50,4,2,1,100,0,1
146561,-50,4,2,1,40,0,1
146826,-50,4,2,1,100,0,1
146914,-50,4,2,1,40,0,1
147179,-50,4,2,1,100,0,1
147267,-50,4,2,1,40,0,1
147532,-50,4,2,1,100,0,1
147620,-50,4,2,1,40,0,1
147884,-50,4,2,1,100,0,1
147973,-50,4,2,1,40,0,1
148237,-50,4,2,1,100,0,1
148326,-50,4,2,1,40,0,1
148590,-50,4,2,1,100,0,1
148679,-50,4,2,1,40,0,1
148943,-50,4,2,1,100,0,1
149032,-50,4,2,1,40,0,1
149296,-50,4,2,1,100,0,1
149384,-50,4,2,1,40,0,1
149649,-50,4,2,1,100,0,1
149737,-50,4,2,1,40,0,1
150002,-50,4,2,1,100,0,1
150090,-50,4,2,1,40,0,1
150355,-50,4,2,1,100,0,1
150443,-50,4,2,1,40,0,1
150708,-50,4,2,1,100,0,1
150796,-50,4,2,1,40,0,1
151061,-50,4,2,1,100,0,1
151149,-50,4,2,1,40,0,1
151414,-50,4,2,1,100,0,1
151502,-50,4,2,1,40,0,1
151767,-50,4,2,1,100,0,1
151855,-50,4,2,1,40,0,1
152120,-50,4,2,1,100,0,1
152208,-50,4,2,1,40,0,1
152473,-50,4,2,1,100,0,1
152561,-50,4,2,1,40,0,1
152826,-50,4,2,1,100,0,1
152914,-50,4,2,1,40,0,1
153179,-50,4,2,1,100,0,1
153267,-50,4,2,1,40,0,1
153532,-50,4,2,1,100,0,1
153620,-50,4,2,1,40,0,1
153884,-50,4,2,1,100,0,1
153973,-50,4,2,1,40,0,1
154237,-50,4,2,1,100,0,1
154326,-50,4,2,1,40,0,1
154590,-50,4,2,1,100,0,1
154679,-50,4,2,1,40,0,1
154943,-50,4,2,1,100,0,1
155032,-50,4,2,1,40,0,1
155296,-50,4,2,1,100,0,1
155473,-100,4,2,1,40,0,1
155914,-50,4,2,1,40,0,1
156355,-125,4,2,1,40,0,1
156884,-50,4,2,1,40,0,1
158120,-133.333333333333,4,2,1,20,0,0
176296,-66.6666666666667,4,2,1,20,0,0
178943,-133.333333333333,4,2,1,20,0,0
180708,-200,4,2,1,20,0,0
181439,352.941176470588,4,2,1,20,1,0
182145,352.941176470588,4,2,1,20,1,0
182788,352.941176470588,4,2,1,5,1,0
183556,352.941176470588,4,2,1,5,1,0
183556,-200,4,2,1,20,0,0
184968,-200,4,2,1,5,0,0
186539,352.941176470588,4,2,1,5,1,0
186715,-200,4,2,1,5,0,0
187612,352.941176470588,4,2,1,5,1,0
187612,-200,4,2,1,5,0,0
188214,352.941176470588,4,2,1,5,1,0
188851,352.941176470588,4,2,1,5,1,0
188851,-200,4,2,1,5,0,0
189203,352.941176470588,4,2,1,5,1,0
189203,-200,4,2,1,5,0,0
190786,352.941176470588,4,2,1,5,1,0
191315,-200,4,2,1,5,0,0
192021,352.941176470588,4,2,1,5,1,0
192021,-200,4,2,1,5,0,0
197315,-200,4,2,1,5,0,0
197829,352.941176470588,4,2,1,5,1,0
198005,-200,4,2,1,5,0,0
199064,352.941176470588,4,2,1,5,1,0
199416,-200,4,2,1,5,0,0
200667,352.941176470588,4,2,1,5,1,0
202255,-133.333333333333,4,2,1,5,0,0
203314,352.941176470588,4,2,1,5,1,0
203314,-200,4,2,1,5,0,0
208952,352.941176470588,4,2,1,5,1,0
208952,-200,4,2,1,5,0,0
220942,352.941176470588,4,2,1,5,1,0
221304,352.941176470588,4,2,1,5,1,0
221656,352.941176470588,4,2,1,5,1,0
221656,-200,4,2,1,5,0,0
225891,-359.712230215827,4,2,1,5,0,0
248391,-432.900432900433,4,2,23,5,0,0

[Colours]
Combo1 : 128,128,128
Combo2 : 107,107,107
SliderBorder : 170,0,255

[HitObjects]
256,52,709,6,0,B|247:138|175:165|175:165|88:195|92:286|92:286|144:228|224:263|224:263|178:373|78:341,1,629.999980773926
85,343,6003,6,0,B|56:342|36:324|36:324|14:234|72:157|72:157|41:156|9:170|9:170|55:123|49:57|49:57|122:127|191:81|191:81|179:66|171:57|171:57|216:104|234:154|185:197|185:197|109:183|117:124|126:6|126:6|172:104|305:82|380:48|380:48|372:37|358:34,1,1301.99996026611
363,35,16944,6,0,B|329:22|291:20|291:20|303:71|331:105|331:105|287:167|329:234|329:234|408:205|394:127|394:127|325:172|410:213|399:314|399:314|332:300|277:325|277:325|235:284|239:228|239:228|239:276|205:304,1,965.99997052002
158,338,25238,6,0,P|62:342|169:245,1,356.999989105225
172,248,28238,5,0,0:0:0:0:
172,248,28944,2,0,B|224:208|284:248|284:248|328:280|380:252|380:252|368:196,1,280
368,196,30709,5,0,0:0:0:0:
349,125,31062,2,0,B|337:69|337:69|401:30|475:84|458:150|458:150|441:211|483:237,1,336
477,233,33179,5,0,0:0:0:0:
460,304,33532,1,0,0:0:0:0:
398,342,33885,1,0,0:0:0:0:
398,342,34591,2,0,B|335:370|286:318|286:318|236:265|166:290|166:290|156:315,1,280
156,313,36356,5,0,0:0:0:0:
94,345,36709,1,0,0:0:0:0:
88,336,36767,1,0,0:0:0:0:
83,327,36826,1,0,0:0:0:0:
78,318,36885,2,0,B|67:290|67:290|56:249|86:214|86:214|101:242|101:242|134:192|111:137|111:137|104:117|112:80,1,308
111,83,38826,5,0,0:0:0:0:
144,22,39179,1,0,0:0:0:0:
218,25,39532,2,0,P|234:62|220:125,1,98
221,128,40209,1,0,0:0:0:0:
215,138,40267,1,0,0:0:0:0:
137,128,40591,5,0,0:0:0:0:
94,220,40944,2,0,P|89:253|120:298,1,84
82,289,41473,2,0,P|116:321|157:324,1,84
124,343,42003,1,0,0:0:0:0:
124,343,42356,6,0,B|166:358|200:339|200:339|243:315|293:338|293:338|345:361|391:338|403:300|403:300|372:291,1,336
375,292,44473,5,0,0:0:0:0:
305,274,44826,1,0,0:0:0:0:
435,212,45179,5,0,0:0:0:0:
369,242,45532,1,0,0:0:0:0:
357,114,45885,5,0,0:0:0:0:
363,177,46238,1,0,0:0:0:0:
363,177,46591,6,0,P|308:181|277:162,1,84
295,197,47297,6,0,P|262:187|239:190,1,56
218,211,47826,1,0,0:0:0:0:
199,233,48003,6,0,P|153:242|119:232,1,84
118,231,48532,1,0,0:0:0:0:
59,188,48885,1,0,0:0:0:0:
58,134,49238,1,0,0:0:0:0:
79,108,49591,1,0,0:0:0:0:
88,106,49767,1,0,0:0:0:0:
96,104,49944,1,0,0:0:0:0:
104,103,50120,2,0,B|134:92|134:92|153:74|153:74|178:79|178:79|209:70,1,112
205,71,50826,5,0,0:0:0:0:
216,15,51532,6,0,P|237:21|264:50,1,56
261,44,51885,1,0,0:0:0:0:
317,155,52238,1,0,0:0:0:0:
339,224,52591,1,0,0:0:0:0:
373,265,52944,1,0,0:0:0:0:
397,283,53297,1,0,0:0:0:0:
448,182,53650,5,0,0:0:0:0:
443,185,53672,2,0,B|405:126|436:73|436:73|396:122|348:116,1,220.5
325,104,55062,6,0,P|250:82|267:151,1,171.499994766236
332,128,55767,6,0,B|341:100|341:100|318:88|318:88|312:58|312:58|285:68|285:68|258:56|258:56|248:85|248:85|225:98|225:98|241:121|241:121|236:148|236:148|266:146,1,280
258,146,56473,6,0,B|206:112|244:32|326:52|325:116|325:116|323:158|302:192|302:192|280:227|294:269|346:274,1,367.49998878479
348,329,57856,2,0,L|343:343,2,8.16666641743979
348,329,58547,5,0,0:0:0:0:
280,338,58900,1,0,0:0:0:0:
199,341,59297,1,0,0:0:0:0:
202,346,59319,2,0,B|147:358|121:326|121:326|96:293|46:298|46:298|71:269|76:236,1,240.625
54,159,60709,6,0,P|45:117|61:77,1,78.7500030040742
98,47,61062,2,0,P|145:40|188:62,1,78.7500030040742
210,90,61414,5,0,0:0:0:0:
300,26,61591,1,0,0:0:0:0:
237,154,61767,1,0,0:0:0:0:
311,9,61944,1,0,0:0:0:0:
265,217,62120,6,0,P|299:252|314:255,1,52.5000020027161,2|0,0:0|0:0,0:0:0:0:
411,245,62473,1,0,0:0:0:0:
362,343,62650,1,2,0:0:0:0:
223,170,62826,6,0,P|204:204|206:228,1,52.5000020027161,2|0,0:0|0:0,0:0:0:0:
340,175,63179,1,0,0:0:0:0:
440,219,63356,1,0,0:0:0:0:
146,270,63532,5,2,0:0:0:0:
46,317,63709,1,0,0:0:0:0:
340,175,63885,5,0,0:0:0:0:
240,128,64062,1,2,0:0:0:0:
440,219,64238,5,2,0:0:0:0:
340,266,64414,1,0,0:0:0:0:
489,195,64591,5,0,0:0:0:0:
389,242,64767,1,0,0:0:0:0:
440,219,64944,5,2,0:0:0:0:
440,219,65120,2,0,P|422:199|399:188,1,52.5000020027161
288,191,65473,5,2,0:0:0:0:
449,274,65650,2,0,P|482:256|495:226,1,52.5000020027161,2|0,0:0|0:0,0:0:0:0:
271,178,66003,5,0,0:0:0:0:
408,311,66179,2,0,P|435:328|465:327,1,52.5000020027161,0|2,0:0|0:0,0:0:0:0:
254,162,66532,6,0,P|240:191|242:218,1,52.5000020027161
291,308,66885,1,2,0:0:0:0:
291,308,67061,5,2,0:0:0:0:
293,116,67238,1,0,0:0:0:0:
290,225,67414,1,0,0:0:0:0:
387,172,67591,1,0,0:0:0:0:
219,263,67767,6,0,P|183:274|161:270,1,52.5000020027161,2|0,0:0|0:0,0:0:0:0:
66,229,68120,1,0,0:0:0:0:
66,229,68297,1,2,0:0:0:0:
267,232,68473,2,0,P|239:211|218:207,1,52.5000020027161,2|0,0:0|0:0,0:0:0:0:
25,282,68826,1,0,0:0:0:0:
174,89,69003,1,0,0:0:0:0:
107,177,69179,5,2,0:0:0:0:
372,67,69356,1,0,0:0:0:0:
276,11,69532,1,0,0:0:0:0:
372,67,69709,1,2,0:0:0:0:
74,23,69885,2,0,L|101:43,1,26.2500010013581,2|0,0:0|0:0,0:0:0:0:
388,77,70062,1,0,0:0:0:0:
121,110,70238,1,0,0:0:0:0:
338,159,70414,1,0,0:0:0:0:
77,197,70591,6,0,P|74:245|81:260,1,52.5000020027161,2|0,0:0|0:0,0:0:0:0:
138,338,70944,1,0,0:0:0:0:
138,338,71120,1,2,0:0:0:0:
199,132,71297,2,0,L|156:166,1,52.5000020027161,2|0,0:0|0:0,0:0:0:0:
140,268,71650,1,0,0:0:0:0:
140,68,71826,2,0,L|139:104,1,26.2500010013581
140,246,72003,5,2,0:0:0:0:
232,185,72179,1,0,0:0:0:0:
243,294,72356,2,0,L|188:339,1,52.5000020027161
230,165,72709,2,0,L|226:137,1,26.2500010013581,2|0,0:0|0:0,0:0:0:0:
213,22,72885,1,0,0:0:0:0:
237,235,73062,1,0,0:0:0:0:
283,8,73238,1,0,0:0:0:0:
170,253,73414,6,0,L|177:313,1,52.5000020027161,2|0,0:0|0:0,0:0:0:0:
82,364,73767,1,0,0:0:0:0:
82,364,73944,1,2,0:0:0:0:
204,209,74120,2,0,P|224:239|223:272,1,52.5000020027161,2|0,0:0|0:0,0:0:0:0:
43,186,74473,1,0,0:0:0:0:
68,295,74650,1,0,0:0:0:0:
187,25,74826,5,2,0:0:0:0:
166,132,75003,1,0,0:0:0:0:
433,18,75179,5,0,0:0:0:0:
332,61,75356,1,2,0:0:0:0:
495,214,75532,5,2,0:0:0:0:
414,138,75709,1,0,0:0:0:0:
445,312,75885,5,0,0:0:0:0:
495,214,76062,1,0,0:0:0:0:
470,263,76238,5,2,0:0:0:0:
470,263,76414,2,0,P|445:256|419:262,1,52.5000020027161
337,337,76767,5,2,0:0:0:0:
495,214,76944,2,0,P|464:242|458:267,1,52.5000020027161,2|0,0:0|0:0,0:0:0:0:
321,350,77297,5,0,0:0:0:0:
481,135,77473,1,0,0:0:0:0:
338,100,77649,5,0,0:0:0:0:
305,362,77826,1,0,0:0:0:0:
345,165,78003,2,0,L|350:207,1,26.2500010013581
364,306,78179,2,0,L|359:270,1,26.2500010013581,2|0,0:0|0:0,0:0:0:0:
338,100,78356,1,2,0:0:0:0:
376,370,78532,1,0,0:0:0:0:
401,65,78709,1,0,0:0:0:0:
305,347,78885,1,0,0:0:0:0:
361,179,79062,5,2,0:0:0:0:
291,264,79238,1,0,0:0:0:0:
267,156,79414,1,0,0:0:0:0:
305,347,79591,1,2,0:0:0:0:
262,135,79767,1,2,0:0:0:0:
228,315,79944,1,0,0:0:0:0:
202,208,80120,1,0,0:0:0:0:
108,322,80297,1,0,0:0:0:0:
54,69,80473,5,2,0:0:0:0:
92,233,80650,2,0,P|112:186|111:170,1,52.5000020027161
41,50,81003,1,2,0:0:0:0:
181,147,81179,1,2,0:0:0:0:
272,85,81356,1,0,0:0:0:0:
364,146,81532,1,0,0:0:0:0:
254,71,81709,1,0,0:0:0:0:
482,111,81885,6,0,P|491:159|486:174,1,52.5000020027161,2|0,0:0|0:0,0:0:0:0:
309,275,82238,2,0,L|335:277,1,26.2500010013581
498,284,82414,1,2,0:0:0:0:
226,327,82591,1,2,0:0:0:0:
466,193,82767,1,0,0:0:0:0:
336,367,82944,1,0,0:0:0:0:
286,180,83120,1,0,0:0:0:0:
472,370,83297,5,2,0:0:0:0:
338,232,83473,1,0,0:0:0:0:
416,319,83650,1,0,0:0:0:0:
354,121,83826,1,0,0:0:0:0:
319,347,84003,2,8,P|291:352|263:347,1,52.5000020027161
200,224,84179,2,8,P|196:253|200:280,1,52.5000020027161
346,351,84356,6,8,P|315:348|287:332,1,52.5000020027161
192,201,84532,2,8,P|198:228|214:252,1,52.5000020027161
371,344,84709,5,2,0:0:0:0:
274,155,85767,6,0,P|225:130|156:125,1,105
180,179,86120,6,2,B|180:206|193:227|193:227|218:216|229:191|229:191|208:178|180:179,1,154.000004699707
179,179,86473,6,2,B|187:203|193:232|193:232|211:209|233:189|233:189|205:185|173:176,1,167.999994873047
179,179,86826,6,2,B|190:207|193:237|193:237|210:210|238:188|238:188|205:189|173:176,1,181.999991668702
179,179,87179,6,2,B|198:204|193:243|193:243|206:203|244:187|244:187|206:196|173:176,1,195.999994018555
179,179,87532,6,8,L|153:160,1,26.2500010013581
202,100,87708,2,8,P|215:122|219:135,1,26.2500010013581
123,256,87885,5,10,0:0:0:0:
110,259,87973,1,8,0:0:0:0:
96,258,88062,2,8,P|80:254|67:244,1,26.2500010013581
124,72,88238,5,10,0:0:0:0:
161,60,88326,1,8,0:0:0:0:
199,67,88414,1,8,0:0:0:0:
210,73,88503,1,8,0:0:0:0:
220,81,88591,5,10,0:0:0:0:
228,90,88679,1,8,0:0:0:0:
248,120,88767,1,8,0:0:0:0:
245,159,88855,2,8,P|241:179|234:192,1,26.2500010013581
276,54,89032,5,8,0:0:0:0:
299,82,89120,1,8,0:0:0:0:
309,118,89209,1,8,0:0:0:0:
307,155,89296,6,8,P|302:175|296:187,1,26.2500010013581,10|8,0:0|0:0,0:0:0:0:
236,285,89473,2,8,P|248:288|261:288,1,26.2500010013581
382,151,89650,5,10,0:0:0:0:
389,186,89738,1,8,0:0:0:0:
410,215,89826,2,8,P|427:224|448:225,1,26.2500010013581
297,281,90002,6,8,P|311:275|327:271,1,26.2500010013581,10|8,0:0|0:0,0:0:0:0:
428,214,90179,2,8,P|445:223|466:224,1,26.2500010013581
287,268,90355,6,8,P|301:262|317:258,1,26.2500010013581,10|8,0:0|0:0,0:0:0:0:
487,278,90532,1,8,0:0:0:0:
474,281,90620,1,8,0:0:0:0:
462,288,90708,6,8,P|448:303|442:317,1,26.2500010013581,10|8,0:0|0:0,0:0:0:0:
432,146,90885,1,8,0:0:0:0:
428,133,90973,1,8,0:0:0:0:
420,121,91061,6,8,P|404:108|389:103,1,26.2500010013581,10|8,0:0|0:0,0:0:0:0:
249,221,91238,1,8,0:0:0:0:
228,251,91326,1,8,0:0:0:0:
228,286,91414,6,8,P|234:303|248:317,1,26.2500010013581,10|8,0:0|0:0,0:0:0:0:
187,129,91591,2,8,P|168:123|142:123,1,26.2500010013581
41,272,91767,6,8,P|58:268|71:262,1,26.2500010013581,10|8,0:0|0:0,0:0:0:0:
103,114,91944,2,8,P|78:117|62:121,1,26.2500010013581
41,272,92120,6,8,P|38:287|41:307,1,26.2500010013581,10|8,0:0|0:0,0:0:0:0:
25,146,92297,2,8,P|10:160|2:182,1,26.2500010013581
136,338,92473,5,10,0:0:0:0:
167,351,92562,1,8,0:0:0:0:
201,351,92650,1,8,0:0:0:0:
233,341,92738,1,8,0:0:0:0:
257,317,92826,6,8,P|265:301|264:285,1,26.2500010013581,10|8,0:0|0:0,0:0:0:0:
209,113,93002,2,8,P|212:129|209:147,1,26.2500010013581
98,228,93179,6,8,P|84:228|66:224,1,26.2500010013581,10|8,0:0|0:0,0:0:0:0:
277,175,93356,1,8,0:0:0:0:
310,201,93444,1,8,0:0:0:0:
319,241,93532,5,10,0:0:0:0:
320,253,93620,1,8,0:0:0:0:
319,266,93709,1,8,0:0:0:0:
315,292,93796,6,8,L|301:326,1,26.2500010013581,8|10,0:0|0:0,0:0:0:0:
451,315,93973,2,8,P|436:282|438:247,1,52.5000020027161
381,109,94238,5,10,0:0:0:0:
411,123,94326,1,8,0:0:0:0:
444,125,94414,2,8,P|458:121|477:113,1,26.2500010013581
280,232,94591,5,10,0:0:0:0:
310,218,94679,1,8,0:0:0:0:
343,216,94767,2,8,P|357:220|376:228,1,26.2500010013581
254,51,94944,6,8,L|261:20,1,26.2500010013581,10|8,0:0|0:0,0:0:0:0:
195,197,95120,2,8,L|202:228,1,26.2500010013581
144,93,95296,6,8,B|142:83|151:57|151:57|139:86|115:108,1,78.7500030040742,10|8,0:0|0:0,0:0:0:0:
53,60,95650,5,8,0:0:0:0:
76,84,95738,1,8,0:0:0:0:
90,114,95826,1,8,0:0:0:0:
99,146,95914,1,8,0:0:0:0:
99,180,96003,5,10,0:0:0:0:
34,291,96179,1,8,0:0:0:0:
185,210,96356,5,10,0:0:0:0:
195,208,96444,1,8,0:0:0:0:
205,206,96532,1,8,0:0:0:0:
215,206,96620,1,8,0:0:0:0:
225,207,96709,5,10,0:0:0:0:
250,211,96797,2,8,B|274:217|296:211|296:211|358:188,1,105.000004005432
456,146,97062,5,10,0:0:0:0:
454,156,97150,1,8,0:0:0:0:
452,166,97238,2,8,P|452:203|468:232,1,52.5000020027161
411,339,97414,5,10,0:0:0:0:
375,334,97502,1,8,0:0:0:0:
339,339,97591,2,8,P|290:343|254:318,1,52.5000020027161
311,192,97767,6,8,P|315:217|306:254,1,52.5000020027161,10|8,0:0|0:0,0:0:0:0:
168,252,97944,1,8,0:0:0:0:
159,216,98032,1,8,0:0:0:0:
164,179,98120,6,8,P|175:151|195:128,1,52.5000020027161,10|8,0:0|0:0,0:0:0:0:
251,299,98297,1,8,0:0:0:0:
227,326,98385,1,8,0:0:0:0:
194,343,98473,6,8,P|152:343|126:329,1,52.5000020027161,10|8,0:0|0:0,0:0:0:0:
73,214,98650,2,8,P|76:182|86:158,1,52.5000020027161
126,348,98826,6,8,P|98:331|83:294,1,52.5000020027161,10|8,0:0|0:0,0:0:0:0:
291,251,99003,1,8,0:0:0:0:
293,261,99091,1,8,0:0:0:0:
293,271,99179,6,8,P|289:301|276:324,1,52.5000020027161,10|8,0:0|0:0,0:0:0:0:
212,179,99356,1,8,0:0:0:0:
236,150,99444,1,8,0:0:0:0:
271,139,99532,6,8,P|310:142|331:152,1,52.5000020027161,10|8,0:0|0:0,0:0:0:0:
354,283,99709,1,8,0:0:0:0:
353,294,99797,1,8,0:0:0:0:
351,304,99885,5,10,0:0:0:0:
348,314,99973,1,8,0:0:0:0:
330,347,100061,1,8,0:0:0:0:
301,367,100149,6,8,P|260:380|236:373,1,52.5000020027161
231,224,100326,1,8,0:0:0:0:
205,197,100414,1,8,0:0:0:0:
171,181,100503,1,8,0:0:0:0:
135,177,100591,6,8,P|150:159|180:145,1,52.5000020027161,10|8,0:0|0:0,0:0:0:0:
228,325,100767,2,8,P|188:318|167:300,1,52.5000020027161
185,153,100944,5,10,0:0:0:0:
194,149,101032,1,8,0:0:0:0:
204,147,101120,2,8,P|234:143|265:151,1,52.5000020027161
31,268,101297,6,8,P|17:242|13:216,1,52.5000020027161,10|8,0:0|0:0,0:0:0:0:
280,97,101473,2,8,P|303:115|315:161,1,52.5000020027161
25,210,101650,6,8,P|25:174|43:142,1,52.5000020027161,10|8,0:0|0:0,0:0:0:0:
313,194,101826,1,8,0:0:0:0:
311,204,101914,1,8,0:0:0:0:
309,213,102003,6,8,P|292:242|270:258,1,52.5000020027161,10|8,0:0|0:0,0:0:0:0:
42,156,102179,1,8,0:0:0:0:
58,123,102267,1,8,0:0:0:0:
87,99,102356,6,8,P|115:85|150:84,1,52.5000020027161,10|8,0:0|0:0,0:0:0:0:
101,250,102532,1,8,0:0:0:0:
107,286,102620,1,8,0:0:0:0:
99,322,102709,6,8,P|90:348|63:376,1,52.5000020027161,10|8,0:0|0:0,0:0:0:0:
117,27,102885,2,8,P|152:29|183:42,1,52.5000020027161
158,258,103062,6,8,P|163:289|154:325,1,52.5000020027161,10|8,0:0|0:0,0:0:0:0:
68,41,103238,2,8,P|97:29|128:28,1,52.5000020027161
196,212,103414,6,8,P|212:235|219:262,1,52.5000020027161,10|8,0:0|0:0,0:0:0:0:
34,81,103591,2,8,P|65:44|85:33,1,52.5000020027161
235,161,103767,5,10,0:0:0:0:
242,166,103856,1,8,0:0:0:0:
249,173,103944,1,8,0:0:0:0:
255,180,104032,1,8,0:0:0:0:
259,188,104120,2,8,P|272:220|272:262,1,70,10|8,0:0|0:0,0:0:0:0:
232,337,104385,5,8,0:0:0:0:
245,326,104473,2,8,P|295:312|335:321,1,87.5,10|8,0:0|0:0,0:0:0:0:
428,358,104738,5,8,0:0:0:0:
415,341,104826,2,8,P|393:286|411:238,1,105.000004005432,10|8,0:0|0:0,0:0:0:0:
482,158,105091,5,8,0:0:0:0:
482,133,105179,2,8,P|468:67|421:36,1,122.500001168251,10|8,0:0|0:0,0:0:0:0:
260,109,105444,5,8,0:0:0:0:
279,129,105532,2,8,P|359:138|416:76,1,140,10|8,0:0|0:0,0:0:0:0:
230,16,105797,5,0,0:0:0:0:
206,37,105885,2,0,P|173:116|255:214,1,196.875007510186,2|0,0:0|0:0,0:0:0:0:
276,230,106150,6,0,P|186:187|160:92,1,196.875007510186
161,46,106414,6,0,P|155:165|214:227,1,196.875007510186,2|0,0:0|0:0,0:0:0:0:
246,255,106679,6,0,P|164:206|128:107,1,196.875007510186
54,117,106944,6,0,B|95:190|76:255|76:255|150:259|211:332,1,275.62501051426,2|0,0:0|0:0,0:0:0:0:
267,318,107296,6,2,P|314:317|344:295,1,84
342,296,107826,6,2,P|295:297|265:319,1,84
318,355,108356,5,2,0:0:0:0:
370,207,108532,5,8,0:0:0:0:
386,155,108620,1,8,0:0:0:0:
422,112,108709,6,8,P|433:103|448:97,1,26.2500010013581,10|8,0:0|0:0,0:0:0:0:
414,249,108885,2,8,P|407:269|389:289,1,26.2500010013581
325,28,109062,5,8,0:0:0:0:
350,76,109150,1,8,0:0:0:0:
356,130,109238,1,8,0:0:0:0:
355,184,109326,1,8,0:0:0:0:
346,238,109414,6,8,P|340:255|322:276,1,26.2500010013581,10|8,0:0|0:0,0:0:0:0:
487,150,109591,2,8,P|482:129|486:102,1,26.2500010013581
370,23,109767,5,8,0:0:0:0:
367,78,109856,1,8,0:0:0:0:
344,128,109944,1,10,0:0:0:0:
304,165,110032,1,10,0:0:0:0:
255,189,110120,6,8,P|234:222|239:286,1,105.000004005432,10|8,0:0|0:0,0:0:0:0:
356,235,110473,5,8,0:0:0:0:
304,247,110562,1,8,0:0:0:0:
252,259,110650,1,8,0:0:0:0:
200,271,110738,1,8,0:0:0:0:
143,284,110826,6,8,L|141:297,1,13.125000500679
102,244,110914,2,8,L|89:247,1,13.125000500679
114,188,111003,2,8,L|103:179,1,13.125000500679
168,172,111091,2,8,L|170:159,1,13.125000500679
178,112,111179,2,8,L|176:125,1,13.125000500679
147,66,111267,2,8,L|161:81,1,13.125000500679
93,70,111356,2,8,L|115:66,1,13.125000500679,10|8,0:0|0:0,0:0:0:0:
62,120,111444,1,10,0:0:0:0:
6,137,111532,6,8,P|4:153|6:173,1,26.2500010013581,10|8,0:0|0:0,0:0:0:0:
30,26,111709,2,8,P|35:12|46:-6,1,26.2500010013581
6,137,111885,2,8,P|5:178|15:219,1,78.7500030040742,10|8,0:0|0:0,0:0:0:0:
21,291,112238,2,8,P|22:251|12:212,1,78.7500030040742
6,137,112591,5,8,0:0:0:0:
54,156,112679,1,8,0:0:0:0:
105,165,112767,1,8,0:0:0:0:
157,170,112856,1,8,0:0:0:0:
209,161,112944,6,10,P|212:175|212:189,1,26.2500010013581
136,44,113120,2,10,P|133:31|132:16,1,26.2500010013581
108,200,113297,5,8,0:0:0:0:
154,175,113385,1,8,0:0:0:0:
205,163,113473,1,8,0:0:0:0:
257,161,113562,1,8,0:0:0:0:
325,182,113650,5,10,0:0:0:0:
294,225,113738,1,10,0:0:0:0:
308,275,113826,1,10,0:0:0:0:
357,292,113914,6,8,P|384:291|399:284,1,26.2500010013581,10|8,0:0|0:0,0:0:0:0:
300,135,114091,2,8,P|277:161|275:173,1,26.2500010013581
350,236,114267,5,10,0:0:0:0:
378,192,114356,2,10,P|378:169|370:149,1,26.2500010013581
217,189,114532,2,8,P|222:211|231:223,1,26.2500010013581
349,104,114709,6,8,L|363:120,1,13.125000500679
300,79,114797,2,8,L|323:85,1,13.125000500679
249,98,114885,2,8,L|265:88,1,13.125000500679
199,122,114973,2,8,L|215:117,1,13.125000500679
145,118,115061,6,2,P|119:74|119:67,1,52.5000020027161
118,70,115149,2,2,P|120:34|133:12,1,52.5000020027161
131,18,115238,1,10,0:0:0:0:
183,1,115326,2,8,B|215:1|240:18|240:18|214:35,1,78.7500030040742
173,63,115679,1,8,0:0:0:0:
118,70,115767,1,10,0:0:0:0:
46,196,115944,2,8,L|43:159,1,26.2500010013581
118,70,116120,6,2,L|150:79,1,26.2500010013581
148,78,116208,2,2,L|180:87,1,26.2500010013581
177,87,116296,2,2,L|209:96,1,26.2500010013581
206,96,116385,2,2,L|238:105,1,26.2500010013581
235,105,116473,2,8,L|266:98,1,26.2500010013581,10|8,0:0|0:0,0:0:0:0:
428,42,116650,5,8,0:0:0:0:
406,90,116738,1,8,0:0:0:0:
410,142,116826,1,8,0:0:0:0:
435,187,116914,1,8,0:0:0:0:
482,209,117003,6,8,P|491:183|491:168,1,26.2500010013581
345,150,117179,2,8,P|348:162|353:174,1,26.2500010013581
494,112,117356,6,8,P|480:84|466:77,1,26.2500010013581
315,216,117532,2,8,P|331:228|354:230,1,26.2500010013581
426,22,117709,5,8,0:0:0:0:
420,23,117797,1,8,0:0:0:0:
414,25,117885,5,2,0:0:0:0:
437,81,117973,1,2,0:0:0:0:
410,134,118062,1,2,0:0:0:0:
353,154,118150,1,2,0:0:0:0:
297,130,118238,1,2,0:0:0:0:
236,121,118326,1,2,0:0:0:0:
180,143,118414,1,2,0:0:0:0:
149,194,118503,1,2,0:0:0:0:
116,142,118591,6,8,B|88:114|46:121|46:121|78:158|77:198|77:198|52:220|52:220|66:255|66:255|45:285|45:285|91:246|74:171,1,385,10|8,0:0|0:0,0:0:0:0:
46,284,119649,6,0,P|31:328|50:383,1,105,8|0,0:0|0:0,0:0:0:0:
46,284,120002,6,0,P|40:335|61:364,1,70,8|0,0:0|0:0,0:0:0:0:
46,284,120267,6,0,P|46:319|60:338,1,35,8|0,0:0|0:0,0:0:0:0:
101,299,120444,1,8,0:0:0:0:
101,299,120532,5,8,0:0:0:0:
145,258,120620,1,8,0:0:0:0:
204,264,120709,1,8,0:0:0:0:
244,308,120797,1,8,0:0:0:0:
296,338,120885,1,8,0:0:0:0:
354,322,120973,1,8,0:0:0:0:
310,279,121062,5,8,0:0:0:0:
354,322,121150,1,8,0:0:0:0:
412,304,121238,1,8,0:0:0:0:
424,244,121326,1,8,0:0:0:0:
380,202,121414,6,8,P|382:159|410:128,1,78.7500030040742,10|8,0:0|0:0,0:0:0:0:
403,132,121767,2,8,P|361:154|310:148,1,78.7500030040742
274,130,122120,6,8,L|262:120,1,13.125000500679
222,108,122209,2,8,L|202:112,1,13.125000500679
171,136,122297,2,8,L|159:158,1,13.125000500679
161,190,122385,2,8,L|171:206,1,13.125000500679
203,227,122473,2,8,L|216:231,1,13.125000500679
257,224,122562,2,8,L|272:216,1,13.125000500679
305,205,122650,2,8,L|329:205,1,13.125000500679
357,211,122738,2,8,L|369:220,1,13.125000500679
393,252,122826,6,10,P|395:208|407:186,1,52.5000020027161
399,196,122914,2,2,P|413:173|451:152,1,52.5000020027161
438,158,123003,2,8,P|461:177|466:186,1,26.2500010013581,10|8,0:0|0:0,0:0:0:0:
440,344,123179,5,8,0:0:0:0:
433,348,123267,1,8,0:0:0:0:
426,351,123356,1,8,0:0:0:0:
419,353,123444,1,8,0:0:0:0:
412,353,123532,6,8,P|386:355|373:352,1,26.2500010013581,10|8,0:0|0:0,0:0:0:0:
438,158,123709,2,8,P|461:177|466:186,1,26.2500010013581
330,338,123885,6,8,P|307:314|305:308,1,26.2500010013581
428,101,124062,2,8,P|451:102|471:111,1,26.2500010013581
278,272,124238,6,8,P|268:242|270:202,1,52.5000020027161,10|8,0:0|0:0,0:0:0:0:
85,33,124591,5,8,0:0:0:0:
105,81,124679,1,8,0:0:0:0:
109,133,124767,1,8,0:0:0:0:
92,182,124856,1,8,0:0:0:0:
155,105,124944,5,10,0:0:0:0:
116,139,125032,1,10,0:0:0:0:
97,187,125120,1,10,0:0:0:0:
105,238,125209,2,8,P|119:263|129:270,1,26.2500010013581
235,116,125385,2,8,P|211:105|192:104,1,26.2500010013581
264,165,125562,5,8,0:0:0:0:
290,114,125650,2,8,P|283:89|272:75,1,26.2500010013581,10|8,0:0|0:0,0:0:0:0:
155,105,125826,2,8,P|107:153|96:202,1,105
96,204,126179,6,8,P|118:136|265:115,1,236.250009012223
283,132,126620,5,8,0:0:0:0:
239,101,126709,1,8,0:0:0:0:
186,96,126797,1,8,0:0:0:0:
138,116,126885,1,8,0:0:0:0:
105,158,126973,1,8,0:0:0:0:
96,209,127062,5,10,0:0:0:0:
31,64,127238,2,8,L|35:113,1,26.2500010013581
42,252,127414,5,8,0:0:0:0:
68,293,127502,1,8,0:0:0:0:
111,317,127591,1,8,0:0:0:0:
160,317,127679,1,8,0:0:0:0:
100,365,127767,5,10,0:0:0:0:
142,339,127855,1,10,0:0:0:0:
191,333,127944,1,8,0:0:0:0:
238,346,128032,1,8,0:0:0:0:
283,379,128120,1,8,0:0:0:0:
283,379,128208,1,8,0:0:0:0:
283,379,128296,5,8,0:0:0:0:
338,376,128385,2,0,P|371:352|382:331,1,52.5000020027161
379,339,128473,2,2,P|392:296|387:274,1,52.5000020027161,2|2,0:0|0:0,0:0:0:0:
391,285,128561,2,2,P|377:245|363:229,1,52.5000020027161
369,233,128649,2,10,P|328:205|308:202,1,52.5000020027161
494,275,128826,5,10,0:0:0:0:
458,237,128914,1,8,0:0:0:0:
443,187,129002,1,8,0:0:0:0:
451,135,129091,1,8,0:0:0:0:
499,53,129179,6,8,L|503:88,1,26.2500010013581,10|8,0:0|0:0,0:0:0:0:
326,204,129355,1,8,0:0:0:0:
499,53,129532,6,0,B|395:17|327:93|327:93|243:192|164:108|164:108|159:60,1,420,2|0,0:0|0:0,0:0:0:0:
93,55,130631,6,0,P|51:72|44:83,1,35
75,141,130833,6,0,P|48:172|47:178,1,35
94,206,130987,6,0,P|86:220|81:240,1,23.3333333333333
117,236,131075,6,0,P|116:243|119:261,1,17.5
153,248,131163,6,0,P|160:261|169:269,1,17.5
191,242,131251,6,0,P|199:249|213:251,1,17.5
214,218,131327,6,0,P|223:220|237:217,1,17.5
221,185,131403,6,0,P|237:184|248:180,1,17.5
238,151,131473,6,0,L|260:159,1,17.5
258,130,131541,6,0,L|269:144,1,17.5
277,122,131599,6,0,L|277:144,1,17.5
292,127,131651,6,0,L|280:145,1,17.5
296,132,131699,6,0,L|280:148,1,17.5
300,136,131743,6,0,L|280:152,1,17.5
304,140,131787,6,0,L|280:155,1,17.5
308,144,131831,6,0,L|282:157,1,17.5
312,148,131875,6,0,L|286:159,1,17.5
316,152,131919,6,0,L|294:161,1,17.5
320,156,131963,6,0,L|295:164,1,17.5
324,160,132007,6,0,L|294:168,1,17.5
328,164,132051,6,0,L|309:167,1,17.5
332,168,132096,6,0,L|306:172,1,17.5
336,172,132140,6,0,L|309:175,1,17.5
340,176,132184,6,0,L|312:179,1,17.5
344,180,132228,6,0,L|315:181,1,17.5
348,184,132272,6,0,L|319:184,1,17.5
352,188,132316,6,0,L|323:189,1,17.5
356,192,132360,6,0,L|328:192,1,17.5
360,196,132404,6,0,L|330:195,1,17.5
364,200,132449,6,0,L|336:198,1,17.5
368,204,132493,6,0,L|342:202,1,17.5
372,208,132537,6,0,L|341:207,1,17.5
376,212,132581,6,0,L|345:211,1,17.5
380,216,132625,6,0,L|350:214,1,17.5
384,220,132669,6,0,L|357:218,1,17.5
388,224,132713,6,0,L|356:223,1,17.5
392,228,132757,6,0,L|370:227,1,17.5
396,232,132801,5,0,0:0:0:0:
404,240,132852,6,0,P|376:242|372:243,1,17.5
415,246,132908,6,0,P|406:265|404:271,1,17.5
436,248,132970,6,0,P|438:261|446:277,1,17.5
459,243,133040,6,0,P|469:255|482:262,1,17.5
482,222,133128,6,0,P|501:229|512:232,1,17.5
490,188,133224,6,0,P|507:185|514:183,1,17.5
477,149,133336,6,0,P|497:137|503:127,1,35
445,112,133472,6,0,P|450:73|437:53,1,35
395,85,133648,6,0,P|384:47|376:41,1,35
323,86,133874,6,0,P|291:67|285:67,1,35
260,148,134154,6,0,P|224:154|216:161,1,35
267,279,134520,6,0,P|254:318|256:328,1,35
314,250,134696,6,0,P|362:250|308:315,1,175
316,304,135251,2,0,P|367:281|317:265,1,140
337,285,135532,5,2,0:0:0:0:
286,215,135708,1,8,0:0:0:0:
325,200,135796,1,8,0:0:0:0:
366,202,135884,6,8,P|402:224|421:262,1,70,2|8,0:0|0:0,0:0:0:0:
366,202,136061,1,8,0:0:0:0:
342,167,136149,1,8,0:0:0:0:
340,125,136237,6,8,P|358:76|392:53,1,70,2|8,0:0|0:0,0:0:0:0:
247,140,136414,2,8,P|187:105|181:78,1,70
370,64,136590,6,8,L|452:73,1,70,2|8,0:0|0:0,0:0:0:0:
247,140,136767,1,8,0:0:0:0:
439,71,136943,6,8,P|470:89|497:139,1,70,2|8,0:0|0:0,0:0:0:0:
492,121,137032,2,0,P|495:180|479:214,1,70
491,195,137120,2,0,P|466:233|424:253,1,70
202,195,137296,6,8,P|260:124|382:169,1,210,2|8,0:0|0:0,0:0:0:0:
304,117,137473,1,8,0:0:0:0:
366,147,137561,1,8,0:0:0:0:
398,215,137649,6,8,B|369:283|369:283|375:354,1,140,2|8,0:0|0:0,0:0:0:0:
151,333,138002,6,8,P|182:315|231:317,1,70,2|8,0:0|0:0,0:0:0:0:
84,211,138179,2,8,P|53:229|4:227,1,70
204,376,138355,6,8,P|270:348|272:279,1,140,2|8,0:0|0:0,0:0:0:0:
275,286,138532,2,8,P|233:246|209:244,1,70
318,61,138708,6,8,P|290:132|353:199,1,140,2|8,0:0|0:0,0:0:0:0:
319,183,138884,1,8,0:0:0:0:
378,185,138973,1,8,0:0:0:0:
351,134,139061,6,8,P|261:146|230:197,1,140,2|8,0:0|0:0,0:0:0:0:
234,181,139237,2,8,P|243:265|263:282,1,70
364,268,139414,6,8,P|380:241|377:194,1,70,2|8,0:0|0:0,0:0:0:0:
171,251,139590,2,8,P|179:275|233:302,1,70
217,303,139679,6,8,L|304:294,1,70,8|2,0:0|0:0,0:0:0:0:
132,194,139855,6,8,L|45:184,1,70
154,88,140032,1,8,0:0:0:0:
170,147,140120,6,8,L|256:137,1,70,2|8,0:0|0:0,0:0:0:0:
405,112,140296,6,8,P|340:105|385:70,1,140,8|0,0:0|0:0,0:0:0:0:
366,68,140473,5,2,0:0:0:0:
313,84,140561,1,8,0:0:0:0:
262,59,140649,2,8,B|219:49|199:25|199:25|159:11|124:39,1,140
134,31,140826,6,8,P|101:86|130:174,1,140,2|8,0:0|0:0,0:0:0:0:
154,203,141002,2,8,P|187:148|174:111,1,70
97,215,141179,6,8,L|104:305,1,70,2|8,0:0|0:0,0:0:0:0:
256,128,141355,2,8,L|263:38,1,70
45,297,141532,6,8,P|75:336|159:307,1,140,2|8,0:0|0:0,0:0:0:0:
153,316,141708,1,8,0:0:0:0:
203,290,141796,1,8,0:0:0:0:
258,292,141884,6,8,B|330:318|330:318|395:293,1,140,2|8,0:0|0:0,0:0:0:0:
367,15,142237,6,8,P|352:58|360:101,1,70,2|8,0:0|0:0,0:0:0:0:
400,190,142414,2,8,P|359:171|315:172,1,70
172,189,142590,5,2,0:0:0:0:
225,207,142679,1,8,0:0:0:0:
278,190,142767,2,8,P|321:129|300:62,1,140
306,69,142943,6,8,P|321:109|318:143,1,70,2|8,0:0|0:0,0:0:0:0:
193,252,143120,2,8,P|173:222|172:187,1,70
245,41,143296,6,8,L|170:32,1,70,2|8,0:0|0:0,0:0:0:0:
278,190,143473,2,8,L|353:181,1,70
110,54,143649,6,8,L|99:136,1,70,2|8,0:0|0:0,0:0:0:0:
287,259,143826,2,8,L|276:177,1,70
245,41,144002,6,8,P|323:87|373:56,1,140,2|8,0:0|0:0,0:0:0:0:
506,268,144355,5,2,0:0:0:0:
486,260,144443,1,8,0:0:0:0:
464,258,144532,1,8,0:0:0:0:
443,261,144620,6,8,P|406:287|395:328,1,70,8|2,0:0|0:0,0:0:0:0:
259,353,144796,6,8,P|283:252|204:184,1,210
213,186,145061,6,8,P|169:260|171:277,1,70,2|8,0:0|0:0,0:0:0:0:
171,245,145149,2,0,P|171:291|190:320,1,70
182,311,145237,1,8,0:0:0:0:
75,159,145414,6,8,P|119:85|117:68,1,70,2|8,0:0|0:0,0:0:0:0:
117,100,145502,2,0,P|117:54|98:25,1,70
102,30,145590,2,8,P|55:49|37:77,1,70
213,75,145767,6,8,P|206:132|219:160,1,70,2|8,0:0|0:0,0:0:0:0:
324,42,145943,2,8,P|367:78|397:82,1,70
450,237,146120,6,8,P|398:174|328:172,1,140,2|8,0:0|0:0,0:0:0:0:
41,216,146473,5,2,0:0:0:0:
75,259,146561,1,8,0:0:0:0:
125,283,146649,1,8,0:0:0:0:
180,281,146737,1,8,0:0:0:0:
229,253,146826,6,8,P|175:199|110:190,1,140,2|8,0:0|0:0,0:0:0:0:
114,189,147002,1,8,0:0:0:0:
169,180,147090,1,8,0:0:0:0:
216,146,147179,6,8,P|247:93|227:16,1,140,2|8,0:0|0:0,0:0:0:0:
229,19,147355,2,8,P|187:39|166:80,1,70
325,69,147532,6,8,P|398:62|456:3,1,140,2|8,0:0|0:0,0:0:0:0:
110,17,147884,5,2,0:0:0:0:
81,65,147973,1,8,0:0:0:0:
76,120,148061,1,8,0:0:0:0:
89,174,148149,1,8,0:0:0:0:
122,218,148237,6,8,P|175:243|206:239,1,70,2|8,0:0|0:0,0:0:0:0:
190,242,148326,2,0,P|237:234|254:221,1,70
257,217,148414,2,8,P|347:197|386:222,1,140
383,219,148590,6,8,P|426:236|474:223,1,70,2|8,0:0|0:0,0:0:0:0:
372,358,148767,1,8,0:0:0:0:
309,382,148855,1,8,0:0:0:0:
241,355,148943,6,8,P|159:329|93:371,1,140,2|8,0:0|0:0,0:0:0:0:
138,77,149296,6,8,P|123:136|136:174,1,70,2|8,0:0|0:0,0:0:0:0:
311,292,149473,2,8,P|326:233|313:195,1,70
138,77,149649,6,8,P|106:138|118:205,1,140,2|8,0:0|0:0,0:0:0:0:
118,205,149826,2,8,P|127:260|106:298,1,70
188,113,150002,6,8,P|196:58|175:20,1,70,2|8,0:0|0:0,0:0:0:0:
71,242,150179,1,8,0:0:0:0:
70,297,150267,1,8,0:0:0:0:
114,330,150355,6,8,P|168:334|198:308,1,70,2|8,0:0|0:0,0:0:0:0:
318,123,150532,2,8,L|222:114,1,70
425,235,150708,6,8,L|417:156,1,70,2|8,0:0|0:0,0:0:0:0:
330,316,150884,2,8,P|384:363|420:358,1,70
378,361,150973,6,8,L|474:353,1,70,8|2,0:0|0:0,0:0:0:0:
501,158,151149,6,8,P|470:86|388:68,1,140
236,189,151414,6,8,L|336:175,1,70,2|8,0:0|0:0,0:0:0:0:
416,64,151590,2,8,P|465:108|465:185,1,140
467,179,151767,6,8,P|437:221|409:231,1,70,2|8,0:0|0:0,0:0:0:0:
416,231,151855,2,0,P|371:235|343:225,1,70
343,226,151943,2,8,L|183:249,1,140
200,247,152120,5,2,0:0:0:0:
97,169,152296,2,8,L|257:192,1,140
235,188,152473,6,8,P|241:144|221:113,1,70,2|8,0:0|0:0,0:0:0:0:
64,223,152649,2,8,P|58:267|78:298,1,70
193,73,152826,6,8,L|273:62,1,70,2|8,0:0|0:0,0:0:0:0:
265,254,153002,1,8,0:0:0:0:
213,246,153090,1,8,0:0:0:0:
157,238,153179,6,8,P|105:178|122:107,1,140,2|8,0:0|0:0,0:0:0:0:
321,261,153532,6,8,L|329:350,1,70,2|8,0:0|0:0,0:0:0:0:
175,163,153708,2,8,L|183:74,1,70
368,20,153884,5,2,0:0:0:0:
376,75,153973,1,8,0:0:0:0:
385,130,154061,2,8,P|371:202|312:243,1,140
320,240,154237,6,8,L|215:234,1,70,2|8,0:0|0:0,0:0:0:0:
456,254,154414,2,8,P|465:317|491:343,1,70
386,130,154590,6,8,L|309:134,1,70,2|8,0:0|0:0,0:0:0:0:
456,254,154767,2,8,P|498:220|506:189,1,70
316,133,154943,6,8,P|307:174|326:214,1,70,2|8,0:0|0:0,0:0:0:0:
505,121,155120,2,8,L|496:50,1,70
239,137,155296,5,2,0:0:0:0:
433,127,155473,2,8,L|428:84,1,35
316,133,155649,2,8,L|311:176,1,35
456,254,155826,2,8,L|451:211,1,35
451,219,155914,6,8,P|392:196|358:207,1,70,8|10,0:0|0:0,0:0:0:0:
308,350,156090,6,8,P|335:281|295:217,1,140
169,142,156355,6,8,L|163:181,1,28
150,264,156532,1,8,0:0:0:0:
388,196,156708,6,8,L|382:157,1,28,10|8,0:0|0:0,0:0:0:0:
369,74,156884,2,8,P|326:20|298:14,1,70
169,142,157061,6,8,P|210:128|233:93,1,70
438,82,157237,2,8,L|360:72,1,70
29,127,157414,6,8,L|178:142,1,140
483,272,157767,5,8,0:0:0:0:
428,282,157855,1,8,0:0:0:0:
373,293,157943,1,8,0:0:0:0:
317,303,158032,1,8,0:0:0:0:
260,314,158120,6,8,B|199:326|162:289|162:289|121:243,1,157.500006008148,14|8,0:0|0:0,0:0:0:0:
127,250,158649,1,8,0:0:0:0:
233,133,158826,2,0,P|236:182|224:244,1,105.000004005432
227,237,159179,2,0,P|287:227|324:189,1,105.000004005432
318,197,159532,6,0,P|331:251|389:288,1,105.000004005432
368,282,159884,2,0,P|432:283|466:258,1,105.000004005432
463,260,160237,1,0,0:0:0:0:
413,109,160414,2,0,P|401:161|404:219,1,105.000004005432
402,212,160767,2,0,P|381:161|367:146,1,52.5000020027161
383,163,160943,5,0,0:0:0:0:
366,151,161031,1,0,0:0:0:0:
345,145,161120,1,0,0:0:0:0:
324,146,161208,1,0,0:0:0:0:
305,155,161296,1,0,0:0:0:0:
288,168,161384,1,0,0:0:0:0:
267,171,161473,1,0,0:0:0:0:
246,164,161561,1,0,0:0:0:0:
231,149,161649,6,0,P|201:137|168:143,1,52.5000020027161
161,145,161914,2,0,P|129:166|118:184,1,52.5000020027161
115,197,162179,1,0,0:0:0:0:
117,217,162267,2,0,P|101:253|74:269,1,52.5000020027161
30,152,162620,5,0,0:0:0:0:
42,135,162708,2,0,P|70:113|103:110,1,52.5000020027161
85,109,162884,2,0,L|161:116,1,52.5000020027161
138,113,163061,1,0,0:0:0:0:
281,135,163237,2,0,P|260:95|282:43,1,105.000004005432
339,165,163767,6,0,P|304:197|233:182,1,105.000004005432
249,193,164120,2,0,P|195:187|148:222,1,105.000004005432
154,213,164473,2,0,P|175:262|232:284,1,105.000004005432
219,283,164826,1,0,0:0:0:0:
290,147,165002,6,0,P|270:97|219:74,1,105.000004005432
226,74,165355,2,0,P|184:105|179:161,1,105.000004005432
177,154,165708,1,0,0:0:0:0:
39,97,165884,5,0,0:0:0:0:
28,115,165973,1,0,0:0:0:0:
22,135,166061,1,0,0:0:0:0:
21,155,166149,1,0,0:0:0:0:
25,175,166237,2,0,P|37:210|65:235,1,52.5000020027161
46,221,166414,2,0,P|58:250|58:282,1,52.5000020027161
59,271,166590,6,0,P|46:308|43:358,1,78.7500030040742
42,347,166855,2,0,P|66:352|104:341,1,52.5000020027161
93,346,167031,1,0,0:0:0:0:
114,349,167120,1,0,0:0:0:0:
134,350,167208,1,0,0:0:0:0:
154,351,167296,2,0,L|168:352,7,13.125000500679
151,333,167649,5,0,0:0:0:0:
147,312,167737,1,0,0:0:0:0:
144,290,167826,2,0,L|149:249,1,26.2500010013581
260,194,168002,5,0,0:0:0:0:
264,215,168090,1,0,0:0:0:0:
267,237,168179,2,0,L|262:278,1,26.2500010013581
352,347,168355,2,0,L|347:306,1,26.2500010013581
429,236,168531,2,0,L|424:277,1,26.2500010013581
352,347,168708,2,0,L|344:281,1,52.5000020027161
343,273,168973,6,0,L|346:258,2,13.125000500679
350,235,169149,1,0,0:0:0:0:
354,214,169237,1,0,0:0:0:0:
360,193,169326,1,0,0:0:0:0:
363,172,169414,6,0,L|356:107,1,52.5000020027161
287,31,169767,2,0,L|283:61,1,26.2500010013581
226,166,169943,2,0,L|222:136,1,26.2500010013581
303,18,170120,6,0,L|293:85,1,52.5000020027161
295,69,170296,1,0,0:0:0:0:
302,92,170384,1,0,0:0:0:0:
306,115,170473,1,0,0:0:0:0:
310,138,170561,1,0,0:0:0:0:
315,161,170649,2,0,L|308:207,1,26.2500010013581
380,79,170826,6,0,L|373:33,1,26.2500010013581
253,187,171002,2,0,P|259:212|272:225,1,26.2500010013581
397,68,171179,1,0,0:0:0:0:
370,217,171355,1,0,0:0:0:0:
392,211,171443,1,0,0:0:0:0:
413,204,171531,6,0,L|420:158,1,26.2500010013581
411,57,171708,2,0,L|404:11,1,26.2500010013581
279,103,171884,2,0,L|272:149,1,26.2500010013581
431,209,172061,2,0,L|438:163,1,26.2500010013581
260,98,172237,6,0,L|256:141,1,26.2500010013581
451,214,172414,1,0,0:0:0:0:
449,237,172502,1,0,0:0:0:0:
446,260,172590,1,0,0:0:0:0:
444,283,172679,1,0,0:0:0:0:
442,306,172767,2,0,L|437:344,1,26.2500010013581
326,358,172943,6,0,P|313:321|317:287,1,52.5000020027161
318,240,173208,1,0,0:0:0:0:
320,216,173296,2,0,P|274:220|247:209,1,52.5000020027161
269,219,173473,2,0,P|236:215|184:234,1,78.7500030040742
192,228,173737,1,0,0:0:0:0:
134,280,173914,5,0,0:0:0:0:
117,297,174002,2,0,P|90:260|68:253,1,52.5000020027161
41,164,174355,1,0,0:0:0:0:
39,140,174443,1,0,0:0:0:0:
46,117,174531,2,0,P|52:97|66:79,1,26.2500010013581
149,41,174708,6,0,L|151:60,4,13.125000500679
182,26,174973,1,0,0:0:0:0:
205,23,175061,1,0,0:0:0:0:
228,26,175149,1,0,0:0:0:0:
248,36,175237,1,0,0:0:0:0:
265,51,175326,1,0,0:0:0:0:
275,72,175414,5,0,0:0:0:0:
297,66,175502,1,0,0:0:0:0:
320,67,175590,2,0,P|354:72|364:78,1,26.2500010013581
432,109,175767,2,0,P|448:154|433:212,1,105.000004005432
435,208,176120,5,0,0:0:0:0:
272,162,176296,2,0,P|264:201|270:229,1,52.5000020027161
438,212,176473,5,0,0:0:0:0:
444,242,176561,1,0,0:0:0:0:
442,273,176649,2,0,P|417:315|392:322,1,52.5000020027161
458,138,176826,5,0,0:0:0:0:
484,154,176914,1,0,0:0:0:0:
502,179,177002,2,0,P|513:210|508:244,1,52.5000020027161
336,188,177179,5,0,0:0:0:0:
351,160,177267,1,0,0:0:0:0:
376,141,177355,1,0,0:0:0:0:
203,182,177531,5,0,0:0:0:0:
402,202,177708,1,0,0:0:0:0:
294,368,177884,2,0,P|257:371|196:332,1,105.000004005432
31,265,178237,5,0,0:0:0:0:
64,262,178326,1,0,0:0:0:0:
97,272,178414,1,0,0:0:0:0:
123,296,178502,2,0,P|105:299|72:321,1,52.5000020027161
141,208,178679,2,0,P|149:163|109:116,1,105.000004005432
111,24,178943,6,0,P|96:58|96:62,1,26.2500010013581
90,175,179120,1,0,0:0:0:0:
280,92,179296,6,0,P|261:105|240:108,1,26.2500010013581
102,116,179473,2,0,P|123:123|132:129,1,26.2500010013581
248,167,179649,6,0,P|251:189|259:205,1,26.2500010013581
150,175,179826,2,0,P|153:200|150:218,1,26.2500010013581
278,245,180002,6,0,P|312:279|349:289,1,78.7500030040742
465,295,180355,6,0,P|447:268|431:261,1,26.2500010013581
336,199,180531,2,0,P|340:230|344:239,1,26.2500010013581
488,292,180708,6,0,B|491:260|480:238|480:238|455:183|491:136|491:136|511:100|486:51|436:60,1,280,4|0,0:0|0:0,0:0:0:0:
429,64,182145,1,0,0:0:0:0:
420,73,182189,1,0,0:0:0:0:
420,73,182788,5,0,0:0:0:0:
323,57,183141,1,0,0:0:0:0:
226,41,183556,1,0,0:0:0:0:
228,47,183578,2,0,B|201:91|151:96|151:96|92:100|66:131|66:131|99:130|118:139,1,240.625
162,174,184967,6,0,P|172:205|172:256,1,70
101,297,185673,2,0,P|91:266|91:215,1,70
216,141,186379,6,0,P|225:162|227:184,1,35
222,230,186715,2,0,P|262:231|298:245,1,70
222,230,187244,2,0,P|262:231|298:245,1,70
289,240,187612,6,0,P|298:240|306:242,7,8.75
304,242,187964,2,0,P|332:242|367:230,1,52.5
372,223,188302,2,0,P|370:273|380:297,1,70
426,193,188655,2,0,P|432:220|442:235,1,35
477,269,188851,2,0,P|479:301|474:319,1,35
450,355,189203,5,0,0:0:0:0:
450,355,189379,2,0,P|413:347|373:355,1,70
324,366,189908,2,0,P|272:370|249:362,1,70
215,323,190438,6,0,B|199:297|199:297|207:311|207:311|192:285,1,70
191,286,190786,2,0,P|164:257|110:241,1,70
132,243,190962,1,0,0:0:0:0:
132,243,191315,2,0,P|118:202|126:163,1,70
146,123,191844,1,0,0:0:0:0:
184,69,192021,1,0,0:0:0:0:
188,79,192065,1,0,0:0:0:0:
195,87,192109,6,0,B|213:73|238:68|276:79|276:79|293:91|293:91|313:93|313:93|331:106|331:106|354:112|354:112|371:127|371:127|397:134|397:134|410:149|410:149|431:154,1,262.5
434,157,193432,1,0,0:0:0:0:
434,157,194138,6,0,P|455:196|453:230,1,70
413,302,194844,6,0,B|347:283|283:303|283:303|244:316|221:296|221:296|252:287|270:275,1,245
184,247,196609,6,0,P|214:239|253:220,1,70
291,144,197315,6,0,L|288:122,3,17.5
300,177,197668,6,0,P|318:192|339:200,1,35
388,210,198005,2,0,P|405:170|405:137,1,70
405,143,198358,2,0,P|403:178|388:210,1,70
387,210,198711,2,0,P|382:239|384:259,1,35
415,326,199064,6,0,P|397:331|337:323,1,70
346,326,199240,2,0,P|387:320|413:306,1,70
411,306,199416,2,0,B|434:269|458:255|458:255|448:223|455:179,1,140
454,185,200122,2,0,B|432:196|411:201|411:201|422:198|422:198|404:202,1,70
393,202,200475,5,0,0:0:0:0:
284,177,200667,1,0,0:0:0:0:
443,23,201019,5,0,0:0:0:0:
413,122,201196,1,0,0:0:0:0:
208,61,201549,5,0,0:0:0:0:
308,91,201725,1,0,0:0:0:0:
138,256,202078,5,0,0:0:0:0:
171,162,202255,2,0,B|208:173|233:206|237:235|237:235|263:232|293:243|293:243|321:251|343:236,1,210.000008010865
408,154,203314,5,0,0:0:0:0:
408,154,204019,2,0,B|381:123|341:118|307:141|298:177|298:177|241:160|236:101|278:68,1,280
277,68,205431,2,0,P|250:52|237:14,1,70
237,17,205784,1,0,0:0:0:0:
113,82,206137,6,0,B|28:95|29:211|140:225|166:152|166:152|177:113|222:112|222:112|269:146|320:126,1,420
317,126,208255,2,0,P|301:169|309:201,1,70
304,191,208608,1,0,0:0:0:0:
379,283,208952,1,0,0:0:0:0:
379,283,209657,6,0,B|453:303|475:212|401:175|361:224|361:224|340:256|305:257|305:257|326:264,1,280
323,262,211069,2,0,P|276:268|246:257,1,70
254,261,211422,1,0,0:0:0:0:
156,316,211775,5,0,0:0:0:0:
145,312,211834,1,0,0:0:0:0:
132,308,211893,1,0,0:0:0:0:
119,304,211952,2,0,P|51:179|175:262,1,385
180,247,213893,2,0,P|219:208|239:200,1,70
231,202,214246,1,0,0:0:0:0:
326,148,214599,6,0,P|342:93|300:11,1,140
310,19,215304,1,0,0:0:0:0:
223,18,215657,1,0,0:0:0:0:
104,96,216010,1,0,0:0:0:0:
100,195,216363,1,0,0:0:0:0:
151,248,216716,1,0,0:0:0:0:
206,257,217069,1,0,0:0:0:0:
238,245,217422,6,0,B|294:237|312:187|312:187|297:150|303:104|303:104|337:137|373:147|414:136|414:136|387:157|375:187|375:187|360:177|354:142,1,420
354,143,219540,2,0,P|360:93|372:73,1,70
369,76,219893,1,0,0:0:0:0:
469,136,220246,5,0,0:0:0:0:
453,60,220599,1,0,0:0:0:0:
488,207,220942,5,0,0:0:0:0:
330,158,221304,1,0,0:0:0:0:
408,183,221656,6,0,P|386:224|327:247,1,105
334,246,222185,1,0,0:0:0:0:
268,247,222361,2,0,P|260:296|267:324,1,70
263,315,222714,1,0,0:0:0:0:
318,353,222891,1,0,0:0:0:0:
381,352,223067,6,0,P|419:284|420:254,1,105
420,258,223597,1,0,0:0:0:0:
343,163,223950,1,0,0:0:0:0:
257,151,224303,1,0,0:0:0:0:
199,159,224656,5,0,0:0:0:0:
190,162,224832,1,0,0:0:0:0:
182,166,225008,1,0,0:0:0:0:
173,171,225185,2,0,P|177:215|191:240,1,70
256,192,225891,6,0,B|231:192|221:243|298:253|339:217|335:175|342:96|226:68|172:117|77:192|142:314|225:282|352:407|456:266|433:141|396:32|206:-12|98:118|118:223|203:294|301:259|301:259|334:273|334:273|417:185|368:70|253:-9|124:69|87:183|136:297|252:304|252:304|277:305|309:297|334:273|334:273|402:289|467:295|473:282|473:282|478:265|427:219|287:112|137:102|51:83|42:99|42:99|36:116|122:188|239:250|310:262,1,2481.15007571869
