osu file format v14

[General]
AudioFilename: audio.mp3
AudioLeadIn: 0
PreviewTime: 80969
Countdown: 0
SampleSet: Normal
StackLeniency: 0
Mode: 1
LetterboxInBreaks: 0
WidescreenStoryboard: 0

[Editor]
Bookmarks: 27558,82415,137272,192130
DistanceSpacing: 1.3
BeatDivisor: 8
GridSize: 32
TimelineZoom: 4.399998

[Metadata]
Title:Ghostmachine
TitleUnicode:Ghostmachine
Artist:Culprate & Zenji
ArtistUnicode:Culprate & Zenji
Creator:Genjuro
Version:Oni
Source:
Tags:electronic instrumental uk bass bassline unity project, pt. 1 featured artist fa mappers' guild mpg mg
BeatmapID:3299023
BeatmapSetID:1615826

[Difficulty]
HPDrainRate:6
CircleSize:2
OverallDifficulty:6
ApproachRate:10
SliderMultiplier:1.4
SliderTickRate:1

[Events]
//Background and Video events
0,0,"bg.jpg",0,0
//Break Periods
2,55187,61501
//Storyboard Layer 0 (Background)
//Storyboard Layer 1 (Fail)
//Storyboard Layer 2 (Pass)
//Storyboard Layer 3 (Foreground)
//Storyboard Layer 4 (Overlay)
//Storyboard Sound Samples

[TimingPoints]
130,428.571428571429,4,1,0,50,1,0
130,-50,4,1,0,50,0,0
344,-50,4,1,0,25,0,0
558,-100,4,1,0,25,0,0
987,-114.285714285714,4,1,0,25,0,0
1415,-100,4,1,0,25,0,0
1844,-114.285714285714,4,1,0,25,0,0
2272,-100,4,1,0,25,0,0
2701,-114.285714285714,4,1,0,25,0,0
3130,-100,4,1,0,25,0,0
3558,-114.285714285714,4,1,0,25,0,0
3987,-100,4,1,0,25,0,0
4415,-114.285714285714,4,1,0,25,0,0
4844,-100,4,1,0,25,0,0
5272,-114.285714285714,4,1,0,25,0,0
5701,-100,4,1,0,25,0,0
6130,-114.285714285714,4,1,0,25,0,0
6183,-113.274400438598,4,1,0,25,0,0
6237,-112.280701754386,4,1,0,25,0,0
6344,-110.344827586207,4,1,0,25,0,0
6451,-108.474576271186,4,1,0,25,0,0
6558,-106.666666666667,4,1,0,25,0,0
6630,-105.49446839755,4,1,0,25,0,0
6701,-104.347862381865,4,1,0,25,0,0
6772,-103.225806451613,4,1,0,25,0,0
6844,-102.127624807617,4,1,0,25,0,0
6915,-101.05266561774,4,1,0,25,0,0
6987,-100,4,1,0,25,0,0
7844,-114.285714285714,4,1,0,25,0,0
8272,-100,4,1,0,25,0,0
8701,-114.285714285714,4,1,0,25,0,0
9130,-100,4,1,0,25,0,0
9558,-114.285714285714,4,1,0,25,0,0
9987,-100,4,1,0,25,0,0
10415,-114.285714285714,4,1,0,25,0,0
11058,-114.285714285714,4,1,0,5,0,0
11272,-133.333333333333,4,1,0,5,0,0
11701,-133.333333333333,4,1,0,10,0,0
12130,-160,4,1,0,15,0,0
12558,-160,4,1,0,20,0,0
12987,-160,4,1,0,25,0,0
13415,-160,4,1,0,30,0,0
13844,-200,4,1,0,15,0,0
14487,-191.044593629045,4,1,0,16,0,0
15558,-177.777777777778,4,1,0,17,0,0
15987,-172.972972972973,4,1,0,18,0,0
16201,-170.666521031235,4,1,0,18,0,0
16630,-166.233904402206,4,1,0,19,0,0
16844,-164.102564102564,4,1,0,20,0,0
17272,-160,4,1,0,21,0,0
17701,-156.09756097561,4,1,0,22,0,0
17915,-154.21674855576,4,1,0,23,0,0
18344,-150.588348678286,4,1,0,24,0,0
18987,-145.454545454545,4,1,0,24,0,0
19415,-142.222222222222,4,1,0,25,0,0
19630,-140.65924173416,4,1,0,26,0,0
19844,-139.130434782609,4,1,0,27,0,0
19897,-138.753411599508,4,1,0,28,0,0
19951,-138.378426249834,4,1,0,29,0,0
20058,-137.634503318368,4,1,0,30,0,0
20165,-136.898348869014,4,1,0,31,0,0
20272,-136.170212765957,4,1,0,31,0,0
20344,-135.689076622265,4,1,0,32,0,0
20415,-135.211328545951,4,1,0,33,0,0
20487,-134.736751335241,4,1,0,34,0,0
20558,-134.265674174803,4,1,0,35,0,0
20630,-133.797879571205,4,1,0,36,0,0
20701,-133.333333333333,4,1,0,37,0,0
21130,-130.612244897959,4,1,0,37,0,0
21344,-129.292845709676,4,1,0,38,0,0
21772,-126.73275357323,4,1,0,39,0,0
22415,-123.076923076923,4,1,0,40,0,0
22844,-120.754716981132,4,1,0,41,0,0
23058,-119.626096672241,4,1,0,42,0,0
23487,-117.431261611016,4,1,0,43,0,0
23701,-116.363636363636,4,1,0,43,0,0
24130,-114.285714285714,4,1,0,44,0,0
24558,-110.344827586207,4,1,0,45,0,0
24772,-108.474576271186,4,1,0,46,0,0
25201,-104.918032786885,4,1,0,47,0,0
25308,-104.064986502771,4,1,0,49,0,0
25415,-103.225806451613,4,1,0,50,0,0
25522,-102.400052428827,4,1,0,52,0,0
25630,-101.587301587302,4,1,0,53,0,0
25844,-100,4,1,0,55,0,0
25897,-98.4615384615385,4,1,0,56,0,0
25951,-96.969696969697,4,1,0,58,0,0
26005,-95.5223880597015,4,1,0,60,0,0
26058,-94.1176470588235,4,1,0,61,0,0
26165,-91.4285714285714,4,1,0,63,0,0
26272,-88.8888888888889,4,1,0,64,0,0
26487,-84.2105263157895,4,1,0,66,0,0
26594,-82.0512820512821,4,1,0,67,0,0
26701,-80,4,1,0,69,0,0
26808,-78.0487804878049,4,1,0,71,0,0
26915,-76.1904761904762,4,1,0,72,0,0
27130,-72.7272727272727,4,1,0,74,0,0
27237,-71.1111111111111,4,1,0,75,0,0
27344,-69.5652173913043,4,1,0,77,0,0
27451,-68.0851063829787,4,1,0,78,0,0
27558,-66.6666666666667,4,1,0,80,0,0
41272,-57.1428571428571,4,1,0,80,0,0
53272,-57.1428571428571,4,1,0,80,0,0
53487,-60.3596469202094,4,1,0,80,0,0
53701,-63.9602116315482,4,1,0,80,0,0
53808,-65.9265749364303,4,1,0,80,0,0
53915,-68.0176328911507,4,1,0,80,0,0
54130,-72.6246474981172,4,1,0,80,0,0
54237,-75.1703924871703,4,1,0,80,0,0
54344,-77.9010952114976,4,1,0,80,0,0
54451,-80.8376722953938,4,1,0,80,0,0
54558,-84.004317821936,4,1,0,80,0,0
54772,-91.1452399398441,4,1,0,80,0,0
54987,428.571428571429,140,1,0,80,1,0
55201,-100,140,1,0,5,0,0
61844,-100,140,1,0,15,0,0
61951,-10000,140,1,0,15,0,0
66975,428.571428571429,5,1,0,15,1,0
66975,-50,5,1,0,15,0,0
67028,-50.7936507936508,5,1,0,18,0,0
67082,-51.6129032258064,5,1,0,20,0,0
67135,-52.4590163934426,5,1,0,22,0,0
67189,-53.3333333333333,5,1,0,25,0,0
67260,-54.5454644628117,5,1,0,28,0,0
67332,-55.8139431043827,5,1,0,30,0,0
67403,-57.1428571428571,5,1,0,32,0,0
67510,-59.2592592592593,5,1,0,35,0,0
67617,-61.5384615384615,5,1,0,38,0,0
67725,-64,5,1,0,40,0,0
67832,-66.6666666666667,5,1,0,42,0,0
67975,-70.588218685125,5,1,0,45,0,0
68117,-75.0000187500047,5,1,0,48,0,0
68260,-80,5,1,0,50,0,0
68475,-88.8888888888889,5,1,0,52,0,0
68582,-88.8888888888889,5,1,0,76,0,0
68701,428.571428571429,4,1,0,76,1,0
68701,-50,4,1,0,76,0,0
68808,-50,4,1,0,16,0,0
69701,-309.677099688155,4,1,0,16,0,0
69986,-290.909090909091,4,1,0,17,0,0
70415,-266.666666666667,4,1,0,18,0,0
70843,-246.153846153846,4,1,0,19,0,0
70986,-239.999808000154,4,1,0,20,0,0
71272,-228.571428571429,4,1,0,21,0,0
71701,-213.333333333333,4,1,0,22,0,0
72129,-100,4,1,0,22,0,0
73129,-174.545352991795,4,1,0,23,0,0
73415,-168.421052631579,4,1,0,24,0,0
73843,-160,4,1,0,25,0,0
74272,-152.380952380952,4,1,0,26,0,0
74415,-149.999925000038,4,1,0,27,0,0
74701,-145.454545454545,4,1,0,28,0,0
75129,-139.130434782609,4,1,0,29,0,0
75558,-80,4,1,0,30,0,0
76558,-121.518938118911,4,1,0,31,0,0
76843,-118.518518518519,4,1,0,32,0,0
77272,-114.285714285714,4,1,0,33,0,0
77701,-110.344827586207,4,1,0,34,0,0
77843,-109.090869421502,4,1,0,35,0,0
78129,-106.666666666667,4,1,0,36,0,0
78558,-103.225806451613,4,1,0,37,0,0
78986,-100,4,1,0,38,0,0
79058,-97.9695804452717,4,1,0,40,0,0
79129,-96.0198799559461,4,1,0,42,0,0
79201,-94.1463561594312,4,1,0,43,0,0
79272,-92.3444596094568,4,1,0,45,0,0
79343,-90.6103239590913,4,1,0,47,0,0
79415,-88.9401183970856,4,1,0,48,0,0
79486,-87.3302954034572,4,1,0,50,0,0
79558,-85.7777857837045,4,1,0,52,0,0
79629,-84.2795113136816,4,1,0,54,0,0
79701,-82.8326102046462,4,1,0,56,0,0
79772,-81.4346173672351,4,1,0,57,0,0
79843,-80.082965952727,4,1,0,59,0,0
79915,-78.7755134194087,4,1,0,61,0,0
79986,-77.5100666199023,4,1,0,62,0,0
80058,-76.2845750300752,4,1,0,64,0,0
80129,-75.0972885373001,4,1,0,66,0,0
80201,-73.9463386209895,4,1,0,68,0,0
80272,-72.8301884044144,4,1,0,70,0,0
80343,-71.7472316330674,4,1,0,71,0,0
80415,-70.6959593017502,4,1,0,73,0,0
80486,-69.6750980502817,4,1,0,75,0,0
80558,-68.6832527564306,4,1,0,76,0,0
80629,-67.7192953942753,4,1,0,78,0,0
80665,-66.7820214784337,4,1,0,80,0,0
82361,-40,4,1,0,100,0,0
82415,-40,4,1,0,100,0,1
82840,-51.6129032258064,4,1,0,100,0,1
82876,-51.7520126357714,4,1,0,100,0,1
82983,-52.1739039697558,4,1,0,100,0,1
83019,-52.316085417519,4,1,0,100,0,1
83126,-52.7472620214966,4,1,0,100,0,1
83162,-52.8925619834711,4,1,0,100,0,1
83269,-53.3333333333333,4,1,0,100,0,1
83412,-53.9325745739192,4,1,0,100,0,1
83483,-54.2372881355932,4,1,0,100,0,1
83698,-55.1724137931034,4,1,0,100,0,1
83840,-55.8139431043827,4,1,0,100,0,1
84055,-56.8047229718868,4,1,0,100,0,1
84126,-57.1428571428571,4,1,0,100,0,1
84269,-57.8313141529997,4,1,0,100,0,1
84483,-58.8956939591276,4,1,0,100,0,1
84555,-59.2592592592593,4,1,0,100,0,1
84698,-59.9999880000024,4,1,0,100,0,1
84769,-60.377358490566,4,1,0,100,0,1
84983,-61.5384615384615,4,1,0,100,0,1
85126,-62.3376493843845,4,1,0,100,0,1
85412,-64,4,1,0,100,0,1
85555,-64.8648508400323,4,1,0,100,0,1
85840,-40,4,1,0,100,0,1
86269,-51.6085880819255,4,1,0,100,0,1
86296,-51.7125650156224,4,1,0,100,0,1
86376,-52.0270249178233,4,1,0,100,0,1
86403,-52.1326964803131,4,1,0,100,0,1
86483,-52.4523024987228,4,1,0,100,0,1
86510,-52.5597380843132,4,1,0,100,0,1
86590,-52.8846179271451,4,1,0,100,0,1
86617,-52.9938055540688,4,1,0,100,0,1
86698,-53.3240904909816,4,1,0,100,0,1
86840,-53.921581843525,4,1,0,100,0,1
87126,-55.1575935183209,4,1,0,100,0,1
87269,-55.797094980047,4,1,0,100,0,1
87483,-56.7846595106639,4,1,0,100,0,1
87555,-57.1216731623529,4,1,0,100,0,1
87698,-57.8078121477336,4,1,0,100,0,1
87912,-58.8685118805487,4,1,0,100,0,1
87983,-59.23075829586,4,1,0,100,0,1
88198,-60.344822384067,4,1,0,100,0,1
88340,-61.1110975308672,4,1,0,100,0,1
88412,-61.5015984265431,4,1,0,100,0,1
88555,-66.6666666666667,4,1,0,100,0,1
88769,-60.6060606060606,4,1,0,100,0,1
89055,-54.054054054054,4,1,0,100,0,1
89126,-52.6315789473684,4,1,0,100,0,1
89198,-51.2820512820513,4,1,0,100,0,1
89269,-40,4,1,0,100,0,1
89697,-51.6129032258064,4,1,0,100,0,1
89733,-51.7520126357714,4,1,0,100,0,1
89840,-52.1739039697558,4,1,0,100,0,1
89876,-52.316085417519,4,1,0,100,0,1
89983,-52.7472620214966,4,1,0,100,0,1
90019,-52.8925619834711,4,1,0,100,0,1
90126,-53.3333333333333,4,1,0,100,0,1
90269,-53.9325745739192,4,1,0,100,0,1
90340,-54.2372881355932,4,1,0,100,0,1
90555,-55.1724137931034,4,1,0,100,0,1
90697,-55.8139431043827,4,1,0,100,0,1
90912,-56.8047229718868,4,1,0,100,0,1
90983,-57.1428571428571,4,1,0,100,0,1
91126,-57.8313141529997,4,1,0,100,0,1
91340,-58.8956939591276,4,1,0,100,0,1
91412,-59.2592592592593,4,1,0,100,0,1
91555,-59.9999880000024,4,1,0,100,0,1
91626,-60.377358490566,4,1,0,100,0,1
91840,-61.5384615384615,4,1,0,100,0,1
91983,-62.3376493843845,4,1,0,100,0,1
92269,-50,4,1,0,100,0,1
92412,-54.4444353703719,4,1,0,100,0,1
92555,-59.7561114069039,4,1,0,100,0,1
92629,-66.6666666666667,4,1,0,100,0,1
92701,-66.6666666666667,4,1,0,100,0,0
96076,-40,4,1,0,100,0,0
96129,-40,4,1,0,100,0,1
96554,-51.6129032258064,4,1,0,100,0,1
96590,-51.7520126357714,4,1,0,100,0,1
96697,-52.1739039697558,4,1,0,100,0,1
96733,-52.316085417519,4,1,0,100,0,1
96840,-52.7472620214966,4,1,0,100,0,1
96876,-52.8925619834711,4,1,0,100,0,1
96983,-53.3333333333333,4,1,0,100,0,1
97126,-53.9325745739192,4,1,0,100,0,1
97197,-54.2372881355932,4,1,0,100,0,1
97340,-54.8571328261243,4,1,0,100,0,1
97412,-55.1724137931034,4,1,0,100,0,1
97554,-55.8139431043827,4,1,0,100,0,1
97769,-56.8047229718868,4,1,0,100,0,1
97840,-57.1428571428571,4,1,0,100,0,1
97983,-57.8313141529997,4,1,0,100,0,1
98197,-58.8956939591276,4,1,0,100,0,1
98269,-59.2592592592593,4,1,0,100,0,1
98412,-59.9999880000024,4,1,0,100,0,1
98483,-60.377358490566,4,1,0,100,0,1
98697,-61.5384615384615,4,1,0,100,0,1
98840,-62.3376493843845,4,1,0,100,0,1
99126,-64,4,1,0,100,0,1
99269,-64.8648508400323,4,1,0,100,0,1
99555,-40,4,1,0,100,0,1
99983,-51.6129032258064,4,1,0,100,0,1
100010,-51.717165030508,4,1,0,100,0,1
100090,-52.0325203252033,4,1,0,100,0,1
100117,-52.1384860756352,4,1,0,100,0,1
100197,-52.4590163934426,4,1,0,100,0,1
100224,-52.5667282047832,4,1,0,100,0,1
100304,-52.8925619834711,4,1,0,100,0,1
100331,-53.002063370327,4,1,0,100,0,1
100412,-53.3333333333333,4,1,0,100,0,1
100554,-53.9325745739192,4,1,0,100,0,1
100840,-55.1724137931034,4,1,0,100,0,1
100983,-55.8139431043827,4,1,0,100,0,1
101198,-56.8047229718868,4,1,0,100,0,1
101269,-57.1428571428571,4,1,0,100,0,1
101555,-58.5365967876286,4,1,0,100,0,1
101698,-59.2592592592593,4,1,0,100,0,1
101840,-59.9999880000024,4,1,0,100,0,1
101983,-60.7595059766088,4,1,0,100,0,1
102126,-61.5384615384615,4,1,0,100,0,1
102269,-62.3376493843845,4,1,0,100,0,1
102555,-50,4,1,0,100,0,1
102626,-48.0000076800012,4,1,0,100,0,1
102698,-46.1538390532555,4,1,0,100,0,1
102769,-44.4444444444444,4,1,0,100,0,1
102840,-42.8571489795927,4,1,0,100,0,1
102912,-41.3793046373373,4,1,0,100,0,1
102983,-40,4,1,0,100,0,1
103411,-51.6085880819255,4,1,0,100,0,1
103447,-51.7472993084491,4,1,0,100,0,1
103554,-52.1680248611939,4,1,0,100,0,1
103590,-52.3097911374659,4,1,0,100,0,1
103697,-52.7397231375494,4,1,0,100,0,1
103733,-52.8846179271451,4,1,0,100,0,1
103840,-53.3240904909816,4,1,0,100,0,1
103983,-53.921581843525,4,1,0,100,0,1
104054,-54.2253475302523,4,1,0,100,0,1
104198,-54.8432935152741,4,1,0,100,0,1
104269,-55.1575935183209,4,1,0,100,0,1
104411,-55.797094980047,4,1,0,100,0,1
104626,-56.7846595106639,4,1,0,100,0,1
104697,-57.1216731623529,4,1,0,100,0,1
104840,-57.8078121477336,4,1,0,100,0,1
105054,-58.8685118805487,4,1,0,100,0,1
105126,-59.23075829586,4,1,0,100,0,1
105269,-59.9688641657252,4,1,0,100,0,1
105340,-60.344822384067,4,1,0,100,0,1
105554,-61.5015984265431,4,1,0,100,0,1
105697,-62.297727067428,4,1,0,100,0,1
105983,-50,4,1,0,100,0,1
106126,-54.4444353703719,4,1,0,100,0,1
106269,-59.7561114069039,4,1,0,100,0,1
106412,-66.6666666666667,4,1,0,100,0,1
106736,-66.60898328714,4,1,0,40,0,1
106840,-51.6129032258064,4,1,0,40,0,1
107269,-42.1052631578947,4,1,0,40,0,1
107698,-35.5555555555556,4,1,0,40,0,1
108126,-30.7692307692308,4,1,0,40,0,1
108555,-27.1186440677966,4,1,0,40,0,1
108983,-24.2424242424242,4,1,0,40,0,1
109412,-21.9178082191781,4,1,0,40,0,1
109736,-21.9178082191781,4,1,0,100,0,1
109840,-50,4,1,0,100,0,1
109912,-50.2611064479973,4,1,0,100,0,1
109983,-50.5249287472192,4,1,0,100,0,1
110055,-50.7915610837091,4,1,0,100,0,1
110126,-51.0609964451334,4,1,0,100,0,1
110198,-51.3333319644445,4,1,0,100,0,1
110269,-51.6085880819255,4,1,0,100,0,1
110483,-52.4523024987228,4,1,0,100,0,1
110537,-52.6675869449692,4,1,0,100,0,1
110590,-52.8846179271451,4,1,0,100,0,1
110644,-53.1034449797862,4,1,0,100,0,1
110674,-53.3240904909816,4,1,0,100,0,1
110701,-53.3240904909816,4,1,0,100,0,0
110808,-53.3240904909816,4,1,0,70,0,0
110840,-100,4,1,0,70,0,0
112840,-66.6666666666667,4,1,0,70,0,0
112876,-64.9006760054413,4,1,0,70,0,0
112912,-63.2257925827294,4,1,0,70,0,0
112983,-60.1227104520326,4,1,0,70,0,0
113162,-53.5519108125057,4,1,0,70,0,0
113218,-50,4,1,0,100,0,0
113272,-50,4,1,0,100,0,1
113412,-50.5249287472192,4,1,0,100,0,1
113555,-51.0609964451334,4,1,0,100,0,1
113698,-51.6085880819255,4,1,0,100,0,1
113912,-52.4523024987228,4,1,0,100,0,1
113965,-52.6675869449692,4,1,0,100,0,1
114019,-52.8846179271451,4,1,0,100,0,1
114073,-53.1034449797862,4,1,0,100,0,1
114126,-53.3240904909816,4,1,0,100,0,1
114269,-53.921581843525,4,1,0,100,0,1
114412,-54.5325848554287,4,1,0,100,0,1
114555,-55.1575935183209,4,1,0,100,0,1
114698,-55.797094980047,4,1,0,100,0,1
114769,-56.1224547063729,4,1,0,100,0,1
114983,-57.1216731623529,4,1,0,100,0,1
115126,-57.8078121477336,4,1,0,100,0,1
115198,-58.157083445528,4,1,0,100,0,1
115340,-58.8685118805487,4,1,0,100,0,1
115412,-59.23075829586,4,1,0,100,0,1
115555,-59.9688641657252,4,1,0,100,0,1
115626,-60.344822384067,4,1,0,100,0,1
115698,-60.7255611497292,4,1,0,100,0,1
115769,-61.1110975308672,4,1,0,100,0,1
115840,-61.5015984265431,4,1,0,100,0,1
115983,-62.297727067428,4,1,0,100,0,1
116055,-62.7035907211226,4,1,0,100,0,1
116198,-63.5313520869414,4,1,0,100,0,1
116269,-63.9535032450008,4,1,0,100,0,1
116412,-64.8148208161871,4,1,0,100,0,1
116590,-65.9246626140579,4,1,0,100,0,1
116698,-50,4,1,0,100,0,1
116769,-50.2617885255352,4,1,0,100,0,1
116840,-50.5263072797798,4,1,0,100,0,1
116912,-50.7936507936508,4,1,0,100,0,1
116983,-51.0638384789512,4,1,0,100,0,1
117055,-51.3368896107996,4,1,0,100,0,1
117126,-51.6129032258064,4,1,0,100,0,1
117340,-52.4590163934426,4,1,0,100,0,1
117394,-52.6748832461213,4,1,0,100,0,1
117448,-52.8925619834711,4,1,0,100,0,1
117501,-53.1120472994648,4,1,0,100,0,1
117555,-53.3333333333333,4,1,0,100,0,1
117698,-53.9325745739192,4,1,0,100,0,1
117876,-54.7008547008547,4,1,0,100,0,1
117983,-55.1724137931034,4,1,0,100,0,1
118126,-55.8139431043827,4,1,0,100,0,1
118340,-56.8047229718868,4,1,0,100,0,1
118412,-57.1428571428571,4,1,0,100,0,1
118626,-58.1818181818182,4,1,0,100,0,1
118698,-58.5365967876286,4,1,0,100,0,1
118769,-58.8956939591276,4,1,0,100,0,1
118840,-59.2592592592593,4,1,0,100,0,1
118983,-59.9999880000024,4,1,0,100,0,1
119162,-60.9523809523809,4,1,0,100,0,1
119269,-61.5384615384615,4,1,0,100,0,1
119412,-62.3376493843845,4,1,0,100,0,1
119698,-64,4,1,0,100,0,1
119840,-64.8648508400323,4,1,0,100,0,1
120019,-65.979381443299,4,1,0,100,0,1
120126,-66.6666666666667,4,1,0,100,0,1
120451,-66.6666666666667,4,1,0,40,0,1
120555,-51.6431827900126,4,1,0,40,0,1
120983,-42.1455987140535,4,1,0,40,0,1
121412,-35.5987043495565,4,1,0,40,0,1
121840,-30.8123206145209,4,1,0,40,0,1
122269,-27.1604951684195,4,1,0,40,0,1
122698,-24.2825596343241,4,1,0,40,0,1
123126,-21.9560900155778,4,1,0,40,0,1
123555,-50,4,1,0,100,0,1
123626,-50.2617885255352,4,1,0,100,0,1
123698,-50.5263072797798,4,1,0,100,0,1
123769,-50.7936507936508,4,1,0,100,0,1
123840,-51.0638384789512,4,1,0,100,0,1
123912,-51.3368896107996,4,1,0,100,0,1
123983,-51.6129032258064,4,1,0,100,0,1
124090,-52.0325203252033,4,1,0,100,0,1
124198,-52.4590163934426,4,1,0,100,0,1
124251,-52.6748832461213,4,1,0,100,0,1
124305,-52.8925619834711,4,1,0,100,0,1
124358,-53.1120472994648,4,1,0,100,0,1
124412,-53.3333333333333,4,1,0,100,0,1
124555,-53.9325745739192,4,1,0,100,0,1
124626,-54.2372881355932,4,1,0,100,0,1
124769,-54.8571328261243,4,1,0,100,0,1
124840,-55.1724137931034,4,1,0,100,0,1
124983,-55.8139431043827,4,1,0,100,0,1
125198,-56.8047229718868,4,1,0,100,0,1
125269,-57.1428571428571,4,1,0,100,0,1
125412,-57.8313141529997,4,1,0,100,0,1
125483,-58.1818181818182,4,1,0,100,0,1
125555,-58.5365967876286,4,1,0,100,0,1
125626,-58.8956939591276,4,1,0,100,0,1
125698,-59.2592592592593,4,1,0,100,0,1
125840,-59.9999880000024,4,1,0,100,0,1
125912,-60.377358490566,4,1,0,100,0,1
126055,-61.1464843523089,4,1,0,100,0,1
126126,-61.5384615384615,4,1,0,100,0,1
126269,-62.3376493843845,4,1,0,100,0,1
126555,-64,4,1,0,100,0,1
126698,-64.8648508400323,4,1,0,100,0,1
126876,-65.979381443299,4,1,0,100,0,1
126983,-50,4,1,0,100,0,1
127126,-50.5249287472192,4,1,0,100,0,1
127269,-51.0609964451334,4,1,0,100,0,1
127412,-51.6085880819255,4,1,0,100,0,1
127626,-52.4523024987228,4,1,0,100,0,1
127680,-52.6675869449692,4,1,0,100,0,1
127733,-52.8846179271451,4,1,0,100,0,1
127787,-53.1034449797862,4,1,0,100,0,1
127840,-53.3240904909816,4,1,0,100,0,1
127983,-53.921581843525,4,1,0,100,0,1
128055,-54.2253475302523,4,1,0,100,0,1
128126,-54.5325848554287,4,1,0,100,0,1
128269,-55.1575935183209,4,1,0,100,0,1
128412,-55.797094980047,4,1,0,100,0,1
128483,-56.1224547063729,4,1,0,100,0,1
128698,-57.1216731623529,4,1,0,100,0,1
128769,-57.4626779906451,4,1,0,100,0,1
128840,-57.8078121477336,4,1,0,100,0,1
128912,-58.157083445528,4,1,0,100,0,1
129055,-58.8685118805487,4,1,0,100,0,1
129126,-59.23075829586,4,1,0,100,0,1
129269,-59.9688641657252,4,1,0,100,0,1
129340,-60.344822384067,4,1,0,100,0,1
129412,-60.7255611497292,4,1,0,100,0,1
129483,-61.1110975308672,4,1,0,100,0,1
129555,-61.5015984265431,4,1,0,100,0,1
129698,-62.297727067428,4,1,0,100,0,1
129769,-62.7035907211226,4,1,0,100,0,1
129912,-63.5313520869414,4,1,0,100,0,1
129983,-63.9535032450008,4,1,0,100,0,1
130126,-64.8148208161871,4,1,0,100,0,1
130305,-65.9246626140579,4,1,0,100,0,1
130412,-50,4,1,0,100,0,1
130483,-50.2617885255352,4,1,0,100,0,1
130555,-50.5263072797798,4,1,0,100,0,1
130626,-50.7936507936508,4,1,0,100,0,1
130698,-51.0638384789512,4,1,0,100,0,1
130769,-51.3368896107996,4,1,0,100,0,1
130840,-51.6129032258064,4,1,0,100,0,1
130948,-52.0325203252033,4,1,0,100,0,1
131055,-52.4590163934426,4,1,0,100,0,1
131108,-52.6748832461213,4,1,0,100,0,1
131162,-52.8925619834711,4,1,0,100,0,1
131215,-53.1120472994648,4,1,0,100,0,1
131269,-53.3333333333333,4,1,0,100,0,1
131412,-53.9325745739192,4,1,0,100,0,1
131483,-54.2372881355932,4,1,0,100,0,1
131626,-54.8571328261243,4,1,0,100,0,1
131698,-55.1724137931034,4,1,0,100,0,1
131840,-55.8139431043827,4,1,0,100,0,1
132055,-56.8047229718868,4,1,0,100,0,1
132126,-57.1428571428571,4,1,0,100,0,1
132269,-57.8313141529997,4,1,0,100,0,1
132340,-58.1818181818182,4,1,0,100,0,1
132412,-58.5365967876286,4,1,0,100,0,1
132483,-58.8956939591276,4,1,0,100,0,1
132555,-59.2592592592593,4,1,0,100,0,1
132698,-59.9999880000024,4,1,0,100,0,1
132769,-60.377358490566,4,1,0,100,0,1
132840,-60.7595059766088,4,1,0,100,0,1
132912,-61.1464843523089,4,1,0,100,0,1
132983,-61.5384615384615,4,1,0,100,0,1
133126,-62.3376493843845,4,1,0,100,0,1
133412,-64,4,1,0,100,0,1
133555,-64.8648508400323,4,1,0,100,0,1
133733,-65.979381443299,4,1,0,100,0,1
133790,-33.3333333333333,4,1,0,100,0,1
133843,428.571428571429,140,1,0,100,1,0
133843,-33.3333333333333,140,1,0,100,0,0
134593,-33.3333333333333,140,1,0,5,0,0
134698,-200,4,1,0,5,0,0
135128,-200,4,1,0,10,0,0
135557,-200,4,1,0,15,0,0
135985,-200,4,1,0,20,0,0
136414,-200,4,1,0,25,0,0
136843,-200,4,1,0,30,0,0
137164,-200,4,1,0,75,0,0
137272,428.571428571429,4,1,0,75,1,0
137272,-33.3333333333333,5,1,0,75,0,0
137379,-33.3333333333333,5,1,0,26,0,0
137700,-188.235294117647,5,1,0,27,0,0
137807,-185.507418441663,5,1,0,27,0,0
137914,-182.857142857143,5,1,0,28,0,0
138022,-180.281527633553,5,1,0,29,0,0
138129,-177.777777777778,5,1,0,30,0,0
138236,-175.342619478461,5,1,0,31,0,0
138343,-172.972972972973,5,1,0,31,0,0
138450,-170.666521031235,5,1,0,32,0,0
138557,-168.421052631579,5,1,0,33,0,0
138664,-166.233904402206,5,1,0,34,0,0
138772,-164.102564102564,5,1,0,35,0,0
138879,-162.025185194787,5,1,0,35,0,0
138986,-160,5,1,0,36,0,0
139093,-158.024816217139,5,1,0,37,0,0
139200,-156.09756097561,5,1,0,38,0,0
139307,-154.21674855576,5,1,0,39,0,0
139414,-152.380952380952,5,1,0,40,0,0
139522,-150.588348678286,5,1,0,40,0,0
139629,-148.837209302326,5,1,0,41,0,0
139736,-147.126328550747,5,1,0,42,0,0
139843,-145.454545454545,5,1,0,43,0,0
139950,-143.820328140461,5,1,0,44,0,0
140057,-142.222222222222,5,1,0,44,0,0
140164,-140.65924173416,5,1,0,45,0,0
140272,-139.130434782609,5,1,0,46,0,0
140379,-137.634503318368,5,1,0,47,0,0
140486,-136.170212765957,5,1,0,48,0,0
140593,-134.736751335241,5,1,0,48,0,0
140700,-133.333333333333,5,1,0,49,0,0
140807,-131.958849952231,5,1,0,50,0,0
140914,-130.612244897959,5,1,0,51,0,0
141022,-129.292845709676,5,1,0,52,0,0
141129,-128,5,1,0,52,0,0
141236,-126.73275357323,5,1,0,53,0,0
141343,-125.490196078431,5,1,0,54,0,0
141450,-124.271767442785,5,1,0,55,0,0
141557,-123.076923076923,5,1,0,56,0,0
141664,-121.904836208662,5,1,0,56,0,0
141772,-120.754716981132,5,1,0,57,0,0
141879,-119.626096672241,5,1,0,58,0,0
141986,-118.518518518519,5,1,0,59,0,0
142093,-117.431261611016,5,1,0,60,0,0
142200,-116.363636363636,5,1,0,60,0,0
142307,-115.315248827244,5,1,0,61,0,0
142414,-114.285714285714,5,1,0,62,0,0
142522,-113.274400438598,5,1,0,63,0,0
142629,-112.280701754386,5,1,0,64,0,0
142736,-111.304285882832,5,1,0,65,0,0
142843,-110.344827586207,5,1,0,65,0,0
142950,-109.401769245412,5,1,0,66,0,0
143057,-108.474576271186,5,1,0,67,0,0
143164,-107.562967361093,5,1,0,68,0,0
143272,-66.6666666666667,5,1,0,69,0,0
143379,-69.5652173913043,5,1,0,69,0,0
143486,-72.7272727272727,5,1,0,70,0,0
143593,-76.1904761904762,5,1,0,71,0,0
143629,-77.4193348595265,5,1,0,72,0,0
143664,-78.6885452297823,5,1,0,73,0,0
143700,-80,5,1,0,73,0,0
143914,-88.8888888888889,5,1,0,74,0,0
144129,-50,5,1,0,75,0,0
144343,-100,5,1,0,75,0,0
150557,-80,5,1,0,75,0,0
150629,-77.4703753284744,5,1,0,75,0,0
150700,-75.0957658754326,5,1,0,75,0,0
150772,-72.862452448142,5,1,0,75,0,0
150843,-70.7581380703548,5,1,0,75,0,0
150914,-68.7719124506046,5,1,0,75,0,0
150986,-66.8941961257557,5,1,0,75,0,0
151307,-66.8941961257557,5,1,0,88,0,0
151409,-90.9090909090909,5,1,0,88,0,0
164593,-90.9090909090909,5,1,0,100,0,0
164697,-50,5,1,0,100,0,0
164804,-53.3333333333333,5,1,0,100,0,0
164911,-57.1428571428571,5,1,0,100,0,0
165019,-61.5384615384615,5,1,0,100,0,0
165126,-66.6666666666667,5,1,0,100,0,0
165233,-72.7272727272727,5,1,0,100,0,0
165340,-80,5,1,0,100,0,0
165447,-88.8888888888889,5,1,0,100,0,0
165554,-50,5,1,0,100,0,0
165661,-53.3333333333333,5,1,0,100,0,0
165768,-57.1428571428571,5,1,0,100,0,0
165876,-61.5384615384615,5,1,0,100,0,0
165983,-66.6666666666667,5,1,0,100,0,0
166090,-72.7272727272727,5,1,0,100,0,0
166197,-80,5,1,0,100,0,0
166304,-88.8888888888889,5,1,0,100,0,0
166411,-50,5,1,0,100,0,0
166518,-53.3333333333333,5,1,0,100,0,0
166625,-57.1428571428571,5,1,0,100,0,0
166733,-61.5384615384615,5,1,0,100,0,0
166840,-66.6666666666667,5,1,0,100,0,0
166947,-72.7272727272727,5,1,0,100,0,0
167054,-80,5,1,0,100,0,0
167161,-88.8888888888889,5,1,0,100,0,0
167268,-50,5,1,0,100,0,0
167375,-53.3333333333333,5,1,0,100,0,0
167482,-57.1428571428571,5,1,0,100,0,0
167590,-61.5384615384615,5,1,0,100,0,0
167697,-66.6666666666667,5,1,0,100,0,0
167804,-72.7272727272727,5,1,0,100,0,0
167911,-80,5,1,0,100,0,0
168018,-88.8888888888889,5,1,0,100,0,0
168126,-50,5,1,0,100,0,0
168233,-53.3333333333333,5,1,0,100,0,0
168340,-57.1428571428571,5,1,0,100,0,0
168448,-61.5384615384615,5,1,0,100,0,0
168555,-66.6666666666667,5,1,0,100,0,0
168662,-72.7272727272727,5,1,0,100,0,0
168769,-80,5,1,0,100,0,0
168876,-88.8888888888889,5,1,0,100,0,0
168983,-50,5,1,0,100,0,0
169090,-53.3333333333333,5,1,0,100,0,0
169197,-57.1428571428571,5,1,0,100,0,0
169305,-61.5384615384615,5,1,0,100,0,0
169412,-66.6666666666667,5,1,0,100,0,0
169519,-72.7272727272727,5,1,0,100,0,0
169626,-80,5,1,0,100,0,0
169733,-88.8888888888889,5,1,0,100,0,0
169840,-50,5,1,0,100,0,0
169947,-53.3333333333333,5,1,0,100,0,0
170054,-57.1428571428571,5,1,0,100,0,0
170162,-61.5384615384615,5,1,0,100,0,0
170269,-66.6666666666667,5,1,0,100,0,0
170376,-72.7272727272727,5,1,0,100,0,0
170483,-80,5,1,0,100,0,0
170590,-88.8888888888889,5,1,0,100,0,0
170697,-50,5,1,0,100,0,0
170804,-53.3333333333333,5,1,0,100,0,0
170911,-57.1428571428571,5,1,0,100,0,0
171019,-61.5384615384615,5,1,0,100,0,0
171126,-66.6666666666667,5,1,0,100,0,0
171233,-72.7272727272727,5,1,0,100,0,0
171340,-80,5,1,0,100,0,0
171447,-88.8888888888889,5,1,0,100,0,0
171554,-50,5,1,0,100,0,0
171661,-53.3333333333333,5,1,0,100,0,0
171768,-57.1428571428571,5,1,0,100,0,0
171876,-61.5384615384615,5,1,0,100,0,0
171983,-66.6666666666667,5,1,0,100,0,0
172090,-72.7272727272727,5,1,0,100,0,0
172197,-80,5,1,0,100,0,0
172304,-88.8888888888889,5,1,0,100,0,0
172411,-50,5,1,0,100,0,0
172518,-53.3333333333333,5,1,0,100,0,0
172625,-57.1428571428571,5,1,0,100,0,0
172733,-61.5384615384615,5,1,0,100,0,0
172840,-66.6666666666667,5,1,0,100,0,0
172947,-72.7272727272727,5,1,0,100,0,0
173054,-80,5,1,0,100,0,0
173161,-88.8888888888889,5,1,0,100,0,0
173269,-50,5,1,0,100,0,0
173376,-53.3333333333333,5,1,0,100,0,0
173483,-57.1428571428571,5,1,0,100,0,0
173591,-61.5384615384615,5,1,0,100,0,0
173698,-66.6666666666667,5,1,0,100,0,0
173805,-72.7272727272727,5,1,0,100,0,0
173912,-80,5,1,0,100,0,0
174019,-88.8888888888889,5,1,0,100,0,0
174126,-50,5,1,0,100,0,0
174233,-53.3333333333333,5,1,0,100,0,0
174340,-57.1428571428571,5,1,0,100,0,0
174448,-61.5384615384615,5,1,0,100,0,0
174555,-66.6666666666667,5,1,0,100,0,0
174662,-72.7272727272727,5,1,0,100,0,0
174769,-80,5,1,0,100,0,0
174876,-88.8888888888889,5,1,0,100,0,0
174983,-50,5,1,0,100,0,0
175090,-53.3333333333333,5,1,0,100,0,0
175197,-57.1428571428571,5,1,0,100,0,0
175305,-61.5384615384615,5,1,0,100,0,0
175412,-66.6666666666667,5,1,0,100,0,0
175519,-72.7272727272727,5,1,0,100,0,0
175626,-80,5,1,0,100,0,0
175733,-88.8888888888889,5,1,0,100,0,0
175840,-50,5,1,0,100,0,0
175947,-53.3333333333333,5,1,0,100,0,0
176054,-57.1428571428571,5,1,0,100,0,0
176162,-61.5384615384615,5,1,0,100,0,0
176269,-66.6666666666667,5,1,0,100,0,0
176376,-72.7272727272727,5,1,0,100,0,0
176483,-80,5,1,0,100,0,0
176590,-88.8888888888889,5,1,0,100,0,0
176697,-100,5,1,0,100,0,0
176769,-95.9999692800098,5,1,0,100,0,0
176840,-92.3077207100679,5,1,0,100,0,0
176911,-88.8888888888889,5,1,0,100,0,0
177019,-84.2105263157895,5,1,0,100,0,0
177126,-80,5,1,0,100,0,0
177197,-77.4193348595265,5,1,0,100,0,0
177269,-75.0000187500047,5,1,0,100,0,0
177340,-72.7272727272727,5,1,0,100,0,0
177447,-69.5652173913043,5,1,0,100,0,0
177554,-66.6666666666667,5,1,0,100,0,0
177626,-64.8648508400323,5,1,0,100,0,0
177697,-63.1579080332438,5,1,0,100,0,0
177769,-61.5384615384615,5,1,0,100,0,0
177876,-59.2592592592593,5,1,0,100,0,0
177983,-57.1428571428571,5,1,0,100,0,0
178054,-55.8139431043827,5,1,0,100,0,0
178126,-54.5454644628117,5,1,0,100,0,0
178197,-53.3333333333333,5,1,0,100,0,0
178304,-51.6129032258064,5,1,0,100,0,0
178411,-40,5,1,0,100,0,0
178519,-40.3421823910408,5,1,0,99,0,0
178626,-40.6902862927853,5,1,0,99,0,0
178733,-41.044433061455,5,1,0,98,0,0
178840,-41.4047985677252,5,1,0,97,0,0
178947,-41.7715655105551,5,1,0,96,0,0
179054,-42.1448704635261,5,1,0,96,0,0
179161,-42.5249259853663,5,1,0,95,0,0
179269,-42.9118800252494,5,1,0,94,0,0
179376,-43.305940882194,5,1,0,94,0,0
179483,-43.707325260299,5,1,0,93,0,0
179590,-44.1162003069605,5,1,0,92,0,0
179697,-44.5327975147136,5,1,0,91,0,0
179804,-44.9573579459882,5,1,0,91,0,0
179911,-45.3900709219858,5,1,0,90,0,0
180019,-45.8311945442546,5,1,0,89,0,0
180126,-46.2809978553386,5,1,0,89,0,0
180233,-46.7396958834948,5,1,0,88,0,0
180340,-47.2075773826608,5,1,0,87,0,0
180447,-47.684943669776,5,1,0,86,0,0
180554,-48.1720396956876,5,1,0,86,0,0
180661,-48.6691896774595,5,1,0,85,0,0
180769,-49.1767323241612,5,1,0,84,0,0
180876,-49.6949475643761,5,1,0,84,0,0
180983,-50.2242260572325,5,1,0,83,0,0
181090,-50.7648743620124,5,1,0,82,0,0
181197,-51.317289153937,5,1,0,81,0,0
181304,-51.8818856990176,5,1,0,81,0,0
181411,-52.4590163934426,5,1,0,80,0,0
181519,-53.0491314530953,5,1,0,79,0,0
181626,-53.6527028353844,5,1,0,79,0,0
181733,-54.2701372057609,5,1,0,78,0,0
181840,-54.9019478662083,5,1,0,77,0,0
181947,-55.5486736920926,5,1,0,76,0,0
182054,-56.2107859504513,5,1,0,76,0,0
182161,-56.8889050706219,5,1,0,75,0,0
182269,-57.5835522947909,5,1,0,74,0,0
182376,-58.2953733294003,5,1,0,74,0,0
182483,-59.0250478693138,5,1,0,73,0,0
182590,-59.7731846734382,5,1,0,72,0,0
182697,-60.5405300686651,5,1,0,71,0,0
182804,-61.3278710642839,5,1,0,71,0,0
182911,-62.1359223300971,5,1,0,70,0,0
183019,-62.9655515467488,5,1,0,69,0,0
183126,-63.8176754539351,5,1,0,69,0,0
183233,-64.6931378047936,5,1,0,68,0,0
183340,-65.5929537425372,5,1,0,67,0,0
183447,-66.5181980486221,5,1,0,66,0,0
183554,-67.469873014952,5,1,0,66,0,0
183661,-68.4491744345071,5,1,0,65,0,0
183769,-69.4573712329795,5,1,0,64,0,0
183876,-70.4956620494358,5,1,0,64,0,0
183983,-71.5655171574749,5,1,0,63,0,0
184090,-72.6682924985975,5,1,0,62,0,0
184197,-73.8055857543411,5,1,0,61,0,0
184304,-74.9790995759932,5,1,0,61,0,0
184411,-76.1904761904762,5,1,0,60,0,0
184519,-77.4416380455279,5,1,0,59,0,0
184626,-78.7346398559471,5,1,0,59,0,0
184733,-80.0714878243296,5,1,0,58,0,0
184840,-81.4545170195141,5,1,0,57,0,0
184947,-82.8862311879338,5,1,0,56,0,0
185054,-84.3691047088085,5,1,0,56,0,0
185161,-85.906077167711,5,1,0,55,0,0
185269,-87.5000109375014,5,1,0,54,0,0
185483,-90.8722463437552,5,1,0,54,0,0
185697,-94.514742409521,5,1,0,53,0,0
185911,-98.4615384615385,5,1,0,52,0,0
186126,-102.752323743801,5,1,0,51,0,0
186340,-107.434003291778,5,1,0,51,0,0
186554,-112.562795969802,5,1,0,50,0,0
186769,-118.205824710218,5,1,0,49,0,0
186983,-124.44451081485,5,1,0,49,0,0
187197,-131.378249805232,5,1,0,48,0,0
187411,-139.130434782609,5,1,0,47,0,0
187626,-147.854847938682,5,1,0,46,0,0
187840,-157.746372227805,5,1,0,46,0,0
188054,-169.05656294483,5,1,0,45,0,0
188269,-182.113868517429,5,1,0,44,0,0
188483,-197.356995121335,5,1,0,44,0,0
188697,-215.384482840318,5,1,0,43,0,0
189126,-263.529610187001,5,1,0,42,0,0
189554,-339.393774839382,5,1,0,41,0,0
189983,-476.596718154999,5,1,0,41,0,0
190414,428.571428571429,7,1,0,40,1,8
190414,-800.000000000001,5,1,0,40,0,0
190840,-169.11288454156,7,1,0,15,0,0
191054,-121.288275547556,7,1,0,22,0,0
191269,-94.5499516849747,7,1,0,29,0,0
191483,-77.4711555520091,7,1,0,37,0,0
191590,-71.0538638025328,7,1,0,44,0,0
191697,-65.6183479399776,7,1,0,51,0,0
191804,-60.9553904070845,7,1,0,58,0,0
191911,-56.9111798598164,7,1,0,66,0,0
192019,-53.3701943475627,7,1,0,73,0,0
192074,-50,7,1,0,100,0,0
192129,428.571428571429,4,1,0,100,1,1
192129,-50,4,1,0,100,0,1
192554,-69.5652173913043,4,1,0,100,0,1
192590,-69.8181655695906,4,1,0,100,0,1
192697,-70.588218685125,4,1,0,100,0,1
192733,-70.8487252188871,4,1,0,100,0,1
192840,-71.6418081532676,4,1,0,100,0,1
192876,-71.9101123595506,4,1,0,100,0,1
192983,-72.7272727272727,4,1,0,100,0,1
193126,-73.8461356686435,4,1,0,100,0,1
193411,-76.1904761904762,4,1,0,100,0,1
193554,-77.4193348595265,4,1,0,100,0,1
193768,-79.3388219930388,4,1,0,100,0,1
193840,-80,4,1,0,100,0,1
193983,-81.3559101407701,4,1,0,100,0,1
194197,-83.4782376408382,4,1,0,100,0,1
194268,-84.2105263157895,4,1,0,100,0,1
194411,-85.7142612244968,4,1,0,100,0,1
194483,-86.4864864864865,4,1,0,100,0,1
194626,-88.0733686390111,4,1,0,100,0,1
194697,-88.8888888888889,4,1,0,100,0,1
194840,-90.5660103951667,4,1,0,100,0,1
195126,-94.1176470588235,4,1,0,100,0,1
195161,-94.5812509694578,4,1,0,100,0,1
195268,-95.9999692800098,4,1,0,100,0,1
195554,-50,4,1,0,100,0,1
195983,-69.5573785771621,4,1,0,100,0,1
196009,-69.7463881832879,4,1,0,100,0,1
196090,-70.3196308500659,4,1,0,100,0,1
196117,-70.5128114727165,4,1,0,100,0,1
196197,-71.0987746837171,4,1,0,100,0,1
196224,-71.2963167609798,4,1,0,100,0,1
196304,-71.895429535649,4,1,0,100,0,1
196331,-72.0973776020845,4,1,0,100,0,1
196411,-72.7100867067784,4,1,0,100,0,1
196554,-73.8255281293718,4,1,0,100,0,1
196840,-76.1622163814265,4,1,0,100,0,1
196911,-76.7697146546476,4,1,0,100,0,1
196983,-77.3869222292386,4,1,0,100,0,1
197197,-79.2996885901229,4,1,0,100,0,1
197268,-79.9584855543002,4,1,0,100,0,1
197340,-80.6282553658104,4,1,0,100,0,1
197411,-81.3094066852594,4,1,0,100,0,1
197626,-83.4236394230087,4,1,0,100,0,1
197697,-84.1529833915672,4,1,0,100,0,1
197840,-85.6507573239963,4,1,0,100,0,1
197911,-86.4197424173157,4,1,0,100,0,1
198126,-88.8119974351095,4,1,0,100,0,1
198268,-100,4,1,0,100,0,1
198483,-87.0967854318433,4,1,0,100,0,1
198768,-74.3119272872654,4,1,0,100,0,1
198983,-50,4,1,0,100,0,1
199411,-69.5652173913043,4,1,0,100,0,1
199447,-69.8181655695906,4,1,0,100,0,1
199554,-70.588218685125,4,1,0,100,0,1
199590,-70.8487252188871,4,1,0,100,0,1
199697,-71.6418081532676,4,1,0,100,0,1
199733,-71.9101123595506,4,1,0,100,0,1
199840,-72.7272727272727,4,1,0,100,0,1
199983,-73.8461356686435,4,1,0,100,0,1
200268,-76.1904761904762,4,1,0,100,0,1
200411,-77.4193348595265,4,1,0,100,0,1
200626,-79.3388219930388,4,1,0,100,0,1
200697,-80,4,1,0,100,0,1
200840,-81.3559101407701,4,1,0,100,0,1
201054,-83.4782376408382,4,1,0,100,0,1
201126,-84.2105263157895,4,1,0,100,0,1
201268,-85.7142612244968,4,1,0,100,0,1
201340,-86.4864864864865,4,1,0,100,0,1
201483,-88.0733686390111,4,1,0,100,0,1
201554,-88.8888888888889,4,1,0,100,0,1
201697,-90.5660103951667,4,1,0,100,0,1
201983,-94.1176470588235,4,1,0,100,0,1
202018,-94.5812509694578,4,1,0,100,0,1
202126,-95.9999692800098,4,1,0,100,0,1
202361,-50,4,1,0,100,0,1
202414,-50,4,1,0,100,0,0
202840,-100,4,1,0,100,0,0
205411,-66.6666666666667,4,1,0,100,0,0
205626,-57.3099401798844,4,1,0,100,0,0
205768,-52.4064243987542,4,1,0,100,0,0
205807,-50,4,1,0,100,0,0
205843,-50,4,1,0,100,0,1
206268,-69.5652173913043,4,1,0,100,0,1
206304,-69.8181655695906,4,1,0,100,0,1
206411,-70.588218685125,4,1,0,100,0,1
206447,-70.8487252188871,4,1,0,100,0,1
206554,-71.6418081532676,4,1,0,100,0,1
206590,-71.9101123595506,4,1,0,100,0,1
206697,-72.7272727272727,4,1,0,100,0,1
206840,-73.8461356686435,4,1,0,100,0,1
207126,-76.1904761904762,4,1,0,100,0,1
207268,-77.4193348595265,4,1,0,100,0,1
207483,-79.3388219930388,4,1,0,100,0,1
207554,-80,4,1,0,100,0,1
207697,-81.3559101407701,4,1,0,100,0,1
207911,-83.4782376408382,4,1,0,100,0,1
207983,-84.2105263157895,4,1,0,100,0,1
208126,-85.7142612244968,4,1,0,100,0,1
208197,-86.4864864864865,4,1,0,100,0,1
208340,-88.0733686390111,4,1,0,100,0,1
208411,-88.8888888888889,4,1,0,100,0,1
208483,-89.71965300027,4,1,0,100,0,1
208554,-90.5660103951667,4,1,0,100,0,1
208840,-94.1176470588235,4,1,0,100,0,1
208876,-94.5812509694578,4,1,0,100,0,1
208983,-95.9999692800098,4,1,0,100,0,1
209268,-50,4,1,0,100,0,1
209697,-69.5573785771621,4,1,0,100,0,1
209724,-69.7463881832879,4,1,0,100,0,1
209804,-70.3196308500659,4,1,0,100,0,1
209831,-70.5128114727165,4,1,0,100,0,1
209911,-71.0987746837171,4,1,0,100,0,1
209938,-71.2963167609798,4,1,0,100,0,1
210018,-71.895429535649,4,1,0,100,0,1
210045,-72.0973776020845,4,1,0,100,0,1
210126,-72.7100867067784,4,1,0,100,0,1
210268,-73.8255281293718,4,1,0,100,0,1
210554,-76.1622163814265,4,1,0,100,0,1
210626,-76.7697146546476,4,1,0,100,0,1
210697,-77.3869222292386,4,1,0,100,0,1
210840,-78.6516588814633,4,1,0,100,0,1
210911,-79.2996885901229,4,1,0,100,0,1
210983,-79.9584855543002,4,1,0,100,0,1
211054,-80.6282553658104,4,1,0,100,0,1
211126,-81.3094066852594,4,1,0,100,0,1
211268,-82.7067606987398,4,1,0,100,0,1
211411,-84.1529833915672,4,1,0,100,0,1
211483,-84.8952647119249,4,1,0,100,0,1
211554,-85.6507573239963,4,1,0,100,0,1
211697,-87.2027367706908,4,1,0,100,0,1
211768,-87.999971840009,4,1,0,100,0,1
211840,-88.8119974351095,4,1,0,100,0,1
211911,-89.6391486432219,4,1,0,100,0,1
211983,-90.4817701853519,4,1,0,100,0,1
212126,-66.6666666666667,4,1,0,100,0,1
212197,-64,4,1,0,100,0,1
212268,-61.5384615384615,4,1,0,100,0,1
212340,-59.2592592592593,4,1,0,100,0,1
212411,-57.1428571428571,4,1,0,100,0,1
212483,-55.1724137931034,4,1,0,100,0,1
212554,-53.3333333333333,4,1,0,100,0,1
212626,-51.6129032258064,4,1,0,100,0,1
212697,-50,4,1,0,100,0,1
213126,-69.5573785771621,4,1,0,100,0,1
213161,-69.809587369491,4,1,0,100,0,1
213268,-70.5774577011652,4,1,0,100,0,1
213304,-70.8371821535637,4,1,0,100,0,1
213411,-71.6279016462957,4,1,0,100,0,1
213447,-71.895429535649,4,1,0,100,0,1
213554,-72.7100867067784,4,1,0,100,0,1
213697,-73.8255281293718,4,1,0,100,0,1
213983,-76.1622163814265,4,1,0,100,0,1
214126,-77.3869222292386,4,1,0,100,0,1
214340,-79.2996885901229,4,1,0,100,0,1
214411,-79.9584855543002,4,1,0,100,0,1
214554,-81.3094066852594,4,1,0,100,0,1
214768,-83.4236394230087,4,1,0,100,0,1
214840,-84.1529833915672,4,1,0,100,0,1
214983,-85.6507573239963,4,1,0,100,0,1
215054,-86.4197424173157,4,1,0,100,0,1
215197,-87.999971840009,4,1,0,100,0,1
215268,-88.8119974351095,4,1,0,100,0,1
215340,-89.6391486432219,4,1,0,100,0,1
215411,-90.4817701853519,4,1,0,100,0,1
215697,-94.0171261597012,4,1,0,100,0,1
215733,-94.4784881930233,4,1,0,100,0,1
215840,-95.8904240945786,4,1,0,100,0,1
216054,-50,4,1,0,100,0,1
216554,-80,4,1,0,100,0,1
216608,-82.0512820512821,4,1,0,100,0,1
216661,-84.2105263157895,4,1,0,100,0,1
216715,-86.4864864864865,4,1,0,100,0,1
216768,-88.8888888888889,4,1,0,100,0,1
216822,-91.4285714285714,4,1,0,100,0,1
216876,-94.1176470588235,4,1,0,100,0,1
216929,-96.969696969697,4,1,0,100,0,1
216983,-100,4,1,0,100,0,1
217840,-66.6666666666667,4,1,0,100,0,1
217983,-64.8648508400323,4,1,0,100,0,1
218054,-64,4,1,0,100,0,1
218197,-62.3376493843845,4,1,0,100,0,1
218268,-61.5384615384615,4,1,0,100,0,1
218411,-59.9999880000024,4,1,0,100,0,1
218483,-59.2592592592593,4,1,0,100,0,1
218554,-58.5365967876286,4,1,0,100,0,1
218626,-57.8313141529997,4,1,0,100,0,1
218697,-57.1428571428571,4,1,0,100,0,1
218840,-55.8139431043827,4,1,0,100,0,1
218911,-55.1724137931034,4,1,0,100,0,1
219054,-53.9325745739192,4,1,0,100,0,1
219126,-53.3333333333333,4,1,0,100,0,1
219340,-51.6129032258064,4,1,0,100,0,1
219483,-50.5263072797798,4,1,0,100,0,1
219554,-40,4,1,0,100,0,1
219983,-51.6085880819255,4,1,0,100,0,1
220009,-51.7125650156224,4,1,0,100,0,1
220197,-52.4523024987228,4,1,0,100,0,1
220224,-52.5597380843132,4,1,0,100,0,1
220411,-53.3240904909816,4,1,0,100,0,1
220518,-53.7709572305806,4,1,0,100,0,1
220572,-53.9971964655595,4,1,0,100,0,1
220626,-54.2253475302523,4,1,0,100,0,1
220679,-54.4554347613,4,1,0,100,0,1
220733,-54.6875128173858,4,1,0,100,0,1
220786,-54.9215473157368,4,1,0,100,0,1
220840,-55.1575935183209,4,1,0,100,0,1
220947,-55.6358256885072,4,1,0,100,0,1
221161,-56.6176395653124,4,1,0,100,0,1
221268,-57.1216731623529,4,1,0,100,0,1
221376,-57.6347283819338,4,1,0,100,0,1
221429,-57.8947277008325,4,1,0,100,0,1
221483,-58.157083445528,4,1,0,100,0,1
221536,-58.4218619281084,4,1,0,100,0,1
221590,-58.6890279688432,4,1,0,100,0,1
221643,-58.9586487621042,4,1,0,100,0,1
221697,-59.23075829586,4,1,0,100,0,1
222018,-60.9177379050877,4,1,0,100,0,1
222072,-61.2082758485609,4,1,0,100,0,1
222126,-61.5015984265431,4,1,0,100,0,1
222233,-62.0967591701389,4,1,0,100,0,1
222286,-62.3987190790947,4,1,0,100,0,1
222340,-62.7035907211226,4,1,0,100,0,1
222393,-63.0114561128359,4,1,0,100,0,1
222447,-63.3223595684201,4,1,0,100,0,1
222501,-63.6363462809965,4,1,0,100,0,1
222554,-63.9535032450008,4,1,0,100,0,1
222768,-65.2542173800693,4,1,0,100,0,1
222983,-40,4,1,0,100,0,1
223411,-51.6129032258064,4,1,0,100,0,1
223438,-51.717165030508,4,1,0,100,0,1
223518,-52.0325203252033,4,1,0,100,0,1
223545,-52.1384860756352,4,1,0,100,0,1
223626,-52.4590163934426,4,1,0,100,0,1
223652,-52.5667282047832,4,1,0,100,0,1
223733,-52.8925619834711,4,1,0,100,0,1
223759,-53.002063370327,4,1,0,100,0,1
223840,-53.3333333333333,4,1,0,100,0,1
223947,-53.781512605042,4,1,0,100,0,1
224001,-54.0084534031267,4,1,0,100,0,1
224054,-54.2372881355932,4,1,0,100,0,1
224108,-54.4680702725255,4,1,0,100,0,1
224161,-54.7008547008547,4,1,0,100,0,1
224215,-54.9356374072137,4,1,0,100,0,1
224268,-55.1724137931034,4,1,0,100,0,1
224590,-56.6371681415929,4,1,0,100,0,1
224697,-57.1428571428571,4,1,0,100,0,1
224804,-57.6576576576577,4,1,0,100,0,1
224858,-57.9185688089973,4,1,0,100,0,1
224911,-58.1818181818182,4,1,0,100,0,1
224965,-58.4474715039353,4,1,0,100,0,1
225018,-58.7155963302752,4,1,0,100,0,1
225072,-58.9861925120568,4,1,0,100,0,1
225126,-59.2592592592593,4,1,0,100,0,1
225340,-66.6666666666667,4,1,0,100,0,1
225393,-65.5737704918033,4,1,0,100,0,1
225447,-64.5161290322581,4,1,0,100,0,1
225501,-63.4920634920635,4,1,0,100,0,1
225554,-62.5,4,1,0,100,0,1
225697,-59.9999880000024,4,1,0,100,0,1
225840,-57.6923187869844,4,1,0,100,0,1
225983,-55.5555555555556,4,1,0,100,0,1
226126,-53.5714190051037,4,1,0,100,0,1
226268,-51.7241468489908,4,1,0,100,0,1
226411,-40,4,1,0,100,0,1
226840,-51.6085880819255,4,1,0,100,0,1
226867,-51.7125650156224,4,1,0,100,0,1
227054,-52.4523024987228,4,1,0,100,0,1
227081,-52.5597380843132,4,1,0,100,0,1
227268,-53.3240904909816,4,1,0,100,0,1
227376,-53.7709572305806,4,1,0,100,0,1
227429,-53.9971964655595,4,1,0,100,0,1
227483,-54.2253475302523,4,1,0,100,0,1
227536,-54.4554347613,4,1,0,100,0,1
227590,-54.6875128173858,4,1,0,100,0,1
227643,-54.9215473157368,4,1,0,100,0,1
227697,-55.1575935183209,4,1,0,100,0,1
228018,-56.6176395653124,4,1,0,100,0,1
228126,-57.1216731623529,4,1,0,100,0,1
228233,-57.6347283819338,4,1,0,100,0,1
228286,-57.8947277008325,4,1,0,100,0,1
228340,-58.157083445528,4,1,0,100,0,1
228393,-58.4218619281084,4,1,0,100,0,1
228447,-58.6890279688432,4,1,0,100,0,1
228501,-58.9586487621042,4,1,0,100,0,1
228554,-59.23075829586,4,1,0,100,0,1
228876,-60.9177379050877,4,1,0,100,0,1
228929,-61.2082758485609,4,1,0,100,0,1
228983,-61.5015984265431,4,1,0,100,0,1
229090,-62.0967591701389,4,1,0,100,0,1
229143,-62.3987190790947,4,1,0,100,0,1
229197,-62.7035907211226,4,1,0,100,0,1
229251,-63.0114561128359,4,1,0,100,0,1
229304,-63.3223595684201,4,1,0,100,0,1
229358,-63.6363462809965,4,1,0,100,0,1
229411,-63.9535032450008,4,1,0,100,0,1
229626,-65.2542173800693,4,1,0,100,0,1
229789,-40,4,1,0,100,0,1
229843,-40,4,1,0,100,0,0
230268,-100,4,1,0,100,0,0
233236,-40,4,1,0,100,0,0
233271,-40,4,1,0,100,0,1
233697,-51.6085880819255,4,1,0,100,0,1
233724,-51.7125650156224,4,1,0,100,0,1
233911,-52.4523024987228,4,1,0,100,0,1
233938,-52.5597380843132,4,1,0,100,0,1
234126,-53.3240904909816,4,1,0,100,0,1
234233,-53.7709572305806,4,1,0,100,0,1
234286,-53.9971964655595,4,1,0,100,0,1
234340,-54.2253475302523,4,1,0,100,0,1
234393,-54.4554347613,4,1,0,100,0,1
234447,-54.6875128173858,4,1,0,100,0,1
234501,-54.9215473157368,4,1,0,100,0,1
234554,-55.1575935183209,4,1,0,100,0,1
234876,-56.6176395653124,4,1,0,100,0,1
234983,-57.1216731623529,4,1,0,100,0,1
235090,-57.6347283819338,4,1,0,100,0,1
235143,-57.8947277008325,4,1,0,100,0,1
235197,-58.157083445528,4,1,0,100,0,1
235251,-58.4218619281084,4,1,0,100,0,1
235304,-58.6890279688432,4,1,0,100,0,1
235358,-58.9586487621042,4,1,0,100,0,1
235411,-59.23075829586,4,1,0,100,0,1
235733,-60.9177379050877,4,1,0,100,0,1
235786,-61.2082758485609,4,1,0,100,0,1
235840,-61.5015984265431,4,1,0,100,0,1
235947,-62.0967591701389,4,1,0,100,0,1
236001,-62.3987190790947,4,1,0,100,0,1
236054,-62.7035907211226,4,1,0,100,0,1
236108,-63.0114561128359,4,1,0,100,0,1
236161,-63.3223595684201,4,1,0,100,0,1
236215,-63.6363462809965,4,1,0,100,0,1
236268,-63.9535032450008,4,1,0,100,0,1
236483,-65.2542173800693,4,1,0,100,0,1
236697,-40,4,1,0,100,0,1
237126,-51.6085880819255,4,1,0,100,0,1
237152,-51.7125650156224,4,1,0,100,0,1
237233,-52.0270249178233,4,1,0,100,0,1
237259,-52.1326964803131,4,1,0,100,0,1
237340,-52.4523024987228,4,1,0,100,0,1
237367,-52.5597380843132,4,1,0,100,0,1
237447,-52.8846179271451,4,1,0,100,0,1
237474,-52.9938055540688,4,1,0,100,0,1
237554,-53.3240904909816,4,1,0,100,0,1
237661,-53.7709572305806,4,1,0,100,0,1
237715,-53.9971964655595,4,1,0,100,0,1
237768,-54.2253475302523,4,1,0,100,0,1
237822,-54.4554347613,4,1,0,100,0,1
237876,-54.6875128173858,4,1,0,100,0,1
237929,-54.9215473157368,4,1,0,100,0,1
237983,-55.1575935183209,4,1,0,100,0,1
238304,-56.6176395653124,4,1,0,100,0,1
238411,-57.1216731623529,4,1,0,100,0,1
238518,-57.6347283819338,4,1,0,100,0,1
238572,-57.8947277008325,4,1,0,100,0,1
238626,-58.157083445528,4,1,0,100,0,1
238679,-58.4218619281084,4,1,0,100,0,1
238733,-58.6890279688432,4,1,0,100,0,1
238786,-58.9586487621042,4,1,0,100,0,1
238840,-59.23075829586,4,1,0,100,0,1
239054,-66.6666666666667,4,1,0,100,0,1
239108,-65.5826725332553,4,1,0,100,0,1
239161,-64.5333240405347,4,1,0,100,0,1
239215,-63.5170670359126,4,1,0,100,0,1
239268,-62.5322822907326,4,1,0,100,0,1
239411,-60.049637029969,4,1,0,100,0,1
239554,-57.7565618673852,4,1,0,100,0,1
239697,-55.6321734210616,4,1,0,100,0,1
239840,-53.6585470553263,4,1,0,100,0,1
239983,-51.8201302550794,4,1,0,100,0,1
240126,-40,4,1,0,100,0,1
240554,-51.6129032258064,4,1,0,100,0,1
240581,-51.717165030508,4,1,0,100,0,1
240768,-52.4590163934426,4,1,0,100,0,1
240795,-52.5667282047832,4,1,0,100,0,1
240983,-53.3333333333333,4,1,0,100,0,1
241090,-53.781512605042,4,1,0,100,0,1
241143,-54.0084534031267,4,1,0,100,0,1
241197,-54.2372881355932,4,1,0,100,0,1
241251,-54.4680702725255,4,1,0,100,0,1
241304,-54.7008547008547,4,1,0,100,0,1
241358,-54.9356374072137,4,1,0,100,0,1
241411,-55.1724137931034,4,1,0,100,0,1
241733,-56.6371681415929,4,1,0,100,0,1
241840,-57.1428571428571,4,1,0,100,0,1
241947,-57.6576576576577,4,1,0,100,0,1
242001,-57.9185688089973,4,1,0,100,0,1
242054,-58.1818181818182,4,1,0,100,0,1
242108,-58.4474715039353,4,1,0,100,0,1
242161,-58.7155963302752,4,1,0,100,0,1
242215,-58.9861925120568,4,1,0,100,0,1
242268,-59.2592592592593,4,1,0,100,0,1
242590,-60.9523809523809,4,1,0,100,0,1
242643,-61.2440378929111,4,1,0,100,0,1
242697,-61.5384615384615,4,1,0,100,0,1
242804,-62.1359223300971,4,1,0,100,0,1
242858,-62.4390438834088,4,1,0,100,0,1
242911,-62.7450980392157,4,1,0,100,0,1
242965,-63.0541673129719,4,1,0,100,0,1
243018,-63.3663366336634,4,1,0,100,0,1
243072,-63.6816123165333,4,1,0,100,0,1
243126,-64,4,1,0,100,0,1
243340,-65.3061224489796,4,1,0,100,0,1
243504,-40,4,1,0,100,0,1
243557,-40,4,1,0,100,0,0
243768,-100,4,1,0,70,0,0
245453,-106.593444076816,4,1,0,30,0,0
245667,-114.117602754342,4,1,0,25,0,0
245881,-122.784808572344,4,1,0,20,0,0
246126,-132.876768755888,4,1,0,5,0,0
246986,428.571428571429,4,1,0,5,1,8
247983,-162.71195265733,4,1,0,20,0,8
248268,-139.130434782609,4,1,0,23,0,8
248697,-114.285714285714,4,1,0,26,0,8
249125,-96.969696969697,4,1,0,29,0,8
249268,-92.3077207100679,4,1,0,31,0,8
249554,-84.2105263157895,4,1,0,34,0,8
249983,-74.4186046511628,4,1,0,37,0,8
250361,-36.3636363636364,4,1,0,100,0,8
250414,-36.3636363636364,4,1,0,100,0,9
250840,-46.3715642148784,4,1,0,100,0,9
250866,-46.497592122192,4,1,0,100,0,9
250947,-46.8797539000439,4,1,0,100,0,9
250974,-47.008540981811,4,1,0,100,0,9
251054,-47.3992055893143,4,1,0,100,0,9
251081,-47.5308665447341,4,1,0,100,0,9
251161,-47.9302748705403,4,1,0,100,0,9
251188,-48.0649299525743,4,1,0,100,0,9
251268,-48.4734028862034,4,1,0,100,0,9
251375,-49.0289810306872,4,1,0,100,0,9
251429,-49.3115612927913,4,1,0,100,0,9
251483,-49.5974177600417,4,1,0,100,0,9
251536,-49.8866326273543,4,1,0,100,0,9
251590,-50.1792150666104,4,1,0,100,0,9
251643,-50.4752497136791,4,1,0,100,0,9
251697,-50.7747980305471,4,1,0,100,0,9
251840,-51.5912814861591,4,1,0,100,0,9
251911,-52.0094636420043,4,1,0,100,0,9
252054,-52.8664730343981,4,1,0,100,0,9
252125,-53.3056428287386,4,1,0,100,0,9
252233,-53.9782802196052,4,1,0,100,0,9
252286,-54.320990336839,4,1,0,100,0,9
252340,-54.6680800187621,4,1,0,100,0,9
252393,-55.0196640279236,4,1,0,100,0,9
252447,-55.3757688925511,4,1,0,100,0,9
252500,-55.7365134358439,4,1,0,100,0,9
252554,-56.1019889277115,4,1,0,100,0,9
252768,-66.6666666666667,4,1,0,100,0,9
252822,-65.0537669383746,4,1,0,100,0,9
252875,-63.5170670359126,4,1,0,100,0,9
252929,-62.0512915976346,4,1,0,100,0,9
252983,-60.6516412334118,4,1,0,100,0,9
253125,-57.2103981042762,4,1,0,100,0,9
253268,-54.1387152991137,4,1,0,100,0,9
253411,-51.3800422446707,4,1,0,100,0,9
253554,-48.8888780246938,4,1,0,100,0,9
253697,-46.6281331774089,4,1,0,100,0,9
253840,-36.3636363636364,4,1,0,100,0,9
254268,-46.3768115942029,4,1,0,100,0,9
254295,-46.5031708187023,4,1,0,100,0,9
254429,-47.145482472724,4,1,0,100,0,9
254456,-47.2760933305724,4,1,0,100,0,9
254590,-47.9400634151159,4,1,0,100,0,9
254616,-48.0751202599133,4,1,0,100,0,9
254697,-48.4848484848485,4,1,0,100,0,9
254804,-49.0421576195329,4,1,0,100,0,9
254858,-49.3256201216962,4,1,0,100,0,9
254911,-49.6124031007752,4,1,0,100,0,9
254965,-49.9025403387185,4,1,0,100,0,9
255018,-50.1960658331443,4,1,0,100,0,9
255072,-50.4930902730616,4,1,0,100,0,9
255125,-50.7936507936508,4,1,0,100,0,9
255233,-51.4056357026534,4,1,0,100,0,9
255447,-52.6748832461213,4,1,0,100,0,9
255554,-53.3333333333333,4,1,0,100,0,9
255661,-54.0084534031267,4,1,0,100,0,9
255715,-54.3524342281193,4,1,0,100,0,9
255768,-54.7008547008547,4,1,0,100,0,9
255822,-55.0537710181534,4,1,0,100,0,9
255875,-55.4112400592235,4,1,0,100,0,9
255929,-55.7734127026178,4,1,0,100,0,9
255983,-56.140350877193,4,1,0,100,0,9
256090,-56.8889050706219,4,1,0,100,0,9
256304,-58.4474715039353,4,1,0,100,0,9
256358,-58.8505660541696,4,1,0,100,0,9
256411,-59.2592592592593,4,1,0,100,0,9
256518,-60.0939147700026,4,1,0,100,0,9
256572,-60.5200854059445,4,1,0,100,0,9
256625,-60.9523809523809,4,1,0,100,0,9
256679,-61.3908967122719,4,1,0,100,0,9
256733,-61.8357296739773,4,1,0,100,0,9
256786,-62.2870949236641,4,1,0,100,0,9
256840,-62.7450980392157,4,1,0,100,0,9
256947,-63.6816123165333,4,1,0,100,0,9
257161,-65.6410040973115,4,1,0,100,0,9
257218,-66.6666666666667,4,1,0,100,0,9
257271,-66.6666666666667,4,1,0,100,0,8
260646,-36.3636363636364,4,1,0,100,0,8
260700,-36.3636363636364,4,1,0,100,0,9
261125,-46.3768115942029,4,1,0,100,0,9
261161,-46.5454437130604,4,1,0,100,0,9
261268,-47.0588235294118,4,1,0,100,0,9
261304,-47.2324611701937,4,1,0,100,0,9
261411,-47.7611940298507,4,1,0,100,0,9
261447,-47.9400634151159,4,1,0,100,0,9
261554,-48.4848484848485,4,1,0,100,0,9
261697,-49.2307692307692,4,1,0,100,0,9
261768,-49.6124031007752,4,1,0,100,0,9
261983,-50.7936507936508,4,1,0,100,0,9
262125,-51.6129032258064,4,1,0,100,0,9
262340,-52.8925619834711,4,1,0,100,0,9
262411,-53.3333333333333,4,1,0,100,0,9
262554,-54.2372881355932,4,1,0,100,0,9
262768,-55.6521739130435,4,1,0,100,0,9
262840,-56.140350877193,4,1,0,100,0,9
262911,-56.6371681415929,4,1,0,100,0,9
262983,-57.1428571428571,4,1,0,100,0,9
263054,-57.6576576576577,4,1,0,100,0,9
263197,-58.7155963302752,4,1,0,100,0,9
263268,-59.2592592592593,4,1,0,100,0,9
263411,-60.377358490566,4,1,0,100,0,9
263697,-62.7450980392157,4,1,0,100,0,9
263840,-64,4,1,0,100,0,9
264018,-65.6410040973115,4,1,0,100,0,9
264125,-44.4444444444444,4,1,0,100,0,9
264554,-46.3715642148784,4,1,0,100,0,9
264581,-46.497592122192,4,1,0,100,0,9
264661,-46.8797539000439,4,1,0,100,0,9
264688,-47.008540981811,4,1,0,100,0,9
264768,-47.3992055893143,4,1,0,100,0,9
264795,-47.5308665447341,4,1,0,100,0,9
264875,-47.9302748705403,4,1,0,100,0,9
264902,-48.0649299525743,4,1,0,100,0,9
264983,-48.4734028862034,4,1,0,100,0,9
265125,-49.2170066413429,4,1,0,100,0,9
265197,-49.5974177600417,4,1,0,100,0,9
265340,-50.3761841551788,4,1,0,100,0,9
265411,-50.7747980305471,4,1,0,100,0,9
265483,-51.1797966729038,4,1,0,100,0,9
265554,-51.5912814861591,4,1,0,100,0,9
265768,-52.8664730343981,4,1,0,100,0,9
265840,-53.3056428287386,4,1,0,100,0,9
265911,-53.7521702438736,4,1,0,100,0,9
265983,-54.2062711235063,4,1,0,100,0,9
266125,-55.137855666738,4,1,0,100,0,9
266268,-56.1019889277115,4,1,0,100,0,9
266411,-57.1004722780062,4,1,0,100,0,9
266554,-58.1351409486492,4,1,0,100,0,9
266697,-59.207998290073,4,1,0,100,0,9
266840,-60.3209072264447,4,1,0,100,0,9
266911,-58.2404398318016,4,1,0,100,0,9
266983,-56.2986983740936,4,1,0,100,0,9
267054,-54.4822551295043,4,1,0,100,0,9
267125,-52.7793611586125,4,1,0,100,0,9
267197,-51.1796918982548,4,1,0,100,0,9
267268,-49.6741376569703,4,1,0,100,0,9
267340,-48.2546300317515,4,1,0,100,0,9
267411,-46.9139972602226,4,1,0,100,0,9
267483,-45.645843033075,4,1,0,100,0,9
267554,-44.4444444444444,4,1,0,100,0,9
267983,-46.3715642148784,4,1,0,100,0,9
268018,-46.539746572464,4,1,0,100,0,9
268125,-47.0516273981626,4,1,0,100,0,9
268161,-47.2247881023758,4,1,0,100,0,9
268268,-47.7519344308638,4,1,0,100,0,9
268304,-47.9302748705403,4,1,0,100,0,9
268411,-48.4734028862034,4,1,0,100,0,9
268554,-49.2170066413429,4,1,0,100,0,9
268625,-49.5974177600417,4,1,0,100,0,9
268840,-50.7747980305471,4,1,0,100,0,9
268983,-51.5912814861591,4,1,0,100,0,9
269197,-52.8664730343981,4,1,0,100,0,9
269268,-53.3056428287386,4,1,0,100,0,9
269411,-54.2062711235063,4,1,0,100,0,9
269625,-55.6157441497799,4,1,0,100,0,9
269697,-56.1019889277115,4,1,0,100,0,9
269768,-56.5968431412833,4,1,0,100,0,9
269840,-57.1004722780062,4,1,0,100,0,9
269911,-57.6131782079306,4,1,0,100,0,9
270054,-58.6666823111153,4,1,0,100,0,9
270125,-59.207998290073,4,1,0,100,0,9
270268,-60.3211983167973,4,1,0,100,0,9
270554,-62.6780448210698,4,1,0,100,0,9
270697,-63.926928963118,4,1,0,100,0,9
270875,-65.5597987314179,4,1,0,100,0,9
270932,-66.5802011787359,4,1,0,100,0,9
270986,-66.5802011787359,4,1,0,100,0,8
274411,-50,4,1,0,100,0,8
274625,-100,4,1,0,75,0,8
281236,-100,4,1,0,100,0,8
281268,-50,4,1,0,100,0,8
281482,-100,4,1,0,75,0,8
284267,-80,4,1,0,75,0,8
284410,-85.5895450658911,4,1,0,75,0,8
284553,-92.0187534219474,4,1,0,75,0,8
284696,-99.4923898271021,4,1,0,75,0,8
288093,-100,4,1,0,100,0,8
288125,-66.6666666666667,4,1,0,100,0,8
288339,-133.333333333333,4,1,0,75,0,8
294950,-133.333333333333,4,1,0,100,0,8
294983,-66.6666666666667,4,1,0,100,0,8
295197,-133.333333333333,4,1,0,75,0,8
297983,-114.285714285714,4,1,0,75,0,8
298125,-120.000048000019,4,1,0,75,0,8
298268,-126.315736288111,4,1,0,75,0,8
298411,-133.333333333333,4,1,0,75,0,8
302236,-133.333333333333,4,1,0,100,0,8
302268,-40,4,1,0,100,0,8
302486,-200,4,1,0,20,0,8
312878,-400,4,1,0,10,0,8
313093,-200,4,1,0,14,0,8
313307,-200,4,1,0,18,0,8
313521,-200,4,1,0,22,0,8
313736,-200,4,1,0,26,0,8
313950,-200,4,1,0,30,0,8
314164,-200,4,1,0,34,0,8
314378,-200,4,1,0,38,0,8
314593,-200,4,1,0,42,0,8
314807,-200,4,1,0,46,0,8
315021,-200,4,1,0,50,0,8
315236,-200,4,1,0,54,0,8
315450,-200,4,1,0,58,0,8

[HitObjects]
256,192,130,5,4,0:0:0:0:
256,192,558,2,0,L|256:128,4,35
256,192,1415,2,0,L|256:128,4,35
256,192,2272,2,0,L|256:128,4,35
256,192,3130,2,0,L|256:128,2,35
256,192,3558,1,8,0:0:0:0:
256,192,3987,2,0,L|256:128,4,35
256,192,4844,2,0,L|256:128,4,35
256,192,5701,2,0,L|256:128,2,35
256,192,6130,1,8,0:0:0:0:
256,192,6183,1,8,0:0:0:0:
256,192,6237,1,8,0:0:0:0:
256,192,6344,1,0,0:0:0:0:
256,192,6451,1,0,0:0:0:0:
256,192,6558,1,8,0:0:0:0:
256,192,6630,1,8,0:0:0:0:
256,192,6701,1,8,0:0:0:0:
256,192,6772,1,8,0:0:0:0:
256,192,6844,1,8,0:0:0:0:
256,192,6915,1,8,0:0:0:0:
256,192,6987,1,0,0:0:0:0:
256,192,7415,2,0,L|256:128,4,35
256,192,8272,2,0,L|256:128,4,35
256,192,9130,2,0,L|256:128,4,35
256,192,9987,2,0,L|256:128,2,35
256,192,10415,1,8,0:0:0:0:
256,192,11272,8,0,13630,0:0:0:0:
256,192,13844,5,0,0:0:0:0:
256,192,14487,1,0,0:0:0:0:
256,192,15558,1,0,0:0:0:0:
256,192,15987,1,8,0:0:0:0:
256,192,16201,1,0,0:0:0:0:
256,192,16630,1,8,0:0:0:0:
256,192,16844,1,8,0:0:0:0:
256,192,17272,1,0,0:0:0:0:
256,192,17701,1,8,0:0:0:0:
256,192,17915,1,0,0:0:0:0:
256,192,18344,1,8,0:0:0:0:
256,192,18987,1,0,0:0:0:0:
256,192,19415,1,8,0:0:0:0:
256,192,19630,1,0,0:0:0:0:
256,192,19844,1,8,0:0:0:0:
256,192,19897,1,8,0:0:0:0:
256,192,19951,1,8,0:0:0:0:
256,192,20058,1,0,0:0:0:0:
256,192,20165,1,0,0:0:0:0:
256,192,20272,1,8,0:0:0:0:
256,192,20344,1,8,0:0:0:0:
256,192,20415,1,8,0:0:0:0:
256,192,20487,1,8,0:0:0:0:
256,192,20558,1,8,0:0:0:0:
256,192,20630,1,8,0:0:0:0:
256,192,20701,1,0,0:0:0:0:
256,192,21130,1,8,0:0:0:0:
256,192,21344,1,0,0:0:0:0:
256,192,21772,1,8,0:0:0:0:
256,192,22415,1,0,0:0:0:0:
256,192,22844,1,8,0:0:0:0:
256,192,23058,1,0,0:0:0:0:
256,192,23487,1,8,0:0:0:0:
256,192,23701,1,8,0:0:0:0:
256,192,24130,1,0,0:0:0:0:
256,192,24558,1,8,0:0:0:0:
256,192,24772,1,0,0:0:0:0:
256,192,25201,1,8,0:0:0:0:
256,192,25308,1,0,0:0:0:0:
256,192,25415,1,8,0:0:0:0:
256,192,25522,1,8,0:0:0:0:
256,192,25630,1,0,0:0:0:0:
256,192,25844,1,8,0:0:0:0:
256,192,25897,1,8,0:0:0:0:
256,192,25951,1,8,0:0:0:0:
256,192,26005,1,8,0:0:0:0:
256,192,26058,1,0,0:0:0:0:
256,192,26165,1,0,0:0:0:0:
256,192,26272,1,8,0:0:0:0:
256,192,26487,1,0,0:0:0:0:
256,192,26594,1,8,0:0:0:0:
256,192,26701,1,0,0:0:0:0:
256,192,26808,1,0,0:0:0:0:
256,192,26915,1,8,0:0:0:0:
256,192,27130,1,8,0:0:0:0:
256,192,27237,1,8,0:0:0:0:
256,192,27344,1,8,0:0:0:0:
256,192,27451,1,8,0:0:0:0:
256,192,27558,1,4,0:0:0:0:
256,192,27987,1,8,0:0:0:0:
256,192,28201,1,0,0:0:0:0:
256,192,28415,1,0,0:0:0:0:
256,192,28522,1,0,0:0:0:0:
256,192,28630,1,8,0:0:0:0:
256,192,28844,1,0,0:0:0:0:
256,192,29058,1,8,0:0:0:0:
256,192,29165,1,8,0:0:0:0:
256,192,29272,1,0,0:0:0:0:
256,192,29487,1,0,0:0:0:0:
256,192,29701,1,8,0:0:0:0:
256,192,29915,1,0,0:0:0:0:
256,192,30130,1,8,0:0:0:0:
256,192,30237,1,0,0:0:0:0:
256,192,30344,1,8,0:0:0:0:
256,192,30558,1,0,0:0:0:0:
256,192,30665,1,8,0:0:0:0:
256,192,30772,1,8,0:0:0:0:
256,192,30880,1,8,0:0:0:0:
256,192,30987,1,0,0:0:0:0:
256,192,31415,1,8,0:0:0:0:
256,192,31630,1,0,0:0:0:0:
256,192,31844,1,0,0:0:0:0:
256,192,31951,1,0,0:0:0:0:
256,192,32058,1,8,0:0:0:0:
256,192,32272,1,0,0:0:0:0:
256,192,32487,1,8,0:0:0:0:
256,192,32594,1,8,0:0:0:0:
256,192,32701,1,0,0:0:0:0:
256,192,32915,1,0,0:0:0:0:
256,192,33130,1,8,0:0:0:0:
256,192,33344,1,0,0:0:0:0:
256,192,33558,1,8,0:0:0:0:
256,192,33665,1,0,0:0:0:0:
256,192,33772,1,8,0:0:0:0:
256,192,33987,1,8,0:0:0:0:
256,192,34094,1,8,0:0:0:0:
256,192,34201,1,8,0:0:0:0:
256,192,34308,1,8,0:0:0:0:
256,192,34415,1,0,0:0:0:0:
256,192,34630,1,0,0:0:0:0:
256,192,34701,1,0,0:0:0:0:
256,192,34772,1,0,0:0:0:0:
256,192,34844,1,8,0:0:0:0:
256,192,35058,1,0,0:0:0:0:
256,192,35272,1,0,0:0:0:0:
256,192,35380,1,0,0:0:0:0:
256,192,35487,1,8,0:0:0:0:
256,192,35701,1,0,0:0:0:0:
256,192,35915,1,8,0:0:0:0:
256,192,36022,1,8,0:0:0:0:
256,192,36130,1,0,0:0:0:0:
256,192,36344,1,0,0:0:0:0:
256,192,36558,1,8,0:0:0:0:
256,192,36772,1,0,0:0:0:0:
256,192,36987,1,8,0:0:0:0:
256,192,37094,1,0,0:0:0:0:
256,192,37201,1,8,0:0:0:0:
256,192,37415,1,0,0:0:0:0:
256,192,37522,1,8,0:0:0:0:
256,192,37630,1,8,0:0:0:0:
256,192,37737,1,8,0:0:0:0:
256,192,37844,1,0,0:0:0:0:
256,192,38272,1,8,0:0:0:0:
256,192,38487,1,0,0:0:0:0:
256,192,38701,1,0,0:0:0:0:
256,192,38808,1,0,0:0:0:0:
256,192,38915,1,8,0:0:0:0:
256,192,39130,1,8,0:0:0:0:
256,192,39183,1,8,0:0:0:0:
256,192,39237,1,8,0:0:0:0:
256,192,39290,1,8,0:0:0:0:
256,192,39344,1,0,0:0:0:0:
256,192,39451,1,0,0:0:0:0:
256,192,39558,1,8,0:0:0:0:
256,192,39772,1,0,0:0:0:0:
256,192,39987,1,0,0:0:0:0:
256,192,40094,1,0,0:0:0:0:
256,192,40201,1,8,0:0:0:0:
256,192,40415,1,8,0:0:0:0:
256,192,40522,1,8,0:0:0:0:
256,192,40630,1,0,0:0:0:0:
256,192,40737,1,0,0:0:0:0:
256,192,40844,1,8,0:0:0:0:
256,192,40951,1,4,0:0:0:0:
256,192,41272,1,4,0:0:0:0:
256,192,41487,1,0,0:0:0:0:
256,192,41594,1,0,0:0:0:0:
256,192,41701,1,8,0:0:0:0:
256,192,41915,1,0,0:0:0:0:
256,192,42130,1,8,0:0:0:0:
256,192,42237,1,0,0:0:0:0:
256,192,42344,1,8,0:0:0:0:
256,192,42558,1,0,0:0:0:0:
256,192,42665,1,8,0:0:0:0:
256,192,42772,1,8,0:0:0:0:
256,192,42880,1,8,0:0:0:0:
256,192,42987,1,0,0:0:0:0:
256,192,43201,1,0,0:0:0:0:
256,192,43308,1,0,0:0:0:0:
256,192,43415,1,8,0:0:0:0:
256,192,43630,1,0,0:0:0:0:
256,192,43844,1,8,0:0:0:0:
256,192,43951,1,0,0:0:0:0:
256,192,44058,1,8,0:0:0:0:
256,192,44165,1,0,0:0:0:0:
256,192,44272,1,0,0:0:0:0:
256,192,44380,1,0,0:0:0:0:
256,192,44487,1,8,0:0:0:0:
256,192,44594,1,8,0:0:0:0:
256,192,44701,1,0,0:0:0:0:
256,192,44915,1,0,0:0:0:0:
256,192,45022,1,0,0:0:0:0:
256,192,45130,1,8,0:0:0:0:
256,192,45344,1,0,0:0:0:0:
256,192,45558,1,8,0:0:0:0:
256,192,45665,1,0,0:0:0:0:
256,192,45772,1,8,0:0:0:0:
256,192,45987,1,0,0:0:0:0:
256,192,46094,1,8,0:0:0:0:
256,192,46201,1,8,0:0:0:0:
256,192,46308,1,8,0:0:0:0:
256,192,46415,1,0,0:0:0:0:
256,192,46630,1,0,0:0:0:0:
256,192,46737,1,0,0:0:0:0:
256,192,46844,1,8,0:0:0:0:
256,192,47058,1,0,0:0:0:0:
256,192,47272,1,8,0:0:0:0:
256,192,47380,1,0,0:0:0:0:
256,192,47487,1,8,0:0:0:0:
256,192,47594,1,8,0:0:0:0:
256,192,47701,1,0,0:0:0:0:
256,192,47808,1,8,0:0:0:0:
256,192,47915,1,8,0:0:0:0:
256,192,48022,1,8,0:0:0:0:
256,192,48130,1,0,0:0:0:0:
256,192,48344,1,0,0:0:0:0:
256,192,48415,1,0,0:0:0:0:
256,192,48487,1,0,0:0:0:0:
256,192,48558,1,8,0:0:0:0:
256,192,48772,1,0,0:0:0:0:
256,192,48987,1,8,0:0:0:0:
256,192,49094,1,0,0:0:0:0:
256,192,49201,1,8,0:0:0:0:
256,192,49415,1,0,0:0:0:0:
256,192,49522,1,8,0:0:0:0:
256,192,49630,1,8,0:0:0:0:
256,192,49737,1,8,0:0:0:0:
256,192,49844,1,0,0:0:0:0:
256,192,50058,1,0,0:0:0:0:
256,192,50165,1,0,0:0:0:0:
256,192,50272,1,8,0:0:0:0:
256,192,50487,1,0,0:0:0:0:
256,192,50701,1,8,0:0:0:0:
256,192,50808,1,0,0:0:0:0:
256,192,50915,1,8,0:0:0:0:
256,192,51022,1,0,0:0:0:0:
256,192,51130,1,0,0:0:0:0:
256,192,51237,1,0,0:0:0:0:
256,192,51344,1,8,0:0:0:0:
256,192,51451,1,8,0:0:0:0:
256,192,51558,1,0,0:0:0:0:
256,192,51772,1,0,0:0:0:0:
256,192,51880,1,0,0:0:0:0:
256,192,51987,1,8,0:0:0:0:
256,192,52201,1,0,0:0:0:0:
256,192,52415,1,8,0:0:0:0:
256,192,52522,1,0,0:0:0:0:
256,192,52630,1,8,0:0:0:0:
256,192,52844,1,8,0:0:0:0:
256,192,52897,1,8,0:0:0:0:
256,192,52951,1,8,0:0:0:0:
256,192,53058,1,0,0:0:0:0:
256,192,53165,1,0,0:0:0:0:
256,192,53272,1,8,0:0:0:0:
256,192,53487,1,0,0:0:0:0:
256,192,53701,1,0,0:0:0:0:
256,192,53808,1,0,0:0:0:0:
256,192,53915,1,8,0:0:0:0:
256,192,54130,1,0,0:0:0:0:
256,192,54237,1,0,0:0:0:0:
256,192,54344,1,0,0:0:0:0:
256,192,54451,1,0,0:0:0:0:
256,192,54558,1,8,0:0:0:0:
256,192,54772,1,8,0:0:0:0:
256,192,54987,1,0,0:0:0:0:
256,192,61951,12,0,64844,0:0:0:0:
256,192,66975,5,8,0:0:0:0:
256,192,67028,1,8,0:0:0:0:
256,192,67082,1,8,0:0:0:0:
256,192,67135,1,8,0:0:0:0:
256,192,67189,1,8,0:0:0:0:
256,192,67260,1,8,0:0:0:0:
256,192,67332,1,8,0:0:0:0:
256,192,67403,1,8,0:0:0:0:
256,192,67510,1,8,0:0:0:0:
256,192,67617,1,8,0:0:0:0:
256,192,67725,1,8,0:0:0:0:
256,192,67832,1,8,0:0:0:0:
256,192,67975,1,8,0:0:0:0:
256,192,68117,1,8,0:0:0:0:
256,192,68260,1,8,0:0:0:0:
256,192,68475,1,8,0:0:0:0:
256,192,68701,1,4,0:0:0:0:
256,192,69701,1,8,0:0:0:0:
256,192,69986,1,8,0:0:0:0:
256,192,70415,1,8,0:0:0:0:
256,192,70843,1,0,0:0:0:0:
256,192,70986,1,8,0:0:0:0:
256,192,71272,1,8,0:0:0:0:
256,192,71701,1,0,0:0:0:0:
256,192,72129,1,4,0:0:0:0:
256,192,73129,1,8,0:0:0:0:
256,192,73415,1,8,0:0:0:0:
256,192,73843,1,8,0:0:0:0:
256,192,74272,1,0,0:0:0:0:
256,192,74415,1,8,0:0:0:0:
256,192,74701,1,8,0:0:0:0:
256,192,75129,1,0,0:0:0:0:
256,192,75558,1,4,0:0:0:0:
256,192,76558,1,8,0:0:0:0:
256,192,76843,1,8,0:0:0:0:
256,192,77272,1,8,0:0:0:0:
256,192,77701,1,0,0:0:0:0:
256,192,77843,1,8,0:0:0:0:
256,192,78129,1,8,0:0:0:0:
256,192,78558,1,0,0:0:0:0:
256,192,78986,1,8,0:0:0:0:
256,192,79058,1,0,0:0:0:0:
256,192,79129,1,0,0:0:0:0:
256,192,79201,1,0,0:0:0:0:
256,192,79272,1,0,0:0:0:0:
256,192,79343,1,0,0:0:0:0:
256,192,79415,1,8,0:0:0:0:
256,192,79486,1,0,0:0:0:0:
256,192,79558,1,0,0:0:0:0:
256,192,79629,1,0,0:0:0:0:
256,192,79701,1,0,0:0:0:0:
256,192,79772,1,0,0:0:0:0:
256,192,79843,1,8,0:0:0:0:
256,192,79915,1,0,0:0:0:0:
256,192,79986,1,0,0:0:0:0:
256,192,80058,1,0,0:0:0:0:
256,192,80129,1,0,0:0:0:0:
256,192,80201,1,0,0:0:0:0:
256,192,80272,1,8,0:0:0:0:
256,192,80343,1,8,0:0:0:0:
256,192,80415,1,8,0:0:0:0:
256,192,80486,1,8,0:0:0:0:
256,192,80558,1,8,0:0:0:0:
256,192,80629,1,8,0:0:0:0:
256,192,80701,1,0,0:0:0:0:
256,192,82415,1,4,0:0:0:0:
256,192,82843,1,8,0:0:0:0:
256,192,82879,1,8,0:0:0:0:
256,192,82986,1,8,0:0:0:0:
256,192,83022,1,8,0:0:0:0:
256,192,83129,1,8,0:0:0:0:
256,192,83165,1,8,0:0:0:0:
256,192,83272,1,0,0:0:0:0:
256,192,83415,1,8,0:0:0:0:
256,192,83486,1,0,0:0:0:0:
256,192,83701,1,8,0:0:0:0:
256,192,83843,1,0,0:0:0:0:
256,192,84058,1,0,0:0:0:0:
256,192,84129,1,8,0:0:0:0:
256,192,84272,1,0,0:0:0:0:
256,192,84486,1,8,0:0:0:0:
256,192,84558,1,0,0:0:0:0:
256,192,84701,1,0,0:0:0:0:
256,192,84772,1,8,0:0:0:0:
256,192,84986,1,8,0:0:0:0:
256,192,85129,1,8,0:0:0:0:
256,192,85415,1,8,0:0:0:0:
256,192,85558,1,0,0:0:0:0:
256,192,85843,1,4,0:0:0:0:
256,192,86272,1,8,0:0:0:0:
256,192,86299,1,8,0:0:0:0:
256,192,86379,1,8,0:0:0:0:
256,192,86406,1,8,0:0:0:0:
256,192,86486,1,8,0:0:0:0:
256,192,86513,1,8,0:0:0:0:
256,192,86593,1,8,0:0:0:0:
256,192,86620,1,8,0:0:0:0:
256,192,86701,1,0,0:0:0:0:
256,192,86843,1,0,0:0:0:0:
256,192,87129,1,8,0:0:0:0:
256,192,87272,1,0,0:0:0:0:
256,192,87486,1,8,0:0:0:0:
256,192,87558,1,8,0:0:0:0:
256,192,87701,1,0,0:0:0:0:
256,192,87915,1,0,0:0:0:0:
256,192,87986,1,8,0:0:0:0:
256,192,88201,1,0,0:0:0:0:
256,192,88343,1,8,0:0:0:0:
256,192,88415,1,0,0:0:0:0:
256,192,88558,1,8,0:0:0:0:
256,192,88772,1,8,0:0:0:0:
256,192,89058,1,8,0:0:0:0:
256,192,89129,1,8,0:0:0:0:
256,192,89201,1,8,0:0:0:0:
256,192,89272,1,4,0:0:0:0:
256,192,89701,1,8,0:0:0:0:
256,192,89736,1,8,0:0:0:0:
256,192,89843,1,8,0:0:0:0:
256,192,89879,1,8,0:0:0:0:
256,192,89986,1,8,0:0:0:0:
256,192,90022,1,8,0:0:0:0:
256,192,90129,1,0,0:0:0:0:
256,192,90272,1,8,0:0:0:0:
256,192,90343,1,0,0:0:0:0:
256,192,90558,1,8,0:0:0:0:
256,192,90701,1,0,0:0:0:0:
256,192,90915,1,0,0:0:0:0:
256,192,90986,1,8,0:0:0:0:
256,192,91129,1,0,0:0:0:0:
256,192,91343,1,8,0:0:0:0:
256,192,91415,1,0,0:0:0:0:
256,192,91558,1,0,0:0:0:0:
256,192,91629,1,8,0:0:0:0:
256,192,91843,1,8,0:0:0:0:
256,192,91986,1,8,0:0:0:0:
256,192,92272,1,8,0:0:0:0:
256,192,92415,1,0,0:0:0:0:
256,192,92558,1,0,0:0:0:0:
256,192,92701,1,0,0:0:0:0:
256,192,93129,1,8,0:0:0:0:
256,192,93558,1,0,0:0:0:0:
256,192,93986,1,8,0:0:0:0:
256,192,94415,1,0,0:0:0:0:
256,192,94629,1,8,0:0:0:0:
256,192,94772,1,0,0:0:0:0:
256,192,94843,1,8,0:0:0:0:
256,192,95201,1,8,0:0:0:0:
256,192,95272,1,0,0:0:0:0:
256,192,95415,1,8,0:0:0:0:
256,192,95593,1,0,0:0:0:0:
256,192,95808,1,8,0:0:0:0:
256,192,96022,1,8,0:0:0:0:
256,192,96129,1,4,0:0:0:0:
256,192,96558,1,8,0:0:0:0:
256,192,96593,1,8,0:0:0:0:
256,192,96701,1,8,0:0:0:0:
256,192,96736,1,8,0:0:0:0:
256,192,96843,1,8,0:0:0:0:
256,192,96879,1,8,0:0:0:0:
256,192,96986,1,0,0:0:0:0:
256,192,97129,1,8,0:0:0:0:
256,192,97201,1,0,0:0:0:0:
256,192,97343,1,0,0:0:0:0:
256,192,97415,1,8,0:0:0:0:
256,192,97558,1,0,0:0:0:0:
256,192,97772,1,0,0:0:0:0:
256,192,97843,1,8,0:0:0:0:
256,192,97986,1,0,0:0:0:0:
256,192,98201,1,8,0:0:0:0:
256,192,98272,1,0,0:0:0:0:
256,192,98415,1,0,0:0:0:0:
256,192,98486,1,8,0:0:0:0:
256,192,98701,1,8,0:0:0:0:
256,192,98843,1,8,0:0:0:0:
256,192,99129,1,8,0:0:0:0:
256,192,99272,1,0,0:0:0:0:
256,192,99558,1,4,0:0:0:0:
256,192,99986,1,8,0:0:0:0:
256,192,100013,1,8,0:0:0:0:
256,192,100093,1,8,0:0:0:0:
256,192,100120,1,8,0:0:0:0:
256,192,100201,1,8,0:0:0:0:
256,192,100227,1,8,0:0:0:0:
256,192,100308,1,8,0:0:0:0:
256,192,100334,1,8,0:0:0:0:
256,192,100415,1,0,0:0:0:0:
256,192,100558,1,0,0:0:0:0:
256,192,100843,1,8,0:0:0:0:
256,192,100986,1,0,0:0:0:0:
256,192,101201,1,0,0:0:0:0:
256,192,101272,1,8,0:0:0:0:
256,192,101558,1,8,0:0:0:0:
256,192,101701,1,0,0:0:0:0:
256,192,101843,1,8,0:0:0:0:
256,192,101986,1,8,0:0:0:0:
256,192,102129,1,0,0:0:0:0:
256,192,102272,1,8,0:0:0:0:
256,192,102558,1,8,0:0:0:0:
256,192,102629,1,0,0:0:0:0:
256,192,102701,1,8,0:0:0:0:
256,192,102772,1,0,0:0:0:0:
256,192,102843,1,8,0:0:0:0:
256,192,102915,1,8,0:0:0:0:
256,192,102986,1,4,0:0:0:0:
256,192,103415,1,8,0:0:0:0:
256,192,103451,1,8,0:0:0:0:
256,192,103558,1,8,0:0:0:0:
256,192,103593,1,8,0:0:0:0:
256,192,103701,1,8,0:0:0:0:
256,192,103736,1,8,0:0:0:0:
256,192,103843,1,0,0:0:0:0:
256,192,103986,1,8,0:0:0:0:
256,192,104058,1,0,0:0:0:0:
256,192,104201,1,0,0:0:0:0:
256,192,104272,1,8,0:0:0:0:
256,192,104415,1,0,0:0:0:0:
256,192,104629,1,0,0:0:0:0:
256,192,104701,1,8,0:0:0:0:
256,192,104843,1,0,0:0:0:0:
256,192,105058,1,8,0:0:0:0:
256,192,105129,1,0,0:0:0:0:
256,192,105272,1,0,0:0:0:0:
256,192,105343,1,8,0:0:0:0:
256,192,105558,1,8,0:0:0:0:
256,192,105701,1,8,0:0:0:0:
256,192,105986,1,8,0:0:0:0:
256,192,106129,1,0,0:0:0:0:
256,192,106272,1,0,0:0:0:0:
256,192,106415,1,0,0:0:0:0:
256,192,106843,1,12,0:0:0:0:
256,192,107272,1,12,0:0:0:0:
256,192,107701,1,12,0:0:0:0:
256,192,108129,1,12,0:0:0:0:
256,192,108558,1,12,0:0:0:0:
256,192,108986,1,12,0:0:0:0:
256,192,109415,1,12,0:0:0:0:
256,192,109843,1,0,0:0:0:0:
256,192,109915,1,0,0:0:0:0:
256,192,109986,1,0,0:0:0:0:
256,192,110058,1,8,0:0:0:0:
256,192,110129,1,8,0:0:0:0:
256,192,110201,1,8,0:0:0:0:
256,192,110272,1,0,0:0:0:0:
256,192,110486,1,8,0:0:0:0:
256,192,110540,1,8,0:0:0:0:
256,192,110593,1,8,0:0:0:0:
256,192,110647,1,8,0:0:0:0:
256,192,110701,1,0,0:0:0:0:
256,192,110843,1,8,0:0:0:0:
256,192,111022,1,0,0:0:0:0:
256,192,111129,1,8,0:0:0:0:
256,192,111486,1,8,0:0:0:0:
256,192,111772,1,0,0:0:0:0:
256,192,112129,1,8,0:0:0:0:
256,192,112308,1,0,0:0:0:0:
256,192,112415,1,8,0:0:0:0:
256,192,112843,1,8,0:0:0:0:
256,192,112879,1,8,0:0:0:0:
256,192,112915,1,8,0:0:0:0:
256,192,112986,1,0,0:0:0:0:
256,192,113165,1,8,0:0:0:0:
256,192,113272,1,0,0:0:0:0:
256,192,113415,1,8,0:0:0:0:
256,192,113558,1,8,0:0:0:0:
256,192,113701,1,0,0:0:0:0:
256,192,113915,1,8,0:0:0:0:
256,192,113968,1,8,0:0:0:0:
256,192,114022,1,8,0:0:0:0:
256,192,114076,1,8,0:0:0:0:
256,192,114129,1,0,0:0:0:0:
256,192,114272,1,8,0:0:0:0:
256,192,114415,1,0,0:0:0:0:
256,192,114558,1,8,0:0:0:0:
256,192,114701,1,0,0:0:0:0:
256,192,114772,1,8,0:0:0:0:
256,192,114986,1,0,0:0:0:0:
256,192,115129,1,8,0:0:0:0:
256,192,115201,1,0,0:0:0:0:
256,192,115343,1,0,0:0:0:0:
256,192,115415,1,8,0:0:0:0:
256,192,115558,1,8,0:0:0:0:
256,192,115629,1,0,0:0:0:0:
256,192,115701,1,8,0:0:0:0:
256,192,115772,1,8,0:0:0:0:
256,192,115843,1,0,0:0:0:0:
256,192,115986,1,0,0:0:0:0:
256,192,116058,1,8,0:0:0:0:
256,192,116201,1,0,0:0:0:0:
256,192,116272,1,0,0:0:0:0:
256,192,116415,1,8,0:0:0:0:
256,192,116593,1,8,0:0:0:0:
256,192,116701,1,0,0:0:0:0:
256,192,116772,1,8,0:0:0:0:
256,192,116843,1,8,0:0:0:0:
256,192,116915,1,0,0:0:0:0:
256,192,116986,1,8,0:0:0:0:
256,192,117058,1,8,0:0:0:0:
256,192,117129,1,0,0:0:0:0:
256,192,117343,1,0,0:0:0:0:
256,192,117397,1,0,0:0:0:0:
256,192,117451,1,8,0:0:0:0:
256,192,117504,1,8,0:0:0:0:
256,192,117558,1,0,0:0:0:0:
256,192,117701,1,8,0:0:0:0:
256,192,117879,1,0,0:0:0:0:
256,192,117986,1,8,0:0:0:0:
256,192,118129,1,0,0:0:0:0:
256,192,118343,1,8,0:0:0:0:
256,192,118415,1,0,0:0:0:0:
256,192,118629,1,0,0:0:0:0:
256,192,118701,1,0,0:0:0:0:
256,192,118772,1,0,0:0:0:0:
256,192,118843,1,8,0:0:0:0:
256,192,118986,1,0,0:0:0:0:
256,192,119165,1,8,0:0:0:0:
256,192,119272,1,8,0:0:0:0:
256,192,119415,1,0,0:0:0:0:
256,192,119701,1,0,0:0:0:0:
256,192,119843,1,8,0:0:0:0:
256,192,120022,1,8,0:0:0:0:
256,192,120129,1,0,0:0:0:0:
256,192,120558,1,12,0:0:0:0:
256,192,120986,1,12,0:0:0:0:
256,192,121415,1,12,0:0:0:0:
256,192,121843,1,12,0:0:0:0:
256,192,122272,1,12,0:0:0:0:
256,192,122701,1,12,0:0:0:0:
256,192,123129,1,12,0:0:0:0:
256,192,123558,1,0,0:0:0:0:
256,192,123629,1,8,0:0:0:0:
256,192,123701,1,8,0:0:0:0:
256,192,123772,1,8,0:0:0:0:
256,192,123843,1,0,0:0:0:0:
256,192,123915,1,0,0:0:0:0:
256,192,123986,1,8,0:0:0:0:
256,192,124093,1,0,0:0:0:0:
256,192,124201,1,8,0:0:0:0:
256,192,124254,1,8,0:0:0:0:
256,192,124308,1,8,0:0:0:0:
256,192,124361,1,8,0:0:0:0:
256,192,124415,1,0,0:0:0:0:
256,192,124558,1,8,0:0:0:0:
256,192,124629,1,8,0:0:0:0:
256,192,124772,1,0,0:0:0:0:
256,192,124843,1,8,0:0:0:0:
256,192,124986,1,0,0:0:0:0:
256,192,125201,1,8,0:0:0:0:
256,192,125272,1,0,0:0:0:0:
256,192,125415,1,0,0:0:0:0:
256,192,125486,1,8,0:0:0:0:
256,192,125558,1,0,0:0:0:0:
256,192,125629,1,0,0:0:0:0:
256,192,125701,1,8,0:0:0:0:
256,192,125843,1,0,0:0:0:0:
256,192,125915,1,8,0:0:0:0:
256,192,126058,1,8,0:0:0:0:
256,192,126129,1,0,0:0:0:0:
256,192,126272,1,8,0:0:0:0:
256,192,126558,1,0,0:0:0:0:
256,192,126701,1,8,0:0:0:0:
256,192,126879,1,8,0:0:0:0:
256,192,126986,1,0,0:0:0:0:
256,192,127129,1,8,0:0:0:0:
256,192,127272,1,8,0:0:0:0:
256,192,127415,1,0,0:0:0:0:
256,192,127629,1,0,0:0:0:0:
256,192,127683,1,8,0:0:0:0:
256,192,127736,1,0,0:0:0:0:
256,192,127790,1,8,0:0:0:0:
256,192,127843,1,0,0:0:0:0:
256,192,127986,1,8,0:0:0:0:
256,192,128058,1,8,0:0:0:0:
256,192,128129,1,0,0:0:0:0:
256,192,128272,1,8,0:0:0:0:
256,192,128415,1,0,0:0:0:0:
256,192,128486,1,8,0:0:0:0:
256,192,128701,1,0,0:0:0:0:
256,192,128772,1,8,0:0:0:0:
256,192,128843,1,8,0:0:0:0:
256,192,128915,1,0,0:0:0:0:
256,192,129058,1,0,0:0:0:0:
256,192,129129,1,8,0:0:0:0:
256,192,129272,1,8,0:0:0:0:
256,192,129343,1,8,0:0:0:0:
256,192,129415,1,0,0:0:0:0:
256,192,129486,1,8,0:0:0:0:
256,192,129558,1,0,0:0:0:0:
256,192,129701,1,0,0:0:0:0:
256,192,129772,1,8,0:0:0:0:
256,192,129915,1,0,0:0:0:0:
256,192,129986,1,0,0:0:0:0:
256,192,130129,1,8,0:0:0:0:
256,192,130308,1,8,0:0:0:0:
256,192,130415,1,0,0:0:0:0:
256,192,130486,1,0,0:0:0:0:
256,192,130558,1,8,0:0:0:0:
256,192,130629,1,0,0:0:0:0:
256,192,130701,1,8,0:0:0:0:
256,192,130772,1,8,0:0:0:0:
256,192,130843,1,0,0:0:0:0:
256,192,130951,1,8,0:0:0:0:
256,192,131058,1,0,0:0:0:0:
256,192,131111,1,8,0:0:0:0:
256,192,131165,1,8,0:0:0:0:
256,192,131218,1,8,0:0:0:0:
256,192,131272,1,0,0:0:0:0:
256,192,131415,1,8,0:0:0:0:
256,192,131486,1,8,0:0:0:0:
256,192,131629,1,0,0:0:0:0:
256,192,131701,1,8,0:0:0:0:
256,192,131843,1,0,0:0:0:0:
256,192,132058,1,8,0:0:0:0:
256,192,132129,1,0,0:0:0:0:
256,192,132272,1,0,0:0:0:0:
256,192,132343,1,8,0:0:0:0:
256,192,132415,1,8,0:0:0:0:
256,192,132486,1,0,0:0:0:0:
256,192,132558,1,8,0:0:0:0:
256,192,132701,1,0,0:0:0:0:
256,192,132772,1,0,0:0:0:0:
256,192,132843,1,0,0:0:0:0:
256,192,132915,1,8,0:0:0:0:
256,192,132986,1,0,0:0:0:0:
256,192,133129,1,8,0:0:0:0:
256,192,133415,1,8,0:0:0:0:
256,192,133558,1,0,0:0:0:0:
256,192,133736,1,0,0:0:0:0:
256,192,133843,1,12,0:0:0:0:
256,192,134700,8,0,136843,0:0:0:0:
256,192,137272,5,12,0:0:0:0:
256,192,137700,1,8,0:0:0:0:
256,192,137807,1,0,0:0:0:0:
256,192,137914,1,0,0:0:0:0:
256,192,138022,1,0,0:0:0:0:
256,192,138129,1,8,0:0:0:0:
256,192,138236,1,0,0:0:0:0:
256,192,138343,1,0,0:0:0:0:
256,192,138450,1,0,0:0:0:0:
256,192,138557,1,8,0:0:0:0:
256,192,138664,1,0,0:0:0:0:
256,192,138772,1,0,0:0:0:0:
256,192,138879,1,0,0:0:0:0:
256,192,138986,1,8,0:0:0:0:
256,192,139093,1,8,0:0:0:0:
256,192,139200,1,0,0:0:0:0:
256,192,139307,1,0,0:0:0:0:
256,192,139414,1,8,0:0:0:0:
256,192,139522,1,8,0:0:0:0:
256,192,139629,1,0,0:0:0:0:
256,192,139736,1,0,0:0:0:0:
256,192,139843,1,8,0:0:0:0:
256,192,139950,1,8,0:0:0:0:
256,192,140057,1,0,0:0:0:0:
256,192,140164,1,0,0:0:0:0:
256,192,140272,1,8,0:0:0:0:
256,192,140379,1,8,0:0:0:0:
256,192,140486,1,0,0:0:0:0:
256,192,140593,1,0,0:0:0:0:
256,192,140700,1,8,0:0:0:0:
256,192,140807,1,8,0:0:0:0:
256,192,140914,1,8,0:0:0:0:
256,192,141022,1,0,0:0:0:0:
256,192,141129,1,8,0:0:0:0:
256,192,141236,1,8,0:0:0:0:
256,192,141343,1,0,0:0:0:0:
256,192,141450,1,0,0:0:0:0:
256,192,141557,1,8,0:0:0:0:
256,192,141664,1,8,0:0:0:0:
256,192,141772,1,8,0:0:0:0:
256,192,141879,1,0,0:0:0:0:
256,192,141986,1,8,0:0:0:0:
256,192,142093,1,8,0:0:0:0:
256,192,142200,1,0,0:0:0:0:
256,192,142307,1,0,0:0:0:0:
256,192,142414,1,8,0:0:0:0:
256,192,142522,1,8,0:0:0:0:
256,192,142629,1,8,0:0:0:0:
256,192,142736,1,8,0:0:0:0:
256,192,142843,1,0,0:0:0:0:
256,192,142950,1,0,0:0:0:0:
256,192,143057,1,8,0:0:0:0:
256,192,143164,1,8,0:0:0:0:
256,192,143272,1,0,0:0:0:0:
256,192,143379,1,0,0:0:0:0:
256,192,143486,1,0,0:0:0:0:
256,192,143593,1,0,0:0:0:0:
256,192,143629,1,0,0:0:0:0:
256,192,143664,1,0,0:0:0:0:
256,192,143700,1,0,0:0:0:0:
256,192,143914,1,0,0:0:0:0:
256,192,144129,1,12,0:0:0:0:
256,192,144343,1,0,0:0:0:0:
256,192,144450,1,8,0:0:0:0:
256,192,144557,1,0,0:0:0:0:
256,192,144664,1,0,0:0:0:0:
256,192,144772,1,8,0:0:0:0:
256,192,144879,1,8,0:0:0:0:
256,192,144986,1,0,0:0:0:0:
256,192,145093,1,8,0:0:0:0:
256,192,145200,1,8,0:0:0:0:
256,192,145307,1,8,0:0:0:0:
256,192,145414,1,0,0:0:0:0:
256,192,145522,1,0,0:0:0:0:
256,192,145629,1,8,0:0:0:0:
256,192,145736,1,8,0:0:0:0:
256,192,145843,1,0,0:0:0:0:
256,192,145950,1,0,0:0:0:0:
256,192,146057,1,0,0:0:0:0:
256,192,146164,1,8,0:0:0:0:
256,192,146272,1,0,0:0:0:0:
256,192,146379,1,0,0:0:0:0:
256,192,146486,1,8,0:0:0:0:
256,192,146593,1,8,0:0:0:0:
256,192,146700,1,0,0:0:0:0:
256,192,146807,1,0,0:0:0:0:
256,192,146914,1,0,0:0:0:0:
256,192,147022,1,8,0:0:0:0:
256,192,147129,1,0,0:0:0:0:
256,192,147236,1,0,0:0:0:0:
256,192,147343,1,8,0:0:0:0:
256,192,147450,1,0,0:0:0:0:
256,192,147557,1,8,0:0:0:0:
256,192,147664,1,8,0:0:0:0:
256,192,147772,1,8,0:0:0:0:
256,192,147879,1,8,0:0:0:0:
256,192,147986,1,0,0:0:0:0:
256,192,148093,1,0,0:0:0:0:
256,192,148200,1,8,0:0:0:0:
256,192,148307,1,8,0:0:0:0:
256,192,148414,1,0,0:0:0:0:
256,192,148522,1,8,0:0:0:0:
256,192,148629,1,0,0:0:0:0:
256,192,148736,1,0,0:0:0:0:
256,192,148843,1,8,0:0:0:0:
256,192,148950,1,8,0:0:0:0:
256,192,149057,1,0,0:0:0:0:
256,192,149164,1,8,0:0:0:0:
256,192,149272,1,0,0:0:0:0:
256,192,149379,1,0,0:0:0:0:
256,192,149486,1,8,0:0:0:0:
256,192,149593,1,8,0:0:0:0:
256,192,149700,1,0,0:0:0:0:
256,192,149807,1,8,0:0:0:0:
256,192,149914,1,8,0:0:0:0:
256,192,150022,1,8,0:0:0:0:
256,192,150129,1,0,0:0:0:0:
256,192,150236,1,8,0:0:0:0:
256,192,150343,1,0,0:0:0:0:
256,192,150450,1,0,0:0:0:0:
256,192,150557,1,8,0:0:0:0:
256,192,150629,1,8,0:0:0:0:
256,192,150700,1,8,0:0:0:0:
256,192,150772,1,8,0:0:0:0:
256,192,150843,1,8,0:0:0:0:
256,192,150914,1,8,0:0:0:0:
256,192,150986,1,4,0:0:0:0:
256,192,151414,1,8,0:0:0:0:
256,192,151522,1,0,0:0:0:0:
256,192,151629,1,8,0:0:0:0:
256,192,151736,1,8,0:0:0:0:
256,192,151843,1,0,0:0:0:0:
256,192,151950,1,8,0:0:0:0:
256,192,152057,1,0,0:0:0:0:
256,192,152164,1,0,0:0:0:0:
256,192,152272,1,8,0:0:0:0:
256,192,152379,1,0,0:0:0:0:
256,192,152486,1,8,0:0:0:0:
256,192,152593,1,8,0:0:0:0:
256,192,152700,1,0,0:0:0:0:
256,192,152807,1,0,0:0:0:0:
256,192,152914,1,8,0:0:0:0:
256,192,153022,1,0,0:0:0:0:
256,192,153129,1,8,0:0:0:0:
256,192,153236,1,8,0:0:0:0:
256,192,153343,1,0,0:0:0:0:
256,192,153450,1,8,0:0:0:0:
256,192,153557,1,0,0:0:0:0:
256,192,153664,1,0,0:0:0:0:
256,192,153772,1,8,0:0:0:0:
256,192,153879,1,0,0:0:0:0:
256,192,153986,1,8,0:0:0:0:
256,192,154093,1,8,0:0:0:0:
256,192,154200,1,0,0:0:0:0:
256,192,154307,1,8,0:0:0:0:
256,192,154414,1,0,0:0:0:0:
256,192,154522,1,0,0:0:0:0:
256,192,154629,1,8,0:0:0:0:
256,192,154736,1,8,0:0:0:0:
256,192,154843,1,0,0:0:0:0:
256,192,154950,1,8,0:0:0:0:
256,192,155057,1,8,0:0:0:0:
256,192,155164,1,8,0:0:0:0:
256,192,155272,1,0,0:0:0:0:
256,192,155379,1,0,0:0:0:0:
256,192,155486,1,8,0:0:0:0:
256,192,155593,1,8,0:0:0:0:
256,192,155700,1,0,0:0:0:0:
256,192,155807,1,8,0:0:0:0:
256,192,155914,1,8,0:0:0:0:
256,192,156022,1,8,0:0:0:0:
256,192,156129,1,0,0:0:0:0:
256,192,156236,1,0,0:0:0:0:
256,192,156343,1,8,0:0:0:0:
256,192,156450,1,8,0:0:0:0:
256,192,156557,1,0,0:0:0:0:
256,192,156664,1,8,0:0:0:0:
256,192,156772,1,0,0:0:0:0:
256,192,156879,1,8,0:0:0:0:
256,192,156986,1,0,0:0:0:0:
256,192,157093,1,0,0:0:0:0:
256,192,157200,1,8,0:0:0:0:
256,192,157307,1,8,0:0:0:0:
256,192,157414,1,0,0:0:0:0:
256,192,157522,1,8,0:0:0:0:
256,192,157629,1,0,0:0:0:0:
256,192,157736,1,8,0:0:0:0:
256,192,157843,1,0,0:0:0:0:
256,192,157950,1,0,0:0:0:0:
256,192,158057,1,8,0:0:0:0:
256,192,158164,1,8,0:0:0:0:
256,192,158272,1,0,0:0:0:0:
256,192,158379,1,0,0:0:0:0:
256,192,158486,1,0,0:0:0:0:
256,192,158593,1,8,0:0:0:0:
256,192,158700,1,0,0:0:0:0:
256,192,158807,1,0,0:0:0:0:
256,192,158914,1,8,0:0:0:0:
256,192,159022,1,8,0:0:0:0:
256,192,159129,1,0,0:0:0:0:
256,192,159236,1,0,0:0:0:0:
256,192,159343,1,0,0:0:0:0:
256,192,159450,1,8,0:0:0:0:
256,192,159557,1,0,0:0:0:0:
256,192,159664,1,0,0:0:0:0:
256,192,159772,1,8,0:0:0:0:
256,192,159879,1,8,0:0:0:0:
256,192,159986,1,0,0:0:0:0:
256,192,160093,1,8,0:0:0:0:
256,192,160200,1,8,0:0:0:0:
256,192,160307,1,8,0:0:0:0:
256,192,160414,1,0,0:0:0:0:
256,192,160522,1,0,0:0:0:0:
256,192,160629,1,8,0:0:0:0:
256,192,160736,1,8,0:0:0:0:
256,192,160843,1,0,0:0:0:0:
256,192,160950,1,8,0:0:0:0:
256,192,161057,1,8,0:0:0:0:
256,192,161164,1,8,0:0:0:0:
256,192,161272,1,0,0:0:0:0:
256,192,161379,1,8,0:0:0:0:
256,192,161486,1,0,0:0:0:0:
256,192,161593,1,8,0:0:0:0:
256,192,161700,1,0,0:0:0:0:
256,192,161807,1,8,0:0:0:0:
256,192,161914,1,8,0:0:0:0:
256,192,162022,1,8,0:0:0:0:
256,192,162129,1,0,0:0:0:0:
256,192,162236,1,8,0:0:0:0:
256,192,162343,1,0,0:0:0:0:
256,192,162450,1,8,0:0:0:0:
256,192,162557,1,0,0:0:0:0:
256,192,162664,1,8,0:0:0:0:
256,192,162772,1,8,0:0:0:0:
256,192,162879,1,8,0:0:0:0:
256,192,162986,1,0,0:0:0:0:
256,192,164700,1,8,0:0:0:0:
256,192,164807,1,8,0:0:0:0:
256,192,164914,1,0,0:0:0:0:
256,192,165022,1,8,0:0:0:0:
256,192,165129,1,0,0:0:0:0:
256,192,165236,1,0,0:0:0:0:
256,192,165343,1,8,0:0:0:0:
256,192,165450,1,0,0:0:0:0:
256,192,165557,1,8,0:0:0:0:
256,192,165664,1,8,0:0:0:0:
256,192,165772,1,0,0:0:0:0:
256,192,165879,1,8,0:0:0:0:
256,192,165986,1,0,0:0:0:0:
256,192,166093,1,0,0:0:0:0:
256,192,166200,1,8,0:0:0:0:
256,192,166307,1,0,0:0:0:0:
256,192,166414,1,8,0:0:0:0:
256,192,166522,1,8,0:0:0:0:
256,192,166629,1,0,0:0:0:0:
256,192,166736,1,0,0:0:0:0:
256,192,166843,1,8,0:0:0:0:
256,192,166950,1,8,0:0:0:0:
256,192,167057,1,8,0:0:0:0:
256,192,167164,1,0,0:0:0:0:
256,192,167272,1,8,0:0:0:0:
256,192,167379,1,8,0:0:0:0:
256,192,167486,1,0,0:0:0:0:
256,192,167593,1,0,0:0:0:0:
256,192,167700,1,8,0:0:0:0:
256,192,167807,1,8,0:0:0:0:
256,192,167914,1,8,0:0:0:0:
256,192,168022,1,0,0:0:0:0:
256,192,168129,1,8,0:0:0:0:
256,192,168236,1,8,0:0:0:0:
256,192,168343,1,0,0:0:0:0:
256,192,168450,1,8,0:0:0:0:
256,192,168557,1,0,0:0:0:0:
256,192,168664,1,8,0:0:0:0:
256,192,168772,1,8,0:0:0:0:
256,192,168879,1,0,0:0:0:0:
256,192,168986,1,8,0:0:0:0:
256,192,169093,1,8,0:0:0:0:
256,192,169200,1,0,0:0:0:0:
256,192,169307,1,8,0:0:0:0:
256,192,169414,1,0,0:0:0:0:
256,192,169522,1,8,0:0:0:0:
256,192,169629,1,8,0:0:0:0:
256,192,169736,1,0,0:0:0:0:
256,192,169843,1,8,0:0:0:0:
256,192,169950,1,8,0:0:0:0:
256,192,170057,1,8,0:0:0:0:
256,192,170164,1,0,0:0:0:0:
256,192,170272,1,8,0:0:0:0:
256,192,170379,1,8,0:0:0:0:
256,192,170486,1,0,0:0:0:0:
256,192,170593,1,0,0:0:0:0:
256,192,170700,1,8,0:0:0:0:
256,192,170807,1,8,0:0:0:0:
256,192,170914,1,8,0:0:0:0:
256,192,171022,1,0,0:0:0:0:
256,192,171129,1,8,0:0:0:0:
256,192,171236,1,8,0:0:0:0:
256,192,171343,1,0,0:0:0:0:
256,192,171450,1,0,0:0:0:0:
256,192,171557,1,8,0:0:0:0:
256,192,171664,1,0,0:0:0:0:
256,192,171772,1,8,0:0:0:0:
256,192,171879,1,8,0:0:0:0:
256,192,171986,1,0,0:0:0:0:
256,192,172093,1,8,0:0:0:0:
256,192,172200,1,0,0:0:0:0:
256,192,172307,1,0,0:0:0:0:
256,192,172414,1,8,0:0:0:0:
256,192,172522,1,0,0:0:0:0:
256,192,172629,1,8,0:0:0:0:
256,192,172736,1,8,0:0:0:0:
256,192,172843,1,0,0:0:0:0:
256,192,172950,1,8,0:0:0:0:
256,192,173057,1,0,0:0:0:0:
256,192,173164,1,0,0:0:0:0:
256,192,173272,1,8,0:0:0:0:
256,192,173379,1,8,0:0:0:0:
256,192,173486,1,8,0:0:0:0:
256,192,173593,1,0,0:0:0:0:
256,192,173700,1,8,0:0:0:0:
256,192,173807,1,0,0:0:0:0:
256,192,173914,1,0,0:0:0:0:
256,192,174022,1,0,0:0:0:0:
256,192,174129,1,8,0:0:0:0:
256,192,174236,1,8,0:0:0:0:
256,192,174343,1,8,0:0:0:0:
256,192,174450,1,0,0:0:0:0:
256,192,174557,1,8,0:0:0:0:
256,192,174664,1,0,0:0:0:0:
256,192,174772,1,0,0:0:0:0:
256,192,174879,1,0,0:0:0:0:
256,192,174986,1,8,0:0:0:0:
256,192,175093,1,8,0:0:0:0:
256,192,175200,1,0,0:0:0:0:
256,192,175307,1,0,0:0:0:0:
256,192,175414,1,8,0:0:0:0:
256,192,175522,1,8,0:0:0:0:
256,192,175629,1,8,0:0:0:0:
256,192,175736,1,0,0:0:0:0:
256,192,175843,1,8,0:0:0:0:
256,192,175950,1,8,0:0:0:0:
256,192,176057,1,0,0:0:0:0:
256,192,176164,1,0,0:0:0:0:
256,192,176272,1,8,0:0:0:0:
256,192,176379,1,8,0:0:0:0:
256,192,176486,1,8,0:0:0:0:
256,192,176593,1,0,0:0:0:0:
256,192,176700,1,8,0:0:0:0:
256,192,176772,1,8,0:0:0:0:
256,192,176843,1,8,0:0:0:0:
256,192,176914,1,0,0:0:0:0:
256,192,177022,1,0,0:0:0:0:
256,192,177129,1,8,0:0:0:0:
256,192,177200,1,0,0:0:0:0:
256,192,177272,1,0,0:0:0:0:
256,192,177343,1,8,0:0:0:0:
256,192,177450,1,8,0:0:0:0:
256,192,177557,1,0,0:0:0:0:
256,192,177629,1,0,0:0:0:0:
256,192,177700,1,0,0:0:0:0:
256,192,177772,1,8,0:0:0:0:
256,192,177879,1,8,0:0:0:0:
256,192,177986,1,0,0:0:0:0:
256,192,178057,1,8,0:0:0:0:
256,192,178129,1,8,0:0:0:0:
256,192,178200,1,0,0:0:0:0:
256,192,178307,1,0,0:0:0:0:
256,192,178414,1,8,0:0:0:0:
256,192,178522,1,0,0:0:0:0:
256,192,178629,1,8,0:0:0:0:
256,192,178736,1,0,0:0:0:0:
256,192,178843,1,8,0:0:0:0:
256,192,178950,1,8,0:0:0:0:
256,192,179057,1,0,0:0:0:0:
256,192,179164,1,0,0:0:0:0:
256,192,179272,1,8,0:0:0:0:
256,192,179379,1,0,0:0:0:0:
256,192,179486,1,8,0:0:0:0:
256,192,179593,1,0,0:0:0:0:
256,192,179700,1,8,0:0:0:0:
256,192,179807,1,8,0:0:0:0:
256,192,179914,1,0,0:0:0:0:
256,192,180022,1,0,0:0:0:0:
256,192,180129,1,8,0:0:0:0:
256,192,180236,1,8,0:0:0:0:
256,192,180343,1,8,0:0:0:0:
256,192,180450,1,0,0:0:0:0:
256,192,180557,1,0,0:0:0:0:
256,192,180664,1,8,0:0:0:0:
256,192,180772,1,8,0:0:0:0:
256,192,180879,1,0,0:0:0:0:
256,192,180986,1,8,0:0:0:0:
256,192,181093,1,8,0:0:0:0:
256,192,181200,1,8,0:0:0:0:
256,192,181307,1,0,0:0:0:0:
256,192,181414,1,0,0:0:0:0:
256,192,181522,1,8,0:0:0:0:
256,192,181629,1,8,0:0:0:0:
256,192,181736,1,0,0:0:0:0:
256,192,181843,1,8,0:0:0:0:
256,192,181950,1,8,0:0:0:0:
256,192,182057,1,0,0:0:0:0:
256,192,182164,1,0,0:0:0:0:
256,192,182272,1,8,0:0:0:0:
256,192,182379,1,0,0:0:0:0:
256,192,182486,1,8,0:0:0:0:
256,192,182593,1,0,0:0:0:0:
256,192,182700,1,8,0:0:0:0:
256,192,182807,1,8,0:0:0:0:
256,192,182914,1,0,0:0:0:0:
256,192,183022,1,0,0:0:0:0:
256,192,183129,1,8,0:0:0:0:
256,192,183236,1,0,0:0:0:0:
256,192,183343,1,8,0:0:0:0:
256,192,183450,1,0,0:0:0:0:
256,192,183557,1,8,0:0:0:0:
256,192,183664,1,8,0:0:0:0:
256,192,183772,1,8,0:0:0:0:
256,192,183879,1,0,0:0:0:0:
256,192,183986,1,8,0:0:0:0:
256,192,184093,1,8,0:0:0:0:
256,192,184200,1,0,0:0:0:0:
256,192,184307,1,0,0:0:0:0:
256,192,184414,1,8,0:0:0:0:
256,192,184522,1,8,0:0:0:0:
256,192,184629,1,8,0:0:0:0:
256,192,184736,1,0,0:0:0:0:
256,192,184843,1,8,0:0:0:0:
256,192,184950,1,8,0:0:0:0:
256,192,185057,1,8,0:0:0:0:
256,192,185164,1,8,0:0:0:0:
256,192,185272,1,0,0:0:0:0:
256,192,185486,1,0,0:0:0:0:
256,192,185700,1,8,0:0:0:0:
256,192,185914,1,0,0:0:0:0:
256,192,186129,1,0,0:0:0:0:
256,192,186343,1,0,0:0:0:0:
256,192,186557,1,8,0:0:0:0:
256,192,186772,1,0,0:0:0:0:
256,192,186986,1,0,0:0:0:0:
256,192,187200,1,0,0:0:0:0:
256,192,187414,1,8,0:0:0:0:
256,192,187629,1,0,0:0:0:0:
256,192,187843,1,0,0:0:0:0:
256,192,188057,1,0,0:0:0:0:
256,192,188272,1,8,0:0:0:0:
256,192,188486,1,0,0:0:0:0:
256,192,188700,1,0,0:0:0:0:
256,192,189129,1,8,0:0:0:0:
256,192,189557,1,0,0:0:0:0:
256,192,189986,1,8,0:0:0:0:
256,192,190842,1,8,0:0:0:0:
256,192,191056,1,8,0:0:0:0:
256,192,191271,1,8,0:0:0:0:
256,192,191485,1,8,0:0:0:0:
256,192,191592,1,8,0:0:0:0:
256,192,191699,1,8,0:0:0:0:
256,192,191806,1,8,0:0:0:0:
256,192,191914,1,8,0:0:0:0:
256,192,192021,1,8,0:0:0:0:
256,192,192129,1,4,0:0:0:0:
256,192,192557,1,0,0:0:0:0:
256,192,192593,1,0,0:0:0:0:
256,192,192700,1,0,0:0:0:0:
256,192,192736,1,0,0:0:0:0:
256,192,192843,1,0,0:0:0:0:
256,192,192879,1,0,0:0:0:0:
256,192,192986,1,8,0:0:0:0:
256,192,193129,1,0,0:0:0:0:
256,192,193414,1,0,0:0:0:0:
256,192,193557,1,8,0:0:0:0:
256,192,193771,1,8,0:0:0:0:
256,192,193843,1,0,0:0:0:0:
256,192,193986,1,8,0:0:0:0:
256,192,194200,1,8,0:0:0:0:
256,192,194271,1,0,0:0:0:0:
256,192,194414,1,8,0:0:0:0:
256,192,194486,1,8,0:0:0:0:
256,192,194629,1,0,0:0:0:0:
256,192,194700,1,8,0:0:0:0:
256,192,194843,1,0,0:0:0:0:
256,192,195129,1,8,0:0:0:0:
256,192,195164,1,8,0:0:0:0:
256,192,195271,1,0,0:0:0:0:
256,192,195557,1,4,0:0:0:0:
256,192,195986,1,0,0:0:0:0:
256,192,196012,1,0,0:0:0:0:
256,192,196093,1,0,0:0:0:0:
256,192,196120,1,0,0:0:0:0:
256,192,196200,1,0,0:0:0:0:
256,192,196227,1,0,0:0:0:0:
256,192,196307,1,0,0:0:0:0:
256,192,196334,1,0,0:0:0:0:
256,192,196414,1,8,0:0:0:0:
256,192,196557,1,0,0:0:0:0:
256,192,196843,1,8,0:0:0:0:
256,192,196914,1,0,0:0:0:0:
256,192,196986,1,8,0:0:0:0:
256,192,197200,1,0,0:0:0:0:
256,192,197343,1,8,0:0:0:0:
256,192,197414,1,0,0:0:0:0:
256,192,197629,1,8,0:0:0:0:
256,192,197700,1,8,0:0:0:0:
256,192,197843,1,0,0:0:0:0:
256,192,197914,1,8,0:0:0:0:
256,192,198129,1,8,0:0:0:0:
256,192,198271,1,0,0:0:0:0:
256,192,198486,1,8,0:0:0:0:
256,192,198771,1,8,0:0:0:0:
256,192,198986,1,4,0:0:0:0:
256,192,199414,1,0,0:0:0:0:
256,192,199450,1,0,0:0:0:0:
256,192,199557,1,0,0:0:0:0:
256,192,199593,1,0,0:0:0:0:
256,192,199700,1,0,0:0:0:0:
256,192,199736,1,0,0:0:0:0:
256,192,199843,1,8,0:0:0:0:
256,192,199986,1,0,0:0:0:0:
256,192,200271,1,0,0:0:0:0:
256,192,200414,1,8,0:0:0:0:
256,192,200629,1,8,0:0:0:0:
256,192,200700,1,0,0:0:0:0:
256,192,200843,1,8,0:0:0:0:
256,192,201057,1,8,0:0:0:0:
256,192,201129,1,0,0:0:0:0:
256,192,201271,1,8,0:0:0:0:
256,192,201343,1,8,0:0:0:0:
256,192,201486,1,0,0:0:0:0:
256,192,201557,1,8,0:0:0:0:
256,192,201700,1,0,0:0:0:0:
256,192,201986,1,8,0:0:0:0:
256,192,202021,1,8,0:0:0:0:
256,192,202129,1,0,0:0:0:0:
256,192,202414,1,4,0:0:0:0:
256,192,202843,1,0,0:0:0:0:
256,192,203271,1,8,0:0:0:0:
256,192,203486,1,0,0:0:0:0:
256,192,203629,1,8,0:0:0:0:
256,192,203700,1,0,0:0:0:0:
256,192,203843,1,0,0:0:0:0:
256,192,203914,1,8,0:0:0:0:
256,192,204129,1,8,0:0:0:0:
256,192,204182,1,8,0:0:0:0:
256,192,204236,1,8,0:0:0:0:
256,192,204289,1,8,0:0:0:0:
256,192,204343,1,0,0:0:0:0:
256,192,204486,1,0,0:0:0:0:
256,192,204557,1,8,0:0:0:0:
256,192,204771,1,0,0:0:0:0:
256,192,204914,1,8,0:0:0:0:
256,192,204986,1,0,0:0:0:0:
256,192,205129,1,0,0:0:0:0:
256,192,205200,1,8,0:0:0:0:
256,192,205414,1,8,0:0:0:0:
256,192,205629,1,0,0:0:0:0:
256,192,205771,1,8,0:0:0:0:
256,192,205843,1,4,0:0:0:0:
256,192,206271,1,0,0:0:0:0:
256,192,206307,1,0,0:0:0:0:
256,192,206414,1,0,0:0:0:0:
256,192,206450,1,0,0:0:0:0:
256,192,206557,1,0,0:0:0:0:
256,192,206593,1,0,0:0:0:0:
256,192,206700,1,8,0:0:0:0:
256,192,206843,1,0,0:0:0:0:
256,192,207129,1,0,0:0:0:0:
256,192,207271,1,8,0:0:0:0:
256,192,207486,1,8,0:0:0:0:
256,192,207557,1,0,0:0:0:0:
256,192,207700,1,8,0:0:0:0:
256,192,207914,1,8,0:0:0:0:
256,192,207986,1,0,0:0:0:0:
256,192,208129,1,8,0:0:0:0:
256,192,208200,1,8,0:0:0:0:
256,192,208343,1,0,0:0:0:0:
256,192,208414,1,8,0:0:0:0:
256,192,208486,1,8,0:0:0:0:
256,192,208557,1,0,0:0:0:0:
256,192,208843,1,8,0:0:0:0:
256,192,208879,1,8,0:0:0:0:
256,192,208986,1,0,0:0:0:0:
256,192,209271,1,4,0:0:0:0:
256,192,209700,1,0,0:0:0:0:
256,192,209727,1,0,0:0:0:0:
256,192,209807,1,0,0:0:0:0:
256,192,209834,1,0,0:0:0:0:
256,192,209914,1,0,0:0:0:0:
256,192,209941,1,0,0:0:0:0:
256,192,210021,1,0,0:0:0:0:
256,192,210048,1,0,0:0:0:0:
256,192,210129,1,8,0:0:0:0:
256,192,210271,1,0,0:0:0:0:
256,192,210557,1,8,0:0:0:0:
256,192,210629,1,0,0:0:0:0:
256,192,210700,1,8,0:0:0:0:
256,192,210843,1,8,0:0:0:0:
256,192,210914,1,0,0:0:0:0:
256,192,210986,1,8,0:0:0:0:
256,192,211057,1,8,0:0:0:0:
256,192,211129,1,0,0:0:0:0:
256,192,211271,1,8,0:0:0:0:
256,192,211414,1,0,0:0:0:0:
256,192,211486,1,0,0:0:0:0:
256,192,211557,1,8,0:0:0:0:
256,192,211700,1,8,0:0:0:0:
256,192,211771,1,0,0:0:0:0:
256,192,211843,1,8,0:0:0:0:
256,192,211914,1,8,0:0:0:0:
256,192,211986,1,0,0:0:0:0:
256,192,212129,1,0,0:0:0:0:
256,192,212200,1,0,0:0:0:0:
256,192,212271,1,8,0:0:0:0:
256,192,212343,1,0,0:0:0:0:
256,192,212414,1,8,0:0:0:0:
256,192,212486,1,0,0:0:0:0:
256,192,212557,1,8,0:0:0:0:
256,192,212629,1,8,0:0:0:0:
256,192,212700,1,4,0:0:0:0:
256,192,213129,1,0,0:0:0:0:
256,192,213164,1,0,0:0:0:0:
256,192,213271,1,0,0:0:0:0:
256,192,213307,1,0,0:0:0:0:
256,192,213414,1,0,0:0:0:0:
256,192,213450,1,0,0:0:0:0:
256,192,213557,1,8,0:0:0:0:
256,192,213700,1,0,0:0:0:0:
256,192,213986,1,0,0:0:0:0:
256,192,214129,1,8,0:0:0:0:
256,192,214343,1,8,0:0:0:0:
256,192,214414,1,0,0:0:0:0:
256,192,214557,1,8,0:0:0:0:
256,192,214771,1,8,0:0:0:0:
256,192,214843,1,0,0:0:0:0:
256,192,214986,1,8,0:0:0:0:
256,192,215057,1,8,0:0:0:0:
256,192,215200,1,0,0:0:0:0:
256,192,215271,1,8,0:0:0:0:
256,192,215343,1,8,0:0:0:0:
256,192,215414,1,0,0:0:0:0:
256,192,215700,1,8,0:0:0:0:
256,192,215736,1,8,0:0:0:0:
256,192,215843,1,0,0:0:0:0:
256,192,216129,1,4,0:0:0:0:
256,192,216557,1,0,0:0:0:0:
256,192,216611,1,0,0:0:0:0:
256,192,216664,1,0,0:0:0:0:
256,192,216718,1,0,0:0:0:0:
256,192,216771,1,0,0:0:0:0:
256,192,216825,1,0,0:0:0:0:
256,192,216879,1,0,0:0:0:0:
256,192,216932,1,0,0:0:0:0:
256,192,216986,1,8,0:0:0:0:
256,192,217414,1,0,0:0:0:0:
256,192,217629,1,8,0:0:0:0:
256,192,217843,1,0,0:0:0:0:
256,192,217986,1,8,0:0:0:0:
256,192,218057,1,0,0:0:0:0:
256,192,218200,1,8,0:0:0:0:
256,192,218271,1,0,0:0:0:0:
256,192,218414,1,0,0:0:0:0:
256,192,218486,1,8,0:0:0:0:
256,192,218557,1,0,0:0:0:0:
256,192,218629,1,8,0:0:0:0:
256,192,218700,1,8,0:0:0:0:
256,192,218843,1,8,0:0:0:0:
256,192,218914,1,0,0:0:0:0:
256,192,219057,1,8,0:0:0:0:
256,192,219129,1,8,0:0:0:0:
256,192,219343,1,0,0:0:0:0:
256,192,219486,1,8,0:0:0:0:
256,192,219557,1,4,0:0:0:0:
256,192,219986,1,0,0:0:0:0:
256,192,220012,1,0,0:0:0:0:
256,192,220200,1,0,0:0:0:0:
256,192,220227,1,0,0:0:0:0:
256,192,220414,1,8,0:0:0:0:
256,192,220521,1,0,0:0:0:0:
256,192,220575,1,0,0:0:0:0:
256,192,220629,1,8,0:0:0:0:
256,192,220682,1,8,0:0:0:0:
256,192,220736,1,8,0:0:0:0:
256,192,220789,1,8,0:0:0:0:
256,192,220843,1,0,0:0:0:0:
256,192,220950,1,8,0:0:0:0:
256,192,221164,1,8,0:0:0:0:
256,192,221271,1,0,0:0:0:0:
256,192,221379,1,8,0:0:0:0:
256,192,221432,1,8,0:0:0:0:
256,192,221486,1,0,0:0:0:0:
256,192,221539,1,0,0:0:0:0:
256,192,221593,1,8,0:0:0:0:
256,192,221646,1,8,0:0:0:0:
256,192,221700,1,0,0:0:0:0:
256,192,222021,1,0,0:0:0:0:
256,192,222075,1,0,0:0:0:0:
256,192,222129,1,8,0:0:0:0:
256,192,222236,1,8,0:0:0:0:
256,192,222289,1,0,0:0:0:0:
256,192,222343,1,8,0:0:0:0:
256,192,222396,1,0,0:0:0:0:
256,192,222450,1,8,0:0:0:0:
256,192,222504,1,8,0:0:0:0:
256,192,222557,1,0,0:0:0:0:
256,192,222771,1,0,0:0:0:0:
256,192,222986,1,4,0:0:0:0:
256,192,223414,1,0,0:0:0:0:
256,192,223441,1,0,0:0:0:0:
256,192,223521,1,0,0:0:0:0:
256,192,223548,1,0,0:0:0:0:
256,192,223629,1,0,0:0:0:0:
256,192,223655,1,0,0:0:0:0:
256,192,223736,1,0,0:0:0:0:
256,192,223762,1,0,0:0:0:0:
256,192,223843,1,8,0:0:0:0:
256,192,223950,1,0,0:0:0:0:
256,192,224004,1,0,0:0:0:0:
256,192,224057,1,8,0:0:0:0:
256,192,224111,1,0,0:0:0:0:
256,192,224164,1,8,0:0:0:0:
256,192,224218,1,8,0:0:0:0:
256,192,224271,1,0,0:0:0:0:
256,192,224593,1,8,0:0:0:0:
256,192,224700,1,0,0:0:0:0:
256,192,224807,1,8,0:0:0:0:
256,192,224861,1,8,0:0:0:0:
256,192,224914,1,8,0:0:0:0:
256,192,224968,1,0,0:0:0:0:
256,192,225021,1,8,0:0:0:0:
256,192,225075,1,8,0:0:0:0:
256,192,225129,1,0,0:0:0:0:
256,192,225343,1,0,0:0:0:0:
256,192,225396,1,0,0:0:0:0:
256,192,225450,1,0,0:0:0:0:
256,192,225504,1,0,0:0:0:0:
256,192,225557,1,8,0:0:0:0:
256,192,225700,1,8,0:0:0:0:
256,192,225843,1,8,0:0:0:0:
256,192,225986,1,8,0:0:0:0:
256,192,226129,1,8,0:0:0:0:
256,192,226271,1,8,0:0:0:0:
256,192,226414,1,4,0:0:0:0:
256,192,226843,1,0,0:0:0:0:
256,192,226870,1,0,0:0:0:0:
256,192,227057,1,0,0:0:0:0:
256,192,227084,1,0,0:0:0:0:
256,192,227271,1,8,0:0:0:0:
256,192,227379,1,0,0:0:0:0:
256,192,227432,1,0,0:0:0:0:
256,192,227486,1,8,0:0:0:0:
256,192,227539,1,8,0:0:0:0:
256,192,227593,1,0,0:0:0:0:
256,192,227646,1,8,0:0:0:0:
256,192,227700,1,0,0:0:0:0:
256,192,228021,1,8,0:0:0:0:
256,192,228129,1,0,0:0:0:0:
256,192,228236,1,8,0:0:0:0:
256,192,228289,1,0,0:0:0:0:
256,192,228343,1,0,0:0:0:0:
256,192,228396,1,0,0:0:0:0:
256,192,228450,1,8,0:0:0:0:
256,192,228504,1,8,0:0:0:0:
256,192,228557,1,0,0:0:0:0:
256,192,228879,1,0,0:0:0:0:
256,192,228932,1,0,0:0:0:0:
256,192,228986,1,8,0:0:0:0:
256,192,229093,1,8,0:0:0:0:
256,192,229146,1,0,0:0:0:0:
256,192,229200,1,8,0:0:0:0:
256,192,229254,1,8,0:0:0:0:
256,192,229307,1,8,0:0:0:0:
256,192,229361,1,8,0:0:0:0:
256,192,229414,1,0,0:0:0:0:
256,192,229629,1,0,0:0:0:0:
256,192,229843,1,4,0:0:0:0:
256,192,230271,1,0,0:0:0:0:
256,192,230700,1,8,0:0:0:0:
256,192,230914,1,0,0:0:0:0:
256,192,231057,1,8,0:0:0:0:
256,192,231129,1,0,0:0:0:0:
256,192,231271,1,0,0:0:0:0:
256,192,231343,1,8,0:0:0:0:
256,192,231557,1,8,0:0:0:0:
256,192,231611,1,8,0:0:0:0:
256,192,231664,1,8,0:0:0:0:
256,192,231718,1,8,0:0:0:0:
256,192,231771,1,0,0:0:0:0:
256,192,231914,1,0,0:0:0:0:
256,192,231986,1,8,0:0:0:0:
256,192,232200,1,0,0:0:0:0:
256,192,232343,1,8,0:0:0:0:
256,192,232414,1,0,0:0:0:0:
256,192,232557,1,0,0:0:0:0:
256,192,232629,1,8,0:0:0:0:
256,192,232843,1,8,0:0:0:0:
256,192,232986,1,0,0:0:0:0:
256,192,233057,1,0,0:0:0:0:
256,192,233200,1,8,0:0:0:0:
256,192,233271,1,4,0:0:0:0:
256,192,233700,1,0,0:0:0:0:
256,192,233727,1,0,0:0:0:0:
256,192,233914,1,0,0:0:0:0:
256,192,233941,1,0,0:0:0:0:
256,192,234129,1,8,0:0:0:0:
256,192,234236,1,0,0:0:0:0:
256,192,234289,1,0,0:0:0:0:
256,192,234343,1,8,0:0:0:0:
256,192,234396,1,8,0:0:0:0:
256,192,234450,1,8,0:0:0:0:
256,192,234504,1,8,0:0:0:0:
256,192,234557,1,0,0:0:0:0:
256,192,234879,1,8,0:0:0:0:
256,192,234986,1,0,0:0:0:0:
256,192,235093,1,8,0:0:0:0:
256,192,235146,1,8,0:0:0:0:
256,192,235200,1,0,0:0:0:0:
256,192,235254,1,0,0:0:0:0:
256,192,235307,1,8,0:0:0:0:
256,192,235361,1,8,0:0:0:0:
256,192,235414,1,0,0:0:0:0:
256,192,235736,1,0,0:0:0:0:
256,192,235789,1,0,0:0:0:0:
256,192,235843,1,8,0:0:0:0:
256,192,235950,1,8,0:0:0:0:
256,192,236004,1,0,0:0:0:0:
256,192,236057,1,8,0:0:0:0:
256,192,236111,1,0,0:0:0:0:
256,192,236164,1,8,0:0:0:0:
256,192,236218,1,8,0:0:0:0:
256,192,236271,1,0,0:0:0:0:
256,192,236486,1,0,0:0:0:0:
256,192,236700,1,4,0:0:0:0:
256,192,237129,1,0,0:0:0:0:
256,192,237155,1,0,0:0:0:0:
256,192,237236,1,0,0:0:0:0:
256,192,237262,1,0,0:0:0:0:
256,192,237343,1,0,0:0:0:0:
256,192,237370,1,0,0:0:0:0:
256,192,237450,1,0,0:0:0:0:
256,192,237477,1,0,0:0:0:0:
256,192,237557,1,8,0:0:0:0:
256,192,237664,1,0,0:0:0:0:
256,192,237718,1,0,0:0:0:0:
256,192,237771,1,8,0:0:0:0:
256,192,237825,1,0,0:0:0:0:
256,192,237879,1,8,0:0:0:0:
256,192,237932,1,8,0:0:0:0:
256,192,237986,1,0,0:0:0:0:
256,192,238307,1,8,0:0:0:0:
256,192,238414,1,0,0:0:0:0:
256,192,238521,1,8,0:0:0:0:
256,192,238575,1,8,0:0:0:0:
256,192,238629,1,8,0:0:0:0:
256,192,238682,1,0,0:0:0:0:
256,192,238736,1,8,0:0:0:0:
256,192,238789,1,8,0:0:0:0:
256,192,238843,1,0,0:0:0:0:
256,192,239057,1,0,0:0:0:0:
256,192,239111,1,0,0:0:0:0:
256,192,239164,1,0,0:0:0:0:
256,192,239218,1,0,0:0:0:0:
256,192,239271,1,8,0:0:0:0:
256,192,239414,1,8,0:0:0:0:
256,192,239557,1,8,0:0:0:0:
256,192,239700,1,8,0:0:0:0:
256,192,239843,1,8,0:0:0:0:
256,192,239986,1,8,0:0:0:0:
256,192,240129,1,4,0:0:0:0:
256,192,240557,1,0,0:0:0:0:
256,192,240584,1,0,0:0:0:0:
256,192,240771,1,0,0:0:0:0:
256,192,240798,1,0,0:0:0:0:
256,192,240986,1,8,0:0:0:0:
256,192,241093,1,0,0:0:0:0:
256,192,241146,1,0,0:0:0:0:
256,192,241200,1,8,0:0:0:0:
256,192,241254,1,8,0:0:0:0:
256,192,241307,1,0,0:0:0:0:
256,192,241361,1,8,0:0:0:0:
256,192,241414,1,0,0:0:0:0:
256,192,241736,1,8,0:0:0:0:
256,192,241843,1,0,0:0:0:0:
256,192,241950,1,8,0:0:0:0:
256,192,242004,1,0,0:0:0:0:
256,192,242057,1,0,0:0:0:0:
256,192,242111,1,0,0:0:0:0:
256,192,242164,1,8,0:0:0:0:
256,192,242218,1,8,0:0:0:0:
256,192,242271,1,0,0:0:0:0:
256,192,242593,1,0,0:0:0:0:
256,192,242646,1,0,0:0:0:0:
256,192,242700,1,8,0:0:0:0:
256,192,242807,1,8,0:0:0:0:
256,192,242861,1,0,0:0:0:0:
256,192,242914,1,8,0:0:0:0:
256,192,242968,1,8,0:0:0:0:
256,192,243021,1,8,0:0:0:0:
256,192,243075,1,8,0:0:0:0:
256,192,243129,1,0,0:0:0:0:
256,192,243343,1,0,0:0:0:0:
256,192,243557,1,4,0:0:0:0:
256,192,243986,1,0,0:0:0:0:
256,192,244414,1,8,0:0:0:0:
256,192,244843,1,8,0:0:0:0:
256,192,245271,1,0,0:0:0:0:
256,192,245486,1,0,0:0:0:0:
256,192,245700,1,0,0:0:0:0:
256,192,245914,1,0,0:0:0:0:
256,192,247986,1,8,0:0:0:0:
256,192,248271,1,8,0:0:0:0:
256,192,248700,1,8,0:0:0:0:
256,192,249128,1,0,0:0:0:0:
256,192,249271,1,8,0:0:0:0:
256,192,249557,1,8,0:0:0:0:
256,192,249986,1,0,0:0:0:0:
256,192,250414,1,4,0:0:0:0:
256,192,250843,1,8,0:0:0:0:
256,192,250869,1,8,0:0:0:0:
256,192,250950,1,0,0:0:0:0:
256,192,250977,1,0,0:0:0:0:
256,192,251057,1,8,0:0:0:0:
256,192,251084,1,8,0:0:0:0:
256,192,251164,1,8,0:0:0:0:
256,192,251191,1,8,0:0:0:0:
256,192,251271,1,0,0:0:0:0:
256,192,251378,1,8,0:0:0:0:
256,192,251432,1,8,0:0:0:0:
256,192,251486,1,0,0:0:0:0:
256,192,251539,1,0,0:0:0:0:
256,192,251593,1,0,0:0:0:0:
256,192,251646,1,0,0:0:0:0:
256,192,251700,1,8,0:0:0:0:
256,192,251843,1,0,0:0:0:0:
256,192,251914,1,8,0:0:0:0:
256,192,252057,1,8,0:0:0:0:
256,192,252128,1,0,0:0:0:0:
256,192,252236,1,8,0:0:0:0:
256,192,252289,1,8,0:0:0:0:
256,192,252343,1,0,0:0:0:0:
256,192,252396,1,8,0:0:0:0:
256,192,252450,1,0,0:0:0:0:
256,192,252503,1,0,0:0:0:0:
256,192,252557,1,8,0:0:0:0:
256,192,252771,1,0,0:0:0:0:
256,192,252825,1,0,0:0:0:0:
256,192,252878,1,0,0:0:0:0:
256,192,252932,1,0,0:0:0:0:
256,192,252986,1,8,0:0:0:0:
256,192,253128,1,8,0:0:0:0:
256,192,253271,1,8,0:0:0:0:
256,192,253414,1,8,0:0:0:0:
256,192,253557,1,8,0:0:0:0:
256,192,253700,1,8,0:0:0:0:
256,192,253843,1,4,0:0:0:0:
256,192,254271,1,8,0:0:0:0:
256,192,254298,1,8,0:0:0:0:
256,192,254432,1,0,0:0:0:0:
256,192,254459,1,0,0:0:0:0:
256,192,254593,1,8,0:0:0:0:
256,192,254619,1,8,0:0:0:0:
256,192,254700,1,0,0:0:0:0:
256,192,254807,1,8,0:0:0:0:
256,192,254861,1,8,0:0:0:0:
256,192,254914,1,0,0:0:0:0:
256,192,254968,1,8,0:0:0:0:
256,192,255021,1,8,0:0:0:0:
256,192,255075,1,0,0:0:0:0:
256,192,255128,1,8,0:0:0:0:
256,192,255236,1,0,0:0:0:0:
256,192,255450,1,0,0:0:0:0:
256,192,255557,1,8,0:0:0:0:
256,192,255664,1,0,0:0:0:0:
256,192,255718,1,8,0:0:0:0:
256,192,255771,1,8,0:0:0:0:
256,192,255825,1,8,0:0:0:0:
256,192,255878,1,0,0:0:0:0:
256,192,255932,1,0,0:0:0:0:
256,192,255986,1,8,0:0:0:0:
256,192,256093,1,0,0:0:0:0:
256,192,256307,1,0,0:0:0:0:
256,192,256361,1,0,0:0:0:0:
256,192,256414,1,8,0:0:0:0:
256,192,256521,1,8,0:0:0:0:
256,192,256575,1,8,0:0:0:0:
256,192,256628,1,0,0:0:0:0:
256,192,256682,1,0,0:0:0:0:
256,192,256736,1,8,0:0:0:0:
256,192,256789,1,0,0:0:0:0:
256,192,256843,1,8,0:0:0:0:
256,192,256950,1,0,0:0:0:0:
256,192,257164,1,8,0:0:0:0:
256,192,257271,1,0,0:0:0:0:
256,192,257700,1,8,0:0:0:0:
256,192,258128,1,0,0:0:0:0:
256,192,258271,1,8,0:0:0:0:
256,192,258557,1,8,0:0:0:0:
256,192,258771,1,0,0:0:0:0:
256,192,258986,1,0,0:0:0:0:
256,192,259128,1,8,0:0:0:0:
256,192,259414,1,8,0:0:0:0:
256,192,259628,1,0,0:0:0:0:
256,192,259771,1,8,0:0:0:0:
256,192,259843,1,0,0:0:0:0:
256,192,259986,1,8,0:0:0:0:
256,192,260271,1,8,0:0:0:0:
256,192,260700,1,4,0:0:0:0:
256,192,261128,1,8,0:0:0:0:
256,192,261164,1,8,0:0:0:0:
256,192,261271,1,0,0:0:0:0:
256,192,261307,1,0,0:0:0:0:
256,192,261414,1,8,0:0:0:0:
256,192,261450,1,8,0:0:0:0:
256,192,261557,1,0,0:0:0:0:
256,192,261700,1,8,0:0:0:0:
256,192,261771,1,0,0:0:0:0:
256,192,261986,1,8,0:0:0:0:
256,192,262128,1,0,0:0:0:0:
256,192,262343,1,0,0:0:0:0:
256,192,262414,1,8,0:0:0:0:
256,192,262557,1,0,0:0:0:0:
256,192,262771,1,0,0:0:0:0:
256,192,262843,1,8,0:0:0:0:
256,192,262914,1,0,0:0:0:0:
256,192,262986,1,8,0:0:0:0:
256,192,263057,1,8,0:0:0:0:
256,192,263200,1,0,0:0:0:0:
256,192,263271,1,8,0:0:0:0:
256,192,263414,1,0,0:0:0:0:
256,192,263700,1,0,0:0:0:0:
256,192,263843,1,8,0:0:0:0:
256,192,264021,1,8,0:0:0:0:
256,192,264128,1,4,0:0:0:0:
256,192,264557,1,8,0:0:0:0:
256,192,264584,1,8,0:0:0:0:
256,192,264664,1,0,0:0:0:0:
256,192,264691,1,0,0:0:0:0:
256,192,264771,1,8,0:0:0:0:
256,192,264798,1,8,0:0:0:0:
256,192,264878,1,8,0:0:0:0:
256,192,264905,1,8,0:0:0:0:
256,192,264986,1,0,0:0:0:0:
256,192,265128,1,8,0:0:0:0:
256,192,265200,1,0,0:0:0:0:
256,192,265343,1,0,0:0:0:0:
256,192,265414,1,8,0:0:0:0:
256,192,265486,1,0,0:0:0:0:
256,192,265557,1,8,0:0:0:0:
256,192,265771,1,8,0:0:0:0:
256,192,265843,1,0,0:0:0:0:
256,192,265914,1,0,0:0:0:0:
256,192,265986,1,8,0:0:0:0:
256,192,266128,1,0,0:0:0:0:
256,192,266271,1,8,0:0:0:0:
256,192,266414,1,8,0:0:0:0:
256,192,266557,1,8,0:0:0:0:
256,192,266700,1,0,0:0:0:0:
256,192,266843,1,8,0:0:0:0:
256,192,266914,1,8,0:0:0:0:
256,192,266986,1,0,0:0:0:0:
256,192,267057,1,0,0:0:0:0:
256,192,267128,1,8,0:0:0:0:
256,192,267200,1,0,0:0:0:0:
256,192,267271,1,8,0:0:0:0:
256,192,267343,1,0,0:0:0:0:
256,192,267414,1,8,0:0:0:0:
256,192,267486,1,8,0:0:0:0:
256,192,267557,1,4,0:0:0:0:
256,192,267986,1,8,0:0:0:0:
256,192,268021,1,8,0:0:0:0:
256,192,268128,1,0,0:0:0:0:
256,192,268164,1,0,0:0:0:0:
256,192,268271,1,8,0:0:0:0:
256,192,268307,1,8,0:0:0:0:
256,192,268414,1,0,0:0:0:0:
256,192,268557,1,8,0:0:0:0:
256,192,268628,1,0,0:0:0:0:
256,192,268843,1,8,0:0:0:0:
256,192,268986,1,0,0:0:0:0:
256,192,269200,1,0,0:0:0:0:
256,192,269271,1,8,0:0:0:0:
256,192,269414,1,0,0:0:0:0:
256,192,269628,1,0,0:0:0:0:
256,192,269700,1,8,0:0:0:0:
256,192,269771,1,0,0:0:0:0:
256,192,269843,1,8,0:0:0:0:
256,192,269914,1,8,0:0:0:0:
256,192,270057,1,0,0:0:0:0:
256,192,270128,1,8,0:0:0:0:
256,192,270271,1,0,0:0:0:0:
256,192,270557,1,0,0:0:0:0:
256,192,270700,1,8,0:0:0:0:
256,192,270878,1,8,0:0:0:0:
256,192,270986,1,0,0:0:0:0:
256,192,271414,1,8,0:0:0:0:
256,192,271843,1,0,0:0:0:0:
256,192,271986,1,8,0:0:0:0:
256,192,272271,1,8,0:0:0:0:
256,192,272486,1,0,0:0:0:0:
256,192,272700,1,0,0:0:0:0:
256,192,272843,1,8,0:0:0:0:
256,192,273128,1,8,0:0:0:0:
256,192,273343,1,0,0:0:0:0:
256,192,273486,1,8,0:0:0:0:
256,192,273557,1,0,0:0:0:0:
256,192,273700,1,8,0:0:0:0:
256,192,273986,1,8,0:0:0:0:
256,192,274414,1,4,0:0:0:0:
256,192,274843,1,8,0:0:0:0:
256,192,275271,1,0,0:0:0:0:
256,192,275486,1,0,0:0:0:0:
256,192,275700,1,8,0:0:0:0:
256,192,275914,1,0,0:0:0:0:
256,192,276128,1,0,0:0:0:0:
256,192,276343,1,0,0:0:0:0:
256,192,276557,1,8,0:0:0:0:
256,192,276771,1,0,0:0:0:0:
256,192,276914,1,8,0:0:0:0:
256,192,276986,1,0,0:0:0:0:
256,192,277128,1,8,0:0:0:0:
256,192,277414,1,8,0:0:0:0:
256,192,277557,1,0,0:0:0:0:
256,192,277843,1,0,0:0:0:0:
256,192,278057,1,0,0:0:0:0:
256,192,278271,1,8,0:0:0:0:
256,192,278486,1,0,0:0:0:0:
256,192,278700,1,0,0:0:0:0:
256,192,278914,1,0,0:0:0:0:
256,192,279128,1,8,0:0:0:0:
256,192,279343,1,0,0:0:0:0:
256,192,279557,1,0,0:0:0:0:
256,192,279771,1,0,0:0:0:0:
256,192,279986,1,8,0:0:0:0:
256,192,280200,1,0,0:0:0:0:
256,192,280343,1,8,0:0:0:0:
256,192,280414,1,0,0:0:0:0:
256,192,280557,1,8,0:0:0:0:
256,192,280771,1,8,0:0:0:0:
256,192,281057,1,8,0:0:0:0:
256,192,281128,1,8,0:0:0:0:
256,192,281200,1,8,0:0:0:0:
256,192,281271,1,4,0:0:0:0:
256,192,281700,1,8,0:0:0:0:
256,192,281914,1,0,0:0:0:0:
256,192,282128,1,0,0:0:0:0:
256,192,282343,1,0,0:0:0:0:
256,192,282557,1,8,0:0:0:0:
256,192,282771,1,0,0:0:0:0:
256,192,282986,1,0,0:0:0:0:
256,192,283200,1,0,0:0:0:0:
256,192,283414,1,8,0:0:0:0:
256,192,283628,1,0,0:0:0:0:
256,192,283771,1,8,0:0:0:0:
256,192,283843,1,0,0:0:0:0:
256,192,283986,1,8,0:0:0:0:
256,192,284271,1,8,0:0:0:0:
256,192,284414,1,0,0:0:0:0:
256,192,284557,1,0,0:0:0:0:
256,192,284700,1,0,0:0:0:0:
256,192,285128,1,8,0:0:0:0:
256,192,285557,1,0,0:0:0:0:
256,192,285986,1,8,0:0:0:0:
256,192,286414,1,0,0:0:0:0:
256,192,286843,1,8,0:0:0:0:
256,192,287200,1,8,0:0:0:0:
256,192,287271,1,0,0:0:0:0:
256,192,287414,1,8,0:0:0:0:
256,192,287700,1,8,0:0:0:0:
256,192,288128,1,4,0:0:0:0:
256,192,288557,1,8,0:0:0:0:
256,192,288986,1,0,0:0:0:0:
256,192,289128,1,0,0:0:0:0:
256,192,289414,1,8,0:0:0:0:
256,192,289843,1,0,0:0:0:0:
256,192,290271,1,8,0:0:0:0:
256,192,290628,1,8,0:0:0:0:
256,192,290700,1,0,0:0:0:0:
256,192,290843,1,8,0:0:0:0:
256,192,291128,1,8,0:0:0:0:
256,192,291271,1,0,0:0:0:0:
256,192,291557,1,0,0:0:0:0:
256,192,291986,1,8,0:0:0:0:
256,192,292414,1,0,0:0:0:0:
256,192,292557,1,0,0:0:0:0:
256,192,292843,1,8,0:0:0:0:
256,192,293271,1,0,0:0:0:0:
256,192,293700,1,8,0:0:0:0:
256,192,294057,1,8,0:0:0:0:
256,192,294128,1,0,0:0:0:0:
256,192,294271,1,8,0:0:0:0:
256,192,294557,1,8,0:0:0:0:
256,192,294700,1,8,0:0:0:0:
256,192,294843,1,8,0:0:0:0:
256,192,294986,1,4,0:0:0:0:
256,192,295414,1,8,0:0:0:0:
256,192,295843,1,0,0:0:0:0:
256,192,295986,1,0,0:0:0:0:
256,192,296271,1,8,0:0:0:0:
256,192,296700,1,0,0:0:0:0:
256,192,297128,1,8,0:0:0:0:
256,192,297486,1,8,0:0:0:0:
256,192,297557,1,0,0:0:0:0:
256,192,297700,1,8,0:0:0:0:
256,192,297986,1,8,0:0:0:0:
256,192,298128,1,0,0:0:0:0:
256,192,298271,1,0,0:0:0:0:
256,192,298414,1,0,0:0:0:0:
256,192,298843,1,8,0:0:0:0:
256,192,299271,1,0,0:0:0:0:
256,192,299700,1,8,0:0:0:0:
256,192,300128,1,0,0:0:0:0:
256,192,300557,1,8,0:0:0:0:
256,192,300914,1,8,0:0:0:0:
256,192,300986,1,0,0:0:0:0:
256,192,301128,1,8,0:0:0:0:
256,192,301414,1,8,0:0:0:0:
256,192,301843,1,0,0:0:0:0:
256,192,302271,1,12,0:0:0:0:
256,192,305271,1,8,0:0:0:0:
256,192,306128,1,8,0:0:0:0:
256,192,306986,1,8,0:0:0:0:
256,192,307843,1,8,0:0:0:0:
256,192,308700,1,8,0:0:0:0:
256,192,309557,1,8,0:0:0:0:
256,192,310414,1,8,0:0:0:0:
256,192,311271,1,8,0:0:0:0:
256,192,312128,1,8,0:0:0:0:
256,192,312986,12,0,315557,0:0:0:0:
