osu file format v14

[General]
AudioFilename: audio.mp3
AudioLeadIn: 0
PreviewTime: 89350
Countdown: 0
SampleSet: Soft
StackLeniency: 0.2
Mode: 0
LetterboxInBreaks: 0
WidescreenStoryboard: 1

[Editor]
Bookmarks: 11210,22373,33536,44699,55861,67024,78187,89350,100513,111675,122838,134001,145164,156327,167489,178652,189815,200978,212141,223303,234466,245629
DistanceSpacing: 0.3
BeatDivisor: 4
GridSize: 32
TimelineZoom: 3.199999

[Metadata]
Title:Blowfish
TitleUnicode:Blowfish
Artist:Culprate & Skope
ArtistUnicode:Culprate & Skope
Creator:EijiKuinbii
Version:Sharu x Eiji
Source:
Tags:Sharu milr_ electronic edm
BeatmapID:1839581
BeatmapSetID:879673

[Difficulty]
HPDrainRate:6
CircleSize:4
OverallDifficulty:9.2
ApproachRate:9.6
SliderMultiplier:2.3
SliderTickRate:1

[Events]
//Background and Video events
0,0,"BG.jpg",0,0
//Break Periods
//Storyboard Layer 0 (Background)
//Storyboard Layer 1 (Fail)
//Storyboard Layer 2 (Pass)
//Storyboard Layer 3 (Foreground)
//Storyboard Sound Samples

[TimingPoints]
48,348.837209302326,4,2,1,40,1,0
48,-222.222222222221,4,2,1,40,0,0
571,-133.333333333333,4,2,1,40,0,0
1443,-222.222222222221,4,2,1,40,0,0
3361,-133.333333333333,4,2,1,40,0,0
4234,-222.222222222221,4,2,1,40,0,0
4931,-133.333333333333,4,2,1,40,0,0
5629,-222.222222222221,4,2,1,40,0,0
6152,-133.333333333333,4,2,1,40,0,0
7024,-222.222222222221,4,2,1,40,0,0
7548,-285.714285714284,4,2,1,40,0,0
8071,-399.999999999997,4,2,1,40,0,0
8420,-133.333333333333,4,2,1,40,0,0
9815,-222.222222222221,4,2,1,40,0,0
10861,-399.999999999997,4,2,1,40,0,0
11210,-133.333333333333,4,2,1,40,0,0
12606,-181.818181818181,4,2,1,40,0,0
14001,-133.333333333333,4,2,1,40,0,0
15396,-181.818181818181,4,2,1,40,0,0
16094,-100,4,2,1,40,0,0
16792,-133.333333333333,4,2,1,40,0,0
18187,-200,4,2,1,40,0,0
19408,-166.666666666667,4,2,1,40,0,0
22373,-83.3333333333333,4,2,1,70,0,0
23071,-66.6666666666667,4,2,1,70,0,0
23245,-83.3333333333333,4,2,1,70,0,0
23594,-50,4,2,1,70,0,0
23768,-71.4285714285714,4,2,1,70,0,0
24117,-66.6666666666667,4,2,1,70,0,0
24466,-50,4,2,1,70,0,0
24641,-58.8235294117647,4,2,1,70,0,0
25164,-62.5,4,2,1,70,0,0
25861,-66.6666666666667,4,2,1,70,0,0
26036,-83.3333333333333,4,2,1,70,0,0
26385,-50,4,2,1,70,0,0
26559,-71.4285714285714,4,2,1,70,0,0
26908,-66.6666666666667,4,2,1,70,0,0
27257,-50,4,2,1,70,0,0
27431,-100,4,2,1,70,0,0
27954,-83.3333333333333,4,2,1,70,0,0
28652,-66.6666666666667,4,2,1,70,0,0
28827,-83.3333333333333,4,2,1,70,0,0
29175,-50,4,2,1,70,0,0
29350,-71.4285714285714,4,2,1,70,0,0
29699,-66.6666666666667,4,2,1,70,0,0
30048,-50,4,2,1,70,0,0
30164,-333.333333333333,4,2,1,70,0,0
30745,-83.3333333333333,4,2,1,70,0,0
31443,-66.6666666666667,4,2,1,70,0,0
31617,-83.3333333333333,4,2,1,70,0,0
31966,-50,4,2,1,70,0,0
32141,-71.4285714285714,4,2,1,70,0,0
32489,-58.8235294117647,4,2,1,70,0,0
32838,-50,4,2,1,70,0,0
33536,-83.3333333333333,4,2,1,70,0,0
34234,-66.6666666666667,4,2,1,70,0,0
34408,-83.3333333333333,4,2,1,70,0,0
34757,-66.6666666666667,4,2,1,70,0,0
34931,-83.3333333333333,4,2,1,70,0,0
35629,-66.6666666666667,4,2,1,70,0,0
36327,-83.3333333333333,4,2,1,70,0,0
37024,-66.6666666666667,4,2,1,70,0,0
37199,-83.3333333333333,4,2,1,70,0,0
37548,-66.6666666666667,4,2,1,70,0,0
37722,-83.3333333333333,4,2,1,70,0,0
38420,-66.6666666666667,4,2,1,70,0,0
39117,-83.3333333333333,4,2,1,70,0,0
45048,-45.4545454545455,4,2,1,70,0,0
45396,-71.4285714285714,4,2,1,70,0,0
46443,-55.5555555555556,4,2,1,70,0,0
46792,-50,4,2,1,70,0,0
47141,-41.6666666666667,4,2,1,70,0,0
47489,-71.4285714285714,4,2,1,70,0,0
48187,-76.9230769230769,4,2,1,70,0,0
48885,-52.6315789473684,4,2,1,70,0,0
49059,-181.818181818181,4,2,1,70,0,0
49234,-50,4,2,1,70,0,0
49582,-45.4545454545455,4,2,1,70,0,0
50280,-83.3333333333333,4,2,1,70,0,0
50629,-45.4545454545455,4,2,1,70,0,0
50978,-111.111111111111,4,2,1,70,0,0
51152,-55.5555555555556,4,2,1,70,0,0
51327,-111.111111111111,4,2,1,70,0,0
51501,-83.3333333333333,4,2,1,70,0,0
51850,-111.111111111111,4,2,1,70,0,0
52024,-55.5555555555556,4,2,1,70,0,0
52373,-52.6315789473684,4,2,1,70,0,0
53071,-133.333333333333,4,2,1,70,0,0
53768,-117.647058823529,4,2,1,70,0,0
54466,-62.5,4,2,1,70,0,0
54815,-166.666666666667,4,2,1,70,0,0
55164,-66.6666666666667,4,2,1,70,0,0
55338,-52.6315789473684,4,2,1,70,0,0
55861,-500,4,2,1,70,0,0
56210,-45.4545454545455,4,2,1,70,0,0
56559,-71.4285714285714,4,2,1,70,0,0
56908,-83.3333333333333,4,2,1,70,0,0
57257,-100,4,2,1,70,0,0
57606,-62.5,4,2,1,70,0,0
57954,-71.4285714285714,4,2,1,70,0,0
58303,-50,4,2,1,70,0,0
58652,-71.4285714285714,4,2,1,70,0,0
59350,-142.857142857143,4,2,1,70,0,0
60048,-250.000000000001,4,2,1,70,0,0
60396,-125,4,2,1,70,0,0
60745,-50,4,2,1,70,0,0
61443,-500,4,2,1,70,0,0
61792,-45.4545454545455,4,2,1,70,0,0
62141,-100,4,2,1,70,0,0
62315,-50,4,2,1,70,0,0
62664,-71.4285714285714,4,2,1,70,0,0
63187,-62.5,4,2,1,70,0,0
63536,-71.4285714285714,4,2,1,70,0,0
63885,-50,4,2,1,70,0,0
64059,-62.5,4,2,1,70,0,0
64234,-111.111111111111,4,2,1,70,0,0
65978,-500,4,2,1,70,0,0
67024,-66.6666666666667,4,2,1,80,0,0
67373,-50,4,2,1,80,0,0
67722,-33.3333333333333,4,2,1,80,0,0
67896,-100,4,2,1,80,0,0
68245,-33.3333333333333,4,2,1,80,0,0
68420,-83.3333333333333,4,2,1,80,0,0
69030,-222.222222222221,4,2,1,80,0,0
69117,-50,4,2,1,80,0,0
69292,-83.3333333333333,4,2,1,80,0,0
69466,-100,4,2,1,80,0,0
69815,-71.4285714285714,4,2,1,80,0,0
70513,-33.3333333333333,4,2,1,80,0,0
70687,-333.333333333333,4,2,1,80,0,0
71036,-33.3333333333333,4,2,1,80,0,0
71210,-125,4,2,1,80,0,0
71559,-62.5,4,2,1,80,0,0
71908,-58.8235294117647,4,2,1,80,0,0
72780,-133.333333333333,4,2,1,80,0,0
72954,-90.9090909090909,4,2,1,80,0,0
73303,-50,4,2,1,80,0,0
74001,-47.6190476190476,4,2,1,80,0,0
74611,-133.333333333333,4,2,1,80,0,0
74699,-33.3333333333333,4,2,1,80,0,0
74873,-50,4,2,1,80,0,0
75048,-66.6666666666667,4,2,1,80,0,0
75396,-133.333333333333,4,2,1,80,0,0
75571,-100,4,2,1,80,0,0
75745,-50,4,2,1,80,0,0
75920,-40,4,2,1,80,0,0
76094,-50,4,2,1,80,0,0
76443,-133.333333333333,4,2,1,80,0,0
76617,-66.6666666666667,4,2,1,80,0,0
76966,-133.333333333333,4,2,1,80,0,0
78187,-250,4,2,1,80,0,0
78536,-45.4545454545455,4,2,1,80,0,0
78885,-38.4615384615385,4,2,1,80,0,0
79059,-76.9230769230769,4,2,1,80,0,0
79408,-50,4,2,1,80,0,0
79582,-100,4,2,1,80,0,0
80280,-38.4615384615385,4,2,1,80,0,0
80454,-50,4,2,1,80,0,0
80629,-62.5,4,2,1,80,0,0
80978,-83.3333333333333,4,2,1,80,0,0
81675,-38.4615384615385,4,2,1,80,0,0
82024,-83.3333333333333,4,2,1,80,0,0
82199,-38.4615384615385,4,2,1,80,0,0
82548,-83.3333333333333,4,2,1,80,0,0
83071,-38.4615384615385,4,2,1,80,0,0
84117,-45.4545454545455,4,2,1,80,0,0
84466,-38.4615384615385,4,2,1,80,0,0
84641,-83.3333333333333,4,2,1,80,0,0
84989,-50,4,2,1,80,0,0
85164,-100,4,2,1,80,0,0
85861,-38.4615384615385,4,2,1,80,0,0
86036,-50,4,2,1,80,0,0
86210,-62.5,4,2,1,80,0,0
86559,-100,4,2,1,80,0,0
87257,-66.6666666666667,4,2,1,80,0,0
87954,-83.3333333333333,4,2,1,80,0,0
88652,-125,4,2,1,80,0,0
89350,-500,4,2,1,80,0,0
90048,-50,4,2,1,80,0,0
90222,-40,4,2,1,80,0,0
90484,-33.3333333333333,4,2,1,80,0,0
90920,-40,4,2,1,80,0,0
91094,-111.111111111111,4,2,1,80,0,0
91268,-58.8235294117647,4,2,1,80,0,0
91443,-57.1428571428571,4,2,1,80,0,0
91617,-111.111111111111,4,2,1,80,0,0
91792,-52.6315789473684,4,2,1,80,0,0
92141,-133.333333333333,4,2,1,80,0,0
92838,-36.3636363636364,4,2,1,80,0,0
93013,-40.8163265306122,4,2,1,80,0,0
93361,-36.3636363636364,4,2,1,80,0,0
93536,-40.8163265306122,4,2,1,80,0,0
93710,-46.5116279069767,4,2,1,80,0,0
93885,-62.5,4,2,1,80,0,0
94234,-76.9230769230769,4,2,1,80,0,0
94582,-66.6666666666667,4,2,1,80,0,0
95629,-40,4,2,1,80,0,0
95803,-41.6666666666667,4,2,1,80,0,0
96152,-37.037037037037,4,2,1,80,0,0
96501,-34.4827586206897,4,2,1,80,0,0
97024,-45.4545454545455,4,2,1,80,0,0
97373,-41.6666666666667,4,2,1,80,0,0
97896,-133.333333333333,4,2,1,80,0,0
98420,-62.5,4,2,1,80,0,0
98594,-41.6666666666667,4,2,1,80,0,0
99117,-38.4615384615385,4,2,1,80,0,0
99292,-52.6315789473684,4,2,1,80,0,0
99466,-62.5,4,2,1,80,0,0
99641,-76.9230769230769,4,2,1,80,0,0
99815,-71.4285714285714,4,2,1,80,0,0
100164,-62.5,4,2,1,80,0,0
100513,-500,4,2,1,80,0,0
101036,-50,4,2,1,80,0,0
101210,-41.6666666666667,4,2,1,80,0,0
101385,-50,4,2,1,80,0,0
102257,-83.3333333333333,4,2,1,80,0,0
102606,-50,4,2,1,80,0,0
103303,-55.5555555555556,4,2,1,80,0,0
103478,-500,4,2,1,80,0,0
103827,-50,4,2,1,80,0,0
104001,-41.6666666666667,4,2,1,80,0,0
105048,-125,4,2,1,80,0,0
105396,-55.5555555555556,4,2,1,80,0,0
105745,-62.5,4,2,1,80,0,0
106268,-500,4,2,1,80,0,0
106617,-50,4,2,1,80,0,0
106792,-41.6666666666667,4,2,1,80,0,0
106966,-50,4,2,1,80,0,0
107838,-83.3333333333333,4,2,1,80,0,0
108187,-50,4,2,1,80,0,0
109059,-500,4,2,1,80,0,0
109582,-100,4,2,1,80,0,0
110280,-125,4,2,1,80,0,0
110978,-500,4,2,1,80,0,0
112024,-83.3333333333333,4,2,1,80,0,0
112373,-50,4,2,1,80,0,0
112548,-83.3333333333333,4,2,1,80,0,0
112896,-50,4,2,1,80,0,0
113245,-100,4,2,1,80,0,0
113420,-62.5,4,2,1,80,0,0
113768,-71.4285714285714,4,2,1,80,0,0
114466,-83.3333333333333,4,2,1,80,0,0
115164,-50,4,2,1,80,0,0
115338,-71.4285714285714,4,2,1,80,0,0
115687,-50,4,2,1,80,0,0
115861,-62.5,4,2,1,80,0,0
116385,-100,4,2,1,80,0,0
116559,-50,4,2,1,80,0,0
116734,-71.4285714285714,4,2,1,80,0,0
116995,-250,4,2,1,80,0,0
117606,-35.7142857142857,4,2,1,80,0,0
117954,-50,4,2,1,80,0,0
118129,-71.4285714285714,4,2,1,80,0,0
118478,-50,4,2,1,80,0,0
118652,-66.6666666666667,4,2,1,80,0,0
119350,-58.8235294117647,4,2,1,80,0,0
119873,-100,4,2,1,80,0,0
120309,-83.3333333333333,4,2,1,80,0,0
120571,-71.4285714285714,4,2,1,80,0,0
120745,-50,4,2,1,80,0,0
120920,-71.4285714285714,4,2,1,80,0,0
121268,-50,4,2,1,80,0,0
121443,-62.5,4,2,1,80,0,0
121792,-111.111111111111,4,2,1,80,0,0
122664,-76.9230769230769,4,2,1,80,0,0
122838,-100,4,2,1,80,0,0
123536,-50,4,2,1,80,0,0
123710,-62.5,4,2,1,80,0,0
124059,-55.5555555555556,4,2,1,80,0,0
124582,-83.3333333333333,4,2,1,80,0,0
124931,-55.5555555555556,4,2,1,80,0,0
125629,-100,4,2,1,80,0,0
126152,-62.5,4,2,1,80,0,0
126501,-50,4,2,1,80,0,0
127024,-100,4,2,1,80,0,0
127722,-55.5555555555556,4,2,1,80,0,0
128768,-50,4,2,1,80,0,0
129292,-62.5,4,2,1,80,0,0
130164,-100,4,2,1,80,0,0
130513,-62.5,4,2,1,80,0,0
130861,-50,4,2,1,80,0,0
131210,-100,4,2,1,60,0,0
131908,-66.6666666666667,4,2,1,60,0,0
132606,-83.3333333333333,4,2,1,60,0,0
133303,-125,4,2,1,60,0,0
134001,-90.9090909090909,4,2,1,60,0,0
134350,-76.9230769230769,4,2,1,60,0,0
136443,-62.5,4,2,1,60,0,0
138187,-83.3333333333333,4,2,1,60,0,0
138536,-133.333333333333,4,2,1,60,0,0
139059,-71.4285714285714,4,2,1,60,0,0
140106,-83.3333333333333,4,2,1,60,0,0
142024,-71.4285714285714,4,2,1,60,0,0
143071,-111.111111111111,4,2,1,60,0,0
145164,-90.9090909090909,4,2,1,60,0,0
145513,-76.9230769230769,4,2,1,60,0,0
147606,-62.5,4,2,1,60,0,0
149001,-250,4,2,1,60,0,0
149350,-100,4,2,1,60,0,0
150048,-71.4285714285714,4,2,1,60,0,0
150745,-125,4,2,1,60,0,0
152838,-83.3333333333333,4,2,1,60,0,0
153187,-62.5,4,2,1,60,0,0
153536,-83.3333333333333,4,2,1,60,0,0
153885,-125,4,2,1,60,0,0
155280,-125,4,2,1,70,0,0
156327,-76.9230769230769,4,2,1,80,0,0
157024,-43.4782608695652,4,2,1,80,0,0
158420,-100,4,2,1,80,0,0
158768,-55.5555555555556,4,2,1,80,0,0
159117,-62.5,4,2,1,80,0,0
159815,-52.6315789473684,4,2,1,80,0,0
160338,-47.6190476190476,4,2,1,80,0,0
160687,-45.4545454545455,4,2,1,80,0,0
161210,-62.5,4,2,1,80,0,0
161472,-58.8235294117647,4,2,1,80,0,0
161734,-41.6666666666667,4,2,1,80,0,0
161908,-71.4285714285714,4,2,1,80,0,0
162606,-41.6666666666667,4,2,1,80,0,0
163129,-40,4,2,1,80,0,0
163652,-43.4782608695652,4,2,1,80,0,0
164001,-71.4285714285714,4,2,1,80,0,0
164350,-62.5,4,2,1,80,0,0
164699,-71.4285714285714,4,2,1,80,0,0
165396,-47.6190476190476,4,2,1,80,0,0
165920,-50,4,2,1,80,0,0
166268,-41.6666666666667,4,2,1,80,0,0
166443,-83.3333333333333,4,2,1,80,0,0
166792,-71.4285714285714,4,2,1,80,0,0
167489,-76.9230769230769,4,2,1,80,0,0
168187,-43.4782608695652,4,2,1,80,0,0
169582,-100,4,2,1,80,0,0
169931,-50,4,2,1,80,0,0
170280,-62.5,4,2,1,80,0,0
170978,-52.6315789473684,4,2,1,80,0,0
171239,-71.4285714285714,4,2,1,80,0,0
171501,-47.6190476190476,4,2,1,80,0,0
172373,-62.5,4,2,1,80,0,0
173071,-100,4,2,1,80,0,0
173768,-43.4782608695652,4,2,1,80,0,0
175164,-100,4,2,1,80,0,0
175513,-55.5555555555556,4,2,1,80,0,0
175861,-62.5,4,2,1,80,0,0
176559,-71.4285714285714,4,2,1,80,0,0
177954,-62.5,4,2,1,80,0,0
178652,-500,4,2,1,80,0,0
179001,-83.3333333333333,4,2,1,80,0,0
179350,-55.5555555555556,4,2,1,80,0,0
180571,-66.6666666666667,4,2,1,80,0,0
180745,-62.5,4,2,1,80,0,0
181443,-111.111111111111,4,2,1,80,0,0
182141,-71.4285714285714,4,2,1,80,0,0
182664,-62.5,4,2,1,80,0,0
183536,-47.6190476190476,4,2,1,80,0,0
183798,-45.4545454545455,4,2,1,80,0,0
184059,-55.5555555555556,4,2,1,80,0,0
184408,-50,4,2,1,80,0,0
184582,-142.857142857143,4,2,1,80,0,0
184931,-55.5555555555556,4,2,1,80,0,0
185454,-52.6315789473684,4,2,1,80,0,0
185803,-62.5,4,2,1,80,0,0
186152,-50,4,2,1,80,0,0
186327,-71.4285714285714,4,2,1,80,0,0
187024,-83.3333333333333,4,2,1,80,0,0
187722,-76.9230769230769,4,2,1,80,0,0
187896,-66.6666666666667,4,2,1,80,0,0
188071,-58.8235294117647,4,2,1,80,0,0
188594,-45.4545454545455,4,2,1,80,0,0
188768,-83.3333333333333,4,2,1,80,0,0
189117,-71.4285714285714,4,2,1,80,0,0
189641,-250,4,2,1,80,0,0
190513,-50,4,2,1,80,0,0
191734,-100,4,2,1,80,0,0
192606,-83.3333333333333,4,2,1,80,0,0
193303,-62.5,4,2,1,80,0,0
193652,-55.5555555555556,4,2,1,80,0,0
194699,-50,4,2,1,80,0,0
194960,-45.4545454545455,4,2,1,80,0,0
195571,-50,4,2,1,80,0,0
195745,-125,4,2,1,80,0,0
196094,-55.5555555555556,4,2,1,80,0,0
197141,-71.4285714285714,4,2,1,80,0,0
197489,-100,4,2,1,80,0,0
198187,-83.3333333333333,4,2,1,80,0,0
198885,-71.4285714285714,4,2,1,80,0,0
199059,-62.5,4,2,1,80,0,0
199234,-55.5555555555556,4,2,1,80,0,0
199757,-45.4545454545455,4,2,1,80,0,0
199931,-83.3333333333333,4,2,1,80,0,0
200280,-62.5,4,2,1,80,0,0
200978,-1000,4,2,1,80,0,0
201327,-71.4285714285714,4,2,1,80,0,0
201675,-50,4,2,1,80,0,0
201850,-71.4285714285714,4,2,1,80,0,0
202199,-50,4,2,1,80,0,0
202373,-62.5,4,2,1,80,0,0
202548,-50,4,2,1,80,0,0
202722,-62.5,4,2,1,80,0,0
203071,-71.4285714285714,4,2,1,80,0,0
203768,-62.5,4,2,1,80,0,0
204466,-47.6190476190476,4,2,1,80,0,0
204815,-83.3333333333333,4,2,1,80,0,0
205164,-66.6666666666667,4,2,1,80,0,0
205338,-50,4,2,1,80,0,0
206908,-40,4,2,1,80,0,0
207257,-83.3333333333333,4,2,1,80,0,0
207780,-50,4,2,1,80,0,0
208303,-71.4285714285714,4,2,1,80,0,0
208652,-1000,4,2,1,80,0,0
209350,-111.111111111111,4,2,1,80,0,0
209611,-90.9090909090909,4,2,1,80,0,0
210048,-50,4,2,1,80,0,0
210222,-71.4285714285714,4,2,1,80,0,0
210920,-50,4,2,1,80,0,0
211443,-83.3333333333333,4,2,1,80,0,0
211966,-133.333333333333,4,2,1,80,0,0
212489,-71.4285714285714,4,2,1,80,0,0
212838,-50,4,2,1,80,0,0
213013,-62.5,4,2,1,80,0,0
213361,-71.4285714285714,4,2,1,80,0,0
213710,-50,4,2,1,80,0,0
214234,-71.4285714285714,4,2,1,80,0,0
215629,-50,4,2,1,80,0,0
216327,-55.5555555555556,4,2,1,80,0,0
217024,-45.4545454545455,4,2,1,80,0,0
217722,-50,4,2,1,80,0,0
218594,-71.4285714285714,4,2,1,80,0,0
219466,-100,4,2,1,80,0,0
219815,-62.5,4,2,1,80,0,0
220513,-100,4,2,1,60,0,0
221210,-66.6666666666667,4,2,1,60,0,0
221908,-83.3333333333333,4,2,1,60,0,0
222606,-125,4,2,1,60,0,0

[Colours]
Combo1 : 255,140,143
Combo2 : 235,169,225
Combo3 : 166,222,236
Combo4 : 164,179,223
Combo5 : 142,215,142
Combo6 : 244,155,155
Combo7 : 126,194,166
Combo8 : 151,128,200

[HitObjects]
262,128,48,6,0,P|268:168|290:181,1,51.7499984207154,2|0,0:1|0:0,0:0:0:0:
349,192,571,6,0,B|293:166|212:199|260:254|174:287|114:252,1,258.75000987053,0|0,0:0|0:0,0:0:0:0:
118,254,1268,5,0,0:0:0:0:
67,186,1443,2,0,P|86:156|96:121,2,51.7499984207154,0|0|0,0:0|0:0|0:0,0:0:0:0:
179,143,1966,1,0,0:0:0:0:
179,143,2141,2,0,P|171:108|153:76,2,51.7499984207154,0|0|0,0:0|0:0|0:0,0:0:0:0:
187,9,2838,6,0,P|210:19|232:33,1,51.7499984207154,2|0,0:1|0:0,0:0:0:0:
320,62,3361,6,0,B|154:76|266:158|98:174,1,258.75000987053,0|0,0:0|0:0,0:0:0:0:
101,173,4059,5,0,0:0:0:0:
54,73,4234,2,0,P|74:88|99:94,2,51.7499984207154,0|0|0,0:0|0:0|0:0,0:0:0:0:
137,251,4931,6,0,P|97:270|68:302,2,86.2500032901765,0|0|0,0:0|0:0|0:0,0:0:0:0:
253,239,5629,6,0,P|234:219|205:216,1,51.7499984207154,2|0,0:1|0:0,0:0:0:0:
137,251,6152,6,0,P|205:308|378:283,1,258.75000987053,0|0,0:0|0:0,0:0:0:0:
365,292,6850,5,0,0:0:0:0:
355,163,7024,2,0,P|353:194|332:221,2,51.7499984207154,0|0|0,0:0|0:0|0:0,0:0:0:0:
266,79,7548,1,0,0:0:0:0:
266,79,7722,2,0,P|285:102|290:119,1,40.2499987716675,0|0,0:0|0:0,0:0:0:0:
158,88,8071,2,0,P|180:95|195:106,1,28.75,0|0,0:0|0:0,0:0:0:0:
227,165,8420,5,2,0:1:0:0:
227,165,8768,6,0,B|301:296|150:240|117:98|198:20|257:16,1,345.000013160706,0|0,0:0|0:0,0:0:0:0:
245,17,9641,5,0,0:0:0:0:
385,87,9815,2,0,P|388:113|384:139,2,51.7499984207154,0|0|0,0:0|0:0|0:0,0:0:0:0:
461,196,10338,1,0,0:0:0:0:
461,196,10513,2,0,P|445:216|424:231,1,51.7499984207154,0|0,0:0|0:0,0:0:0:0:
408,308,10861,2,0,P|394:310|381:306,1,28.75,0|0,0:0|0:0,0:0:0:0:
358,180,11210,5,2,0:1:0:0:
357,179,11559,2,0,L|386:147,1,43.1250016450883,0|0,0:0|0:0,0:0:0:0:
460,130,11734,2,0,P|374:117|289:106,1,172.500006580353,0|0,0:0|0:0,0:0:0:0:
289,106,12257,1,0,0:0:0:0:
47,32,12606,6,0,B|116:6|194:112|67:99|133:195|209:193,1,253.000007720947,0|0,0:0|0:0,0:0:0:0:
191,191,13652,1,0,0:0:0:0:
32,343,14001,5,2,0:1:0:0:
32,343,14350,2,0,L|58:292,1,43.1250016450883,0|0,0:0|0:0,0:0:0:0:
48,226,14524,2,0,P|94:309|178:304,1,172.500006580353,0|0,0:0|0:0,0:0:0:0:
163,311,15048,1,0,0:0:0:0:
510,315,15396,6,0,P|423:322|276:336,1,221.375006755829,0|0,0:0|0:0,0:0:0:0:
281,345,16094,6,0,B|205:300|225:199|292:240|306:126|222:87,1,287.5,0|0,0:0|0:0,0:0:0:0:
166,64,16617,1,0,0:0:0:0:
166,64,16792,1,2,0:1:0:0:
166,64,17141,6,0,L|145:4,1,43.1250016450883,0|0,0:0|0:0,0:0:0:0:
63,78,17315,2,0,P|148:84|234:94,1,172.500006580353,0|0,0:0|0:0,0:0:0:0:
234,94,17838,1,0,0:0:0:0:
489,61,18187,6,0,B|431:29|347:100|380:166|380:166|413:242|326:302|267:249,1,373.75,0|0,0:0|0:0,0:0:0:0:
281,345,19408,6,0,P|248:297|198:293,1,103.499996841431,0|0,0:0|0:0,0:0:0:0:
206,290,19757,1,0,0:0:0:0:
256,192,19844,12,0,22199,0:0:0:0:
122,274,22373,6,0,B|106:303|51:324|9:278|52:209|123:171|260:187|131:327|277:340|326:258|326:258|294:297|231:278,1,482.99998526001,4|0,0:1|0:0,0:0:0:0:
367,100,23071,6,0,B|370:74|404:78|404:78|396:109|370:104,1,86.2500032901765,8|0,0:1|0:0,0:0:0:0:
351,184,23245,2,0,P|334:88|207:-1,1,206.999993682861,0|0,0:0|0:0,0:0:0:0:
55,154,23594,6,0,P|99:188|154:179,1,115,8|0,0:1|0:0,0:0:0:0:
272,205,23768,2,0,P|203:110|88:84,1,241.499992630005,0|0,0:0|0:0,0:0:0:0:
196,262,24117,6,0,P|213:124|273:-14,1,258.75000987053,4|0,0:1|0:0,0:0:0:0:
141,328,24466,6,0,B|148:340|161:347|161:347|134:351|101:321|112:267,1,115,8|0,0:1|0:0,0:0:0:0:
95,176,24641,2,0,B|39:115|-73:171|-83:110|39:234|101:248|199:234|117:77|290:52|386:183,1,488.750009322167,0|0,0:0|0:0,0:0:0:0:
468,298,25164,6,0,B|470:306|463:328|463:328|539:268|478:192|478:192|467:195|467:195|432:177|408:127|498:103|433:-9|433:-9|495:30|491:167|390:153,1,644,4|0,0:1|0:0,0:0:0:0:
245,224,25861,6,0,P|244:253|242:225,1,86.2500032901765,8|0,0:1|0:0,0:0:0:0:
299,164,26036,2,0,P|195:224|70:246,1,206.999993682861,0|0,0:0|0:0,0:0:0:0:
286,323,26385,6,0,P|337:270|353:207,1,115,8|0,0:1|0:0,0:0:0:0:
236,101,26559,2,0,P|116:115|-6:87,1,241.499992630005,0|0,0:0|0:0,0:0:0:0:
312,50,26908,6,0,B|402:19|345:86|276:104|202:88|152:18,1,258.75000987053,4|0,0:1|0:0,0:0:0:0:
416,94,27257,6,0,B|438:67|468:69|468:69|438:59|427:35,1,115,8|0,0:1|0:0,0:0:0:0:
382,171,27431,2,0,P|393:219|408:240,1,57.5,0|0,0:0|0:0,0:0:0:0:
417,356,27606,5,2,0:0:0:0:
424,340,27693,1,2,0:0:0:0:
429,324,27780,1,2,0:0:0:0:
431,307,27867,1,2,0:0:0:0:
511,295,27954,6,0,B|433:227|322:248|366:340|294:383|151:359|113:290|158:216|220:212|253:262,1,482.99998526001,4|0,0:1|0:0,0:0:0:0:
98,355,28652,6,0,B|91:375|91:375|84:334|111:294,1,86.2500032901765,8|0,0:1|0:0,0:0:0:0:
257,254,28827,2,0,P|284:181|295:38,1,206.999993682861,0|0,0:0|0:0,0:0:0:0:
385,184,29175,6,0,P|360:251|313:311,1,115,8|0,0:1|0:0,0:0:0:0:
172,253,29350,2,0,P|185:169|167:13,1,241.499992630005,0|0,0:0|0:0,0:0:0:0:
0,189,29699,6,0,B|60:166|138:257|42:260|116:353|193:332,1,258.75000987053,4|0,0:1|0:0,0:0:0:0:
407,263,30048,6,0,P|369:269|335:286,1,76.6666666666667,8|0,0:1|0:0,0:0:0:0:
271,337,30164,6,0,P|261:357|255:380,2,45.9999985961914,0|0|0,0:0|0:0|0:0,0:0:0:0:
358,371,30745,6,0,B|380:272|332:179|77:258|51:133|86:47,1,482.99998526001,4|0,0:1|0:0,0:0:0:0:
192,90,31443,6,0,P|162:95|187:83,1,86.2500032901765,8|0,0:1|0:0,0:0:0:0:
62,220,31617,2,0,P|134:181|285:143,1,206.999993682861,0|0,0:0|0:0,0:0:0:0:
126,353,31966,6,0,P|142:293|175:254,1,115,8|0,0:1|0:0,0:0:0:0:
264,134,32141,2,0,P|402:143|518:170,1,241.499992630005,0|0,0:0|0:0,0:0:0:0:
392,297,32489,6,0,B|272:240|432:106|292:51,1,293.2500055933,4|0,0:1|0:0,0:0:0:0:
191,182,32838,6,0,B|161:191|130:169|130:169|163:177|201:158,1,115,8|0,0:1|0:0,0:0:0:0:
439,132,33013,2,0,B|492:133|548:37|408:-30|287:58|320:180|370:275|164:337|68:234,1,575,0|2,0:0|0:0,0:0:0:0:
91,52,33536,6,0,P|28:-5|14:78,2,206.999993682861,4|0|0,0:1|0:0|0:0,0:0:0:0:
93,254,34234,6,0,B|83:298|83:298|101:262,1,86.2500032901765,8|0,0:1|0:0,0:0:0:0:
2,236,34408,2,0,B|57:257|117:208|62:195|122:147|177:165,1,206.999993682861,0|0,0:0|0:0,0:0:0:0:
501,95,34757,6,0,P|451:103|442:153,1,86.2500032901765,8|0,0:1|0:0,0:0:0:0:
474,245,34931,2,0,P|412:159|314:198,1,206.999993682861,0|0,0:0|0:0,0:0:0:0:
444,315,35280,2,0,P|348:333|296:251,1,206.999993682861,4|0,0:1|0:0,0:0:0:0:
315,27,35629,6,0,P|397:123|386:249,1,258.75000987053,8|0,0:1|0:0,0:0:0:0:
386,248,35978,1,0,0:0:0:0:
52,196,36327,6,0,B|101:176|122:121|122:121|119:179|157:218,2,206.999993682861,4|0|0,0:1|0:0|0:0,0:0:0:0:
204,304,37024,6,0,P|202:316|208:298,1,86.2500032901765,8|0,0:1|0:0,0:0:0:0:
296,251,37199,2,0,L|90:273,1,206.999993682861,0|0,0:0|0:0,0:0:0:0:
64,104,37548,6,0,P|94:104|128:144,1,86.2500032901765,8|0,0:1|0:0,0:0:0:0:
110,370,37722,2,0,P|43:297|54:190,1,206.999993682861,0|0,0:0|0:0,0:0:0:0:
204,304,38071,2,0,P|195:203|262:129,1,206.999993682861,4|0,0:1|0:0,0:0:0:0:
318,56,38420,2,0,P|352:82|354:124,1,86.2500032901765,8|0,0:1|0:0,0:0:0:0:
504,370,38594,6,0,B|427:386|367:311|435:304|381:221|313:244,1,258.75000987053,0|2,0:0|0:0,0:0:0:0:
53,88,38943,1,2,0:0:0:0:
55,96,39030,1,2,0:0:0:0:
57,104,39117,6,0,L|286:132,2,206.999993682861,4|0|0,0:1|0:0|0:0,0:0:0:0:
464,41,39815,6,0,L|454:109,1,68.9999978942872,8|0,0:1|0:0,0:0:0:0:
451,43,40338,2,0,L|441:111,1,68.9999978942872,8|0,0:1|0:0,0:0:0:0:
67,172,40861,5,4,0:1:0:0:
67,172,41210,2,0,L|57:104,1,68.9999978942872,8|0,0:1|0:0,0:0:0:0:
481,294,41908,6,0,P|362:297|334:384,2,206.999993682861,4|0|0,0:1|0:0|0:0,0:0:0:0:
481,294,42606,1,8,0:1:0:0:
256,192,42693,12,0,44611,0:0:0:0:
330,110,44699,6,0,B|327:66|439:47|437:163|390:210,1,206.999993682861,4|0,0:1|0:0,0:0:0:0:
384,213,45048,6,0,B|145:173|339:57|83:24,1,379.500011581421,0|0,1:0|0:0,0:0:0:0:
0,200,45396,6,0,B|12:217|55:247|55:247|7:154|32:74,1,241.499992630005,8|0,0:1|0:0,0:0:0:0:
239,262,45745,6,0,P|221:255|237:259,1,80.499997543335,2|0,0:0|0:0,0:0:0:0:
146,324,45920,2,0,B|95:209|202:105|255:248|384:123|308:7,1,402.499987716675,4|4,0:1|0:1,0:0:0:0:
243,77,46443,6,0,B|209:-47|165:74|306:229|450:176,1,310.499990524292,0|0,0:0|0:0,0:0:0:0:
512,240,46792,2,0,B|609:324|577:198|389:124|296:280,1,345,8|0,0:1|0:0,0:0:0:0:
313,254,47141,6,0,B|251:248|251:248|248:243|248:243|146:233,1,137.999995788574,4|0,0:1|0:0,0:0:0:0:
12,190,47315,2,0,P|70:139|135:184,1,137.999995788574,8|0,0:1|0:0,0:0:0:0:
106,261,47489,6,0,B|73:294|84:338|84:338|42:234|88:160|165:192|191:132|206:88|190:43|190:43|201:83|233:121|270:121|325:109,1,563.499982803345,4|0,0:1|0:0,0:0:0:0:
434,272,48187,6,0,B|458:299|502:298|502:298|452:334|378:305|378:305|377:297|377:297|334:277|304:138|394:208|426:104|361:9|265:29,1,560.624974336625,8|0,0:1|0:0,0:0:0:0:
292,119,48885,6,0,P|257:131|290:114,1,109.24999708271,0|0,0:0|0:0,0:0:0:0:
505,177,49059,2,0,P|497:163|499:147,1,31.6250009651184,4|0,0:1|0:0,0:0:0:0:
511,184,49234,6,0,B|423:164|357:213|357:213|355:229|355:229|284:285|183:257,1,345,0|0,0:0|0:0,0:0:0:0:
83,100,49582,6,0,B|72:35|17:11|17:11|116:31|171:166|100:248|100:248|77:146|255:7|262:213|381:109|381:109|306:149|223:67,1,885.500027023316,8|0,0:1|0:0,0:0:0:0:
224,197,50280,6,0,B|198:246|198:246|250:323|250:323|307:313,1,206.999993682861,4|0,0:1|0:0,0:0:0:0:
394,323,50629,6,0,B|123:359|298:277|-19:325,1,379.500011581421,0|0,1:0|0:0,0:0:0:0:
12,323,50978,6,0,P|-1:300|21:240,1,51.7499984207154,8|0,0:1|0:0,0:0:0:0:
390,147,51152,6,0,P|402:195|372:235,1,103.499996841431,4|0,0:1|0:0,0:0:0:0:
124,222,51327,1,2,0:0:0:0:
124,222,51501,6,0,P|293:175|326:122,1,206.999993682861,4|0,0:1|0:0,0:0:0:0:
246,47,51850,2,0,P|232:69|253:130,1,51.7499984207154,4|0,0:1|0:0,0:0:0:0:
373,236,52024,6,0,P|426:124|307:157,1,310.499990524292,0|0,0:0|0:0,0:0:0:0:
419,333,52373,6,0,B|315:392|167:238|319:214|151:25|1:182,1,509.833319719315,8|0,0:1|0:0,0:0:0:0:
27,259,52853,2,0,P|136:244|38:227,1,218.499994165421,0|0,0:0|0:0,0:0:0:0:
19,61,53071,6,0,B|-19:4|132:-68|164:131|18:164,1,301.875011515618,4|0,0:1|0:0,0:0:0:0:
360,50,53768,6,0,B|193:56|193:56|187:52|187:52|18:60,1,342.125006525517,8|0,0:1|0:0,0:0:0:0:
90,104,54466,6,0,P|117:90|89:102,1,92,0|0,0:0|0:0,0:0:0:0:
22,162,54641,1,4,0:1:0:0:
22,162,54815,6,0,L|15:207,1,34.4999989471436,0|0,0:0|0:0,0:0:0:0:
95,189,54989,2,0,L|88:234,1,34.4999989471436,0|0,0:0|0:0,0:0:0:0:
0,340,55164,6,0,P|28:308|69:301,1,86.2500032901765,8|0,0:1|0:0,0:0:0:0:
222,322,55338,6,0,B|259:350|184:447|89:382|53:266|198:116|344:208|259:363|348:298|406:261|411:233|411:233|366:283|266:213,1,546.249985413552,0|0,0:0|0:0,0:0:0:0:
275,76,55861,6,0,L|313:82,1,34.5,4|0,0:1|0:0,0:0:0:0:
502,66,56210,6,0,B|432:40|396:99|396:99|398:114|398:114|377:177|306:162,1,253.000007720947,0|0,1:0|0:0,0:0:0:0:
123,62,56472,1,0,0:0:0:0:
70,119,56559,6,0,L|321:79,1,241.499992630005,8|0,0:1|0:0,0:0:0:0:
390,311,56908,6,0,B|380:254|307:213|312:275|248:245|234:195,1,206.999993682861,2|0,0:0|0:0,0:0:0:0:
334,0,57257,2,0,P|395:63|381:105,1,115,0|0,0:0|0:0,0:0:0:0:
299,333,57518,1,4,0:1:0:0:
282,340,57606,6,0,P|275:266|316:150,1,184,0|0,0:0|0:0,0:0:0:0:
465,24,57867,1,0,0:0:0:0:
475,102,57954,6,0,P|417:160|310:58,1,241.499992630005,8|0,0:1|0:0,0:0:0:0:
41,46,58303,6,0,P|99:56|115:115,1,115,4|0,0:1|0:0,0:0:0:0:
0,241,58478,2,0,P|49:211|103:192,1,115,8|0,0:1|0:0,0:0:0:0:
392,81,58652,6,0,B|398:135|358:164|358:164|350:162|350:162|314:173|290:252|353:296|353:296|361:247|325:216|325:216|277:184|227:203|227:203|219:213|219:213|173:184|112:200,1,563.499982803345,4|0,0:1|0:0,0:0:0:0:
50,331,59350,6,0,P|178:319|159:276,1,241.499992630005,8|0,0:1|0:0,0:0:0:0:
41,46,60048,6,0,L|71:39,1,23,0|0,0:0|0:0,0:0:0:0:
154,16,60222,2,0,L|184:9,1,23,4|0,0:1|0:0,0:0:0:0:
0,182,60396,6,0,L|81:201,1,46,0|0,0:0|0:0,0:0:0:0:
302,261,60571,2,0,L|383:280,1,46,0|0,0:0|0:0,0:0:0:0:
375,108,60745,6,0,B|332:83|246:101|239:172|239:172|264:147|292:147,1,230,8|2,0:1|0:0,0:0:0:0:
152,374,61007,2,0,B|194:350|221:265|163:224|163:224|173:258|158:282,1,230,0|0,0:0|0:0,0:0:0:0:
41,46,61268,2,0,P|59:99|110:134,1,115,2|0,0:0|0:0,0:0:0:0:
114,135,61443,6,0,L|158:130,1,34.5,4|0,0:1|0:0,0:0:0:0:
501,71,61792,6,0,B|427:37|367:95|429:129|341:177|281:145,1,253.000007720947,0|0,1:0|0:0,0:0:0:0:
177,8,62053,1,0,0:0:0:0:
236,53,62141,6,0,L|220:116,1,57.5,8|0,0:1|0:0,0:0:0:0:
343,337,62315,6,0,P|344:275|298:261,1,115,4|0,0:1|0:0,0:0:0:0:
83,210,62489,1,2,0:0:0:0:
83,210,62664,6,0,B|30:122|-114:243|56:373|160:274,1,321.99999017334,4|4,0:1|0:1,0:0:0:0:
206,366,63100,1,0,0:0:0:0:
191,377,63187,6,0,P|184:278|239:193,1,184,0|0,0:0|0:0,0:0:0:0:
421,69,63449,1,0,0:0:0:0:
500,71,63536,6,0,B|549:94|549:94|428:88|350:133,1,241.499992630005,8|0,0:1|0:0,0:0:0:0:
106,30,63885,6,0,P|70:117|91:134,1,115,4|0,0:1|0:0,0:0:0:0:
234,113,64059,2,0,P|158:144|160:167,1,92,8|0,0:1|0:0,0:0:0:0:
141,288,64234,6,0,B|-42:327|-18:207|120:236|213:376,1,362.249988945008,4|0,0:1|0:0,0:0:0:0:
206,365,64931,1,8,0:1:0:0:
442,187,65280,2,0,P|410:275|369:204,1,206.999993682861,0|0,0:0|0:0,0:0:0:0:
364,218,65978,5,8,0:0:0:0:
275,168,66210,2,0,L|274:153,1,15.3333333333333,0|8,0:0|0:0,0:0:0:0:
186,228,66443,1,0,0:0:0:0:
41,87,66675,1,8,0:0:0:0:
41,87,67024,6,0,B|71:42|116:37|116:37|48:89|46:213,1,258.75000987053,4|0,0:1|0:0,0:0:0:0:
0,314,67373,6,0,B|268:283|43:258|369:220,1,345,0|0,1:0|0:0,0:0:0:0:
512,133,67722,6,0,P|429:178|407:273,1,172.500006580353,8|0,0:1|0:0,0:0:0:0:
487,355,67896,2,0,P|503:297|473:349,1,172.5,0|0,0:0|0:0,0:0:0:0:
386,79,68245,6,0,P|325:151|341:248,1,172.500006580353,8|0,0:1|0:0,0:0:0:0:
318,313,68420,6,0,B|349:301|428:411|395:367|408:193|272:186|283:383|107:376|77:207,1,413.999987365723,0|4,0:0|0:1,0:0:0:0:
138,34,69030,6,0,L|126:28,1,12.9374996051788,0|0,0:0|0:0,0:0:0:0:
150,40,69117,2,0,P|85:99|84:154,1,115,8|0,0:1|0:0,0:0:0:0:
19,283,69292,6,0,B|14:300|28:321|28:321|21:293|25:295,1,68.9999978942872,0|0,0:0|0:0,0:0:0:0:
0,202,69466,2,0,B|121:187|43:170|164:156,1,172.5,2|0,0:0|0:0,0:0:0:0:
335,70,69815,6,0,B|391:60|395:-36|294:13|278:71|296:118|296:118|308:131|301:81|289:198|383:109|361:283|285:311|252:275,1,402.499987716675,4|0,0:1|0:0,0:0:0:0:
412,149,70338,2,0,L|452:141,2,40.2499987716675,2|0|0,0:0|0:0|0:0,0:0:0:0:
243,204,70513,6,0,P|157:197|82:156,1,172.500006580353,8|0,0:1|0:0,0:0:0:0:
32,83,70687,2,0,P|25:99|29:80,1,51.7499984207154,0|0,0:0|0:0,0:0:0:0:
38,307,71036,6,0,P|123:316|204:290,1,172.500006580353,8|0,0:1|0:0,0:0:0:0:
339,204,71210,2,0,B|345:210|343:225|343:225|330:212|334:205,1,46,0|0,0:0|0:0,0:0:0:0:
426,238,71385,5,0,1:0:0:0:
426,238,71472,1,0,0:0:0:0:
413,317,71559,2,0,B|369:217|554:303|476:105,1,184,0|4,0:0|0:1,0:0:0:0:
397,21,71821,5,0,0:0:0:0:
314,23,71908,2,0,B|423:21|462:100|462:100|392:25|126:1|343:233|18:252|-25:96,1,684.250013051033,8|2,0:1|0:0,0:0:0:0:
23,42,72606,5,4,0:1:0:0:
23,42,72780,2,0,P|8:58|0:78,1,43.1250016450883,2|0,0:0|0:0,0:0:0:0:
12,152,72954,6,0,P|86:104|89:-4,1,189.750005790711,0|0,1:0|0:0,0:0:0:0:
238,173,73303,6,0,B|213:182|229:226|229:226|261:193|239:171,1,115,8|0,0:1|0:0,0:0:0:0:
146,165,73478,2,0,B|420:130|201:106|492:80,1,345,0|0,0:0|0:0,0:0:0:0:
246,59,73827,6,0,B|221:70|202:27|202:27|248:28|248:59,1,115,8|0,0:1|0:0,0:0:0:0:
393,74,74001,2,0,B|376:-42|218:7|224:81|134:149|535:236|302:375|204:414|156:384|152:225|275:247,1,603.749981575013,0|0,0:0|0:0,0:0:0:0:
414,252,74524,5,4,0:1:0:0:
427,249,74611,2,0,P|430:242|430:247,1,21.5625008225441,0|0,0:0|0:0,0:0:0:0:
436,266,74699,2,0,P|298:197|238:211,1,172.500006580353,8|0,0:1|0:0,0:0:0:0:
99,332,74873,2,0,P|43:304|57:253,1,115,0|0,0:0|0:0,0:0:0:0:
229,89,75048,6,0,P|195:213|182:342,1,258.75000987053,2|0,0:0|0:0,0:0:0:0:
182,350,75396,6,0,P|197:350|182:342,1,43.1250016450883,4|0,0:1|0:0,0:0:0:0:
292,306,75571,2,0,P|277:313|290:309,1,57.5,0|0,0:0|0:0,0:0:0:0:
306,168,75745,2,0,P|274:192|310:174,1,115,0|0,0:0|0:0,0:0:0:0:
415,187,75920,6,0,B|444:164|470:160|470:160|429:147|387:179,1,143.75,2|0,0:0|0:0,0:0:0:0:
145,22,76094,6,0,P|105:54|101:147,1,115,8|0,0:1|0:0,0:0:0:0:
128,345,76268,2,0,P|168:313|172:220,1,115,0|0,0:0|0:0,0:0:0:0:
165,154,76443,2,0,P|161:171|169:156,1,43.1250016450883,4|0,0:1|0:0,0:0:0:0:
268,280,76617,6,0,P|310:283|350:301,1,86.2500032901765,8|0,0:1|0:0,0:0:0:0:
512,232,76792,2,0,P|473:251|443:282,1,86.2500032901765,0|0,0:0|0:0,0:0:0:0:
409,355,76966,2,0,P|413:372|405:357,1,43.1250016450883,0|0,1:0|0:0,0:0:0:0:
384,228,77141,5,0,0:0:0:0:
171,324,77315,1,4,0:1:0:0:
178,334,77402,1,0,0:0:0:0:
201,347,77489,5,8,0:1:0:0:
280,353,77620,5,0,0:0:0:0:
236,272,77707,5,0,0:0:0:0:
98,284,77838,6,0,P|75:302|55:333,2,57.500002193451,2|2|2,0:1|0:1|0:1,0:0:0:0:
184,103,78187,5,4,0:1:0:0:
184,103,78361,2,0,L|178:125,1,23,0|0,0:0|0:0,0:0:0:0:
0,87,78536,6,0,B|77:67|125:150|58:146|111:232|193:211,1,253.000007720947,2|2,0:0|0:0,0:0:0:0:
334,84,78798,1,0,0:0:0:0:
344,73,78885,6,0,B|339:27|386:13|386:13|389:51|346:71,1,149.499993156433,8|0,0:1|0:0,0:0:0:0:
292,267,79059,6,0,B|236:204|307:139|388:163|377:246,1,224.24998973465,0|0,0:0|0:0,0:0:0:0:
359,342,79408,6,0,P|381:373|354:346,1,115,8|0,0:1|0:0,0:0:0:0:
500,285,79582,6,0,B|477:272|477:272|199:331,1,287.5,0|0,0:0|0:0,0:0:0:0:
134,342,80106,1,4,0:1:0:0:
134,342,80280,6,0,B|138:388|92:402|92:402|89:364|132:344,1,149.499993156433,8|0,0:1|0:0,0:0:0:0:
13,187,80454,2,0,B|0:160|-28:163|-28:163|-18:199|18:196,1,115,0|0,0:0|0:0,0:0:0:0:
26,290,80629,6,0,B|106:283|145:179|73:206|100:95|208:101,1,276,2|0,0:0|0:0,0:0:0:0:
485,76,80978,6,0,B|393:69|318:179|324:248|434:190|354:96,1,275.999991577149,4|0,0:1|0:0,0:0:0:0:
360,106,81414,1,0,0:0:0:0:
361,107,81501,2,0,L|321:73,2,34.4999989471436,2|0|0,0:0|0:0|0:0,0:0:0:0:
435,305,81675,6,0,P|289:179|181:203,1,298.999986312867,8|0,0:1|0:0,0:0:0:0:
187,222,81937,1,0,0:0:0:0:
187,222,82024,2,0,L|147:256,2,34.4999989471436,4|0|0,0:1|0:0|0:0,0:0:0:0:
25,81,82199,6,0,P|21:188|103:91,1,298.999986312867,8|0,0:1|0:0,0:0:0:0:
90,31,82460,1,0,0:0:0:0:
90,31,82548,2,0,L|130:-3,2,34.4999989471436,0|0|0,1:0|0:0|0:0,0:0:0:0:
435,305,82896,5,4,0:1:0:0:
435,305,83071,2,0,B|377:309|377:309|376:313|376:313|374:309|374:309|261:316,1,149.499993156433,8|2,0:1|0:0,0:0:0:0:
75,230,83245,5,2,0:0:0:0:
79,245,83332,1,2,0:0:0:0:
86,258,83420,1,2,0:0:0:0:
98,267,83507,1,2,0:0:0:0:
112,273,83594,1,2,0:0:0:0:
126,273,83681,1,2,0:0:0:0:
187,222,83768,5,4,0:1:0:0:
187,222,84117,2,0,P|69:245|4:398,1,253.000007720947,2|2,0:0|0:0,0:0:0:0:
55,144,84379,1,0,0:0:0:0:
46,131,84466,6,0,B|-20:97|14:29|74:71|47:126,1,149.499993156433,8|0,0:1|0:0,0:0:0:0:
219,136,84641,6,0,B|260:153|278:217|278:217|279:156|312:123,1,206.999993682861,0|0,0:0|0:0,0:0:0:0:
378,55,84989,6,0,P|400:24|373:51,1,115,8|0,0:1|0:0,0:0:0:0:
188,56,85164,6,0,L|472:96,1,287.5,0|0,0:0|0:0,0:0:0:0:
497,172,85687,1,4,0:1:0:0:
497,172,85861,6,0,B|526:253|526:253|487:191,1,149.499993156433,8|0,0:1|0:0,0:0:0:0:
297,197,86036,2,0,B|253:224|253:224|313:203,1,115,0|0,0:0|0:0,0:0:0:0:
472,96,86210,6,0,B|389:91|366:206|425:170|424:272|317:295,1,276,2|0,0:0|0:0,0:0:0:0:
315,371,86559,6,0,P|231:303|167:331,1,172.5,4|0,0:1|0:0,0:0:0:0:
55,335,86908,6,0,P|78:343|51:328,2,115,0|2|8,0:0|0:0|0:1,0:0:0:0:
31,141,87518,6,0,B|43:222|145:215|161:119|83:91,2,215.625008225441,0|0|0,0:0|0:0|0:0,0:0:0:0:
238,106,88216,6,0,B|196:57|272:-34|313:81|242:107,2,172.499994735718,0|0|0,0:0|0:0|0:0,0:0:0:0:
411,110,88914,6,0,B|407:209|317:132|412:99,1,138,0|0,0:0|0:0,0:0:0:0:
439,267,89350,6,0,P|453:256|437:260,1,46,0|0,1:0|0:0,0:0:0:0:
395,336,90048,6,0,B|423:349|430:378|430:378|442:351|476:342,1,115,8|0,0:1|0:0,0:0:0:0:
467,173,90222,6,0,B|397:158|299:196|418:315|170:354|119:255,1,359.375,2|0,0:0|0:0,0:0:0:0:
33,242,90484,6,0,B|-93:225|46:46|199:218|75:327,1,345.000013160706,0|0,0:0|0:0,0:0:0:0:
4,319,90745,1,0,0:0:0:0:
49,29,90920,6,0,B|43:133|43:133|38:137|38:137|29:297,1,215.625,0|0,1:0|0:0,0:0:0:0:
124,111,91094,2,0,P|148:118|167:135,1,51.7499984207154,4|0,0:1|0:0,0:0:0:0:
319,134,91268,6,0,P|319:184|245:214,1,97.7500018644333,2|2,0:0|0:0,0:0:0:0:
111,188,91443,2,0,P|154:163|217:212,1,97.7500018644333,2|0,0:0|0:0,0:0:0:0:
364,303,91617,1,0,1:0:0:0:
364,303,91792,6,0,P|237:220|170:60,1,327.749991248131,2|0,0:0|0:0,0:0:0:0:
252,0,92141,6,0,P|255:33|249:52,1,43.1250016450883,4|0,0:1|0:0,0:0:0:0:
80,210,92315,5,2,0:0:0:0:
201,208,92489,1,0,0:0:0:0:
209,201,92577,1,0,0:0:0:0:
215,193,92664,2,0,P|176:170|167:170,1,43.1250016450883,2|0,0:0|0:0,0:0:0:0:
80,210,92838,6,0,B|64:292|64:292|108:203,1,158.125001507998,2|0,0:0|0:0,0:0:0:0:
339,292,93013,6,0,B|246:307|143:256|245:107|56:76|0:157,1,422.625004030466,0|0,0:0|0:0,0:0:0:0:
306,196,93361,6,0,B|375:147|375:147|329:205,1,158.125001507998,8|0,0:1|0:0,0:0:0:0:
176,344,93536,6,0,P|185:262|229:154,1,187.833335124652,0|0,0:0|0:0,0:0:0:0:
296,92,93710,6,0,B|288:51|262:36|262:36|270:51|273:91,1,123.625001886368,8|0,0:1|0:0,0:0:0:0:
305,288,93885,6,0,P|334:320|415:319,1,122.666666666667,4|0,0:1|0:0,0:0:0:0:
433,239,94059,2,0,P|404:207|323:208,1,122.666666666667,0|0,0:0|0:0,0:0:0:0:
138,326,94234,6,0,P|103:360|55:367,1,99.6666621042889,8|0,0:1|0:0,0:0:0:0:
23,294,94408,2,0,P|57:259|105:252,1,99.6666621042889,0|0,0:0|0:0,0:0:0:0:
241,341,94582,6,0,B|231:351|223:383|223:383|202:299|241:187|241:187|219:202|209:225,1,287.500010967255,0|0,1:0|0:0,0:0:0:0:
449,356,94931,5,4,0:1:0:0:
449,356,95106,6,0,P|389:317|360:314,1,86.2500032901765,2|0,0:0|0:0,0:0:0:0:
138,326,95280,1,0,0:0:0:0:
130,319,95367,1,0,0:0:0:0:
126,308,95454,1,2,0:0:0:0:
125,298,95542,1,0,0:0:0:0:
212,217,95629,6,0,B|264:235|289:269|289:269|246:254|154:258,1,143.75,2|0,0:0|0:0,0:0:0:0:
11,288,95803,6,0,P|182:194|78:32,1,413.999987365723,2|0,0:0|0:0,0:0:0:0:
52,161,96152,6,0,B|30:169|17:199|17:199|136:130|299:132,1,310.500001184463,8|0,0:1|0:0,0:0:0:0:
392,340,96501,6,0,P|336:259|431:263,1,222.333340118408,2|0,0:0|0:0,0:0:0:0:
471,320,96675,1,4,0:1:0:0:
247,320,96850,5,0,0:0:0:0:
249,335,96937,1,0,0:0:0:0:
256,350,97024,2,0,P|204:237|213:199,1,126.500003860474,8|0,0:1|0:0,0:0:0:0:
316,23,97199,2,0,P|303:84|263:132,1,126.500003860474,2|0,0:0|0:0,0:0:0:0:
48,218,97373,6,0,B|340:177|198:254|470:209,1,413.999987365723,0|0,1:0|0:0,0:0:0:0:
508,154,97722,5,4,0:1:0:0:
508,154,97896,6,0,P|491:138|462:140,1,43.1250016450883,2|0,0:0|0:0,0:0:0:0:
348,301,98071,1,0,0:0:0:0:
342,312,98158,1,0,0:0:0:0:
340,324,98245,1,2,0:0:0:0:
340,336,98332,1,0,0:0:0:0:
366,370,98420,6,0,P|312:326|206:297,1,122.666666666667,2|0,0:0|0:0,0:0:0:0:
119,340,98594,6,0,B|81:382|86:438|188:414|226:256|99:161,1,275.999991577149,0|2,0:0|0:0,0:0:0:0:
97,143,98856,1,0,0:0:0:0:
103,150,98943,1,8,0:1:0:0:
147,214,99117,6,0,P|144:105|239:26,1,199.333324208578,2|0,0:0|0:0,0:0:0:0:
287,46,99292,6,0,B|318:30|357:34|357:34|328:17|270:27,1,145.666662776947,4|0,0:1|0:0,0:0:0:0:
78,47,99466,2,0,B|53:31|40:1|40:1|39:29|71:67,1,122.666666666667,4|0,0:1|0:0,0:0:0:0:
259,181,99641,2,0,B|260:156|276:134|276:134|255:146|241:184,1,99.6666621042889,4|0,0:1|0:0,0:0:0:0:
71,247,99815,6,0,B|217:198|169:307|305:274,1,241.499992630005,8|0,0:1|0:0,0:0:0:0:
472,136,100164,6,0,B|488:110|515:100|515:100|461:91|374:156|397:307,1,276,0|0,1:0|0:0,0:0:0:0:
441,326,100513,5,4,0:1:0:0:
441,326,100687,2,0,L|478:321,1,34.5,2|0,0:0|0:0,0:0:0:0:
299,90,101036,6,0,P|255:111|251:180,1,115,2|0,0:0|0:0,0:0:0:0:
475,321,101210,2,0,B|497:358|537:349|537:349|517:311|469:320,1,137.999995788574,8|0,0:1|0:0,0:0:0:0:
413,181,101385,6,0,B|519:263|554:108|329:156|294:345,1,345,2|0,0:0|0:0,0:0:0:0:
41,372,101734,2,0,P|54:277|115:350,1,230,8|0,0:1|0:0,0:0:0:0:
400,349,101995,1,0,0:0:0:0:
406,358,102082,2,0,P|351:346|300:319,1,115,2|0,0:0|0:0,0:0:0:0:
82,49,102257,6,0,B|12:30|12:30|82:82|112:154,1,206.999993682861,4|0,0:1|0:0,0:0:0:0:
79,211,102606,2,0,P|134:218|171:176,1,115,8|0,0:1|0:0,0:0:0:0:
402,64,102780,2,0,P|346:76|295:103,1,115,2|0,0:0|0:0,0:0:0:0:
100,129,102954,6,0,P|201:129|420:236,1,345,0|0,1:0|0:0,0:0:0:0:
464,313,103303,1,4,0:1:0:0:
464,313,103478,6,0,L|427:318,1,34.5,2|0,0:0|0:0,0:0:0:0:
192,356,103827,6,0,P|148:335|144:266,1,115,2|0,0:0|0:0,0:0:0:0:
295,102,104001,2,0,B|301:50|301:50|261:127,1,137.999995788574,8|0,0:1|0:0,0:0:0:0:
52,119,104175,6,0,B|143:82|208:168|137:167|214:245|292:217,1,275.999991577149,0|2,0:0|0:0,0:0:0:0:
512,81,104524,6,0,P|450:130|421:183,1,137.999995788574,8|0,0:1|0:0,0:0:0:0:
441,0,104699,1,2,0:0:0:0:
441,0,104873,2,0,P|389:59|370:117,1,137.999995788574,8|0,0:1|0:0,0:0:0:0:
277,299,105048,2,0,B|312:303|335:329|335:329|330:294|346:259,1,138,4|0,0:1|0:0,0:0:0:0:
87,316,105396,6,0,B|168:320|202:248|153:236|197:157|291:177|291:177|258:216,1,310.499990524292,8|0,0:1|0:0,0:0:0:0:
73,225,105745,2,0,P|220:230|349:260,1,276,2|0,0:0|0:0,0:0:0:0:
464,313,106094,1,4,0:1:0:0:
464,313,106268,6,0,L|459:276,1,34.5,2|0,0:0|0:0,0:0:0:0:
286,32,106617,6,0,P|241:73|259:134,1,115,2|0,0:0|0:0,0:0:0:0:
512,116,106792,2,0,P|443:130|380:164,1,137.999995788574,8|0,0:1|0:0,0:0:0:0:
290,311,106966,6,0,B|396:280|421:118|326:14|280:139|388:162,1,345,2|0,0:0|0:0,0:0:0:0:
382,384,107315,2,0,P|313:331|168:330,1,230,8|0,0:1|0:0,0:0:0:0:
66,377,107577,1,0,0:0:0:0:
57,384,107664,2,0,P|25:326|75:280,1,115,2|0,0:0|0:0,0:0:0:0:
205,136,107838,6,0,P|151:79|149:172,1,206.999993682861,4|0,0:1|0:0,0:0:0:0:
47,289,108187,2,0,P|107:260|173:247,1,115,8|0,0:1|0:0,0:0:0:0:
374,67,108361,2,0,P|406:125|356:171,1,115,2|0,0:0|0:0,0:0:0:0:
84,30,108536,6,0,B|18:28|-12:70|-12:70|143:55|216:150,1,345,0|0,1:0|0:0,0:0:0:0:
261,209,108885,1,4,0:1:0:0:
261,209,109059,6,0,L|298:204,1,34.5,2|0,0:0|0:0,0:0:0:0:
295,204,109408,1,2,0:0:0:0:
512,116,109582,6,0,B|374:73|234:163|389:348|123:332,1,460,8|0,0:1|0:0,0:0:0:0:
162,332,110454,6,0,P|139:271|191:233,1,138,2|0,0:1|0:0,0:0:0:0:
189,233,110803,1,2,0:1:0:0:
59,107,110978,2,0,L|36:84,2,30.6666666666667,2|2|2,0:0|0:0|0:0,0:0:0:0:
242,305,111675,5,4,0:1:0:0:
242,305,112024,6,0,B|349:340|328:229|463:279,1,206.999993682861,0|0,1:0|0:0,0:0:0:0:
446,278,112373,6,0,P|452:338|383:323,1,115,8|0,0:1|0:0,0:0:0:0:
278,220,112548,2,0,P|290:125|339:12,1,206.999993682861,2|0,0:0|0:0,0:0:0:0:
450,35,112896,6,0,B|482:43|482:43|364:61,1,115,8|0,0:1|0:0,0:0:0:0:
198,66,113071,1,2,0:0:0:0:
198,66,113158,1,0,0:0:0:0:
198,66,113245,2,0,L|211:130,1,57.5,2|0,0:0|0:0,0:0:0:0:
296,303,113420,6,0,B|311:322|331:356|331:356|247:285|87:241,1,276,4|0,0:1|0:0,0:0:0:0:
8,312,113768,6,0,B|24:333|63:335|79:322|79:322|81:324|81:324|169:262|92:142|15:194|-26:192|-7:17|91:12|91:12|57:47|57:84,1,563.499982803345,8|0,0:1|0:0,0:0:0:0:
132,110,114466,6,0,P|209:65|283:55,1,137.999995788574,4|0,0:1|0:0,0:0:0:0:
379,32,114728,1,0,0:0:0:0:
379,32,114815,2,0,P|350:52|335:90,1,68.9999978942872,2|0,0:0|0:0,0:0:0:0:
415,97,114989,2,0,P|408:131|424:169,1,68.9999978942872,0|0,0:0|0:0,0:0:0:0:
363,342,115164,6,0,P|392:322|369:344,1,115,8|0,0:1|0:0,0:0:0:0:
490,337,115338,2,0,B|340:305|450:283|269:244,1,241.499992630005,2|0,0:0|0:0,0:0:0:0:
62,255,115687,6,0,P|39:304|79:340,1,115,8|0,0:1|0:0,0:0:0:0:
93,339,115861,2,0,B|162:339|208:259|133:243|177:144|284:143,1,276,0|0,0:0|0:0,0:0:0:0:
329,126,116210,5,4,0:1:0:0:
329,126,116385,2,0,P|318:101|294:81,1,57.5,2|0,0:1|0:0,0:0:0:0:
24,121,116559,6,0,B|-23:154|-23:154|83:128,1,115,8|0,0:1|0:0,0:0:0:0:
102,106,116734,2,0,B|196:101|161:152|258:146,1,160.99999508667,0|0,0:0|0:0,0:0:0:0:
413,154,116995,5,2,0:1:0:0:
413,154,117082,2,0,P|415:124|408:93,1,46,0|0,0:0|0:0,0:0:0:0:
496,187,117606,6,0,B|69:158|440:120|32:86,1,482.99998526001,0|0,0:0|0:0,0:0:0:0:
0,157,117954,6,0,B|14:198|44:205|44:205|21:186|20:142,1,115,8|0,0:1|0:0,0:0:0:0:
178,26,118129,2,0,P|136:149|118:265,1,241.499992630005,2|0,0:0|0:0,0:0:0:0:
152,333,118478,6,0,B|138:374|108:381|108:381|131:362|132:318,1,115,8|0,0:1|0:0,0:0:0:0:
173,15,118652,2,0,P|129:133|108:270,1,258.75000987053,2|0,0:0|0:0,0:0:0:0:
295,317,119001,6,0,B|377:356|386:193|226:199|192:271,1,258.75000987053,4|0,0:1|0:0,0:0:0:0:
2,275,119350,6,0,P|159:294|389:388,1,391.000007457733,8|2,0:1|0:0,0:0:0:0:
460,368,119786,1,0,0:0:0:0:
467,371,119873,2,0,P|495:341|507:309,1,57.5,2|0,0:0|0:0,0:0:0:0:
389,281,120048,6,0,P|413:304|392:274,1,115,4|0,0:1|0:0,0:0:0:0:
510,240,120309,6,0,P|495:184|423:63,1,137.999995788574,0|0,0:0|0:0,0:0:0:0:
464,30,120571,6,0,B|483:20|510:14|510:14|483:31|472:48,1,80.499997543335,0|0,0:0|0:0,0:0:0:0:
377,97,120745,6,0,B|356:111|356:111|221:93,1,115,8|0,0:1|0:0,0:0:0:0:
118,60,120920,2,0,B|110:32|82:11|82:11|180:35|194:175,1,241.499992630005,2|0,0:0|0:0,0:0:0:0:
155,216,121268,6,0,B|132:223|101:245|101:245|122:210|134:203,1,115,8|0,0:1|0:0,0:0:0:0:
265,273,121443,2,0,P|278:136|336:12,1,276,2|0,0:1|0:0,0:0:0:0:
345,7,121792,2,0,P|386:34|354:103,1,103.499996841431,4|0,0:1|0:0,0:0:0:0:
397,180,122141,6,0,B|237:159|348:71|167:42,1,258.749992103577,8|0,0:1|0:0,0:0:0:0:
111,32,122664,2,0,B|110:23|84:9|84:9|94:17|105:42,1,74.7499965782167,2|0,0:1|0:0,0:0:0:0:
155,240,122838,5,0,0:0:0:0:
155,240,123187,2,0,B|205:237|205:237|227:150|227:150|194:110,1,172.5,0|0,1:0|0:0,0:0:0:0:
189,46,123536,6,0,P|142:60|142:142,1,115,8|0,0:1|0:0,0:0:0:0:
7,153,123710,6,0,P|142:140|254:216,1,276,2|0,0:0|0:0,0:0:0:0:
436,199,124059,6,0,B|451:156|451:156|351:140|311:231|374:225|327:315|252:309,1,310.499990524292,8|0,0:1|0:0,0:0:0:0:
205,374,124408,2,0,P|169:339|180:292,1,103.499996841431,2|0,0:0|0:0,0:0:0:0:
474,339,124582,6,0,P|396:324|257:308,1,206.999993682861,4|0,0:1|0:0,0:0:0:0:
49,49,124931,6,0,B|180:-47|383:181|139:285|105:182|127:115,1,413.999987365723,8|0,0:1|0:0,0:0:0:0:
123,139,125454,1,0,1:0:0:0:
375,0,125629,6,0,L|340:237,1,230,4|0,0:1|1:0,0:0:0:0:
408,298,126065,1,0,0:0:0:0:
408,298,126152,6,0,B|500:372|580:218|336:303|328:409,1,276,8|0,0:1|0:0,0:0:0:0:
123,139,126501,2,0,P|115:275|200:182,1,345,4|0,0:1|0:0,0:0:0:0:
194,101,126850,5,8,0:1:0:0:
450,141,127024,2,0,B|387:153|341:228|341:228|347:145|305:84,1,287.5,2|0,0:1|0:0,0:0:0:0:
309,90,127548,1,4,0:1:0:0:
21,47,127722,6,0,P|31:149|50:251,1,206.999993682861,8|0,0:1|0:0,0:0:0:0:
142,1,127984,2,0,P|134:104|135:207,1,206.999993682861,0|0,0:0|0:0,0:0:0:0:
274,349,128245,2,0,B|318:385|318:385|250:361,1,103.499996841431,8|0,0:1|0:0,0:0:0:0:
50,251,128420,5,4,0:1:0:0:
50,251,128768,2,0,B|101:192|181:226|168:304|168:304|158:370|225:401|277:368,1,345,0|0,1:0|0:0,0:0:0:0:
473,224,129117,2,0,B|454:211|454:211|356:264,1,115,8|0,0:1|0:0,0:0:0:0:
384,384,129292,6,0,P|327:236|343:116,1,276,2|0,0:0|0:0,0:0:0:0:
355,45,129641,2,0,P|465:24|418:126,1,276,8|0,0:1|0:0,0:0:0:0:
340,122,129989,1,2,0:0:0:0:
123,76,130164,6,0,B|172:68|204:126|166:126|186:177|244:183,1,172.5,4|0,0:1|0:0,0:0:0:0:
367,239,130513,2,0,P|293:208|159:346,1,276,8|0,0:1|0:0,0:0:0:0:
101,384,130861,6,0,P|69:355|81:287,1,115,0|0,1:0|0:0,0:0:0:0:
340,122,131036,2,0,B|399:93|399:93|359:144,1,115,0|0,0:0|0:0,0:0:0:0:
116,201,131210,6,0,P|75:192|123:194,2,172.5,4|0|0,0:1|0:0|0:0,0:0:0:0:
262,21,131908,6,0,B|329:76|274:175|160:142|179:44,2,258.75000987053,0|0|0,0:0|0:0|0:0,0:0:0:0:
431,62,132606,6,0,P|393:59|439:70,2,206.999993682861,0|0|0,0:0|0:0|0:0,0:0:0:0:
472,222,133303,6,0,P|512:235|471:213,2,138,0|0|0,0:0|0:0|0:0,0:0:0:0:
426,311,134001,6,0,B|304:286|405:236|235:201,1,189.750005790711,4|0,0:3|0:0,0:0:0:0:
260,210,134350,2,0,B|230:308|230:308|319:283,1,149.499993156433,0|0,0:0|0:0,0:0:0:0:
288,296,134873,5,0,0:0:0:0:
351,233,135048,1,0,0:0:0:0:
439,230,135222,1,0,0:0:0:0:
292,132,135396,5,0,0:0:0:0:
292,132,135745,1,0,0:0:0:0:
289,146,136094,5,0,0:0:0:0:
243,70,136268,1,0,0:0:0:0:
370,118,136443,6,0,P|245:115|165:146,2,184,0|0|0,0:0|0:0|0:0,0:0:0:0:
378,128,136966,5,0,0:0:0:0:
414,206,137141,1,0,0:0:0:0:
455,96,137315,1,0,0:0:0:0:
455,96,137664,5,0,0:0:0:0:
378,128,137838,1,0,0:0:0:0:
414,206,138013,1,0,0:0:0:0:
496,175,138187,2,0,P|381:170|272:225,1,206.999993682861,0|0,0:0|0:0,0:0:0:0:
293,215,138536,6,0,P|250:217|210:200,1,86.2500032901765,0|0,0:0|0:0,0:0:0:0:
357,271,138885,2,0,P|348:290|317:306,1,43.1250016450883,0|0,0:0|0:0,0:0:0:0:
222,296,139059,6,0,B|224:325|240:359|240:359|246:213|375:72,1,321.99999017334,0|0,0:0|0:0,0:0:0:0:
383,65,139495,5,0,0:0:0:0:
383,65,139582,1,0,0:0:0:0:
449,114,139757,1,0,0:0:0:0:
316,15,139931,1,0,0:0:0:0:
508,64,140106,6,0,P|481:101|441:109,1,68.9999978942872,0|0,0:0|0:0,0:0:0:0:
257,65,140280,1,0,0:0:0:0:
257,65,140629,5,0,0:0:0:0:
316,15,140803,1,0,0:0:0:0:
270,141,140978,1,0,0:0:0:0:
270,141,141327,1,0,0:0:0:0:
270,141,141675,5,0,0:0:0:0:
329,191,141849,1,0,0:0:0:0:
343,112,142024,2,0,P|314:186|315:266,1,160.99999508667,0|0,0:0|0:0,0:0:0:0:
436,358,142373,5,0,0:0:0:0:
458,285,142548,1,0,0:0:0:0:
360,359,142722,1,0,0:0:0:0:
352,347,142897,1,0,0:0:0:0:
436,358,143071,6,0,B|441:261|318:252|318:252|184:246|192:134,1,362.249988945008,0|0,0:0|0:0,0:0:0:0:
284,151,143768,5,0,0:0:0:0:
128,105,143943,2,0,B|125:96|112:84|112:84|137:95|145:110,1,51.7499984207154,0|0,0:0|0:0,0:0:0:0:
356,117,144117,5,0,0:0:0:0:
371,111,144466,1,0,0:0:0:0:
382,98,144641,6,0,B|321:76|240:142|336:179|263:241|192:217,1,258.749992103577,0|0,0:0|0:0,0:0:0:0:
44,179,145164,6,0,P|47:93|133:96,1,189.750005790711,0|0,0:0|0:0,0:0:0:0:
124,177,145513,2,0,P|108:258|97:346,1,149.499993156433,0|0,0:0|0:0,0:0:0:0:
99,324,146036,5,0,0:0:0:0:
185,302,146210,1,0,0:0:0:0:
261,349,146385,1,0,0:0:0:0:
473,272,146559,5,0,0:0:0:0:
473,272,146908,1,0,0:0:0:0:
473,272,147257,1,0,0:0:0:0:
412,315,147431,1,0,0:0:0:0:
357,240,147606,6,0,P|281:258|179:305,1,184,0|0,0:0|0:0,0:0:0:0:
32,98,147954,1,0,0:0:0:0:
32,98,148303,5,0,0:0:0:0:
97,131,148478,1,0,0:0:0:0:
219,48,148827,1,0,0:0:0:0:
219,48,149001,6,0,L|211:12,3,23,0|0|0|0,0:0|0:0|0:0|0:0,0:0:0:0:
139,62,149350,6,0,P|215:80|317:127,1,172.5,0|0,0:0|0:0,0:0:0:0:
327,37,149699,2,0,P|410:42|388:114,1,172.5,0|0,0:0|0:0,0:0:0:0:
237,171,150048,6,0,B|296:139|378:205|321:210|372:275|438:258,1,241.499992630005,0|0,0:0|0:0,0:0:0:0:
499,307,150396,2,0,B|519:344|519:344|488:320,1,80.499997543335,0|0,0:0|0:0,0:0:0:0:
311,123,150571,1,0,0:0:0:0:
474,171,150745,6,0,P|306:225|191:281,1,276,0|0,0:0|0:0,0:0:0:0:
140,336,151356,1,0,0:0:0:0:
140,336,151443,1,0,0:0:0:0:
95,277,151617,1,0,0:0:0:0:
95,277,151705,1,0,0:0:0:0:
149,227,151879,1,0,0:0:0:0:
149,227,151967,1,0,0:0:0:0:
104,157,152141,5,0,0:0:0:0:
223,42,152315,2,0,L|208:155,1,92,0|0,0:0|0:0,0:0:0:0:
210,133,152577,2,0,L|239:174,2,46,0|0|0,0:0|0:0|0:0,0:0:0:0:
4,105,152838,6,0,L|248:137,1,206.999993682861,0|0,0:0|0:0,0:0:0:0:
488,320,153187,2,0,P|415:344|415:258,1,184,0|0,0:0|0:0,0:0:0:0:
411,262,153536,6,0,P|439:207|442:112,1,137.999995788574,0|0,0:0|0:0,0:0:0:0:
460,26,153885,5,0,0:0:0:0:
451,37,153972,1,0,0:0:0:0:
438,42,154059,1,0,0:0:0:0:
424,44,154146,1,0,0:0:0:0:
410,42,154234,1,0,0:0:0:0:
445,131,154408,5,0,0:0:0:0:
418,125,154495,1,0,0:0:0:0:
391,132,154582,1,0,0:0:0:0:
371,151,154669,1,0,0:0:0:0:
362,177,154757,1,0,0:0:0:0:
436,211,154931,1,0,0:0:0:0:
264,79,155106,2,0,L|280:141,1,46,0|0,0:0|0:0,0:0:0:0:
280,144,155280,5,0,0:0:0:0:
236,170,155368,1,0,0:0:0:0:
185,167,155455,1,0,0:0:0:0:
141,141,155542,1,0,0:0:0:0:
119,95,155629,1,0,0:0:0:0:
8,23,155803,5,0,0:0:0:0:
22,35,155891,1,0,0:0:0:0:
31,52,155978,1,0,0:0:0:0:
35,70,156065,1,0,0:0:0:0:
33,89,156152,1,0,0:0:0:0:
25,107,156239,1,0,0:0:0:0:
46,189,156327,6,0,B|-19:125|-19:125|227:175,1,298.999986312867,4|0,0:1|1:0,0:0:0:0:
290,56,156850,2,0,B|313:46|314:25|314:25|293:31|289:53,1,74.7499965782167,0|0,0:0|0:0,0:0:0:0:
512,274,157024,6,0,B|591:239|591:373|475:387|369:243|374:140|513:68|513:68|502:215|374:272|298:200|298:200|303:190|303:190|211:126|133:204|133:204|129:200|129:200|170:263|167:333|167:333|104:242|-11:235|-11:235|148:237|318:318|357:412|357:412|240:373|218:212,1,1983.75003783703,8|2,0:1|0:0,0:0:0:0:
207,50,158420,6,0,L|205:8,1,28.75,8|0,0:1|0:0,0:0:0:0:
207,50,158768,6,0,B|267:88|267:88|117:69,1,206.999993682861,0|2,1:0|0:0,0:0:0:0:
0,70,159030,5,2,0:0:0:0:
53,11,159117,2,0,B|71:-3|95:-8|95:-8|15:59|0:211,1,276,4|0,0:1|0:0,0:0:0:0:
37,270,159466,1,2,0:0:0:0:
45,273,159553,1,2,0:0:0:0:
53,276,159641,1,2,0:0:0:0:
391,229,159815,6,0,P|255:260|168:323,1,218.499994165421,8|0,0:1|0:0,0:0:0:0:
131,258,160077,2,0,P|145:354|49:360,1,218.499994165421,2|0,0:0|0:0,0:0:0:0:
84,91,160338,6,0,B|132:228|13:346|13:346|38:315|37:269,1,362.249988945008,8|0,0:1|0:0,0:0:0:0:
4,137,160687,2,0,P|181:162|401:254,1,379.500011581421,8|0,0:1|0:0,0:0:0:0:
406,352,161036,5,2,0:0:0:0:
419,348,161123,1,2,0:0:0:0:
505,364,161210,2,0,P|439:315|470:224,1,184,8|2,0:1|0:0,0:0:0:0:
402,159,161472,2,0,P|486:147|478:232,1,195.500003728867,8|2,0:1|0:0,0:0:0:0:
358,283,161734,6,0,P|258:311|163:351,1,206.999993682861,2|0,1:2|0:0,0:0:0:0:
50,248,161908,6,0,B|133:341|59:403|-14:402|-32:306|43:268|86:248|86:249|99:269|101:273|152:263|206:186|154:111|154:111|181:182|106:238,1,563.499982803345,4|0,0:1|0:0,0:0:0:0:
319,10,162606,6,0,B|401:1|488:36|488:36|202:29|-37:210,1,689.999978942872,8|0,0:1|0:0,0:0:0:0:
351,120,163129,2,0,P|407:276|261:196,1,431.25,8|0,0:1|0:0,0:0:0:0:
22,74,163478,2,0,P|-11:90|20:79,1,143.75,8|0,0:1|0:0,0:0:0:0:
158,341,163652,6,0,B|145:161|487:300|427:46,1,396.750007567406,4|0,0:1|0:0,0:0:0:0:
433,110,164001,6,0,B|484:117|500:53|500:53|472:100|414:105,1,160.99999508667,8|0,0:1|0:0,0:0:0:0:
438,197,164350,6,0,B|373:214|311:129|369:125|304:28|228:53,1,276,0|0,1:0|0:0,0:0:0:0:
74,36,164699,6,0,B|89:6|125:-13|125:-13|74:66|72:146,1,241.499992630005,8|0,0:1|0:0,0:0:0:0:
44,309,165048,1,2,0:0:0:0:
79,325,165135,1,2,0:0:0:0:
102,358,165222,1,2,0:0:0:0:
168,188,165396,6,0,B|67:179|-4:228|-4:228|119:203|280:246|398:334,1,603.749981575013,8|2,0:1|0:0,0:0:0:0:
463,265,165920,2,0,P|528:374|396:327,1,345,8|0,0:1|0:0,0:0:0:0:
354,210,166268,6,0,P|414:111|434:18,1,206.999993682861,8|0,0:1|0:0,0:0:0:0:
426,18,166443,6,0,B|394:-13|320:63|436:179|534:82,1,206.999993682861,4|0,0:1|0:0,0:0:0:0:
512,39,166792,6,0,B|440:-30|257:11|404:133|316:225|216:230|111:176|103:77|157:-21|269:63|237:107,1,563.499982803345,8|0,0:1|0:0,0:0:0:0:
7,274,167489,6,0,P|101:242|225:390,1,298.999986312867,4|0,0:1|1:0,0:0:0:0:
453,233,168013,2,0,B|480:206|480:206|419:228,1,74.7499965782167,0|0,0:0|0:0,0:0:0:0:
155,33,168187,6,0,B|98:17|42:63|49:115|49:115|71:112|71:112|108:132|148:206|94:325|-9:288|-9:288|-31:204|76:174|122:145|62:277|174:148|174:148|175:183|175:183|242:156|286:183|286:183|232:263|232:263|309:232|390:223|390:223|238:332|314:429|516:481|539:271|321:104|326:-28|723:51|563:199|392:235,1,1851.50003531456,8|2,0:1|0:0,0:0:0:0:
238,80,169582,6,0,L|246:47,1,28.75,8|0,0:1|0:0,0:0:0:0:
396,30,169931,6,0,B|461:21|481:58|481:58|343:23|227:85,1,345,0|2,1:0|0:0,0:0:0:0:
104,125,170280,2,0,P|28:95|77:212,1,276,4|0,0:1|0:0,0:0:0:0:
137,217,170629,1,2,0:0:0:0:
134,209,170716,1,2,0:0:0:0:
131,201,170804,1,2,0:0:0:0:
279,320,170978,6,0,P|234:225|131:200,1,218.499994165421,8|0,0:1|0:0,0:0:0:0:
237,79,171239,2,0,P|149:76|100:139,1,160.99999508667,2|0,0:0|0:0,0:0:0:0:
30,298,171501,6,0,B|34:473|-83:421|-27:246|184:313,1,362.249988945008,8|0,0:1|0:0,0:0:0:0:
213,384,171850,2,0,P|317:325|435:337,1,241.499992630005,8|0,0:1|0:0,0:0:0:0:
421,131,172199,5,2,0:0:0:0:
413,121,172286,1,2,0:0:0:0:
399,41,172373,2,0,P|400:104|326:58,1,184,8|2,0:1|0:0,0:0:0:0:
154,10,172635,2,0,P|182:97|204:186,1,184,8|0,0:1|0:0,0:0:0:0:
90,328,172896,2,0,B|57:359|57:359|76:313,1,92,2|0,1:2|0:0,0:0:0:0:
273,248,173071,6,0,B|302:222|345:223|345:223|261:158|160:252|258:300|164:377|67:316,1,402.5,4|0,0:1|0:0,0:0:0:0:
10,104,173768,6,0,B|-48:118|-94:16|23:-37|114:43|86:157|86:157|71:153|71:153|-1:250|85:314|85:314|163:276|163:276|114:229,1,661.250012612343,8|0,0:1|0:0,0:0:0:0:
319,147,174292,2,0,B|320:98|368:-35|564:171|329:227|180:179,1,396.750007567406,8|0,0:1|0:0,0:0:0:0:
154,10,174641,2,0,P|231:14|241:68,1,132.250002522469,8|0,0:1|0:0,0:0:0:0:
436,344,174815,6,0,B|350:422|192:282|372:293|205:149|122:237,1,396.750007567406,4|0,0:1|0:0,0:0:0:0:
243,57,175164,6,0,L|237:85,1,28.75,8|0,0:1|0:0,0:0:0:0:
510,141,175513,6,0,L|193:186,1,310.499990524292,0|0,1:0|0:0,0:0:0:0:
86,321,175861,2,0,B|14:354|52:468|204:428|188:282,1,276,8|0,0:1|0:0,0:0:0:0:
236,85,176210,1,2,0:0:0:0:
220,50,176297,1,2,0:0:0:0:
187,27,176384,1,2,0:0:0:0:
290,239,176559,6,0,P|274:102|204:195,1,321.99999017334,8|0,0:1|0:0,0:0:0:0:
21,225,176995,1,2,0:0:0:0:
0,195,177082,6,0,P|115:217|192:321,1,241.499992630005,8|0,0:1|0:0,0:0:0:0:
233,375,177431,2,0,P|271:341|258:300,1,80.499997543335,8|0,0:1|0:0,0:0:0:0:
389,98,177606,1,4,0:1:0:0:
389,98,177954,6,0,B|446:94|463:137|463:137|289:92|178:204,1,368,8|0,0:1|0:0,0:0:0:0:
200,183,178478,1,0,0:0:0:0:
181,266,178652,6,0,L|178:284,2,11.5,0|0|2,0:0|0:0|0:0,0:0:0:0:
75,273,179001,6,0,P|206:308|267:371,1,206.999993682861,4|0,0:1|0:0,0:0:0:0:
428,251,179350,6,0,B|466:282|553:252|559:186|520:119|462:113|405:134|290:148|529:351|292:412|182:303,1,517.499984207154,8|0,0:1|0:0,0:0:0:0:
469,83,179873,6,0,B|452:109|446:130|446:130|436:103|454:79,1,103.499996841431,8|0,0:1|0:0,0:0:0:0:
442,347,180048,1,0,0:0:0:0:
360,130,180222,2,0,B|366:160|376:179|376:179|350:167|346:137,1,103.499996841431,8|0,0:1|0:0,0:0:0:0:
442,347,180396,2,0,P|392:313|348:312,1,103.499996841431,0|0,0:0|0:0,0:0:0:0:
159,340,180571,6,0,P|180:343|166:345,1,86.2500032901765,4|0,0:1|0:0,0:0:0:0:
269,308,180745,6,0,B|350:310|379:362|325:383|262:372|203:343|194:268|184:200|42:218|6:289,1,460,8|0,0:1|0:0,0:0:0:0:
247,195,181268,5,2,0:0:0:0:
243,215,181356,1,2,0:0:0:0:
257,230,181443,2,0,P|265:185|203:132,1,103.499996841431,4|0,0:1|0:0,0:0:0:0:
232,140,181792,5,0,0:0:0:0:
285,75,181966,2,0,P|262:62|236:58,1,51.7499984207154,0|0,0:0|0:0,0:0:0:0:
115,263,182141,6,0,B|123:317|84:375|84:375|179:320|178:201|122:123,1,402.499987716675,8|2,0:1|0:0,0:0:0:0:
36,83,182664,6,0,B|44:44|-62:24|-51:92|-62:201|168:195|137:70,1,276,8|0,0:1|0:0,0:0:0:0:
232,196,183013,2,0,P|354:114|501:98,1,276,8|0,0:1|0:0,0:0:0:0:
500,230,183361,1,2,0:0:0:0:
512,225,183449,1,2,0:0:0:0:
511,304,183536,6,0,P|476:182|380:217,1,241.499992630005,8|2,0:1|0:0,0:0:0:0:
119,261,183798,2,0,P|242:242|358:288,1,253.000007720947,8|2,0:1|0:0,0:0:0:0:
435,311,184059,2,0,B|432:339|448:363|448:363|423:349|388:357,1,103.499996841431,8|0,0:1|0:0,0:0:0:0:
39,307,184234,5,4,0:1:0:0:
47,300,184408,6,0,P|38:246|68:198,1,115,0|0,0:0|0:0,0:0:0:0:
0,147,184582,6,0,P|29:121|69:114,1,80.499997543335,0|0,0:0|0:0,0:0:0:0:
431,111,184931,6,0,B|521:109|530:-11|421:-30|262:10|195:112|223:293,1,517.499984207154,8|0,0:1|0:0,0:0:0:0:
131,300,185454,2,0,P|247:367|209:245,1,327.749991248131,8|0,0:1|0:0,0:0:0:0:
48,301,185803,6,0,B|28:315|4:320|4:320|44:328|59:305,1,92,8|0,0:1|0:0,0:0:0:0:
348,361,185978,1,4,0:1:0:0:
348,361,186152,6,0,P|373:368|339:296,1,172.5,2|0,0:0|0:0,0:0:0:0:
256,318,186327,6,0,B|268:315|282:301|282:301|263:354|177:339|177:339|196:169|411:128|491:285,1,563.499982803345,8|0,0:1|0:0,0:0:0:0:
478,263,187024,6,0,P|444:337|361:271,1,206.999993682861,4|0,0:1|0:0,0:0:0:0:
469,128,187373,1,2,0:0:0:0:
498,99,187460,1,2,0:0:0:0:
494,57,187548,1,2,0:0:0:0:
295,129,187722,6,0,P|320:128|295:134,1,74.7499965782167,8|0,0:1|0:0,0:0:0:0:
357,225,187896,2,0,P|374:203|360:228,1,86.2500032901765,2|0,2:0|0:0,0:0:0:0:
478,263,188071,2,0,P|475:230|483:263,1,97.7500018644333,2|2,2:0|2:0,0:0:0:0:
295,129,188245,5,8,0:1:0:0:
149,181,188420,1,0,0:0:0:0:
154,175,188507,1,0,0:0:0:0:
152,98,188594,2,0,B|190:94|210:68|210:68|199:99|215:127,1,126.500003860474,8|0,0:1|0:0,0:0:0:0:
267,315,188768,6,0,P|179:334|218:252,1,206.999993682861,4|0,0:1|0:0,0:0:0:0:
357,225,189117,6,0,P|395:135|369:61,1,160.99999508667,8|0,0:1|0:0,0:0:0:0:
327,24,189379,1,0,0:0:0:0:
327,24,189466,1,0,0:0:0:0:
422,160,189641,6,0,L|447:167,1,23,0|0,1:0|0:0,0:0:0:0:
486,232,189815,1,0,0:0:0:0:
486,232,189989,6,0,L|483:252,8,11.5,0|0|0|0|0|0|0|0|0,0:0|0:0|0:0|0:0|0:0|0:0|0:0|0:0|0:0,0:0:0:0:
444,166,190513,6,0,B|396:128|330:153|314:203|314:203|323:212|323:212|319:285|233:320|178:258,1,345,8|0,0:1|0:0,0:0:0:0:
132,92,190861,2,0,B|191:82|191:82|188:145,1,115,0|0,0:0|0:0,0:0:0:0:
26,333,191036,6,0,B|87:369|87:369|65:253|118:150|214:129,1,345,4|0,0:1|0:0,0:0:0:0:
362,52,191385,2,0,P|219:115|92:-17,1,345,8|0,0:1|0:0,0:0:0:0:
94,0,191734,1,4,0:1:0:0:
14,200,191908,6,0,P|-35:120|56:129,1,230,8|0,0:1|0:0,0:0:0:0:
211,265,192431,5,2,0:0:0:0:
196,274,192518,1,2,0:0:0:0:
166,342,192606,2,0,P|172:284|189:127,1,206.999993682861,4|0,0:1|0:0,0:0:0:0:
185,54,192954,2,0,B|186:19|186:19|202:61,1,68.9999978942872,0|0,0:0|0:0,0:0:0:0:
350,119,193129,2,0,B|385:120|385:120|343:136,1,68.9999978942872,0|0,0:0|0:0,0:0:0:0:
185,54,193303,6,0,B|267:41|308:151|234:123|274:226|366:213,1,276,8|8,0:1|0:1,0:0:0:0:
365,213,193652,1,0,0:0:0:0:
43,159,193827,6,0,P|184:146|355:131,1,310.499990524292,8|0,0:1|0:0,0:0:0:0:
438,106,194175,2,0,P|460:-17|349:40,1,310.499990524292,8|0,0:1|0:0,0:0:0:0:
287,316,194524,1,2,0:0:0:0:
272,331,194611,1,2,0:0:0:0:
197,308,194699,6,0,P|255:214|365:213,1,230,8|2,0:1|0:0,0:0:0:0:
432,299,194960,2,0,B|408:319|408:319|292:260|357:117,1,253.000007720947,8|2,0:1|0:0,0:0:0:0:
385,44,195222,2,0,P|431:21|423:71,1,126.500003860474,8|0,0:1|0:0,0:0:0:0:
43,159,195396,5,4,0:1:0:0:
43,159,195571,2,0,P|100:153|157:148,1,115,0|0,0:0|0:0,0:0:0:0:
364,212,195745,6,0,B|337:222|325:239|325:239|323:220|299:193,1,92,0|0,0:0|0:0,0:0:0:0:
261,27,196094,6,0,B|200:31|176:99|208:140|208:140|216:138|216:138|283:210|252:299|204:309|204:309|248:286|253:182|339:200,1,517.499984207154,8|0,0:1|0:0,0:0:0:0:
406,349,196617,2,0,B|527:294|563:437|407:420|490:262|361:270|307:280,1,310.499990524292,8|0,0:1|0:0,0:0:0:0:
161,381,196966,2,0,P|113:345|135:296,1,103.499996841431,8|0,0:1|0:0,0:0:0:0:
435,104,197141,6,0,B|512:47|366:-55|318:101|361:148,1,241.499992630005,4|0,0:1|0:0,0:0:0:0:
437,192,197489,6,0,B|318:125|222:266|349:257|253:396|104:299,1,402.5,8|0,0:1|0:0,0:0:0:0:
76,157,198187,6,0,P|173:151|195:251,1,206.999993682861,4|0,0:1|0:0,0:0:0:0:
58,377,198536,1,2,0:0:0:0:
29,348,198623,1,2,0:0:0:0:
33,306,198711,1,2,0:0:0:0:
373,260,198885,6,0,L|387:180,1,80.499997543335,8|0,0:1|0:0,0:0:0:0:
287,250,199059,2,0,L|303:159,1,92,2|0,0:0|0:0,0:0:0:0:
199,241,199234,2,0,L|217:139,1,103.499996841431,0|2,0:0|0:0,0:0:0:0:
477,50,199408,5,2,0:0:0:0:
216,139,199582,1,0,0:0:0:0:
211,133,199669,1,0,0:0:0:0:
213,56,199757,2,0,B|175:52|155:26|155:26|166:57|150:85,1,126.500003860474,8|0,0:1|0:0,0:0:0:0:
97,175,199931,6,0,P|170:162|337:162,1,206.999993682861,4|0,0:1|0:0,0:0:0:0:
386,180,200280,2,0,P|447:148|417:118,1,92,8|0,0:1|0:0,0:0:0:0:
295,61,200454,5,0,0:0:0:0:
295,61,200629,5,0,0:0:0:0:
374,92,200745,5,0,0:0:0:0:
362,8,200861,5,0,0:0:0:0:
308,142,200978,2,0,L|301:160,1,17.25,2|0,0:1|0:0,0:0:0:0:
382,220,201327,6,0,B|423:182|423:182|230:215,1,241.499992630005,4|0,0:1|0:0,0:0:0:0:
39,189,201675,6,0,P|45:142|130:140,1,115,8|0,0:1|0:0,0:0:0:0:
111,126,201850,2,0,P|146:208|50:378,1,241.499992630005,2|0,0:0|0:0,0:0:0:0:
301,158,202199,6,0,B|361:151|361:151|283:196,1,115,8|0,0:1|0:0,0:0:0:0:
241,214,202373,2,0,P|252:134|276:51,1,138,2|0,0:0|0:0,0:0:0:0:
376,316,202548,6,0,B|423:353|423:353|336:330,1,115,8|0,0:1|0:0,0:0:0:0:
194,304,202722,2,0,B|178:316|162:341|162:341|252:295|345:315,1,184,2|4,0:0|0:1,0:0:0:0:
498,265,202984,6,0,B|488:270|487:286|487:286|497:283|500:266,1,46,0|0,0:0|0:0,0:0:0:0:
508,264,203071,2,0,B|492:330|430:315|430:315|399:308|399:308|363:238|363:238|359:242|359:242|377:224|377:224|381:226|381:226|399:208|399:208|406:210|406:210|446:104|327:66|327:66|385:93|382:161,1,563.499982803345,8|0,0:1|0:0,0:0:0:0:
184,207,203768,6,0,B|143:240|143:240|272:219,1,184,6|0,0:1|0:0,0:0:0:0:
298,143,204030,5,2,0:1:0:0:
298,143,204117,1,0,0:0:0:0:
272,219,204292,5,2,0:1:0:0:
272,219,204379,1,0,0:0:0:0:
347,208,204466,6,0,B|382:208|430:235|430:235|306:237|157:334,1,362.249988945008,8|2,0:1|0:0,0:0:0:0:
116,373,204815,2,0,B|91:348|91:348|97:315,1,68.9999978942872,0|2,0:0|0:0,0:0:0:0:
491,291,204989,5,8,0:1:0:0:
491,291,205164,2,0,P|509:236|502:168,1,86.2500032901765,0|0,0:0|0:0,0:0:0:0:
440,53,205338,6,0,B|429:29|432:-5|432:-5|444:31|463:55,1,115,8|0,0:1|0:0,0:0:0:0:
480,121,205513,1,0,0:0:0:0:
480,121,205687,5,2,0:0:0:0:
459,148,205774,1,2,0:0:0:0:
395,198,205861,2,0,L|281:185,1,115,8|0,0:1|0:0,0:0:0:0:
182,123,206036,1,2,0:0:0:0:
114,92,206123,2,0,L|0:105,1,115,8|0,0:1|0:0,0:0:0:0:
206,202,206298,5,2,0:0:0:0:
206,202,206385,1,8,0:1:0:0:
174,298,206559,5,4,0:1:0:0:
174,298,206908,6,0,P|313:136|512:57,1,431.25,0|0,0:0|0:0,0:0:0:0:
512,47,207257,6,0,B|535:67|535:67|510:214|510:214|481:223,1,206.999993682861,8|0,0:1|0:0,0:0:0:0:
291,54,207606,5,2,0:0:0:0:
281,43,207693,1,0,0:0:0:0:
269,33,207780,2,0,B|248:58|248:58|288:40|361:39,1,115,8|0,0:1|0:0,0:0:0:0:
407,236,207954,5,2,0:0:0:0:
297,132,208129,2,0,B|264:134|264:134|305:150|357:201,1,115,8|0,0:1|0:0,0:0:0:0:
376,336,208303,6,0,B|419:379|371:416|280:314|355:210|454:200,1,241.499992630005,4|0,0:1|0:0,0:0:0:0:
478,30,208652,6,0,P|490:22|478:26,1,40.25,8|0,0:1|0:0,0:0:0:0:
512,113,209350,5,6,0:1:0:0:
498,111,209437,2,0,P|473:120|453:135,1,51.7499984207154,0|0,0:0|0:0,0:0:0:0:
408,205,209611,1,0,0:0:0:0:
409,212,209699,5,2,0:0:0:0:
363,146,209786,1,2,0:0:0:0:
287,128,209873,2,0,B|275:158|275:158|296:186,1,63.2500019302369,2|0,0:0|0:0,0:0:0:0:
454,317,210048,6,0,B|486:296|504:298|504:298|472:288|437:312,1,115,8|0,0:1|0:0,0:0:0:0:
370,285,210222,2,0,P|292:266|212:260,1,160.99999508667,2|0,0:0|0:0,0:0:0:0:
40,309,210484,5,2,0:0:0:0:
31,315,210571,1,2,0:0:0:0:
123,256,210745,6,0,B|138:271|129:293|129:293|112:276|117:257,1,80.499997543335,2|0,0:1|0:0,0:0:0:0:
117,74,210920,6,0,B|129:38|165:34|165:34|144:46|132:70,1,115,8|0,0:1|0:0,0:0:0:0:
105,163,211094,1,4,0:1:0:0:
105,163,211443,6,0,P|207:189|254:242,1,137.999995788574,8|0,0:1|0:0,0:0:0:0:
266,284,211704,1,0,0:0:0:0:
266,284,211792,1,2,0:0:0:0:
266,284,211966,6,0,P|297:275|329:281,1,43.1250016450883,0|0,1:0|0:0,0:0:0:0:
299,355,212141,5,2,0:1:0:0:
299,355,212489,2,0,B|364:307|338:218|322:267|280:189|343:128,1,241.499992630005,0|0,1:0|0:0,0:0:0:0:
394,82,212838,2,0,P|409:56|409:98,1,115,8|0,0:1|0:0,0:0:0:0:
190,76,213013,6,0,P|256:67|404:211,1,276,2|0,0:0|0:0,0:0:0:0:
472,246,213361,6,0,B|535:265|535:265|338:296,1,241.499992630005,4|0,0:1|0:0,0:0:0:0:
299,355,213710,2,0,B|260:311|260:311|280:259,1,115,8|0,0:1|0:0,0:0:0:0:
190,76,213885,1,4,0:1:0:0:
190,76,213972,1,0,0:0:0:0:
190,76,214059,1,0,1:0:0:0:
190,76,214234,6,0,B|139:218|357:294|356:149|293:130,1,321.99999017334,8|0,0:1|0:0,0:0:0:0:
339,17,214757,2,0,B|360:-10|360:-10|351:40,1,80.499997543335,0|0,0:0|0:0,0:0:0:0:
408,97,214931,6,0,B|314:163|233:51|318:68|229:-51|130:13,1,321.99999017334,4|0,0:1|0:0,0:0:0:0:
310,292,215454,1,2,0:1:0:0:
310,292,215629,2,0,B|312:330|280:348|280:348|290:323|288:291,1,115,8|0,0:1|0:0,0:0:0:0:
132,24,215803,5,2,0:0:0:0:
190,76,215891,2,0,P|202:190|211:304,1,230,2|2,0:0|0:0,0:0:0:0:
211,304,216152,1,8,0:1:0:0:
19,182,216327,5,2,0:0:0:0:
24,173,216414,1,0,0:0:0:0:
1,103,216501,2,0,P|51:96|86:132,1,103.499996841431,8|0,0:1|0:0,0:0:0:0:
104,242,216675,2,0,P|155:226|224:214,1,103.499996841431,0|0,0:0|0:0,0:0:0:0:
481,95,216850,1,2,0:0:0:0:
481,95,216937,1,2,0:0:0:0:
481,95,217024,6,0,B|433:79|394:125|404:169|404:169|415:213|369:258|319:233,1,253.000007720947,8|2,0:1|0:0,0:0:0:0:
193,116,217286,2,0,P|226:53|258:164,1,253.000007720947,8|2,0:1|0:0,0:0:0:0:
334,336,217548,2,0,P|285:347|262:278,1,126.500003860474,8|0,0:1|0:0,0:0:0:0:
132,24,217722,5,6,0:1:0:0:
132,24,218071,2,0,P|183:175|122:359,1,345,0|0,1:0|0:0,0:0:0:0:
54,383,218420,2,0,B|-5:386|-5:386|64:356,1,115,8|0,0:1|0:0,0:0:0:0:
334,336,218594,6,0,B|262:365|192:290|267:293|212:206|130:238,1,241.499992630005,2|0,0:0|0:0,0:0:0:0:
69,276,218943,6,0,L|340:255,1,241.499992630005,8|0,0:1|0:0,0:0:0:0:
390,275,219292,2,0,B|402:235|402:235|373:204,1,80.499997543335,8|0,0:1|0:0,0:0:0:0:
278,66,219466,6,0,B|272:8|347:-21|384:45|346:92,1,172.5,4|0,0:1|0:0,0:0:0:0:
145,233,219815,6,0,B|197:183|185:80|185:80|208:142|263:155,1,276,8|0,0:1|0:0,0:0:0:0:
480,96,220164,2,0,P|487:142|444:158,1,92,2|0,0:1|0:0,0:0:0:0:
440,154,220338,2,0,P|433:108|476:92,1,92,0|0,0:0|0:0,0:0:0:0:
390,275,220513,6,0,P|349:266|397:268,2,172.5,4|0|0,0:1|0:0|0:0,0:0:0:0:
233,351,221211,6,0,B|300:296|245:197|131:230|150:328,2,258.75000987053,0|0|0,0:0|0:0|0:0,0:0:0:0:
76,167,221909,6,0,P|38:164|84:175,2,206.999993682861,0|0|0,0:0|0:0|0:0,0:0:0:0:
26,54,222606,6,0,P|75:50|28:33,2,138,0|0|0,0:0|0:0|0:0,0:0:0:0:
