osu file format v14

[General]
AudioFilename: audio.mp3
AudioLeadIn: 0
PreviewTime: 44781
Countdown: 1
SampleSet: Soft
StackLeniency: 0.7
Mode: 0
LetterboxInBreaks: 0
WidescreenStoryboard: 0

[Editor]
Bookmarks: 478,22455,44781,67106,89432,111757,134083,156409,178734,198269,220595,242920,245711
DistanceSpacing: 0.8
BeatDivisor: 4
GridSize: 16
TimelineZoom: 2.4

[Metadata]
Title:Hydraulic
TitleUnicode:Hydraulic
Artist:Culprate & Signal
ArtistUnicode:Culprate & Signal
Creator:DeviousPanda
Version:Thermatomic Compression
Source:osu!
Tags:
BeatmapID:1932961
BeatmapSetID:925357

[Difficulty]
HPDrainRate:4
CircleSize:4.3
OverallDifficulty:9
ApproachRate:9.3
SliderMultiplier:2.8
SliderTickRate:1

[Events]
//Background and Video events
0,0,"aaaa.jpg",0,0
//Break Periods
2,12190,41087
2,74544,245157
//Storyboard Layer 0 (Background)
//Storyboard Layer 1 (Fail)
//Storyboard Layer 2 (Pass)
//Storyboard Layer 3 (Foreground)
//Storyboard Sound Samples

[TimingPoints]
130,348.837209302326,4,2,1,40,1,0
130,-250,4,2,1,40,0,0
566,-250,4,2,1,5,0,0
740,-250,4,2,1,40,0,0
827,-250,4,2,1,5,0,0
1176,-250,4,2,1,40,0,0
1263,-250,4,2,1,5,0,0
1350,-250,4,2,1,40,0,0
1437,-250,4,2,1,5,0,0
1525,-250,4,2,1,40,0,0
1612,-250,4,2,1,5,0,0
1874,-250,4,2,1,40,0,0
1961,-250,4,2,1,5,0,0
2135,-250,4,2,1,40,0,0
2222,-250,4,2,1,5,0,0
2571,-250,4,2,1,40,0,0
2658,-250,4,2,1,5,0,0
2745,-125,4,2,1,40,0,0
2832,-250,4,2,1,5,0,0
2920,-250,4,2,1,40,0,0
3007,-250,4,2,1,5,0,0
3269,-250,4,2,1,40,0,0
3356,-250,4,2,1,5,0,0
3530,-250,4,2,1,40,0,0
3617,-250,4,2,1,5,0,0
3967,-250,4,2,1,40,0,0
4054,-250,4,2,1,5,0,0
4141,-250,4,2,1,40,0,0
4228,-250,4,2,1,5,0,0
4316,-250,4,2,1,40,0,0
4403,-250,4,2,1,5,0,0
4664,-250,4,2,1,40,0,0
4751,-250,4,2,1,5,0,0
4925,-250,4,2,1,40,0,0
5012,-250,4,2,1,5,0,0
5362,-250,4,2,1,40,0,0
5449,-250,4,2,1,5,0,0
5536,-250,4,2,1,40,0,0
5623,-250,4,2,1,5,0,0
5711,-250,4,2,1,40,0,0
5798,-250,4,2,1,5,0,0
6060,-250,4,2,1,40,0,0
6147,-250,4,2,1,5,0,0
6321,-250,4,2,1,40,0,0
6408,-250,4,2,1,5,0,0
6757,-250,4,2,1,40,0,0
6844,-250,4,2,1,5,0,0
6931,-250,4,2,1,40,0,0
7018,-250,4,2,1,5,0,0
7106,-250,4,2,1,40,0,0
7193,-250,4,2,1,5,0,0
7455,-250,4,2,1,40,0,0
7542,-250,4,2,1,5,0,0
7716,-250,4,2,1,40,0,0
7803,-250,4,2,1,5,0,0
8153,-250,4,2,1,40,0,0
8240,-250,4,2,1,5,0,0
8327,-125,4,2,1,40,0,0
8414,-250,4,2,1,5,0,0
8502,-250,4,2,1,40,0,0
8589,-250,4,2,1,5,0,0
8851,-250,4,2,1,40,0,0
8938,-250,4,2,1,5,0,0
9112,-250,4,2,1,40,0,0
9199,-250,4,2,1,5,0,0
9286,-250,4,2,1,40,0,0
9548,-250,4,2,1,40,0,0
9635,-250,4,2,1,5,0,0
9722,-250,4,2,1,40,0,0
9809,-250,4,2,1,5,0,0
9897,-250,4,2,1,40,0,0
9984,-250,4,2,1,5,0,0
10246,-250,4,2,1,40,0,0
10333,-250,4,2,1,5,0,0
10507,-250,4,2,1,40,0,0
10594,-250,4,2,1,5,0,0
10943,-250,4,2,1,40,0,0
11031,-250,4,2,1,5,0,0
11118,-250,4,2,1,40,0,0
11205,-250,4,2,1,5,0,0
11292,-250,4,2,1,40,0,0
41728,-200,4,2,1,80,0,0
44781,-57.1428571428571,4,2,1,80,0,0
45130,-133.333333333333,4,2,1,80,0,0
45391,-79.9999999999999,4,2,1,80,0,0
45566,-100,4,2,1,80,0,0
45827,-133.333333333333,4,2,1,80,0,0
46089,-333.333333333333,4,2,1,80,0,0
46263,-100,4,2,1,80,0,0
46525,-133.333333333333,4,2,1,80,0,0
46786,-100,4,2,1,80,0,0
47048,-80,4,2,1,80,0,0
47223,-133.333333333333,4,2,1,80,0,0
47571,-57.1428571428571,4,2,1,80,0,0
47920,-133.333333333333,4,2,1,80,0,0
48182,-79.9999999999999,4,2,1,80,0,0
48356,-100,4,2,1,80,0,0
48618,-133.333333333333,4,2,1,80,0,0
48880,-333.333333333333,4,2,1,80,0,0
49054,-100,4,2,1,80,0,0
49316,-133.333333333333,4,2,1,80,0,0
49664,-79.9999999999999,4,2,1,80,0,0
50013,-500,4,2,1,80,0,0
50362,-66.6666666666667,4,2,1,80,0,0
50711,-133.333333333333,4,2,1,80,0,0
50973,-79.9999999999999,4,2,1,80,0,0
51234,-66.6666666666667,4,2,1,80,0,0
51496,-500,4,2,1,80,0,0
51757,-79.9999999999999,4,2,1,80,0,0
52106,-133.333333333333,4,2,1,80,0,0
52368,-79.9999999999999,4,2,1,80,0,0
52630,-66.6666666666667,4,2,1,80,0,0
52891,-133.333333333333,4,2,1,80,0,0
53153,-66.6666666666667,4,2,1,80,0,0
53502,-133.333333333333,4,2,1,80,0,0
53763,-79.9999999999999,4,2,1,80,0,0
54025,-66.6666666666667,4,2,1,80,0,0
54286,-500,4,2,1,80,0,0
54548,-500,4,2,1,80,0,0
55246,-166.666666666667,4,2,1,80,0,0
55595,-66.6666666666667,4,2,1,80,0,0
55943,-57.1428571428571,4,2,1,80,0,0
56292,-133.333333333333,4,2,1,80,0,0
56554,-80,4,2,1,80,0,0
56728,-100,4,2,1,80,0,0
56990,-133.333333333333,4,2,1,80,0,0
57252,-333.333333333333,4,2,1,80,0,0
57426,-100,4,2,1,80,0,0
57688,-133.333333333333,4,2,1,80,0,0
57949,-100,4,2,1,80,0,0
58211,-80,4,2,1,80,0,0
58385,-133.333333333333,4,2,1,80,0,0
58734,-57.1428571428571,4,2,1,80,0,0
59083,-133.333333333333,4,2,1,80,0,0
59519,-100,4,2,1,80,0,0
59781,-133.333333333333,4,2,1,80,0,0
60042,-333.333333333333,4,2,1,80,0,0
60217,-100,4,2,1,80,0,0
60478,-133.333333333333,4,2,1,80,0,0
60827,-79.9999999999999,4,2,1,80,0,0
61176,-500,4,2,1,80,0,0
61525,-66.6666666666667,4,2,1,80,0,0
61874,-133.333333333333,4,2,1,80,0,0
62135,-79.9999999999999,4,2,1,80,0,0
62310,-66.6666666666667,4,2,1,80,0,0
62659,-500,4,2,1,80,0,0
62920,-80,4,2,1,80,0,0
63269,-133.333333333333,4,2,1,80,0,0
63531,-80,4,2,1,80,0,0
63792,-66.6666666666667,4,2,1,80,0,0
64054,-133.333333333333,4,2,1,80,0,0
64316,-66.6666666666667,4,2,1,80,0,0
64664,-133.333333333333,4,2,1,80,0,0
64926,-80,4,2,1,80,0,0
65100,-66.6666666666667,4,2,1,80,0,0
65449,-500,4,2,1,80,0,0
65885,-80,4,2,1,80,0,0
66060,-100,4,2,1,80,0,0
66321,-66.6666666666667,4,2,1,80,0,0
66757,-1000,4,2,1,80,0,0
67106,-66.6666666666667,4,2,1,80,0,0
67455,-100,4,2,1,80,0,0
67804,-285.714285714284,4,2,1,80,0,0
68850,-399.999999999997,4,2,1,80,0,0
69112,-666.666666666658,4,2,1,80,0,0
69548,-1000,4,2,1,80,0,0
69897,-80,4,2,1,80,0,0
70246,-100,4,2,1,80,0,0
70595,-285.714285714284,4,2,1,80,0,0
71641,-200,4,2,1,80,0,0
71990,-100,4,2,1,80,0,0
72339,-1000,4,2,1,80,0,0
72688,-66.6666666666667,4,2,1,80,0,0
73036,-133.333333333333,4,2,1,80,0,0
73298,-80,4,2,1,80,0,0
73560,-66.6666666666667,4,2,1,80,0,0
73821,-500,4,2,1,80,0,0
74083,-80,4,2,1,80,0,0
245362,-33.3333333333333,4,2,1,80,0,0
255478,-500,4,2,1,5,0,0

[Colours]
Combo1 : 91,1,139
Combo2 : 36,111,132

[HitObjects]
25,240,130,5,0,0:0:0:0:
6,322,478,6,0,L|-1:360,1,28
14,335,740,2,0,L|7:373,1,28
113,240,1176,6,0,L|106:202,1,28
121,227,1350,2,0,L|114:189,1,28
129,214,1525,2,0,L|122:176,1,28
88,320,1874,6,0,L|81:358,1,28
96,333,2136,2,0,L|89:371,1,28
205,211,2571,6,0,L|198:173,1,28
200,143,2745,2,0,L|213:198,1,56
221,185,2920,2,0,L|214:147,1,28
185,313,3269,6,0,L|178:351,1,28
193,326,3531,2,0,L|186:364,1,28
295,181,3967,6,0,L|288:143,1,28
303,168,4141,2,0,L|296:130,1,28
311,155,4316,2,0,L|304:117,1,28
275,291,4664,6,0,L|268:329,1,28
283,304,4926,2,0,L|276:342,1,28
451,251,5362,6,0,L|413:244,1,28
438,259,5536,2,0,L|400:252,1,28
425,267,5711,2,0,L|387:260,1,28
464,354,6060,6,0,L|501:347,1,28
476,362,6322,2,0,L|514:355,1,28
385,182,6757,6,0,L|347:175,1,28
372,190,6931,2,0,L|334:183,1,28
359,198,7106,2,0,L|321:191,1,28
346,335,7455,6,0,L|383:328,1,28
358,343,7717,2,0,L|396:336,1,28
310,117,8153,6,0,L|272:110,1,28
241,115,8327,2,0,L|297:125,1,56
284,133,8502,2,0,L|246:126,1,28
212,300,8851,6,0,L|249:293,1,28
224,308,9113,2,0,L|262:301,1,28
326,290,9286,1,4,0:0:0:0:
220,41,9548,6,0,L|182:34,1,28
207,49,9722,2,0,L|169:42,1,28
194,57,9897,2,0,L|156:50,1,28
77,282,10246,6,0,L|114:275,1,28
89,290,10508,2,0,L|127:283,1,28
111,5,10943,6,0,L|73:-2,1,28
98,13,11117,2,0,L|60:6,1,28
0,166,11292,5,2,0:0:0:0:
244,32,11641,6,0,L|251:69,1,28
236,43,11903,2,0,L|243:81,1,28
36,138,41641,5,0,0:0:0:0:
41,152,41728,2,0,L|36:174,6,17.5
256,192,42164,12,0,44606,0:0:0:0:
475,209,44781,6,0,B|559:114|542:11|448:-56|344:52|410:128,1,367.500003504753,2|0,0:0|0:0,0:0:0:0:
480,224,45130,6,0,B|435:216|435:216|438:220|438:220|356:205,1,105.000004005432,8|0,0:0|0:0,0:0:0:0:
290,184,45391,2,0,L|398:204,1,87.5,2|0,0:0|0:0,0:0:0:0:
415,365,45566,6,0,P|372:292|275:299,1,140,2|0,0:0|0:0,0:0:0:0:
290,348,45827,2,0,P|365:341|399:282,1,105.000004005432,8|0,0:0|0:0,0:0:0:0:
141,378,46176,5,2,0:0:0:0:
152,370,46263,2,0,B|162:305|162:305|170:293|170:293|182:203,1,140,2|0,0:0|0:0,0:0:0:0:
82,331,46525,2,0,B|91:282|91:282|97:273|97:273|104:229,1,105.000004005432,8|0,0:0|0:0,0:0:0:0:
212,173,46786,6,0,B|172:138|172:138|71:162,1,140,2|0,0:0|0:0,0:0:0:0:
129,77,47048,2,0,B|96:96|96:96|68:180,1,87.5,2|0,0:0|0:0,0:0:0:0:
22,213,47223,6,0,L|31:243,4,26.2500010013581,8|0|0|0|0,0:0|0:0|0:0|0:0|0:0,0:0:0:0:
475,175,47571,6,0,B|559:269|542:372|448:440|344:331|410:255,1,367.500003504753,2|0,0:0|0:0,0:0:0:0:
479,161,47920,6,0,L|409:167,1,52.5000020027161,8|0,0:0|0:0,0:0:0:0:
317,174,48095,1,2,0:0:0:0:
330,182,48182,2,0,L|440:175,1,87.5,2|0,0:0|0:0,0:0:0:0:
512,12,48356,6,0,P|491:56|401:69,1,140,2|0,0:0|0:0,0:0:0:0:
263,58,48618,2,0,P|314:64|343:107,1,105.000004005432,8|0,0:0|0:0,0:0:0:0:
174,24,48967,5,2,0:0:0:0:
187,33,49054,2,0,B|194:95|194:95|205:110|205:110|214:181,1,140,2|0,0:0|0:0,0:0:0:0:
122,89,49316,2,0,B|126:119|126:119|136:137|136:137|142:179,2,78.7500030040742,8|2|2,0:0|0:0|0:0,0:0:0:0:
2,177,49664,5,2,0:0:0:0:
27,239,49752,2,0,P|63:209|54:138,1,87.5,2|0,0:0|0:0,0:0:0:0:
71,33,49926,5,2,0:0:0:0:
60,44,50013,2,0,L|17:38,1,42,10|0,0:0|0:0,0:0:0:0:
149,329,50362,6,0,B|75:305|90:194|207:154|232:289|268:299|349:238,1,315.000012016297,2|0,0:0|0:0,0:0:0:0:
318,142,50711,2,0,B|311:192|311:192|315:202|315:202|306:270,1,105.000004005432,8|0,0:0|0:0,0:0:0:0:
128,330,50973,6,0,P|102:278|141:216,1,87.5,2|0,0:0|0:0,0:0:0:0:
160,199,51147,1,4,0:0:0:0:
198,357,51234,2,0,P|149:363|101:305,1,105.000004005432,2|0,0:0|0:0,0:0:0:0:
174,232,51409,5,12,0:0:0:0:
179,243,51496,2,0,L|173:281,1,28,2|0,0:0|0:0,0:0:0:0:
325,269,51757,6,0,B|319:157|319:157|329:141|329:141|318:-26,1,262.5,2|0,0:0|0:0,0:0:0:0:
399,115,52106,2,0,B|400:156|400:156|391:176|391:176|394:229,1,105.000004005432,8|0,0:0|0:0,0:0:0:0:
205,142,52368,6,0,P|238:115|223:40,1,87.5,2|0,0:0|0:0,0:0:0:0:
203,15,52542,1,4,0:0:0:0:
131,157,52630,2,0,P|180:171|246:113,1,105.000004005432,2|0,0:0|0:0,0:0:0:0:
118,56,52804,5,12,0:0:0:0:
130,50,52891,2,0,B|161:68|161:68|55:85,1,105.000004005432,2|0,0:0|0:0,0:0:0:0:
90,281,53153,6,0,B|118:226|118:226|0:210|0:210|36:377,1,315.000012016297,2|0,0:0|0:0,0:0:0:0:
120,359,53502,2,0,B|74:353|74:353|67:360|67:360|8:352,1,105.000004005432,8|0,0:0|0:0,0:0:0:0:
194,299,53763,6,0,P|198:254|279:236,1,87.5,2|0,0:0|0:0,0:0:0:0:
303,223,53938,1,4,0:0:0:0:
262,363,54025,2,0,P|201:342|184:279,1,105.000004005432,2|0,0:0|0:0,0:0:0:0:
370,248,54199,5,12,0:0:0:0:
377,236,54286,2,0,L|372:205,1,28,2|0,0:0|0:0,0:0:0:0:
354,33,54548,5,2,0:0:0:0:
510,0,54897,6,0,L|508:9,6,7
488,80,55246,6,0,L|485:95,9,13.9999995727539
461,186,55595,6,0,L|451:222,12,26.2500010013581,8|0|0|0|0|0|0|0|0|0|0|0|0,0:0|0:0|0:0|0:0|0:0|0:0|0:0|0:0|0:0|0:0|0:0|0:0|0:0,0:0:0:0:
417,314,55943,6,0,B|470:316|482:273|482:273|444:211|358:207|318:338|206:222,1,367.500003504753,2|0,0:0|0:0,0:0:0:0:
221,127,56292,6,0,B|216:174|216:174|221:188|221:188|212:250,1,105.000004005432,8|0,0:0|0:0,0:0:0:0:
192,307,56554,2,0,L|205:220,1,87.5,2|0,0:0|0:0,0:0:0:0:
359,42,56728,6,0,P|313:62|334:174,1,140,2|0,0:0|0:0,0:0:0:0:
346,240,56990,2,0,P|337:190|270:159,1,105.000004005432,8|0,0:0|0:0,0:0:0:0:
290,175,57252,1,2,0:0:0:0:
488,128,57339,5,2,0:0:0:0:
498,118,57426,2,0,B|437:111|437:111|425:120|425:120|340:108,1,140,2|0,0:0|0:0,0:0:0:0:
477,45,57688,2,0,B|425:40|425:40|408:48|408:48|356:41,1,105.000004005432,8|0,0:0|0:0,0:0:0:0:
424,222,57949,6,0,B|457:191|457:191|466:309,1,140,2|0,0:0|0:0,0:0:0:0:
501,251,58211,2,0,B|525:259|525:259|428:326,1,87.5,2|0,0:0|0:0,0:0:0:0:
495,370,58385,6,0,L|469:366,4,26.2500010013581,8|0|0|0|0,0:0|0:0|0:0|0:0|0:0,0:0:0:0:
137,384,58734,6,0,B|83:386|71:343|71:343|109:281|195:277|235:408|347:292,1,367.500003504753,2|0,0:0|0:0,0:0:0:0:
316,300,59083,6,0,B|319:247,1,52.5000020027161,8|0,0:0|0:0,0:0:0:0:
322,171,59257,1,2,0:0:0:0:
310,184,59345,2,0,L|306:264,1,52.5000020027161,2|0,0:0|0:0,0:0:0:0:
145,212,59519,6,0,P|199:206|242:128,1,140,2|0,0:0|0:0,0:0:0:0:
299,87,59781,2,0,P|279:51|194:35,1,105.000004005432,8|0,0:0|0:0,0:0:0:0:
214,38,60042,1,2,0:0:0:0:
12,159,60130,5,2,0:0:0:0:
18,148,60217,2,0,B|78:143|78:143|92:134|92:134|163:128,1,140,2|0,0:0|0:0,0:0:0:0:
26,75,60478,2,0,B|57:72|57:72|67:66|67:66|121:59,2,78.7500030040742,8|2|2,0:0|0:0|0:0,0:0:0:0:
125,285,60827,5,2,0:0:0:0:
59,264,60914,2,0,P|92:224|132:216,1,87.5,2|0,0:0|0:0,0:0:0:0:
203,378,61089,5,2,0:0:0:0:
214,384,61176,2,0,L|209:358,1,14,10|0,0:0|0:0,0:0:0:0:
199,301,61350,2,0,L|194:275,1,14,2|0,0:0|0:0,0:0:0:0:
339,229,61525,6,0,B|382:234|436:180|412:90|299:80|244:125|233:206,1,315.000012016297,2|0,0:0|0:0,0:0:0:0:
137,206,61874,2,0,B|176:211|176:211|194:207|194:207|251:216,1,105.000004005432,8|0,0:0|0:0,0:0:0:0:
378,123,62135,6,0,P|403:161|397:204,1,87.5,2|0,0:0|0:0,0:0:0:0:
332,235,62310,1,4,0:0:0:0:
279,108,62397,2,0,P|312:92|386:116,1,105.000004005432,2|0,0:0|0:0,0:0:0:0:
396,279,62571,5,12,0:0:0:0:
386,294,62659,2,0,L|390:333,1,28,2|0,0:0|0:0,0:0:0:0:
501,238,62920,6,0,B|374:228|374:228|361:234|361:234|230:224,1,262.5,2|0,0:0|0:0,0:0:0:0:
413,158,63269,2,0,B|367:155|367:155|345:162|345:162|289:157,1,105.000004005432,8|0,0:0|0:0,0:0:0:0:
143,144,63531,6,0,P|174:124|180:55,1,87.5,2|0,0:0|0:0,0:0:0:0:
144,17,63705,1,4,0:0:0:0:
51,162,63792,2,0,P|94:173|179:127,1,105.000004005432,2|0,0:0|0:0,0:0:0:0:
44,31,63967,5,12,0:0:0:0:
38,45,64054,2,0,B|57:84|57:84|72:-4,1,105.000004005432,2|0,0:0|0:0,0:0:0:0:
314,75,64316,6,0,B|278:15|278:15|263:138|263:138|282:162|282:162|269:271,1,315.000012016297,2|0,0:0|0:0,0:0:0:0:
260,349,64664,2,0,B|266:303|266:303|278:292|278:292|285:241,1,105.000004005432,8|0,0:0|0:0,0:0:0:0:
412,114,64926,6,0,P|382:150|384:188,1,87.5,2|0,0:0|0:0,0:0:0:0:
452,227,65100,1,4,0:0:0:0:
499,98,65188,2,0,P|448:86|384:121,1,105.000004005432,2|0,0:0|0:0,0:0:0:0:
506,315,65362,5,12,0:0:0:0:
512,304,65449,2,0,L|507:271,1,28,2|0,0:0|0:0,0:0:0:0:
497,83,65711,5,2,0:0:0:0:
311,153,65885,6,0,B|278:149|278:149|263:153|263:153|194:145,1,87.5,4|0,0:0|0:0,0:0:0:0:
338,164,66060,2,0,B|278:158|278:158|262:162|262:162|163:147,1,140,8|0,0:0|0:0,0:0:0:0:
171,319,66321,6,0,P|152:245|51:251,1,105.000004005432,2|0,0:0|0:0,0:0:0:0:
104,362,66496,2,0,P|182:329|192:273,1,105.000004005432,4|0,0:0|0:0,0:0:0:0:
52,234,66670,5,2,0:0:0:0:
46,249,66757,2,0,L|50:272,1,21,8|0,0:0|0:0,0:0:0:0:
439,296,67106,6,0,B|323:304|323:304|299:287|299:287|225:294|225:294|210:315|210:315|122:327,1,315.000012016297,2|0,0:0|0:0,0:0:0:0:
324,289,67455,2,0,B|300:273|300:273|218:280|218:280|188:308,1,140,8|0,0:0|0:0,0:0:0:0:
270,362,67717,5,2,0:0:0:0:
271,372,67804,2,0,L|272:391,6,12.2499996261597,2|0|0|0|0|0|0,0:0|0:0|0:0|0:0|0:0|0:0|0:0,0:0:0:0:
261,221,68153,2,0,L|262:234,6,12.2499996261597,8|0|0|0|0|0|0,0:0|0:0|0:0|0:0|0:0|0:0|0:0,0:0:0:0:
381,198,68502,6,0,L|374:208,6,12.2499996261597,2|0|0|0|0|0|0,0:0|0:0|0:0|0:0|0:0|0:0|0:0,0:0:0:0:
448,275,68850,2,0,L|439:277,4,8.75,8|0|0|0|0,0:0|0:0|0:0|0:0|0:0,0:0:0:0:
445,354,69112,5,2,0:0:0:0:
434,351,69199,2,0,L|426:349,6,5.24999983978272,2|0|0|0|0|0|0,0:0|0:0|0:0|0:0|0:0|0:0|0:0,0:0:0:0:
367,384,69548,2,0,L|366:379,6,3.5,8|0|0|0|0|0|0,0:0|0:0|0:0|0:0|0:0|0:0|0:0,0:0:0:0:
156,233,69897,6,0,B|183:270|183:270|193:191|193:191|205:176|205:176|212:107|212:107|206:90|206:90|213:40,1,262.5,2|0,0:0|0:0,0:0:0:0:
218,212,70246,2,0,B|234:191|234:191|243:106|243:106|229:68,1,140,8|0,0:0|0:0,0:0:0:0:
139,139,70507,5,2,0:0:0:0:
126,137,70595,2,0,L|105:136,6,12.2499996261597,2|0|0|0|0|0|0,0:0|0:0|0:0|0:0|0:0|0:0|0:0,0:0:0:0:
315,151,70943,2,0,L|327:151,6,12.2499996261597,8|0|0|0|0|0|0,0:0|0:0|0:0|0:0|0:0|0:0|0:0,0:0:0:0:
287,254,71292,6,0,L|294:263,6,12.2499996261597,2|0|0|0|0|0|0,0:0|0:0|0:0|0:0|0:0|0:0|0:0,0:0:0:0:
199,277,71641,2,0,P|195:307|202:331,2,52.5,8|2|2,0:0|0:0|0:0,0:0:0:0:
125,248,71990,5,2,0:0:0:0:
120,234,72077,2,0,P|84:263|80:308,1,70,2|0,0:0|0:0,0:0:0:0:
141,166,72252,5,2,0:0:0:0:
130,159,72339,2,0,L|107:162,1,21,10|0,0:0|0:0,0:0:0:0:
73,58,72688,6,0,B|154:4|220:71|213:79|208:87|268:168|357:95,1,315.000012016297,2|0,0:0|0:0,0:0:0:0:
365,4,73036,2,0,B|367:43|367:43|360:62|360:62|365:115,1,105.000004005432,8|0,0:0|0:0,0:0:0:0:
324,264,73298,6,0,P|329:217|365:188,1,87.5,2|0,0:0|0:0,0:0:0:0:
430,195,73473,1,4,0:0:0:0:
378,338,73560,2,0,P|327:315|310:254,1,105.000004005432,2|0,0:0|0:0,0:0:0:0:
481,255,73734,5,12,0:0:0:0:
487,272,73821,2,0,L|481:311,1,28,2|0,0:0|0:0,0:0:0:0:
242,363,74083,6,0,B|234:252|234:252|246:232|246:232|235:77,1,262.5,2|0,0:0|0:0,0:0:0:0:
256,192,245711,12,0,255479,0:0:0:0:
