osu file format v14

[General]
AudioFilename: audio.mp3
AudioLeadIn: 0
PreviewTime: 36216
Countdown: 0
SampleSet: Soft
StackLeniency: 0
Mode: 0
LetterboxInBreaks: 0
WidescreenStoryboard: 1

[Editor]
Bookmarks: 11388,22422,44491,55526,77595,99664,110698,121733,143802,165871,187940,210009
DistanceSpacing: 2.4
BeatDivisor: 4
GridSize: 4
TimelineZoom: 1.6

[Metadata]
Title:Mutant
TitleUnicode:Mutant
Artist:Culprate & Roger Wilco
ArtistUnicode:Culprate & Roger Wilco
Creator:Usernametwo
Version:Extra
Source:
Tags:featured artist dubstep dnb neurofunk unity project
BeatmapID:2302261
BeatmapSetID:1029507

[Difficulty]
HPDrainRate:4
CircleSize:4.8
OverallDifficulty:8
ApproachRate:8
SliderMultiplier:1.2
SliderTickRate:1

[Events]
//Background and Video events
0,0,"blackboard-1846865_1280.jpg",0,0
//Break Periods
2,99864,107691
2,144002,147347
//Storyboard Layer 0 (Background)
//Storyboard Layer 1 (Fail)
//Storyboard Layer 2 (Pass)
//Storyboard Layer 3 (Foreground)
//Storyboard Layer 4 (Overlay)
//Storyboard Sound Samples

[TimingPoints]
354,344.827586206897,4,2,0,70,1,0
11388,-133.333333333333,4,2,0,70,0,0
12078,-200,4,2,0,70,0,0
13112,-400,4,2,0,70,0,0
14147,-133.333333333333,4,2,0,70,0,0
14836,-200,4,2,0,70,0,0
15871,-400,4,2,0,70,0,0
16905,-133.333333333333,4,2,0,70,0,0
17595,-200,4,2,0,70,0,0
18629,-400,4,2,0,70,0,0
19664,-133.333333333333,4,2,0,70,0,0
20354,-200,4,2,0,70,0,0
22422,-133.333333333333,4,2,0,80,0,0
25871,-200,4,2,0,80,0,0
27250,-133.333333333333,4,2,0,80,0,0
28629,-200,4,2,0,80,0,0
30698,-133.333333333333,4,2,0,80,0,0
34147,-100,4,2,0,80,0,0
34664,-133.333333333333,4,2,0,80,0,0
36905,-100,4,2,0,80,0,0
37422,-133.333333333333,4,2,0,80,0,0
39664,-100,4,2,0,80,0,0
40181,-133.333333333333,4,2,0,80,0,0
42422,-100,4,2,0,80,0,0
42940,-133.333333333333,4,2,0,80,0,0
44491,-1000,4,2,0,60,0,0
47250,-500,4,2,0,60,0,0
54836,-133.333333333333,4,2,0,80,0,0
55354,-100,4,2,0,80,0,0
55526,-80,4,2,0,100,0,0
56388,-133.333333333333,4,2,0,100,0,0
56647,-100,4,2,0,100,0,0
60612,-200,4,2,0,100,0,0
61043,-133.333333333333,4,2,0,100,0,0
61848,-100,4,2,0,100,0,0
64664,-66.6666666666667,4,2,0,100,0,0
65009,-50,4,2,0,100,0,0
65354,-100,4,2,0,100,0,0
65526,-133.333333333333,4,2,0,100,0,0
66560,-100,4,2,0,100,0,0
66733,-133.333333333333,4,2,0,100,0,0
67767,-80,4,2,0,100,0,0
71043,-133.333333333333,4,2,0,100,0,0
71388,-66.6666666666667,4,2,0,100,0,1
72078,-133.333333333333,4,2,0,100,0,0
73285,-80,4,2,0,100,0,0
74147,-66.6666666666667,4,2,0,100,0,0
74836,-80,4,2,0,100,0,0
75181,-133.333333333333,4,2,0,100,0,0
75440,-100,4,2,0,100,0,0
75641,-133.333333333333,4,2,0,100,0,0
76043,-50,4,2,0,100,0,0
76216,-66.6666666666667,4,2,0,100,0,0
76388,-100,4,2,0,100,0,0
76560,-66.6666666666667,4,2,0,100,0,0
76905,-100,4,2,0,100,0,0
77250,-133.333333333333,4,2,0,100,0,0
77595,-66.6666666666667,4,2,0,100,0,0
78802,-100,4,2,0,100,0,0
80354,-66.6666666666667,4,2,0,100,0,0
81388,-100,4,2,0,100,0,0
83112,-66.6666666666667,4,2,0,100,0,0
83974,-100,4,2,0,100,0,0
85871,-66.6666666666667,4,2,0,100,0,0
86560,-100,4,2,0,100,0,0
88629,-66.6666666666667,4,2,0,100,0,0
89319,-100,4,2,0,100,0,0
91388,-66.6666666666667,4,2,0,100,0,0
92422,-100,4,2,0,100,0,0
93457,-50,4,2,0,100,0,0
93802,-200,4,2,0,100,0,0
94147,-66.6666666666667,4,2,0,100,0,0
95009,-100,4,2,0,100,0,0
95871,-66.6666666666667,4,2,0,100,0,0
96445,-133.333333333333,4,2,0,100,0,0
97595,-50,4,2,0,100,0,0
98629,-80,4,2,0,100,0,0
110698,-133.333333333333,4,2,0,100,0,0
111388,-66.6666666666667,4,2,0,100,0,0
113457,-133.333333333333,4,2,0,100,0,0
116905,-66.6666666666667,4,2,0,100,0,0
118974,-133.333333333333,4,2,0,100,0,0
121043,-100,4,2,0,100,0,0
122422,-44.4444444444445,4,2,0,100,0,1
124491,-133.333333333333,4,2,0,100,0,0
125526,-66.6666666666667,4,2,0,100,0,0
126560,-100,4,2,0,100,0,0
127940,-44.4444444444445,4,2,0,100,0,1
130009,-100,4,2,0,100,0,0
130354,-66.6666666666667,4,2,0,100,0,0
132767,-100,4,2,0,100,0,0
133457,-44.4444444444445,4,2,0,100,0,1
135526,-100,4,2,0,100,0,0
136216,-25,4,2,0,100,0,0
136560,-50,4,2,0,100,0,0
136733,-66.6666666666667,4,2,0,100,0,0
136905,-100,4,2,0,100,0,0
137250,-80,4,2,0,100,0,0
137595,-133.333333333333,4,2,0,100,0,0
138285,-100,4,2,0,100,0,0
138974,-44.4444444444445,4,2,0,100,0,1
141043,-100,4,2,0,100,0,0
143371,-133.333333333333,4,2,0,100,0,0
149147,-100,4,2,0,100,0,0
149319,-200,4,2,0,100,0,0
154836,-133.333333333333,4,2,0,100,0,0
160354,-200,4,2,0,100,0,0
167078,-200,4,2,0,100,0,0
167595,-50,4,2,0,100,0,0
167940,-200,4,2,0,100,0,0
168629,-133.333333333333,4,2,0,100,0,0
169319,-100,4,2,0,100,0,0
169836,-133.333333333333,4,2,0,100,0,0
170354,-100,4,2,0,100,0,0
170698,-50,4,2,0,100,0,0
171388,-80,4,2,0,100,0,0
176733,-100,4,2,0,100,0,0
176905,-133.333333333333,4,2,0,100,0,0
177595,-80,4,2,0,100,0,0
178112,-66.6666666666667,4,2,0,100,0,0
178629,-133.333333333333,4,2,0,100,0,0
178974,-50,4,2,0,100,0,0
179664,-80,4,2,0,100,0,0
180354,-66.6666666666667,4,2,0,100,0,0
180871,-100,4,2,0,100,0,0
181733,-66.6666666666667,4,2,0,100,0,0
183112,-80,4,2,0,100,0,0
184491,-66.6666666666667,4,2,0,100,0,0
186905,-100,4,2,0,100,0,0
187940,-133.333333333333,4,2,0,100,0,0
188629,-100,4,2,0,100,0,0
189405,-200,4,2,0,100,0,0
190009,-50,4,2,0,100,0,0
190267,-100,4,2,0,100,0,0
191043,-66.6666666666667,4,2,0,100,0,0
191388,-100,4,2,0,100,0,0
192767,-66.6666666666667,4,2,0,100,0,0
193457,-100,4,2,0,100,0,0
194664,-66.6666666666667,4,2,0,100,0,0
196216,-133.333333333333,4,2,0,100,0,0
196905,-66.6666666666667,4,2,0,100,0,0
197767,-100,4,2,0,100,0,0
198285,-66.6666666666667,4,2,0,100,0,0
198629,-133.333333333333,4,2,0,100,0,0
199664,-100,4,2,0,100,0,0
200181,-57.1428571428571,4,2,0,100,0,0
200698,-100,4,2,0,100,0,0
201043,-50,4,2,0,100,0,0
201302,-66.6666666666667,4,2,0,100,0,0
202422,-50,4,2,0,100,0,0
202681,-200,4,2,0,100,0,0
202940,-66.6666666666667,4,2,0,100,0,0
203457,-50,4,2,0,100,0,0
203802,-66.6666666666667,4,2,0,100,0,0
204491,-100,4,2,0,100,0,0
205181,-66.6666666666667,4,2,0,100,0,0
205698,-133.333333333333,4,2,0,100,0,0
206216,-66.6666666666667,4,2,0,100,0,0
206560,-50,4,2,0,100,0,0
206819,-100,4,2,0,100,0,0
207078,-50,4,2,0,100,0,0
207250,-66.6666666666667,4,2,0,100,0,0
207940,-50,4,2,0,100,0,0

[HitObjects]
411,43,11388,5,0,3:0:0:0:
323,60,11560,2,0,B|411:44,1,90.0000034332277,2|0,0:0|0:0,0:0:0:0:
359,172,12078,6,0,L|418:161,1,60,0|0,3:0|0:0,0:0:0:0:
368,242,12595,2,0,L|309:252,1,60,0|0,3:0|0:0,0:0:0:0:
425,282,13112,2,0,L|498:269,1,75,0|0,3:0|0:0,0:0:0:0:
224,350,14147,5,0,3:0:0:0:
240,262,14319,2,0,B|224:350,1,90.0000034332277,2|0,0:0|0:0,0:0:0:0:
133,286,14837,6,0,L|143:226,1,60,0|0,3:0|0:0,0:0:0:0:
79,174,15354,2,0,L|69:233,1,60,0|0,3:0|0:0,0:0:0:0:
208,197,15871,2,0,L|219:128,1,67.5,0|0,3:0|0:0,0:0:0:0:
219,130,16733,1,0,3:0:0:0:
98,52,16905,5,0,3:0:0:0:
187,67,17077,2,0,B|98:51,1,90.0000034332277,2|0,0:0|0:0,0:0:0:0:
93,122,17595,6,0,L|33:111,1,60,0|0,3:0|0:0,0:0:0:0:
33,254,18112,2,0,L|92:264,1,60,0|0,3:0|0:0,0:0:0:0:
138,201,18629,2,0,L|64:188,1,75,0|0,3:0|0:0,0:0:0:0:
188,253,19664,5,0,3:0:0:0:
205,342,19836,2,0,B|189:254,1,90.0000034332277,2|0,0:0|0:0,0:0:0:0:
282,362,20354,6,0,L|271:304,1,45,0|0,3:0|0:0,0:0:0:0:
274,318,20698,1,0,3:0:0:0:
413,274,20871,2,0,L|402:216,1,60,0|0,3:0|0:0,0:0:0:0:
349,328,21388,2,0,L|326:201,1,120,0|0,3:0|0:0,0:0:0:0:
349,328,22250,1,0,0:0:0:0:
184,304,22422,5,0,3:0:0:0:
274,318,22596,2,0,L|184:304,1,90.0000034332277,2|0,0:0|0:0,0:0:0:0:
139,106,23112,5,8,3:2:0:0:
139,106,23457,1,8,0:0:0:0:
68,117,23629,1,0,3:0:0:0:
57,46,24146,1,0,3:0:0:0:
79,188,24491,1,8,0:0:0:0:
383,277,25181,5,0,3:0:0:0:
397,188,25355,2,0,L|383:278,1,90.0000034332277,2|0,0:0|0:0,0:0:0:0:
291,24,25871,6,0,L|300:77,1,45,10|0,3:2|0:0,0:0:0:0:
291,24,26216,1,8,0:0:0:0:
220,37,26388,1,0,3:0:0:0:
233,108,26905,1,0,3:0:0:0:
450,180,27250,6,0,P|414:139|360:146,1,112.500004291535,8|0,0:0|0:0,0:0:0:0:
360,146,27767,1,0,3:0:0:0:
480,328,27940,5,0,3:0:0:0:
494,239,28112,2,0,L|480:329,1,90.0000034332277,2|0,0:0|0:0,0:0:0:0:
360,146,28629,6,0,L|404:140,1,45,10|0,3:2|0:0,0:0:0:0:
288,153,28974,1,8,0:0:0:0:
360,146,29147,1,0,3:0:0:0:
353,74,29664,1,0,3:0:0:0:
367,218,30009,1,8,0:0:0:0:
213,54,30698,5,0,3:0:0:0:
124,40,30871,2,0,L|212:53,1,90.0000034332277,2|0,0:0|0:0,0:0:0:0:
134,114,31388,6,0,L|178:120,2,45.0000017166138,10|0|0,3:2|0:0|0:0,0:0:0:0:
5,209,31905,5,0,3:0:0:0:
76,198,32077,1,0,0:0:0:0:
65,127,32250,1,8,0:0:0:0:
87,269,32422,5,0,3:0:0:0:
76,198,32595,1,0,0:0:0:0:
147,187,32767,1,8,0:0:0:0:
5,209,32940,5,0,3:0:0:0:
5,209,33112,1,0,0:0:0:0:
407,292,33457,5,0,3:0:0:0:
245,305,33630,2,0,L|334:296,1,90.0000034332277,2|0,0:0|0:0,0:0:0:0:
365,149,34147,2,0,B|354:217|354:217|366:234,1,90,10|0,0:0|0:0,0:0:0:0:
365,149,34491,1,8,0:0:0:0:
407,292,34664,6,0,L|395:354,2,45.0000017166138,0|0|0,3:0|0:0|0:0,0:0:0:0:
468,255,35181,2,0,L|512:263,1,45.0000017166138,0|0,3:0|0:0,0:0:0:0:
427,198,35526,2,0,L|439:136,1,45.0000017166138,8|0,0:0|0:0,0:0:0:0:
366,235,35871,2,0,L|321:226,1,45.0000017166138,0|0,0:0|0:0,0:0:0:0:
185,68,36216,5,0,3:0:0:0:
269,75,36388,2,0,B|248:59|248:59|184:67,1,90.0000034332277,2|0,0:0|0:0,0:0:0:0:
110,36,36905,2,0,B|121:125,1,90.0000034332277,10|0,3:2|0:0,0:0:0:0:
110,36,37250,1,8,0:0:0:0:
45,87,37422,6,0,B|0:92,2,45.0000017166138,0|0|0,3:0|0:0|0:0,0:0:0:0:
9,162,37940,2,0,B|53:156,1,45.0000017166138,0|0,3:0|0:0,0:0:0:0:
186,158,38285,2,0,B|230:164,1,45.0000017166138,8|0,0:0|0:0,0:0:0:0:
222,233,38629,2,0,B|177:228,1,45.0000017166138,0|0,0:0|3:0,0:0:0:0:
25,330,38974,5,0,3:0:0:0:
115,319,39147,2,0,B|26:330,1,90.0000034332277,2|0,0:0|0:0,0:0:0:0:
173,359,39664,2,0,B|262:348,1,90.0000034332277,10|0,3:2|0:0,0:0:0:0:
173,359,40009,1,8,0:0:0:0:
333,337,40181,6,0,B|377:331,2,45.0000017166138,0|0|0,3:0|0:0|0:0,0:0:0:0:
263,348,40698,2,0,B|218:353,1,45.0000017166138,0|0,3:0|0:0,0:0:0:0:
345,264,41043,2,0,B|389:258,1,45.0000017166138,8|0,0:0|0:0,0:0:0:0:
224,281,41388,2,0,B|179:286,1,45.0000017166138,0|0,0:0|0:0,0:0:0:0:
359,179,41733,5,0,3:0:0:0:
281,148,41905,2,0,B|290:218|290:218|277:231,1,90.0000034332277,2|0,0:0|0:0,0:0:0:0:
342,108,42422,2,0,L|357:16,1,90,10|0,3:2|0:0,0:0:0:0:
342,108,42767,1,0,3:2:0:0:
129,91,42940,6,0,L|84:98,1,45.0000017166138,0|0,3:0|0:0,0:0:0:0:
198,79,43285,1,8,0:0:0:0:
210,149,43457,2,0,L|217:193,1,45.0000017166138,0|0,3:0|0:0,0:0:0:0:
187,9,43802,5,8,0:0:0:0:
198,79,43974,1,0,0:0:0:0:
268,68,44147,1,0,0:0:0:0:
268,68,44319,1,0,0:0:0:0:
169,251,44491,6,0,B|106:244|106:244|94:222,1,84,0|0,3:0|0:0,0:0:0:0:
75,313,47250,6,0,B|201:325|201:325|227:294,1,168,0|0,0:0|0:0,0:0:0:0:
256,192,50009,12,0,54750,0:0:0:0:
74,78,54836,6,0,L|78:33,1,45.0000017166138,0|0,0:0|0:0,0:0:0:0:
74,78,55095,2,0,L|29:73,1,45.0000017166138,0|0,0:0|0:0,0:0:0:0:
74,78,55354,2,0,L|70:123,1,30,0|0,0:0|0:0,0:0:0:0:
45,193,55526,6,0,B|26:157|26:157|116:139|116:139|102:269,1,262.5,0|0,3:0|0:0,0:0:0:0:
102,268,56388,2,0,L|106:223,1,45.0000017166138,0|0,0:0|0:0,0:0:0:0:
32,290,56647,5,0,0:0:0:0:
36,294,56733,2,0,L|110:287,1,60,8|0,0:0|0:0,0:0:0:0:
53,305,57078,2,0,L|82:302,1,30,0|0,0:0|0:0,0:0:0:0:
204,339,57250,2,0,L|144:344,1,60,0|0,3:0|0:0,0:0:0:0:
260,290,57509,5,0,0:0:0:0:
264,294,57595,2,0,L|293:291,1,30,8|0,0:0|0:0,0:0:0:0:
264,294,57767,2,0,L|261:264,1,30,0|0,3:0|0:0,0:0:0:0:
267,374,58112,1,0,0:0:0:0:
362,326,58285,6,0,B|373:198|373:198|407:177|407:177|412:121,1,210,0|0,3:0|0:0,0:0:0:0:
338,133,58974,5,8,0:0:0:0:
338,133,59319,2,0,L|307:130,1,30,0|0,0:0|0:0,0:0:0:0:
338,133,59491,2,0,L|344:72,1,60,8|0,0:0|0:0,0:0:0:0:
412,126,59836,6,0,L|415:95,1,30
412,126,60009,2,0,L|351:120,1,60,0|0,3:0|0:0,0:0:0:0:
229,285,60267,5,0,0:0:0:0:
233,289,60354,2,0,L|173:297,1,60,8|0,0:0|0:0,0:0:0:0:
139,375,60612,2,2,L|199:367,1,60,0|0,0:0|0:0,0:0:0:0:
173,297,61043,2,0,B|140:302|140:302|115:288|115:288|90:320|90:320|64:307|64:307|32:310,1,157.500006008148,0|0,3:0|0:0,0:0:0:0:
173,297,61733,1,8,0:0:0:0:
38,309,61848,2,0,B|64:307|64:307|90:320|90:320|115:288,1,80,0|0,0:0|0:0,0:0:0:0:
279,330,62164,5,0,0:0:0:0:
283,334,62250,2,0,L|343:339,1,60,8|0,0:2|0:0,0:0:0:0:
342,339,62595,1,0,0:0:0:0:
245,271,62767,2,0,L|252:359,1,90,0|0,3:0|0:0,0:0:0:0:
252,360,63112,2,0,L|212:363,1,40,8|0,0:0|0:0,0:0:0:0:
245,271,63342,2,0,L|205:274,1,40,0|0,0:0|0:0,0:0:0:0:
406,305,63629,5,0,0:0:0:0:
486,300,63802,2,0,B|366:306,1,120,0|0,3:0|0:0,0:0:0:0:
406,305,64405,5,0,0:0:0:0:
410,309,64491,2,0,L|411:338,1,30,8|0,0:0|0:0,0:0:0:0:
375,153,64664,2,0,B|378:219|378:219|398:232,1,90.0000034332277,0|0,0:0|0:0,0:0:0:0:
474,73,65009,6,0,B|475:116|444:131|444:131|445:151,1,90,8|0,0:0|0:0,0:0:0:0:
503,126,65181,2,0,B|458:127|443:96|443:96|423:97,1,90,0|0,0:0|0:0,0:0:0:0:
320,105,65354,2,0,L|280:109,1,30,0|0,0:0|0:0,0:0:0:0:
375,153,65526,6,0,B|378:220,1,67.5000025749207,0|0,3:0|0:0,0:0:0:0:
369,53,65871,5,8,0:0:0:0:
216,106,66216,5,0,0:0:0:0:
64,160,66474,5,0,0:0:0:0:
57,230,66560,6,0,L|54:270,1,30,0|0,3:0|0:0,0:0:0:0:
57,230,66733,2,0,B|49:320|49:320|31:332,1,112.500004291535,0|0,0:0|0:0,0:0:0:0:
83,292,67250,5,8,0:0:0:0:
128,299,67422,2,0,L|83:292,1,45.0000017166138,0|0,0:0|0:0,0:0:0:0:
196,301,67681,1,0,0:0:0:0:
200,305,67767,2,0,B|195:255|195:255|175:241,1,75,8|0,0:0|0:0,0:0:0:0:
158,363,68112,1,0,0:0:0:0:
273,299,68285,2,0,B|265:348|265:348|243:361,1,75,0|0,3:0|0:0,0:0:0:0:
339,336,68629,6,0,L|376:341,1,37.5,8|0,0:0|0:0,0:0:0:0:
128,299,68802,1,0,3:0:0:0:
128,299,69146,2,0,L|91:294,1,37.5,8|0,0:0|0:0,0:0:0:0:
270,324,69319,6,0,B|302:322|302:322|335:353|335:353|371:248|371:248|405:279|405:279|433:277,1,262.5,0|0,3:0|0:0,0:0:0:0:
502,270,70009,1,8,0:0:0:0:
451,91,70354,5,0,0:0:0:0:
462,213,70526,1,8,0:0:0:0:
473,335,70698,1,0,0:0:0:0:
491,148,70871,5,0,0:0:0:0:
247,170,71043,2,0,B|298:165|298:165|311:175,1,67.5000025749207,0|0,3:0|0:0,0:0:0:0:
304,340,71388,6,0,B|273:305|273:305|276:261|276:261|282:251|282:251|278:240|278:240|296:31,1,315.000012016297,8|0,0:0|0:0,0:0:0:0:
203,245,72078,2,0,L|217:89,1,157.500006008148,0|0,3:0|0:0,0:0:0:0:
247,170,72767,1,8,0:0:0:0:
208,75,72940,6,0,L|163:70,1,45.0000017166138,0|0,0:0|0:0,0:0:0:0:
308,197,73198,1,0,0:0:0:0:
312,201,73285,2,0,B|362:193|362:193|375:172,1,75,8|0,3:2|0:0,0:0:0:0:
374,172,73629,1,0,0:0:0:0:
222,314,73802,2,0,L|227:351,1,37.5,0|0,3:0|0:0,0:0:0:0:
206,298,74060,5,0,0:0:0:0:
210,302,74147,2,0,L|219:361,1,60.0000022888184,8|0,0:0|0:0,0:0:0:0:
252,238,74376,2,0,L|311:229,1,60.0000022888184
194,195,74664,5,0,0:0:0:0:
152,254,74836,2,0,B|63:267|63:267|32:246,1,112.5,0|0,3:0|0:0,0:0:0:0:
107,260,75181,2,0,B|152:254,1,45,0|0,0:0|0:0,0:0:0:0:
362,61,75440,5,0,0:0:0:0:
366,65,75526,1,8,0:0:0:0:
304,24,75641,2,0,P|294:36|293:80,1,60.0000022888184,0|0,0:0|0:0,0:0:0:0:
156,43,76043,6,0,L|216:48,1,60,8|0,0:0|0:0,0:0:0:0:
159,114,76216,2,0,L|203:117,1,45.0000017166138,0|0,0:0|0:0,0:0:0:0:
160,186,76388,2,0,L|189:188,1,30,0|0,0:0|0:0,0:0:0:0:
58,315,76560,6,0,P|118:307|169:360,1,135.000005149841,0|0,3:0|0:0,0:0:0:0:
168,357,76905,2,0,P|144:321|157:279,1,90,8|0,0:0|0:0,0:0:0:0:
157,279,77250,2,0,P|143:308|111:315,1,67.5000025749207,0|0,0:0|0:0,0:0:0:0:
229,309,77595,6,0,B|325:304|325:304|323:310|323:310|422:303|422:303|433:311|425:319|425:319|366:324|366:324|367:335|367:335|360:336|360:336|355:342|360:346|360:346|374:345,1,315.000012016297,0|0,3:0|0:0,0:0:0:0:
460,62,78759,5,0,0:0:0:0:
464,66,78802,2,0,B|467:113|467:113|483:122,1,60,8|0,0:0|0:0,0:0:0:0:
415,160,79147,1,0,0:0:0:0:
356,47,79319,2,0,B|359:94|359:94|375:103,1,60,0|0,3:0|0:0,0:0:0:0:
230,109,79664,2,0,B|232:148,1,40,8|0,0:0|0:0,0:0:0:0:
157,72,79894,2,0,B|159:111,1,40,0|0,0:0|0:0,0:0:0:0:
159,112,80181,1,0,0:0:0:0:
52,66,80354,6,0,B|154:57|154:57|146:68|146:68|261:58|261:58|272:49|259:44|259:44|214:47|214:47|212:17,1,315.000012016297,0|0,3:0|0:0,0:0:0:0:
52,66,81043,1,8,0:0:0:0:
67,247,81388,6,0,B|65:276,1,30,0|0,0:0|0:0,0:0:0:0:
141,236,81560,2,0,B|137:295,1,60,8|0,0:0|0:0,0:0:0:0:
137,296,81905,1,0,0:0:0:0:
210,313,82078,2,0,B|216:223,1,90,0|0,3:0|0:0,0:0:0:0:
348,277,82422,2,0,B|378:279,1,30,8|0,0:0|0:0,0:0:0:0:
378,279,82767,2,0,B|288:273,1,90,0|0,0:0|0:0,0:0:0:0:
413,344,83112,6,0,B|399:247|399:247|404:230|415:244|415:244|418:268|418:268|420:283|435:281|435:281|508:270|508:270|519:276|512:282|512:282|499:284|499:284|489:285|487:273|487:273|475:180,1,360.000013732911,0|0,3:0|0:0,0:0:0:0:
338,338,83974,2,0,L|329:279,1,60,0|0,0:0|0:0,0:0:0:0:
426,146,84276,5,0,0:0:0:0:
430,150,84319,2,0,L|421:91,1,60,8|0,0:2|0:0,0:0:0:0:
421,91,84664,1,0,0:0:0:0:
362,100,84836,2,0,L|421:91,1,60,0|0,3:0|0:0,0:0:0:0:
241,46,85181,6,0,L|281:52,1,40,8|0,0:0|0:0,0:0:0:0:
229,116,85411,2,0,L|269:122,1,40,0|0,0:0|0:0,0:0:0:0:
147,70,85698,5,0,0:0:0:0:
45,36,85871,2,0,B|36:81|36:81|65:118|65:118|72:72|72:72|45:36,1,180.000006866455,0|0,3:0|0:0,0:0:0:0:
156,289,86560,6,0,L|152:318,1,30,8|0,0:0|0:0,0:0:0:0:
159,259,86733,2,0,L|152:318,1,60,0|0,0:0|0:0,0:0:0:0:
81,281,87078,6,0,L|51:277,1,30,8|0,0:0|0:0,0:0:0:0:
231,297,87250,2,0,L|260:300,1,30,0|0,0:0|0:0,0:0:0:0:
88,352,87422,6,0,L|58:354,1,30,0|0,0:0|0:0,0:0:0:0:
226,225,87595,2,0,B|293:221|293:221|310:236,1,90,0|0,3:0|0:0,0:0:0:0:
156,289,87940,5,8,0:0:0:0:
156,289,88285,5,0,0:0:0:0:
445,244,88629,6,2,B|433:243|433:243|437:190|437:190|431:183|431:183|422:302,1,180.000006866455,0|0,3:0|0:0,0:1:0:0:
423,288,89319,6,0,B|420:317,1,30,0|0,0:0|0:0,0:0:0:0:
420,317,89491,2,0,B|417:346,1,30,0|0,0:0|0:0,0:0:0:0:
344,295,89793,5,0,0:0:0:0:
348,299,89836,2,0,B|345:328,1,30,8|0,0:0|0:0,0:0:0:0:
274,306,90181,5,0,0:0:0:0:
512,212,90354,2,0,B|505:152,1,60,0|0,3:0|0:0,0:0:0:0:
363,182,90698,6,0,B|368:222,1,40,8|0,0:0|0:0,0:0:0:0:
434,171,90928,2,0,B|439:211,1,40,0|0,0:0|0:0,0:0:0:0:
85,47,91388,6,0,B|175:57|175:57|189:58|187:73|187:73|184:113|184:113|183:126|170:125|170:125|124:120|124:120|112:120|111:133|111:133|110:151|110:151|109:166|122:168|122:168|135:171|134:182|134:182|132:199,1,315.000012016297,0|0,3:0|0:0,0:0:0:0:
121,266,92078,1,8,0:0:0:0:
206,192,92422,6,0,L|237:186,1,30,0|0,0:0|0:0,0:0:0:0:
63,223,92595,2,0,L|33:228,1,30,8|0,0:0|0:0,0:0:0:0:
121,140,92767,6,0,L|115:109,1,30,0|0,0:0|0:0,0:0:0:0:
115,110,92940,2,0,L|109:79,1,30,0|0,0:0|0:0,0:0:0:0:
152,283,93112,6,0,L|162:342,1,60,0|0,3:0|0:0,0:0:0:0:
242,251,93457,6,0,B|234:341|234:341|241:352|241:352|257:354,1,120,8|0,0:0|0:0,0:0:0:0:
311,299,93802,6,0,L|359:304,1,45
424,362,94147,6,0,B|373:356|373:356|363:355|364:341|364:341|373:252|373:252|378:258|378:258|384:185|384:185|385:175|397:175|397:175|512:183,1,360.000013732911,0|0,3:0|0:0,0:0:0:0:
477,167,95009,2,0,L|407:162,1,60
291,296,95310,5,0,0:0:0:0:
295,300,95354,2,0,L|235:295,1,60,8|0,0:0|0:0,0:0:0:0:
240,366,95698,2,0,L|269:369,1,30,0|0,0:0|0:0,0:0:0:0:
168,321,95871,2,0,L|77:313,1,90.0000034332277,0|0,3:0|0:0,0:0:0:0:
242,224,96216,6,0,L|301:228,1,60.0000022888184,8|0,0:0|0:0,0:0:0:0:
279,155,96445,2,0,L|308:157,1,30.0000011444092,0|0,0:0|0:0,0:0:0:0:
315,86,96733,1,0,0:0:0:0:
295,300,96905,1,0,3:0:0:0:
163,43,97595,6,0,B|183:40|183:40|192:39|193:50|193:50|206:155|206:155|207:165|198:167|198:167|176:170,1,180,8|0,0:2|0:0,0:0:0:0:
127,111,97940,1,0,0:0:0:0:
338,213,98112,2,0,B|316:209|316:209|307:208|306:219|306:219|293:324|293:324|292:334|301:336|301:336|320:338,1,180,8|0,0:2|0:0,0:0:0:0:
373,280,98457,1,0,0:0:0:0:
299,271,98629,6,0,B|373:280,1,75,0|0,3:0|0:0,0:0:0:0:
127,111,98974,1,8,0:0:0:0:
202,103,99147,2,0,B|127:111,1,75,0|0,3:0|0:0,0:0:0:0:
256,192,99664,5,0,0:0:0:0:
256,192,109491,12,0,110612,0:0:0:0:
35,142,110698,6,0,B|52:201|52:201|69:196|69:196|50:132|50:132|38:136,1,157.500006008148,0|0,3:0|0:0,0:0:0:0:
95,263,111388,2,0,B|132:258|132:258|143:256|142:242|142:242|139:209|139:209|137:195|149:193|149:193|193:188|193:188|206:186|206:198|206:198|209:237|209:237|210:249|223:247|223:247|310:238|310:238|321:237|320:225|320:225|311:110|311:110|310:101|300:102|300:102|272:104|272:104|266:105|266:114|266:114|283:299|283:299|284:309|293:307|293:307|409:294|409:294|419:293|418:283|418:283|414:251|414:251|388:226|388:226|384:175|384:175|383:165|392:164|392:164|446:157,1,1035.00003948212,8|0,0:0|0:0,0:0:0:0:
491,212,113457,5,0,0:0:0:0:
415,173,114060,1,0,3:0:0:0:
419,177,114147,2,0,L|413:227,1,45.0000017166138,8|0,0:0|0:0,0:0:0:0:
343,190,114664,1,8,3:2:0:0:
269,180,115009,1,0,3:0:0:0:
491,212,115526,1,8,0:0:0:0:
30,161,116216,6,0,B|35:197|35:197|115:187|115:187|111:147,1,157.500006008148,0|0,3:0|0:0,0:0:0:0:
137,79,116905,2,2,B|194:85|194:85|203:86|201:94|201:94|195:166|195:166|195:177|204:177|204:177|352:189|352:189|362:190|363:182|363:182|367:127|367:127|342:99|342:99|346:49|346:49|346:39|338:39|338:39|285:36|285:36|278:35|277:41|277:41|258:245|258:245|258:254|250:253|250:253|163:244|163:244|156:244|154:251|154:251|148:304|148:304|148:312|154:312|154:312|230:322|230:322|246:349,1,1035.00003948212,8|0,0:0|0:0,0:0:0:0:
77,269,118974,5,0,0:0:0:0:
149,252,119578,1,0,3:0:0:0:
153,256,119664,2,0,L|150:301,1,45.0000017166138,8|0,0:0|0:0,0:0:0:0:
225,285,120181,1,8,3:2:0:0:
299,293,120526,1,0,3:0:0:0:
77,269,121043,6,0,P|46:290|34:330,1,60,8|0,0:0|0:0,0:0:0:0:
77,269,121302,2,0,P|29:258|9:242,1,60,0|0,0:0|0:0,0:0:0:0:
77,269,121560,2,0,P|75:246|81:234,1,30,0|0,0:0|0:0,0:0:0:0:
157,124,121733,6,2,B|177:176|177:176|144:217|144:217|124:167|124:167|152:128,1,210,0|0,3:0|0:0,0:0:0:0:
59,138,122422,6,2,B|46:51|46:51|45:40|56:38|56:38|148:22|148:22|159:20|160:31|160:31|179:151|179:151|181:164|192:161|192:161|236:155|236:155|248:153|246:141|246:141|242:109|242:109|241:100|250:98|250:98|298:91|298:91|310:90|311:101|311:101|320:182|320:182|321:193|331:192|331:192|376:184|376:184|388:183|389:194|389:194|403:293|403:293|405:304|416:302|416:302|477:293|477:293|488:292|485:282|485:282|481:245|481:245|480:237|471:238|471:238|163:284|163:284|155:285|154:274|154:274|150:249|150:249|149:240|156:238|156:238|254:223|254:223|262:222|263:231|263:231|275:330|275:330|277:338|285:336|285:336|298:334,1,1552.50005922318,8|0,0:0|0:0,0:0:0:0:
206,348,124491,6,0,B|218:359|218:359|335:341,1,135.000005149841,0|0,3:0|0:0,0:0:0:0:
367,231,125095,1,0,3:0:0:0:
371,235,125181,2,0,L|377:279,1,45.0000017166138,8|0,0:0|0:0,0:0:0:0:
436,321,125526,6,0,L|480:315,1,45.0000017166138
255,97,125698,6,0,L|300:104,1,45.0000017166138,8|0,3:2|0:0,0:0:0:0:
401,120,125871,2,0,L|446:127,1,45.0000017166138,0|0,0:0|0:0,0:0:0:0:
366,16,126043,6,0,L|359:60,1,45.0000017166138,0|0,0:0|0:0,0:0:0:0:
342,164,126216,2,0,B|334:212|334:212|313:222|305:242,1,90.0000034332277,0|0,0:0|0:0,0:0:0:0:
368,276,126474,1,0,3:0:0:0:
430,238,126560,6,0,P|412:331|308:317,1,210,10|0,0:0|0:0,0:0:0:0:
488,193,127250,6,2,B|321:210|321:210|288:176,1,210,0|0,3:0|0:0,0:0:0:0:
390,98,127940,6,2,B|372:97|372:97|362:97|362:85|362:85|366:29|366:29|367:18|356:19|356:19|261:18|261:18|252:18|251:26|251:26|247:117|247:117|247:128|239:127|239:127|186:126|186:126|176:126|175:137|175:137|163:326|163:326|163:337|173:337|173:337|397:340|397:340|405:340|405:331|405:331|406:312|406:312|406:303|398:303|398:303|318:299|318:299|309:300|308:290|308:290|310:209|310:209|312:200|301:199|301:199|110:195|110:195|103:195|103:203|103:203|102:224|102:224|102:231|94:230|94:230|47:229|47:229|40:230|40:236|40:236|38:252|38:252|38:262|45:262|45:262|240:268,1,1552.50005922318,8|0,0:0|0:0,0:0:0:0:
209,268,130009,6,0,L|101:264,1,90,0|0,3:0|0:0,0:0:0:0:
265,171,130354,6,0,L|263:215,1,45.0000017166138,0|0,0:0|0:0,0:0:0:0:
258,324,130526,2,0,L|256:368,1,45.0000017166138,0|0,0:0|0:0,0:0:0:0:
441,289,130698,6,0,B|426:274|426:274|312:271,1,135.000005149841,8|0,0:0|0:0,0:0:0:0:
313,271,131043,2,0,L|366:290,1,45.0000017166138,0|0,0:0|0:0,0:0:0:0:
186,49,131216,6,0,B|199:62|199:62|294:49|294:49|304:32,1,135.000005149841,8|0,0:0|0:0,0:0:0:0:
304,31,131560,1,0,0:0:0:0:
138,103,131733,6,0,L|134:146,1,45.0000017166138,0|0,3:0|0:0,0:0:0:0:
219,212,131905,2,0,L|174:207,1,45.0000017166138,0|0,0:0|0:0,0:0:0:0:
138,103,132078,2,0,L|134:146,1,45.0000017166138,8|0,0:0|0:0,0:0:0:0:
79,193,132250,2,0,L|35:189,1,45.0000017166138,0|0,3:0|0:0,0:0:0:0:
119,251,132767,6,2,B|139:301|139:301|107:344|107:344|86:296|86:296|115:255,1,210,0|0,3:0|0:0,0:0:0:0:
9,156,133457,6,2,B|46:185|46:185|110:171|110:171|114:180|114:180|113:170|113:170|218:151|218:151|285:286|285:286|442:307|442:307|485:259|485:259|338:239|338:239|397:322|397:322|412:180|412:180|310:166|310:166|425:59|425:59|526:193|526:193|432:182|432:182|404:149,1,1552.50005922318,8|0,0:0|0:0,0:0:0:0:
416,163,135526,1,0,3:0:0:0:
149,221,136043,6,0,L|119:214,1,30
119,214,136216,2,0,L|58:201,6,60,8|0|0|0|0|0|0,0:0|0:0|0:0|0:0|0:0|0:0|0:0,0:0:0:0:
125,289,136560,2,0,L|95:282,2,30,0|0|0,0:0|0:0|0:0,0:0:0:0:
270,192,136733,6,0,L|225:202,1,45.0000017166138,8|0,0:0|0:0,0:0:0:0:
252,268,136905,2,0,L|222:275,1,30,0|0,0:0|0:0,0:0:0:0:
233,342,137078,2,0,L|203:349,1,30,0|0,0:0|0:0,0:0:0:0:
392,322,137250,6,0,B|346:310|346:310|335:284,1,75,0|0,0:0|0:0,0:0:0:0:
478,306,137509,1,0,3:0:0:0:
489,235,137595,6,0,P|419:264|413:338,1,157.500006008148,10|0,0:0|0:0,0:0:0:0:
398,67,138285,6,2,B|385:227|385:227|426:265,1,210,0|0,3:0|0:0,0:0:0:0:
369,308,138974,6,2,B|346:290|346:290|42:337|42:337|48:263|48:263|-26:279|-26:279|22:331|22:331|67:268|67:268|173:356|173:356|200:282|200:282|181:286|181:286|233:276|233:276|256:202|256:202|133:224|133:224|163:76|163:76|299:51|299:51|324:81|324:81|207:102,1,1552.50005922318,8|0,0:0|0:0,0:0:0:0:
227,98,141043,6,0,L|108:118,1,120,0|0,3:0|0:0,0:0:0:0:
210,174,141560,6,0,L|150:183,1,60,0|0,0:0|0:0,0:0:0:0:
186,33,141905,2,0,L|126:42,1,60,0|0,0:0|0:0,0:0:0:0:
349,142,142250,6,0,L|289:133,1,60,0|0,0:0|0:0,0:0:0:0:
363,69,142509,2,0,L|303:60,1,60,0|0,0:0|0:0,0:0:0:0:
227,98,142854,6,0,L|197:103,1,30,0|0,0:0|0:0,0:0:0:0:
197,103,143027,2,0,L|167:108,1,30,0|0,0:0|0:0,0:0:0:0:
167,108,143198,2,0,L|137:113,1,30,0|0,0:0|0:0,0:0:0:0:
181,180,143371,6,0,L|92:194,1,90.0000034332277
233,230,143802,1,0,3:0:0:0:
12,352,149147,6,0,L|-11:337,2,15,2|0|0,0:1|0:0|0:0,0:0:0:0:
95,329,149319,2,0,B|5:255|5:255|20:210|20:210|113:187|113:187|146:215|146:215|125:261|125:261|132:271|120:270|120:270|100:314|100:314|66:286,1,450,0|0,3:0|0:0,0:0:0:0:
175,324,152078,5,0,0:0:0:0:
211,326,152767,1,0,0:0:0:0:
284,332,153457,1,0,0:0:0:0:
428,343,154147,1,0,0:0:0:0:
501,94,154836,6,0,B|491:99|491:99|453:88|453:88|452:79|452:79|408:81|408:81|393:176|393:176|410:178|407:194|390:190|390:190|383:232|383:232|348:241|348:241|317:222|317:222|335:106|335:106|304:100|304:100|299:101|299:101|271:96|271:96|275:86|275:86|265:65|265:65|209:59|209:59|179:51|173:17,1,675.000025749207,0|0,3:0|0:0,0:0:0:0:
330,31,157595,5,0,0:0:0:0:
294,33,158284,1,0,0:0:0:0:
221,39,158974,1,0,0:0:0:0:
77,50,159664,1,0,0:0:0:0:
306,259,160181,6,0,L|302:280,2,11.2500004291535,2|0|0,0:1|0:0|0:0,0:0:0:0:
384,217,160354,2,0,B|362:329|362:329|370:342|370:342|426:355|426:355|437:345|437:345|450:282|450:282|460:280|461:272|452:267|452:267|460:224|460:224|455:214|455:214|400:204|400:204|388:263,1,450,0|0,3:0|0:0,0:0:0:0:
256,192,163112,12,0,165871,0:0:0:0:
115,51,167078,6,0,L|109:95,1,45,0|0,0:0|0:0,0:0:0:0:
190,42,167595,2,0,B|176:136|176:136|152:154,1,120,0|0,3:0|0:0,0:0:0:0:
412,98,167940,6,0,L|467:90,1,45,12|0,0:0|0:0,0:0:0:0:
456,92,168457,1,0,0:0:0:0:
372,159,168629,2,0,L|377:203,1,45,0|0,3:0|0:0,0:0:0:0:
358,53,168974,1,0,0:0:0:0:
396,220,169319,6,0,B|465:224|465:224|477:240,1,90,8|0,0:1|0:0,0:0:0:0:
468,349,169664,1,0,0:0:0:0:
276,249,169836,6,0,B|327:252|327:252|336:264,1,67.5000025749207,8|0,0:1|0:0,0:0:0:0:
39,305,170354,6,0,P|54:304|67:296,1,30,0|0,3:0|0:0,0:0:0:0:
204,326,170526,2,0,P|212:338|225:345,1,30,0|0,0:0|0:0,0:0:0:0:
127,340,170698,6,0,B|161:216|161:216|116:241,1,180,12|0,0:0|0:0,0:0:0:0:
116,240,171216,1,0,0:0:0:0:
0,74,171388,6,0,B|58:14|145:56|140:99|133:136|178:158|228:145,1,262.5,0|0,3:0|0:0,0:0:0:0:
208,76,172078,6,0,L|213:38,1,37.5,8|0,0:0|0:0,0:0:0:0:
353,80,172595,6,0,L|295:32,1,75,8|0,0:0|0:0,0:0:0:0:
348,0,172854,2,0,L|300:58,1,75,0|0,0:0|0:0,0:0:0:0:
231,61,173112,1,0,3:0:0:0:
231,61,173285,1,0,0:0:0:0:
409,35,173457,6,0,B|497:19|497:19|503:23|503:23|506:38,1,112.5,12|0,0:0|0:0,0:0:0:0:
426,204,173974,2,0,L|388:199,1,37.5,0|0,0:0|0:0,0:0:0:0:
468,260,174147,1,0,3:0:0:0:
335,12,174836,6,0,B|348:86,1,75,8|0,0:1|0:0,0:0:0:0:
261,52,175066,1,0,0:0:0:0:
265,56,175124,2,0,L|284:95,1,25,0|0,0:0|0:0,0:0:0:0:
195,83,175354,1,8,0:1:0:0:
59,79,175698,5,0,0:0:0:0:
130,54,175828,5,0,3:0:0:0:
183,106,176000,5,0,0:0:0:0:
413,124,176216,6,0,B|462:117,1,37.5,12|0,0:0|0:0,0:0:0:0:
449,118,176560,5,0,0:0:0:0:
365,176,176733,2,0,B|368:205,1,30
163,181,176905,6,0,B|224:173|224:173|242:147|242:147|306:138,1,157.500006008148,0|0,3:0|0:0,0:0:0:0:
224,244,177595,2,0,L|186:247,1,37.5,8|0,0:0|0:0,0:0:0:0:
107,35,178112,6,0,B|111:23|111:23|176:17|176:17|183:26,1,90.0000034332277,8|0,0:0|0:0,0:0:0:0:
190,95,178371,2,0,B|186:107|186:107|121:113|121:113|113:103,1,90.0000034332277,0|0,0:0|0:0,0:0:0:0:
246,54,178629,2,0,B|290:49,1,45.0000017166138,0|0,3:0|0:0,0:0:0:0:
48,76,178974,6,0,B|34:77|34:77|27:86|27:86|42:214|42:214|52:220|52:220|66:218,1,180,12|0,0:0|0:0,0:0:0:0:
66,218,179491,1,0,0:0:0:0:
221,350,179664,6,0,B|231:288|231:288|247:281,1,75,0|0,3:0|0:0,0:0:0:0:
309,296,180009,1,0,0:0:0:0:
176,185,180354,6,0,L|166:44,1,135.000005149841,8|0,0:1|0:0,0:0:0:0:
167,51,180698,1,0,0:0:0:0:
247,151,180871,6,0,B|260:79|260:79|279:66,1,90,8|0,0:1|0:0,0:0:0:0:
73,107,181388,2,0,B|101:163,1,60,0|0,3:0|0:0,0:0:0:0:
319,254,181733,6,0,B|415:248|415:248|423:255|423:255|426:289,1,135.000005149841,12|0,0:0|0:0,0:0:0:0:
493,259,182250,1,0,0:0:0:0:
393,346,182422,6,0,B|343:339|343:339|367:121|367:121|412:125,1,315.000012016297,0|0,3:0|0:0,0:0:0:0:
412,125,183112,6,0,L|447:127,1,37.5,8|0,0:0|0:0,0:0:0:0:
236,106,183629,2,0,L|271:108,1,37.5,8|0,0:0|0:0,0:0:0:0:
60,87,184147,2,0,L|95:89,1,37.5,0|0,3:0|0:0,0:0:0:0:
97,89,184319,1,0,0:0:0:0:
267,27,184491,6,0,B|172:42|172:42|165:51|165:51|169:79,1,135.000005149841,12|0,0:0|0:0,0:0:0:0:
169,78,185009,1,0,0:0:0:0:
300,115,185181,6,0,B|243:141|243:141|267:26,1,180.000006866455,0|0,3:0|0:0,0:0:0:0:
266,239,185785,5,0,0:0:0:0:
270,243,185871,2,0,B|298:256|298:256|286:198,1,90.0000034332277,8|0,0:1|0:0,0:0:0:0:
365,284,186216,1,0,0:0:0:0:
237,339,186388,6,0,B|209:352|209:352|221:294,1,90.0000034332277,8|0,0:1|0:0,0:0:0:0:
143,311,186733,1,0,0:0:0:0:
365,284,186905,6,0,L|424:276,1,60,8|0,0:1|0:0,0:0:0:0:
485,314,187250,1,0,0:0:0:0:
143,311,187422,2,0,L|83:318,1,60,8|0,0:1|0:0,0:0:0:0:
434,365,187940,6,0,B|316:351|316:351|290:378,1,135.000005149841,0|0,3:0|0:0,0:0:0:0:
103,251,188629,6,0,L|222:235,1,120,8|0,0:0|0:0,0:0:0:0:
125,175,189147,2,0,L|184:166,1,60,8|0,0:0|0:0,0:0:0:0:
184,166,189405,2,0,L|200:136,1,30,0|0,0:0|0:0,0:0:0:0:
221,236,189664,5,0,3:0:0:0:
103,251,189836,1,0,0:0:0:0:
332,42,190009,6,0,L|213:20,1,120,12|0,0:0|0:0,0:0:0:0:
213,20,190267,2,0,L|233:76,1,60,0|0,0:0|0:0,0:0:0:0:
151,54,190526,2,0,L|161:82,1,30,0|0,0:0|0:0,0:0:0:0:
426,50,190698,6,0,B|428:82|428:82|395:74|395:74|422:31,1,120,0|0,3:0|0:0,0:0:0:0:
342,226,191388,6,0,B|356:313|356:313|383:329,1,120,8|0,0:1|0:0,0:0:0:0:
265,204,191905,2,0,B|279:292,1,90,8|0,0:1|0:0,0:0:0:0:
209,306,192422,5,0,3:0:0:0:
421,266,192595,1,0,0:0:0:0:
199,378,192767,6,0,B|217:354|217:354|200:250,1,135.000005149841,12|0,0:0|0:0,0:0:0:0:
142,336,193285,1,0,0:0:0:0:
286,336,193457,6,0,L|105:315,1,180,0|0,3:0|0:0,0:0:0:0:
116,245,194147,2,0,L|102:364,1,120,8|0,0:0|0:0,0:0:0:0:
24,312,194664,6,0,B|38:299|38:299|49:206|49:206|37:188,1,135.000005149841,8|0,0:0|0:0,0:0:0:0:
37,188,195181,2,0,B|27:195|27:195|20:256|20:256|28:269,1,90.0000034332277,0|0,3:0|0:0,0:0:0:0:
142,31,195526,6,0,B|189:84|189:84|186:102,1,90.0000034332277,12|0,0:0|0:0,0:0:0:0:
180,171,195785,2,0,B|202:103|202:103|220:96,1,90.0000034332277,0|0,0:0|0:0,0:0:0:0:
219,96,196043,2,0,L|263:89,1,45.0000017166138,0|0,0:0|0:0,0:0:0:0:
400,213,196216,6,0,L|444:206,1,45.0000017166138,0|0,3:0|0:0,0:0:0:0:
400,213,196905,6,0,L|489:199,1,90.0000034332277,8|0,0:1|0:0,0:0:0:0:
362,272,197135,1,0,0:0:0:0:
366,276,197193,2,0,L|277:290,1,90.0000034332277
305,157,197422,2,0,L|420:138,1,90.0000034332277,8|0,0:1|0:0,0:0:0:0:
215,257,197767,5,0,0:0:0:0:
145,238,197897,5,0,3:0:0:0:
196,327,198069,5,0,0:0:0:0:
75,66,198285,5,12,0:0:0:0:
79,70,198371,2,0,B|94:135|94:135|82:156,1,90.0000034332277,0|0,0:0|0:0,0:0:0:0:
141,27,198629,2,0,L|152:74,1,45.0000017166138,0|0,0:0|0:0,0:0:0:0:
212,107,198888,1,0,0:0:0:0:
265,60,198974,6,0,B|392:67|392:67|426:36,1,157.500006008148,0|0,3:0|0:0,0:0:0:0:
414,47,199664,2,0,B|323:42|323:42|301:62,1,120,8|0,0:0|0:0,0:0:0:0:
364,253,200181,6,0,B|393:296|393:296|374:346,1,105.000001001358,8|0,0:0|0:0,0:0:0:0:
374,345,200440,2,0,B|344:301|344:301|363:251,1,105.000001001358,0|0,0:0|0:0,0:0:0:0:
491,326,200698,6,0,B|463:312|463:312|452:338,1,60,0|0,3:0|0:0,0:0:0:0:
223,318,201043,6,0,B|131:305|131:305|119:280,1,120,12|0,0:0|0:0,0:0:0:0:
119,280,201302,2,0,L|108:368,1,90.0000034332277,0|0,0:0|0:0,0:0:0:0:
185,335,201560,2,0,L|190:291,1,45.0000017166138,0|0,0:0|0:0,0:0:0:0:
35,358,201733,1,0,3:0:0:0:
91,56,202422,6,0,B|99:152|99:152|83:170,1,120,8|0,0:1|0:0,0:0:0:0:
26,129,202681,2,0,L|23:99,1,30,0|0,0:0|0:0,0:0:0:0:
254,96,202940,6,0,B|195:87|195:87|169:103,1,90.0000034332277,8|0,0:1|0:0,0:0:0:0:
169,103,203198,2,0,B|228:112|228:112|253:95,1,90.0000034332277,0|0,0:0|0:0,0:0:0:0:
322,0,203457,2,0,L|315:60,1,60,0|0,3:0|0:0,0:0:0:0:
368,109,203629,2,0,L|432:117,1,60,0|0,0:0|0:0,0:0:0:0:
387,94,203802,6,0,B|371:210|371:210|383:223,2,135.000005149841,12|0|0,0:0|0:0|0:0,0:0:0:0:
335,326,204491,6,0,B|272:332|272:332|179:342|179:342|160:372,1,180,0|0,3:0|0:0,0:0:0:0:
31,241,205181,2,0,B|101:325|101:325|108:322|108:322|122:213,1,225.000008583069,8|0,0:0|0:0,0:0:0:0:
133,207,205698,6,0,P|126:228|111:244,1,45.0000017166138,8|0,0:0|0:0,0:0:0:0:
22,302,205957,2,0,P|45:298|67:303,1,45.0000017166138,0|0,0:0|0:0,0:0:0:0:
157,349,206216,2,0,P|142:333|137:312,1,45.0000017166138,0|0,3:0|0:0,0:0:0:0:
133,207,206388,2,0,P|126:228|111:244,1,45.0000017166138,0|0,0:0|0:0,0:0:0:0:
209,299,206560,6,0,B|300:290|300:290|321:309,1,120,12|0,0:0|0:0,0:0:0:0:
321,309,206819,2,0,L|380:302,1,60,0|0,0:0|0:0,0:0:0:0:
406,225,207078,6,0,L|346:233,1,60,0|0,0:0|0:0,0:0:0:0:
274,364,207250,2,0,B|184:374,1,90.0000034332277,0|0,3:0|0:0,0:0:0:0:
308,86,207854,5,0,0:0:0:0:
312,90,207940,2,0,B|328:107|328:107|400:98|400:98|412:78,1,120,8|0,0:1|0:0,0:0:0:0:
356,33,208285,1,0,0:0:0:0:
200,185,208457,6,0,B|183:202|183:202|111:193|111:193|99:173,1,120,8|0,0:1|0:0,0:0:0:0:
156,128,208802,1,0,0:0:0:0:
303,296,208974,5,8,0:1:0:0:
413,280,209147,1,0,0:0:0:0:
138,320,209319,1,0,0:0:0:0:
348,238,209491,6,0,B|331:220|331:220|259:229|259:229|247:249,1,120,8|0,0:1|0:0,0:0:0:0:
312,368,210009,5,0,0:0:0:0:
