osu file format v14

[General]
AudioFilename: audio.mp3
AudioLeadIn: 0
PreviewTime: 78088
Countdown: 0
SampleSet: Soft
StackLeniency: 0.3
Mode: 0
LetterboxInBreaks: 1
WidescreenStoryboard: 1

[Editor]
Bookmarks: 33525,55850,78176,100502,122827,145153,167479,189804
DistanceSpacing: 1.2
BeatDivisor: 6
GridSize: 32
TimelineZoom: 2.8

[Metadata]
Title:Pencilina
TitleUnicode:Pencilina
Artist:Culprate & Dictate
ArtistUnicode:Culprate & Dictate
Creator:ScubDomino
Version:Advanced
Source:
Tags:Unity Project Part 2 EP Open Outlets Drum & Bass Neurofunk IDM glitch anime girl Twitch electronica Bristol icekalt
BeatmapID:1593975
BeatmapSetID:755651

[Difficulty]
HPDrainRate:3.5
CircleSize:4
OverallDifficulty:4.5
ApproachRate:7
SliderMultiplier:1.2
SliderTickRate:1

[Events]
//Background and Video events
0,0,"692310.jpg",0,0
//Break Periods
2,22571,29843
2,123036,144261
//Storyboard Layer 0 (Background)
//Storyboard Layer 1 (Fail)
//Storyboard Layer 2 (Pass)
//Storyboard Layer 3 (Foreground)
//Storyboard Sound Samples

[TimingPoints]
9813,348.837209302326,4,1,1,50,1,0
33515,-100,4,3,1,80,0,0
78167,-100,4,1,1,50,0,0
100492,-100,4,3,1,80,0,0
122818,-100,4,2,0,30,0,0
133981,-100,4,2,0,40,0,0
139562,-100,4,2,0,50,0,0
145143,-100,4,3,1,80,0,0

[Colours]
Combo1 : 255,28,28
Combo2 : 176,211,255
Combo3 : 225,130,132

[HitObjects]
36,55,11208,6,0,P|115:30|210:95,1,180,6|2,0:0|0:0,0:0:0:0:
133,354,12429,1,0,0:0:0:0:
101,289,12603,2,0,L|114:180,2,90,2|2|2,0:0|0:0|0:0,0:0:0:0:
461,285,13999,6,0,P|382:260|287:325,1,180,2|0,0:0|0:0,0:0:0:0:
273,370,14696,1,2,0:0:0:0:
490,188,15394,1,0,0:0:0:0:
448,129,15568,2,0,L|433:34,2,90,2|0|0,0:0|0:0|0:0,0:0:0:0:
233,321,16789,6,0,L|209:142,1,180,2|2,0:0|0:0,0:0:0:0:
408,350,18010,2,0,P|436:302|430:247,2,90,2|2|2,0:0|0:0|0:0,0:0:0:0:
370,210,18882,2,0,P|418:182|473:188,2,90,2|2|0,0:0|0:0|0:0,0:0:0:0:
349,279,19580,6,0,L|201:293,1,120,2|0,0:0|0:0,0:0:0:0:
164,320,20103,1,2,0:0:0:0:
273,134,20626,2,0,L|259:59,1,60,0|0,0:0|0:0,0:0:0:0:
302,15,20975,2,0,P|359:6|409:32,2,90,2|2|2,0:0|0:0|0:0,0:0:0:0:
261,75,21673,2,0,P|202:99|137:91,1,120,2|0,0:0|0:0,0:0:0:0:
24,12,22371,5,6,0:3:0:0:
256,192,30743,12,0,32836,0:0:0:0:
59,89,33533,6,0,P|113:24|148:87,1,180,6|0,0:0|0:0,0:0:0:0:
109,142,34231,1,8,0:0:0:0:
224,228,34580,1,0,0:0:0:0:
209,157,34754,2,0,P|255:115|299:114,2,90,2|0|2,0:0|0:0|0:0,0:0:0:0:
319,249,35626,2,0,L|308:109,1,120,8|0,0:0|0:0,0:0:0:0:
239,255,36324,6,0,P|195:340|293:320,1,240,2|8,0:0|0:0,0:0:0:0:
315,181,37371,1,0,0:0:0:0:
284,116,37545,1,2,0:0:0:0:
213,116,37719,2,0,P|130:124|83:43,1,180,2|8,0:0|0:0,0:0:0:0:
220,4,38592,1,2,0:0:0:0:
291,11,38766,2,0,L|350:18,1,60,8|0,0:0|0:0,0:0:0:0:
422,28,39115,6,0,P|443:86|350:68,1,180,2|0,0:0|0:0,0:0:0:0:
350,18,39813,1,8,0:0:0:0:
251,122,40161,1,0,0:0:0:0:
213,183,40336,2,0,P|225:249|254:280,2,90,2|2|2,0:0|0:0|0:0,0:0:0:0:
151,52,41208,2,0,P|87:29|46:39,2,90,2|8|2,0:0|0:0|0:0,0:0:0:0:
193,110,41906,6,0,P|263:122|200:32,1,240,2|8,0:0|0:0,0:0:0:0:
112,122,42952,2,0,P|128:158|146:177,1,60,2|0,0:0|0:0,0:0:0:0:
207,205,43301,2,0,P|270:206|338:160,1,120,2|0,0:0|0:0,0:0:0:0:
365,124,43824,1,8,0:0:0:0:
438,247,44173,1,2,0:3:0:0:
422,317,44347,2,0,P|367:329|343:325,1,60,8|2,0:3|0:2,0:0:0:0:
294,349,44696,6,0,P|246:309|334:286,1,180,6|0,0:0|0:0,0:0:0:0:
363,328,45394,1,8,0:0:0:0:
343,185,45743,1,0,0:0:0:0:
272,170,45917,2,0,P|216:193|186:220,2,90,2|2|2,0:0|0:0|0:0,0:0:0:0:
334,40,46789,2,0,L|345:141,2,90,8|8|8,0:0|0:0|0:0,0:0:0:0:
268,10,47487,6,0,P|173:43|250:104,1,240,2|8,0:0|0:3,0:0:0:0:
351,204,48533,1,2,0:0:0:0:
299,154,48708,1,2,0:0:0:0:
230,177,48882,2,0,P|231:265|330:266,1,180,2|8,0:0|0:0,0:0:0:0:
451,270,49754,1,2,0:0:0:0:
410,210,49929,2,0,L|343:203,1,60,8|0,0:0|0:0,0:0:0:0:
280,186,50278,6,0,P|264:139|363:156,1,180,2|0,0:0|0:0,0:0:0:0:
350,203,50975,1,8,0:0:0:0:
259,315,51324,1,0,0:0:0:0:
187,304,51499,2,0,P|157:266|156:214,2,90,2|2|2,0:0|0:0|0:0,0:0:0:0:
199,160,52371,2,0,P|246:153|292:178,2,90,2|8|2,0:0|0:0|0:0,0:0:0:0:
151,213,53068,6,0,P|65:221|110:111,1,240,2|8,0:0|0:0,0:0:0:0:
223,43,54115,2,0,L|228:108,1,60,2|2,0:3|0:2,0:0:0:0:
232,174,54464,1,2,0:0:0:0:
347,87,54813,2,0,P|487:79|385:168,1,360,0|2,0:0|0:2,0:0:0:0:
288,215,56121,6,0,B|281:266|281:266|297:320,1,90,2|0,0:0|0:0,0:0:0:0:
276,373,56557,2,0,B|286:323|286:323|275:292,1,60,8|0,0:0|0:0,0:0:0:0:
212,301,56906,1,0,0:0:0:0:
147,331,57080,2,0,B|104:346|104:346|52:328,2,90,2|2|8,0:0|0:0|0:0,0:0:0:0:
21,259,57952,2,0,L|13:151,2,90,8|8|8,0:0|0:0|0:0,0:0:0:0:
124,226,58737,6,0,P|188:240|219:276,2,90,2|2|2,0:0|0:0|0:0,0:0:0:0:
21,259,59522,2,0,L|13:151,1,90,8|2,0:0|0:0,0:0:0:0:
74,79,60045,2,0,P|123:99|152:151,2,90,2|8|2,0:0|0:0|0:0,0:0:0:0:
14,169,60830,1,2,0:0:0:0:
111,217,61092,2,0,L|194:211,1,60,8|0,0:0|0:0,0:0:0:0:
242,208,61440,6,0,P|265:266|252:313,2,90,0|2|0,0:0|0:0|0:0,0:0:0:0:
203,146,62138,2,0,L|211:64,1,60,8|0,0:0|0:0,0:0:0:0:
280,96,62487,2,0,L|285:36,1,60,2|0,0:0|0:0,0:0:0:0:
353,11,62836,2,0,P|427:79|374:126,1,180,2|0,0:0|0:0,0:0:0:0:
327,158,63533,2,0,P|322:203|358:244,2,90,8|8|2,0:0|0:0|0:0,0:0:0:0:
390,122,64231,6,0,P|449:164|348:238,1,240,2|8,0:0|0:0,0:0:0:0:
249,139,65278,1,0,0:0:0:0:
133,223,65626,2,0,P|160:256|205:273,2,90,2|2|8,0:0|0:0|0:0,0:0:0:0:
107,155,66324,2,0,P|106:119|115:68,1,60,0|2,0:0|0:0,0:0:0:0:
161,46,66673,1,8,0:0:0:0:
270,139,67022,6,0,P|336:84|266:65,1,180,6|0,0:0|0:0,0:0:0:0:
217,90,67719,1,8,0:0:0:0:
234,233,68068,2,0,L|299:228,1,60,2|2,0:2|0:2,0:0:0:0:
365,220,68417,2,0,P|399:283|391:323,2,90,2|2|2,0:0|0:0|0:0,0:0:0:0:
333,153,69115,2,0,P|301:184|293:228,2,90,8|8|8,0:0|0:0|0:0,0:0:0:0:
405,158,69813,6,0,P|457:73|371:104,1,240,2|8,0:0|0:3,0:0:0:0:
332,231,70859,1,2,0:0:0:0:
260,221,71033,1,2,0:0:0:0:
234,153,71208,2,0,P|245:106|276:75,1,90,2|2,0:0|0:0,0:0:0:0:
367,24,71731,2,0,P|403:82|384:155,1,120,8|2,0:0|0:0,0:0:0:0:
347,183,72254,1,8,0:0:0:0:
202,183,72603,6,0,P|163:250|239:231,1,180,2|0,0:0|0:0,0:0:0:0:
274,190,73301,1,8,0:0:0:0:
198,67,73650,1,0,0:0:0:0:
269,57,73824,2,0,P|316:89|327:137,2,90,2|2|2,0:0|0:0|0:0,0:0:0:0:
140,122,74696,2,0,P|88:146|41:132,2,90,2|8|2,0:0|0:0|0:0,0:0:0:0:
212,123,75394,6,0,P|259:209|162:191,1,240,2|8,0:0|0:0,0:0:0:0:
87,77,76440,1,2,0:3:0:0:
228,48,76789,2,0,P|288:68|325:104,2,90,2|0|8,0:0|0:0|0:3,0:0:0:0:
128,152,77661,1,2,0:3:0:0:
118,223,77836,2,0,L|97:360,1,120,8|6,0:3|0:0,0:0:0:0:
453,197,79406,5,0,0:0:0:0:
417,134,79580,2,0,L|434:19,2,90,2|2|2,0:0|0:0|0:0,0:0:0:0:
70,233,80975,6,0,P|182:205|272:277,1,240,2|0,0:0|0:0,0:0:0:0:
146,18,82371,2,0,L|161:117,2,90,2|2|2,0:0|0:0|0:0,0:0:0:0:
481,147,83766,6,0,P|366:80|254:108,1,240,2|0,0:0|0:0,0:0:0:0:
107,340,85161,2,0,L|80:87,1,240,2|0,0:0|0:0,0:0:0:0:
252,333,86557,6,0,P|340:253|471:250,1,240,2|0,0:0|0:0,0:0:0:0:
244,50,87952,2,0,L|257:162,2,90,2|2|2,0:0|0:0|0:0,0:0:0:0:
181,12,88650,1,0,0:0:0:0:
146,151,88999,1,2,0:2:0:0:
111,290,89347,5,6,0:2:0:0:
448,371,90743,2,0,L|439:271,2,90,2|2|2,0:0|0:0|0:0,0:0:0:0:
130,201,92138,6,0,P|241:185|367:261,1,240,2|0,0:0|0:0,0:0:0:0:
90,364,93533,2,0,L|79:261,2,90,2|2|2,0:0|0:0|0:0,0:0:0:0:
275,55,94929,6,0,P|201:39|51:133,1,240,2|0,0:0|0:0,0:0:0:0:
175,378,96324,2,0,L|206:118,1,240,2|2,0:0|0:0,0:0:0:0:
501,258,97719,6,0,P|403:311|280:275,1,240,2|0,0:0|0:0,0:0:0:0:
448,79,99115,2,0,L|457:185,2,90,2|2|2,0:0|0:0|0:0,0:0:0:0:
401,23,99813,2,0,P|314:16|228:60,1,180,2|0,0:0|0:0,0:0:0:0:
175,103,100510,6,0,P|105:78|164:33,1,180,6|0,0:0|0:0,0:0:0:0:
232,55,101208,2,0,B|254:78|254:78|246:160,2,90,8|2|2,0:0|0:0|0:0,0:0:0:0:
366,107,102080,1,0,0:0:0:0:
377,177,102254,2,0,P|339:214|310:217,1,60,2|0,0:0|0:0,0:0:0:0:
263,231,102603,2,0,B|258:281|258:281|278:333,2,90,8|2|2,0:3|0:2|0:2,0:0:0:0:
286,162,103301,6,0,P|210:176|189:219,1,120,2|0,0:0|0:0,0:0:0:0:
54,255,103999,2,0,B|118:249|118:249|168:288,1,120,8|0,0:0|0:0,0:0:0:0:
203,342,104522,1,2,0:0:0:0:
271,321,104696,2,0,B|310:343|310:343|376:340,2,90,2|2|8,0:0|0:2|0:3,0:0:0:0:
250,178,105568,1,2,0:0:0:0:
295,121,105743,2,0,L|377:118,1,60,8|0,0:0|0:0,0:0:0:0:
427,122,106092,6,0,P|480:178|374:167,1,240,2|8,0:0|0:0,0:0:0:0:
368,42,107138,2,0,L|357:-19,2,40,2|2|2,0:0|0:0|0:0,0:0:0:0:
338,79,107487,2,0,P|294:97|245:92,1,90,2|0,0:0|0:0,0:0:0:0:
134,34,108068,2,0,P|135:98|176:151,1,120,8|8,0:0|0:0,0:0:0:0:
255,223,108708,1,2,0:0:0:0:
179,226,108882,6,0,P|188:343|273:304,1,240,2|8,0:0|0:0,0:0:0:0:
350,194,109929,1,2,0:3:0:0:
395,57,110278,2,0,P|336:51|291:65,2,90,2|2|8,0:0|0:0|0:0,0:0:0:0:
439,113,110975,2,0,L|443:197,1,60,8|0,0:0|0:0,0:0:0:0:
444,245,111324,1,8,0:0:0:0:
318,315,111673,5,4,0:0:0:0:
178,279,112022,2,0,B|166:248|166:248|191:148,2,120,2|2|2,0:2|0:2|0:2,0:0:0:0:
226,332,112894,2,0,P|308:344|348:306,1,120,2|0,0:0|0:0,0:0:0:0:
341,181,113592,1,2,0:0:0:0:
381,122,113766,2,0,L|472:111,2,90,8|8|8,0:0|0:0|0:0,0:0:0:0:
341,181,114464,6,0,L|258:173,1,60,2|0,0:0|0:0,0:0:0:0:
209,167,114813,1,0,0:0:0:0:
150,298,115161,2,0,P|221:318|274:285,1,120,8|2,0:0|0:0,0:0:0:0:
341,181,115859,2,0,P|288:232|290:294,1,120,2|0,0:0|0:0,0:0:0:0:
321,337,116382,2,0,L|455:323,1,120,8|0,0:0|0:0,0:0:0:0:
483,265,116906,1,8,0:0:0:0:
371,174,117254,6,0,P|350:131|359:79,2,90,2|0|0,0:0|0:0|0:0,0:0:0:0:
423,223,117952,2,0,B|397:260|397:260|294:253,1,120,8|0,0:0|0:0,0:0:0:0:
252,272,118475,2,0,P|244:315|259:371,2,90,2|2|2,0:0|0:0|0:0,0:0:0:0:
193,140,119347,2,0,P|159:111|103:96,2,90,2|8|2,0:0|0:0|0:0,0:0:0:0:
246,189,120045,6,0,P|319:154|226:82,1,240,2|8,0:0|0:0,0:0:0:0:
175,210,121092,1,2,0:0:0:0:
256,328,121440,1,2,0:0:0:0:
256,192,121615,12,6,122836,0:0:0:0:
20,346,145161,5,6,0:0:0:0:
69,293,145336,2,0,B|161:284|161:284|195:320,1,120,0|0,0:0|0:0,0:0:0:0:
231,354,145859,2,0,B|323:363|323:363|341:342,1,120,2|0,0:2|0:0,0:0:0:0:
391,290,146382,2,0,B|421:251|421:251|418:193,2,90,0|2|2,0:0|0:2|0:2,0:0:0:0:
291,249,147167,2,0,B|288:208|288:208|318:169,2,90,2|2|2,0:2|0:2|0:2,0:0:0:0:
243,113,148039,6,0,P|165:107|139:85,2,90,2|2|2,0:0|0:0|0:0,0:0:0:0:
320,35,148824,1,8,0:0:0:0:
418,79,149086,1,2,0:0:0:0:
410,186,149347,2,0,P|476:177|518:193,2,90,2|8|2,0:0|0:0|0:0,0:0:0:0:
326,254,150132,2,0,L|208:258,1,90,2|8,0:0|0:0,0:0:0:0:
127,260,150656,1,8,0:0:0:0:
40,145,151004,6,0,B|27:115|27:115|130:126,1,120,8|0,0:0|0:0,0:0:0:0:
144,58,151528,2,0,B|156:28|156:28|53:39,1,120,8|0,0:0|0:0,0:0:0:0:
14,86,152051,2,0,P|18:139|58:182,2,90,2|2|8,0:0|0:0|0:0,0:0:0:0:
131,0,152923,2,0,L|209:6,1,60,0|2,0:0|0:2,0:0:0:0:
351,149,153621,6,0,P|337:224|276:177,2,180,2|2|2,0:0|0:0|0:3,0:0:0:0:
250,298,155103,2,0,P|321:318|388:304,1,120,2|2,0:0|0:0,0:0:0:0:
447,242,155714,1,2,0:0:0:0:
409,140,155975,2,0,L|322:149,1,60,8|2,0:3|0:2,0:0:0:0:
281,171,156324,6,0,P|255:91|331:78,1,180,2|0,0:0|0:0,0:0:0:0:
349,146,157022,1,8,0:0:0:0:
305,283,157371,1,0,0:0:0:0:
245,322,157545,2,0,P|190:310|159:269,2,90,2|0|0,0:0|0:0|0:0,0:0:0:0:
355,229,158417,2,0,P|392:187|443:181,2,90,8|2|8,0:0|0:0|0:0,0:0:0:0:
341,299,159115,6,0,P|416:356|408:248,1,240,2|8,0:0|0:0,0:0:0:0:
290,202,160161,1,2,0:0:0:0:
223,229,160336,1,2,0:0:0:0:
173,177,160510,2,0,P|175:138|188:103,2,60,2|0|0,0:0|0:0|0:0,0:0:0:0:
115,221,161033,2,0,P|37:213|6:175,1,120,8|2,0:0|0:0,0:0:0:0:
8,112,161557,1,8,0:3:0:0:
120,21,161906,6,0,P|202:27|152:72,1,180,2|0,0:0|0:0,0:0:0:0:
96,89,162603,1,8,0:0:0:0:
107,232,162952,1,0,0:0:0:0:
178,231,163126,2,0,P|212:278|215:328,2,90,2|2|2,0:0|0:0|0:0,0:0:0:0:
281,129,163999,2,0,P|304:76|346:48,2,90,2|8|2,0:0|0:0|0:0,0:0:0:0:
271,200,164696,6,0,P|378:212|329:155,1,240,2|8,0:0|0:3,0:0:0:0:
201,156,165743,1,2,0:0:0:0:
230,296,166092,2,0,P|278:329|360:332,1,120,2|0,0:0|0:0,0:0:0:0:
405,308,166615,2,0,P|442:258|450:189,1,120,8|2,0:3|0:3,0:0:0:0:
430,132,167138,1,8,0:3:0:0:
299,193,167487,6,0,P|223:157|274:116,1,180,6|0,0:0|0:0,0:0:0:0:
342,134,168185,1,8,0:0:0:0:
323,276,168533,1,0,0:0:0:0:
250,285,168708,2,0,P|195:265|159:222,2,90,2|2|2,0:0|0:0|0:0,0:0:0:0:
378,217,169580,2,0,P|423:178|479:169,2,90,8|0|0,0:0|0:0|0:0,0:0:0:0:
385,324,170365,6,0,P|419:352|462:364,2,90,2|2|2,0:0|0:0|0:0,0:0:0:0:
378,217,171150,2,0,L|393:108,1,90,8|2,0:0|0:0,0:0:0:0:
329,38,171673,2,0,P|258:33|221:55,2,90,2|8|2,0:0|0:0|0:0,0:0:0:0:
390,127,172458,2,0,P|461:132|498:110,1,90,2|8,0:0|0:0,0:0:0:0:
490,54,172894,1,8,0:0:0:0:
440,1,173068,6,0,P|482:80|395:95,1,180,2|0,0:0|0:0,0:0:0:0:
383,45,173766,1,8,0:0:0:0:
304,166,174115,1,0,0:0:0:0:
315,236,174289,2,0,P|360:257|401:248,2,90,2|2|2,0:0|0:0|0:0,0:0:0:0:
172,215,175161,2,0,P|131:243|118:283,2,90,10|8|2,0:0|0:0|0:0,0:0:0:0:
211,154,175859,6,0,P|150:73|107:165,1,240,2|8,0:0|0:0,0:0:0:0:
165,293,176906,1,2,0:3:0:0:
276,202,177254,2,0,P|295:151|290:88,1,90,2|2,0:0|0:0,0:0:0:0:
363,31,177778,2,0,P|433:68|443:123,1,120,8|2,0:0|0:0,0:0:0:0:
421,171,178301,1,8,0:3:0:0:
276,202,178650,6,0,P|225:242|300:275,1,180,6|0,0:0|0:0,0:0:0:0:
344,217,179347,1,8,0:0:0:0:
230,128,179696,1,0,0:0:0:0:
172,171,179871,2,0,P|147:224|151:278,2,90,2|2|2,0:0|0:0|0:0,0:0:0:0:
267,63,180743,2,0,P|234:14|185:-8,2,90,8|8|8,0:0|0:0|0:0,0:0:0:0:
255,133,181440,6,0,P|366:145|310:77,1,240,2|8,0:0|0:3,0:0:0:0:
190,86,182487,1,2,0:0:0:0:
142,139,182661,1,0,0:0:0:0:
187,198,182836,2,0,P|219:240|219:298,1,90,2|0,0:0|0:0,0:0:0:0:
157,361,183359,2,0,P|97:359|52:323,1,120,8|2,0:0|0:0,0:0:0:0:
44,250,183882,1,8,0:0:0:0:
126,135,184231,6,0,P|186:112|186:198,1,180,2|0,0:0|0:0,0:0:0:0:
114,206,184929,1,8,0:0:0:0:
219,304,185278,1,0,0:0:0:0:
283,272,185452,2,0,P|297:222|281:166,2,90,2|2|2,0:0|0:0|0:0,0:0:0:0:
413,334,186324,2,0,P|449:371|505:385,2,90,2|8|2,0:0|0:0|0:0,0:0:0:0:
379,270,187022,6,0,P|425:187|459:280,1,240,2|8,0:0|0:3,0:0:0:0:
332,341,188068,1,2,0:3:0:0:
200,283,188417,1,2,0:0:0:0:
256,192,188592,12,6,189813,0:3:0:0:
