osu file format v14

[General]
AudioFilename: audio.mp3
AudioLeadIn: 0
PreviewTime: 78088
Countdown: 0
SampleSet: None
StackLeniency: 0.5
Mode: 0
LetterboxInBreaks: 1
WidescreenStoryboard: 1

[Editor]
Bookmarks: 33525,44693,55850,67018,78176,100502,106088,108879,122827,145153,156321,167479,178646,189804
DistanceSpacing: 0.7
BeatDivisor: 4
GridSize: 16
TimelineZoom: 2.200001

[Metadata]
Title:Pencilina
TitleUnicode:Pencilina
Artist:Culprate & Dictate
ArtistUnicode:Culprate & Dictate
Creator:Celektus
Version:yaspo's Insane
Source:
Tags:Unity Project, Pt. 2 Open Outlets Drum'n'Bass Neurofunk IDM glitch wub technical gimmicky mapping xd futuristic hexagon yaspo
BeatmapID:1623299
BeatmapSetID:722634

[Difficulty]
HPDrainRate:6
CircleSize:4
OverallDifficulty:7
ApproachRate:9
SliderMultiplier:1.6
SliderTickRate:1

[Events]
//Background and Video events
0,0,"692310.jpg",0,0
//Break Periods
2,22567,32930
//Storyboard Layer 0 (Background)
//Storyboard Layer 1 (Fail)
//Storyboard Layer 2 (Pass)
//Storyboard Layer 3 (Foreground)
//Storyboard Sound Samples

[TimingPoints]
11205,348.837209302326,4,3,1,35,1,0
11466,-100,4,3,1,35,0,0
11553,-145.454545454545,4,3,1,35,0,0
11902,-100,4,3,1,35,0,0
12251,-100,4,3,1,35,0,0
12425,-121.212121212121,4,3,1,35,0,0
12949,-100,4,3,1,35,0,0
13210,-100,4,3,1,35,0,0
13298,-145.454545454545,4,3,1,35,0,0
13908,-100,4,3,1,35,0,0
13995,-100,4,3,1,35,0,0
14257,-100,4,3,1,35,0,0
14344,-145.454545454545,4,3,1,35,0,0
14606,-100,4,3,1,35,0,0
14693,-100,4,3,1,35,0,0
15565,-121.212121212121,4,3,1,35,0,0
16263,-100,4,3,1,35,0,0
16350,-100,4,3,1,35,0,0
16437,-100,4,3,1,35,0,0
16699,-100,4,3,1,35,0,0
16786,-145.454545454545,4,3,1,35,0,0
17309,-103.896103896104,4,3,1,35,0,0
17745,-100,4,3,1,5,0,0
17832,-100,4,3,1,35,0,0
18007,-100,4,3,1,35,0,0
18879,-145.454545454545,4,3,1,35,0,0
20100,-103.896103896104,4,3,1,35,0,0
20536,-100,4,3,1,35,0,0
20623,-100,4,3,1,35,0,0
20798,-121.212121212121,4,3,1,35,0,0
21321,-145.454545454545,4,3,1,35,0,0
22018,-100,4,3,1,35,0,0
22280,-100,4,3,1,5,0,0
22367,-100,4,3,1,35,0,0
33530,-62.5,4,3,1,70,0,1
34141,-83.3333333333333,4,3,1,5,0,0
34228,-83.3333333333333,4,3,1,70,0,0
34664,-83.3333333333333,4,3,1,5,0,0
34751,-83.3333333333333,4,3,1,70,0,0
35623,-83.3333333333333,4,3,1,70,0,0
36059,-83.3333333333333,4,3,1,70,0,0
36234,-83.3333333333333,4,3,1,5,0,0
36321,-62.5,4,3,1,70,0,0
36931,-83.3333333333333,4,3,1,5,0,0
37018,-83.3333333333333,4,3,1,70,0,0
37280,-83.3333333333333,4,3,1,5,0,0
37367,-83.3333333333333,4,3,1,70,0,0
37716,-62.5,4,3,1,70,0,0
38239,-83.3333333333333,4,3,1,70,0,0
38763,-166.666666666667,4,3,1,70,0,0
39111,-83.3333333333333,4,3,1,70,0,0
39809,-55.5555555555556,4,3,1,70,0,0
40332,-83.3333333333333,4,3,1,70,0,0
40856,-83.3333333333333,4,3,1,70,0,0
41205,-83.3333333333333,4,3,1,70,0,0
41641,-83.3333333333333,4,3,1,5,0,0
41728,-83.3333333333333,4,3,1,70,0,0
41902,-83.3333333333333,4,3,1,70,0,0
42600,-55.5555555555556,4,3,1,70,0,0
43123,-83.3333333333333,4,3,1,70,0,0
43821,-83.3333333333333,4,3,1,70,0,0
44082,-83.3333333333333,4,3,1,70,0,0
44344,-55.5555555555556,4,3,1,70,0,0
44606,-83.3333333333333,4,3,1,5,0,0
44693,-62.5,4,3,1,70,0,1
45303,-100,4,3,1,5,0,0
45391,-100,4,3,1,70,0,0
45652,-83.3333333333333,4,3,1,70,0,0
45827,-100,4,3,1,5,0,0
45914,-83.3333333333333,4,3,1,70,0,0
47484,-62.5,4,3,1,70,0,0
48094,-100,4,3,1,5,0,0
48181,-100,4,3,1,70,0,0
48443,-100,4,3,1,5,0,0
48530,-83.3333333333333,4,3,1,70,0,0
48879,-62.5,4,3,1,70,0,0
49053,-100,4,3,1,70,0,0
49228,-100,4,3,1,70,0,0
49925,-62.5,4,3,1,70,0,0
50274,-83.3333333333333,4,3,1,70,0,0
50972,-55.5555555555556,4,3,1,70,0,0
51495,-100,4,3,1,70,0,0
52018,-100,4,3,1,70,0,0
52367,-100,4,3,1,70,0,0
52803,-100,4,3,1,5,0,0
52891,-100,4,3,1,70,0,0
53414,-83.3333333333333,4,3,1,70,0,0
53763,-55.5555555555556,4,3,1,70,0,0
54460,-83.3333333333333,4,3,1,70,0,0
55158,-100,4,3,1,70,0,0
55245,-62.5,4,3,1,70,0,0
55768,-100,4,3,1,70,0,0
55856,-200,4,3,1,70,0,0
56117,-55.5555555555556,4,3,1,70,0,0
56466,-100,4,3,1,5,0,0
56553,-55.5555555555556,4,3,1,70,0,0
56815,-55.5555555555556,4,3,1,5,0,0
56902,-55.5555555555556,4,3,1,70,0,0
57077,-100,4,3,1,70,0,0
57425,-62.5,4,3,1,70,0,0
57513,-62.5,4,3,1,5,0,0
57600,-62.5,4,3,1,70,0,0
57861,-62.5,4,3,1,5,0,0
57949,-62.5,4,3,1,70,0,0
58123,-62.5,4,3,1,5,0,0
58210,-62.5,4,3,1,70,0,0
58385,-62.5,4,3,1,5,0,0
58472,-62.5,4,3,1,70,0,0
58908,-62.5,4,3,1,5,0,0
58995,-62.5,4,3,1,70,0,0
59170,-62.5,4,3,1,5,0,0
59257,-62.5,4,3,1,70,0,0
59431,-62.5,4,3,1,5,0,0
59518,-125,4,3,1,70,0,0
60042,-55.5555555555556,4,3,1,70,0,0
60478,-55.5555555555556,4,3,1,5,0,0
60565,-55.5555555555556,4,3,1,70,0,0
61611,-25,4,3,1,70,0,1
61699,-47.6190476190476,4,3,1,70,0,0
62048,-47.6190476190476,4,3,1,5,0,0
62135,-47.6190476190476,4,3,1,70,0,0
62396,-47.6190476190476,4,3,1,5,0,0
62484,-100,4,3,1,70,0,0
64228,-100,4,3,1,70,0,0
64838,-100,4,3,1,5,0,0
64925,-100,4,3,1,70,0,0
65187,-100,4,3,1,5,0,0
65274,-100,4,3,1,70,0,0
65536,-100,4,3,1,5,0,0
65623,-100,4,3,1,70,0,0
66059,-100,4,3,1,5,0,0
66146,-100,4,3,1,70,0,0
66408,-71.4285714285714,4,3,1,70,0,1
66582,-25,4,3,1,70,0,0
66670,-50,4,3,1,70,0,1
66931,-50,4,3,1,5,0,1
67018,-55.5555555555556,4,3,1,70,0,1
67629,-100,4,3,1,5,0,1
67716,-83.3333333333333,4,3,1,70,0,1
67891,-83.3333333333333,4,3,1,70,0,1
68152,-83.3333333333333,4,3,1,5,0,1
68239,-83.3333333333333,4,3,1,70,0,1
68414,-83.3333333333333,4,3,1,70,0,1
69111,-62.5,4,3,1,70,0,1
69809,-55.5555555555556,4,3,1,70,0,1
70420,-55.5555555555556,4,3,1,5,0,1
70507,-200,4,3,1,70,0,1
70768,-200,4,3,1,5,0,1
70856,-100,4,3,1,70,0,1
71205,-62.5,4,3,1,70,0,1
71641,-62.5,4,3,1,5,0,1
71728,-62.5,4,3,1,70,0,1
71989,-100,4,3,1,70,0,1
72251,-50,4,3,1,70,0,1
72513,-50,4,3,1,5,0,1
72600,-55.5555555555556,4,3,1,70,0,1
73210,-55.5555555555556,4,3,1,5,0,1
73298,-100,4,3,1,70,0,1
73734,-100,4,3,1,5,0,1
73821,-100,4,3,1,70,0,1
74518,-71.4285714285714,4,3,1,70,0,1
75391,-55.5555555555556,4,3,1,70,0,1
76001,-55.5555555555556,4,3,1,5,0,1
76088,-200,4,3,1,70,0,1
76350,-200,4,3,1,5,0,1
76437,-200,4,3,1,70,0,1
76699,-200,4,3,1,5,0,1
76786,-100,4,3,1,70,0,1
77048,-71.4285714285714,4,3,1,70,0,1
77222,-71.4285714285714,4,3,1,5,0,1
77309,-71.4285714285714,4,3,1,70,0,1
77571,-50,4,3,1,70,0,1
78181,-100,4,2,1,30,0,0
100158,-100,4,3,1,30,0,0
100420,-100,4,3,1,5,0,0
100507,-133.333333333333,4,3,1,60,0,0
101117,-133.333333333333,4,3,1,5,0,0
101205,-133.333333333333,4,3,1,70,0,0
101379,-133.333333333333,4,3,1,5,0,0
101466,-133.333333333333,4,3,1,70,0,0
101641,-100,4,3,1,5,0,0
101728,-100,4,3,1,70,0,0
102251,-100,4,3,1,70,0,0
102600,-71.4285714285714,4,3,1,70,0,0
102861,-100,4,3,1,70,0,0
103298,-100,4,3,1,70,0,0
103908,-100,4,3,1,5,0,0
103995,-71.4285714285714,4,3,1,60,0,0
104344,-100,4,3,1,70,0,0
104693,-100,4,3,1,70,0,0
104955,-100,4,3,1,70,0,0
105739,-100,4,3,1,70,0,0
106001,-100,4,3,1,5,0,0
106088,-50,4,3,1,70,0,0
106699,-50,4,3,1,5,0,0
106786,-50,4,3,1,70,0,0
107135,-100,4,3,1,70,0,0
108879,-125,4,3,1,70,0,0
109489,-125,4,3,1,5,0,0
109577,-100,4,3,1,70,0,0
110187,-100,4,3,1,5,0,0
110274,-71.4285714285714,4,3,1,70,0,0
110798,-100,4,3,1,70,0,0
111670,-62.5,4,3,1,70,0,0
112018,-100,4,3,1,70,0,0
112891,-71.4285714285714,4,3,1,70,0,0
113239,-100,4,3,1,70,0,0
113588,-100,4,3,1,70,0,0
114460,-100,4,3,1,70,0,0
115071,-100,4,3,1,5,0,0
115158,-100,4,3,1,70,0,0
116379,-71.4285714285714,4,3,1,70,0,0
116902,-200,4,3,1,70,0,0
117251,-55.5555555555556,4,3,1,70,0,0
117861,-55.5555555555556,4,3,1,5,0,0
117949,-62.5,4,3,1,70,0,0
118385,-62.5,4,3,1,5,0,0
118472,-100,4,3,1,70,0,0
118908,-100,4,3,1,5,0,0
118995,-100,4,3,1,70,0,0
119257,-100,4,3,1,5,0,0
119344,-100,4,3,1,70,0,0
119518,-100,4,3,1,5,0,0
119606,-100,4,3,1,70,0,0
120042,-100,4,3,1,70,0,0
120652,-100,4,3,1,5,0,0
120739,-100,4,3,1,70,0,0
121001,-100,4,3,1,5,0,0
121088,-100,4,3,1,70,0,0
121350,-100,4,3,1,5,0,0
121437,-100,4,3,1,70,0,0
122484,-71.4285714285714,4,3,1,70,0,0
122745,-71.4285714285714,4,3,1,5,0,0
122832,-100,4,3,1,25,0,0
124925,-100,4,3,1,27,0,0
125972,-100,4,3,1,30,0,0
127018,-100,4,3,1,32,0,0
128588,-100,4,3,1,35,0,0
129635,-100,4,3,1,40,0,0
131205,-100,4,3,1,45,0,0
131728,-100,4,3,1,45,0,0
132251,-100,4,3,1,45,0,0
133646,-100,4,3,1,30,0,0
133995,-100,4,3,1,25,0,0
136088,-100,4,3,1,27,0,0
137135,-100,4,3,1,30,0,0
138181,-100,4,3,1,32,0,0
139751,-100,4,3,1,35,0,0
140798,-100,4,3,1,40,0,0
142367,-100,4,3,1,45,0,0
142891,-100,4,3,1,45,0,0
143414,-100,4,3,1,45,0,0
144809,-100,4,3,1,60,0,0
145071,-100,4,3,1,5,0,0
145158,-55.5555555555556,4,3,1,70,0,0
145768,-55.5555555555556,4,3,1,5,0,0
145856,-55.5555555555556,4,3,1,70,0,0
146117,-100,4,3,1,5,0,0
146205,-100,4,3,1,70,0,0
146553,-100,4,3,1,5,0,0
146641,-83.3333333333333,4,3,1,70,0,0
146815,-100,4,3,1,5,0,0
146902,-83.3333333333333,4,3,1,70,0,0
147077,-100,4,3,1,5,0,0
147164,-83.3333333333333,4,3,1,70,0,0
147251,-100,4,3,1,5,0,0
147338,-62.5,4,3,1,70,0,0
147513,-100,4,3,1,5,0,0
147600,-62.5,4,3,1,70,0,0
147774,-100,4,3,1,5,0,0
147861,-62.5,4,3,1,70,0,0
148036,-62.5,4,3,1,70,0,0
148210,-62.5,4,3,1,5,0,0
148298,-62.5,4,3,1,70,0,0
148472,-62.5,4,3,1,5,0,0
148559,-62.5,4,3,1,70,0,0
148734,-62.5,4,3,1,5,0,0
148821,-125,4,3,1,70,0,0
149344,-55.5555555555556,4,3,1,70,0,0
149780,-55.5555555555556,4,3,1,5,0,0
149867,-55.5555555555556,4,3,1,70,0,0
151001,-47.6190476190476,4,3,1,70,0,0
151786,-100,4,3,1,70,0,0
153094,-100,4,3,1,70,0,0
153617,-100,4,3,1,70,0,0
155100,-100,4,3,1,70,0,0
155972,-55.5555555555556,4,3,1,70,0,0
156234,-100,4,3,1,5,0,0
156321,-83.3333333333333,4,3,1,70,0,0
156931,-83.3333333333333,4,3,1,5,0,0
157018,-100,4,3,1,70,0,0
157193,-71.4285714285714,4,3,1,70,0,0
158065,-100,4,3,1,70,0,0
158414,-100,4,3,1,70,0,0
159111,-83.3333333333333,4,3,1,70,0,0
159722,-83.3333333333333,4,3,1,5,0,0
159809,-200,4,3,1,70,0,0
160071,-200,4,3,1,5,0,0
160158,-100,4,3,1,70,0,0
161553,-62.5,4,3,1,70,0,0
161902,-83.3333333333333,4,3,1,70,0,0
162513,-83.3333333333333,4,3,1,5,0,0
162600,-100,4,3,1,70,0,0
163036,-100,4,3,1,5,0,0
163123,-100,4,3,1,70,0,0
163821,-133.333333333333,4,3,1,70,0,0
164693,-83.3333333333333,4,3,1,70,0,0
165303,-83.3333333333333,4,3,1,5,0,0
165391,-100,4,3,1,70,0,0
165739,-50,4,3,1,70,0,0
166088,-100,4,3,1,70,0,0
167484,-62.5,4,3,1,70,0,1
168094,-62.5,4,3,1,5,0,1
168181,-62.5,4,3,1,70,0,1
168443,-62.5,4,3,1,5,0,1
168530,-62.5,4,3,1,70,0,1
168966,-100,4,3,1,70,0,1
169489,-100,4,3,1,5,0,1
169577,-71.4285714285714,4,3,1,70,0,1
170013,-71.4285714285714,4,3,1,5,0,1
170100,-71.4285714285714,4,3,1,70,0,1
170536,-71.4285714285714,4,3,1,5,0,1
170623,-71.4285714285714,4,3,1,70,0,1
171059,-71.4285714285714,4,3,1,5,0,1
171146,-142.857142857143,4,3,1,70,0,1
171670,-100,4,3,1,70,0,1
172455,-55.5555555555556,4,3,1,70,0,1
172629,-55.5555555555556,4,3,1,5,0,1
172716,-55.5555555555556,4,3,1,70,0,1
173065,-100,4,3,1,70,0,1
173588,-100,4,3,1,70,0,1
173763,-55.5555555555556,4,3,1,70,0,1
174286,-100,4,3,1,70,0,1
174460,-100,4,3,1,70,0,1
175681,-100,4,3,1,70,0,1
176205,-83.3333333333333,4,3,1,70,0,1
176553,-55.5555555555556,4,3,1,70,0,1
178298,-50,4,3,1,70,0,1
178559,-50,4,3,1,5,0,1
178646,-55.5555555555556,4,3,1,70,0,1
179257,-55.5555555555556,4,3,1,5,0,1
179344,-100,4,3,1,70,0,1
179518,-83.3333333333333,4,3,1,70,0,1
179780,-83.3333333333333,4,3,1,5,0,1
179867,-62.5,4,3,1,70,0,1
181437,-55.5555555555556,4,3,1,70,0,1
182048,-55.5555555555556,4,3,1,5,0,1
182135,-200,4,3,1,70,0,1
182396,-200,4,3,1,5,0,1
182484,-100,4,3,1,70,0,1
182832,-62.5,4,3,1,70,0,1
183007,-100,4,3,1,70,0,1
183268,-100,4,3,1,5,0,1
183356,-100,4,3,1,70,0,1
183617,-50,4,3,1,70,0,1
184228,-55.5555555555556,4,3,1,70,0,1
184751,-100,4,3,1,70,0,1
184838,-100,4,3,1,5,0,1
184925,-100,4,3,1,70,0,1
185361,-100,4,3,1,5,0,1
185449,-100,4,3,1,70,0,1
186146,-71.4285714285714,4,3,1,70,0,1
186844,-100,4,3,1,70,0,1
187018,-55.5555555555556,4,3,1,70,0,1
187367,-100,4,3,1,70,0,1
187629,-100,4,3,1,5,0,1
187716,-200,4,3,1,70,0,1
187978,-200,4,3,1,5,0,1
188065,-200,4,3,1,70,0,1
188327,-200,4,3,1,5,0,1
188414,-100,4,3,1,70,0,1
188675,-71.4285714285714,4,3,1,70,0,1
188850,-71.4285714285714,4,3,1,5,0,1
188937,-71.4285714285714,4,3,1,70,0,1
189111,-71.4285714285714,4,3,1,5,0,1
189199,-55.5555555555556,4,3,1,70,0,1
189809,-100,4,2,1,25,0,0
192251,-100,4,2,1,25,0,0
192513,-100,4,2,1,5,0,0
192600,-100,4,2,1,25,0,0
196611,-100,4,2,1,25,0,0
199053,-125,4,2,1,25,0,0
201234,-125,4,2,1,24,0,0
201495,-125,4,2,1,23,0,0
201757,-125,4,2,1,22,0,0
201844,-166.666666666667,4,2,1,22,0,0
202018,-166.666666666667,4,2,1,21,0,0
202280,-166.666666666667,4,2,1,20,0,0
202542,-166.666666666667,4,2,1,19,0,0
202803,-166.666666666667,4,2,1,18,0,0
203065,-166.666666666667,4,2,1,17,0,0
203239,-250,4,2,1,17,0,0
203327,-250,4,2,1,16,0,0
203588,-250,4,2,1,15,0,0
203850,-250,4,2,1,14,0,0
204111,-250,4,2,1,13,0,0
204373,-250,4,2,1,12,0,0
204460,-400,4,2,1,12,0,0
204635,-400,4,2,1,11,0,0
204896,-400,4,2,1,10,0,0
205158,-400,4,2,1,9,0,0
205420,-400,4,2,1,8,0,0
205507,-1000,4,2,1,8,0,0
205681,-1000,4,2,1,7,0,0
205943,-1000,4,2,1,6,0,0
206205,-1000,4,2,1,5,0,0

[Colours]
Combo1 : 64,255,165
Combo2 : 255,128,64
Combo3 : 255,64,83
Combo4 : 245,80,200
Combo5 : 131,64,255
Combo6 : 64,203,255

[HitObjects]
0,201,11204,53,2,0:2:0:0:
77,339,11553,2,0,L|140:338,1,55,0|0,0:0|0:0,0:0:0:0:
234,303,11902,1,0,0:0:0:0:
234,303,11989,2,0,L|214:337,2,40,0|0|0,0:0|0:0|0:0,0:0:0:0:
293,200,12251,1,0,0:0:0:0:
341,269,12425,6,0,L|500:269,1,132.00000125885,2|0,0:2|0:0,0:0:0:0:
511,202,12949,1,2,0:2:0:0:
346,125,13298,1,0,0:0:0:0:
155,202,13646,2,0,L|109:123,1,82.5000007867813,2|0,0:3|0:0,0:0:0:0:
97,103,13995,69,2,0:2:0:0:
155,202,14344,2,0,L|217:202,1,55,0|0,0:0|0:0,0:0:0:0:
310,199,14693,1,2,0:2:0:0:
264,60,15042,1,0,0:0:0:0:
261,269,15391,1,2,0:2:0:0:
310,199,15565,6,0,L|471:198,1,132.00000125885,2|0,0:2|0:0,0:0:0:0:
497,271,16089,1,0,0:0:0:0:
497,271,16263,1,0,0:0:0:0:
21,338,16786,70,0,L|52:338,2,55,2|2|2,0:2|0:2|0:2,0:0:0:0:
157,334,17309,2,0,B|221:192|221:192|175:125|175:125,1,230.99999295044,2|0,3:2|0:0,0:0:0:0:
123,49,18007,5,2,0:2:0:0:
262,46,18268,1,2,0:2:0:0:
326,156,18530,1,2,0:2:0:0:
389,266,18792,1,0,0:0:0:0:
389,266,18879,2,0,L|443:265,1,55,2|2,0:2|0:2,0:0:0:0:
506,208,19141,1,2,0:2:0:0:
305,344,19577,70,0,L|250:344,2,55,2|2|2,0:2|0:2|0:2,0:0:0:0:
167,336,20100,2,0,B|90:202|90:202|130:130|130:130,1,230.99999295044,2|0,0:2|0:0,0:0:0:0:
184,67,20798,6,0,L|327:66,1,131.99999597168,2|0,0:2|0:0,0:0:0:0:
368,128,21321,2,0,L|400:184,1,55,2|0,0:2|0:0,0:0:0:0:
436,243,21670,1,0,0:0:0:0:
507,133,22018,1,0,0:0:0:0:
248,261,22367,69,4,1:2:0:0:
498,193,33530,54,0,B|444:79|444:79|312:66|312:66|243:171,1,384,6|0,1:2|0:0,0:0:0:0:
137,341,34228,2,0,L|185:346,2,47.9999985351563,8|0|0,0:2|0:0|0:0,0:0:0:0:
51,152,34577,1,0,0:0:0:0:
243,170,34751,6,0,B|188:248|188:248|92:239,1,191.999994140625,2|0,1:2|0:0,0:0:0:0:
202,84,35274,2,0,L|243:170,1,95.9999970703126,2|0,1:2|0:0,0:0:0:0:
184,345,35623,1,8,0:2:0:0:
278,353,35798,1,0,0:0:0:0:
375,362,35972,1,0,0:0:0:0:
375,362,36059,70,0,B|402:322|402:322|455:326,1,95.9999970703126,0|0,0:0|0:0,0:0:0:0:
478,299,36321,6,0,B|354:291|354:291|298:170|298:170|370:65,1,384,6|0,1:2|0:0,0:0:0:0:
157,48,37018,2,0,L|101:127,1,95.9999970703126,8|0,0:2|0:0,0:0:0:0:
48,206,37280,2,0,L|143:213,1,95.9999970703126,0|0,0:0|0:0,0:0:0:0:
224,220,37542,1,0,1:0:0:0:
282,356,37716,70,0,L|425:368,2,128,2|2|0,1:2|0:2|0:0,0:0:0:0:
0,328,38239,1,8,0:2:0:0:
282,356,38588,1,0,1:0:0:0:
96,339,38763,2,0,L|144:269,1,71.9999978027344,8|0,0:2|0:0,0:0:0:0:
145,263,39111,6,0,L|49:255,1,95.9999970703126,2|2,1:2|0:2,0:0:0:0:
296,146,39460,2,0,L|199:136,1,95.9999970703126,2|2,0:2|0:2,0:0:0:0:
451,338,39809,2,0,B|533:219|533:219|473:89,1,287.999991210938,10|2,0:2|0:2,0:0:0:0:
365,206,40332,69,2,1:2:0:0:
297,60,40594,1,2,1:2:0:0:
136,45,40856,1,2,1:2:0:0:
43,176,41117,1,0,0:0:0:0:
43,176,41205,5,2,1:2:0:0:
204,191,41467,1,10,0:2:0:0:
270,337,41728,1,2,1:2:0:0:
345,268,41902,70,0,L|440:276,1,95.9999970703126,2|2,1:2|0:2,0:0:0:0:
249,126,42251,2,0,L|343:133,1,95.9999970703126,2|2,0:2|0:2,0:0:0:0:
95,2,42600,2,0,B|14:121|14:121|73:252,1,287.999991210938,12|2,0:2|1:2,0:0:0:0:
121,132,43123,1,2,0:2:0:0:
121,132,43298,2,0,L|175:52,1,95.9999970703126,0|0,1:0|0:2,0:0:0:0:
322,61,43646,1,2,0:2:0:0:
411,213,43821,5,8,0:2:0:0:
314,204,43995,1,0,0:0:0:0:
220,196,44170,1,0,1:0:0:0:
411,213,44344,70,0,B|481:217|481:217|510:283|510:283|469:343,1,215.999993408203,8|0,0:2|0:0,0:0:0:0:
384,323,44693,6,0,B|256:336|256:336|184:229|184:229|32:244,1,384,6|0,1:2|0:0,0:0:0:0:
201,36,45391,2,0,L|264:30,2,40,8|0|0,0:2|0:0|0:0,0:0:0:0:
74,131,45739,2,0,L|121:126,1,47.9999985351563,0|0,0:0|0:0,0:0:0:0:
251,113,45914,6,0,L|342:244,1,143.999995605469,2|2,1:2|1:2,0:0:0:0:
292,26,46437,2,0,L|251:113,1,95.9999970703126,2|0,1:2|0:0,0:0:0:0:
407,318,46786,69,8,0:2:0:0:
233,331,47048,1,8,0:2:0:0:
62,346,47309,1,8,0:2:0:0:
37,238,47484,6,0,B|162:225|162:225|234:332|234:332|362:319,1,384,6|0,1:2|0:0,0:0:0:0:
512,302,48181,2,0,L|429:184,1,120,10|0,0:2|0:0,0:0:0:0:
418,166,48530,2,0,L|465:161,1,47.9999985351563,2|0,1:2|0:0,0:0:0:0:
512,18,48705,2,0,L|464:22,1,47.9999985351563,2|0,1:2|0:0,0:0:0:0:
273,95,48879,70,0,L|400:84,2,128,2|2|0,1:2|0:2|0:0,0:0:0:0:
5,121,49402,1,8,0:2:0:0:
273,95,49751,1,0,1:0:0:0:
122,53,49925,2,0,B|159:107|159:107|91:249,1,192,8|0,0:2|0:0,0:0:0:0:
64,296,50274,5,2,1:2:0:0:
196,282,50449,1,2,0:2:0:0:
329,351,50623,2,0,L|217:360,1,95.9999970703126,2|2,0:2|0:2,0:0:0:0:
399,91,50972,2,0,B|480:208|480:208|421:339,1,287.999991210938,8|0,0:2|0:0,0:0:0:0:
334,222,51495,69,2,1:2:0:0:
180,234,51757,1,2,1:2:0:0:
246,95,52018,1,2,1:2:0:0:
400,83,52280,1,0,0:0:0:0:
400,83,52367,5,2,1:2:0:0:
334,222,52629,1,10,0:2:0:0:
422,349,52891,1,2,1:2:0:0:
485,276,53065,69,2,1:2:0:0:
376,287,53240,1,2,0:2:0:0:
238,230,53414,2,0,L|349:220,1,95.9999970703126,2|2,0:2|0:2,0:0:0:0:
121,0,53763,2,0,B|61:119|61:119|143:238,1,287.999991210938,12|0,0:2|1:0,0:0:0:0:
193,109,54286,1,2,0:2:0:0:
193,109,54460,2,0,L|238:10,1,95.9999970703126,0|0,1:0|0:0,0:0:0:0:
424,95,54809,2,0,L|342:269,1,191.999994140625,2|0,0:2|0:0,0:0:0:0:
329,308,55245,5,0,0:0:0:0:
329,308,55332,2,0,B|266:314|266:314|240:372|240:372|174:377|174:377|131:312,1,256,0|0,0:0|0:0,0:0:0:0:
108,249,55856,2,0,L|165:245,1,40,0|0,0:0|0:0,0:0:0:0:
170,229,56117,54,0,L|292:51,1,215.999993408203,0|0,0:1|0:0,0:0:0:0:
292,51,56553,2,0,L|75:33,1,215.999993408203,8|0,0:2|0:0,0:0:0:0:
75,32,56902,1,2,1:3:0:0:
3,150,57077,6,0,L|36:222,1,80,8|0,0:2|0:0,0:0:0:0:
31,232,57338,1,0,1:2:0:0:
25,243,57425,2,0,L|168:255,1,128,0|0,0:0|1:2,0:0:0:0:
221,301,57687,2,0,L|364:313,1,128,0|0,0:0|0:0,0:0:0:0:
422,357,57949,70,0,L|517:365,1,64,8|0,0:2|0:0,0:0:0:0:
204,377,58210,2,0,L|300:385,1,64,8|0,0:2|0:0,0:0:0:0:
0,307,58472,2,0,L|53:312,1,64,8|0,0:2|0:0,0:0:0:0:
23,91,58734,5,2,1:3:0:0:
23,91,58821,2,0,L|50:148,1,64,0|0,0:0|0:0,0:0:0:0:
109,244,58995,2,0,L|191:126,1,128,2|0,1:3|0:0,0:0:0:0:
249,72,59257,1,2,1:3:0:0:
249,72,59344,2,0,L|312:77,1,64,0|0,0:0|0:0,0:0:0:0:
405,217,59518,2,0,L|377:159,1,64,8|0,0:2|0:0,0:0:0:0:
382,143,59780,1,0,0:0:0:0:
185,234,60042,69,0,1:0:0:0:
236,347,60215,1,0,0:0:0:0:
236,347,60303,1,8,0:2:0:0:
256,130,60565,1,0,1:0:0:0:
381,142,60739,1,0,0:0:0:0:
381,142,60827,2,0,B|442:277|442:277|401:332,2,215.999993408203,0|8|8,1:0|0:2|0:2,0:0:0:0:
342,53,61437,1,0,1:0:0:0:
90,32,61699,6,0,L|204:270,1,251.999992309571,0|0,0:0|0:0,0:0:0:0:
199,260,62135,2,0,L|349:42,1,251.999992309571,12|0,0:2|0:0,0:0:0:0:
342,51,62484,2,0,L|389:152,1,80,0|0,0:0|1:0,0:0:0:0:
422,229,62832,69,2,0:2:0:0:
422,229,62920,1,0,0:2:0:0:
314,217,63094,1,0,0:0:0:0:
295,242,63181,1,0,1:3:0:0:
276,268,63268,1,0,0:0:0:0:
259,295,63356,1,0,0:3:0:0:
289,384,63530,5,8,0:2:0:0:
289,384,63617,1,0,0:0:0:0:
114,337,63792,1,8,0:2:0:0:
132,311,63880,1,0,0:0:0:0:
151,285,63967,1,0,0:0:0:0:
169,260,64054,1,0,1:2:0:0:
47,238,64228,70,0,B|119:139|119:139|240:152,1,240,6|0,1:2|0:0,0:0:0:0:
491,175,64925,1,10,0:2:0:0:
491,175,65274,2,0,L|395:166,1,80,0|0,1:0|0:0,0:0:0:0:
324,162,65623,1,0,0:0:0:0:
237,259,65798,2,0,L|279:210,1,40,0|0,0:0|0:0,0:0:0:0:
305,369,66146,5,8,0:2:0:0:
237,259,66321,1,0,0:0:0:0:
324,162,66495,2,0,L|365:112,1,55.9999982910157,0|0,1:0|0:0,0:0:0:0:
504,40,66670,70,0,B|538:110|538:110|491:175|491:175|410:169,1,240,8|0,0:2|0:0,0:0:0:0:
288,47,67018,6,0,B|144:59|144:59|243:198,1,287.999991210938,6|0,1:2|0:0,0:0:0:0:
328,308,67542,1,0,0:0:0:0:
98,329,67716,2,0,L|34:334,2,47.9999985351563,8|0|0,0:2|0:0|0:2,0:0:0:0:
64,152,68065,2,0,L|100:204,1,47.9999985351563,0|0,0:0|0:0,0:0:0:0:
185,323,68239,5,0,1:0:0:0:
328,308,68414,1,2,1:2:0:0:
328,308,68501,1,0,0:0:0:0:
386,176,68675,1,2,1:2:0:0:
386,176,68763,1,0,0:0:0:0:
445,45,68937,1,2,1:2:0:0:
291,58,69111,70,0,L|331:-29,1,64,8|0,0:2|0:0,0:0:0:0:
168,211,69373,2,0,L|208:123,1,64,8|0,0:2|0:0,0:0:0:0:
45,364,69635,1,8,0:2:0:0:
195,354,69809,6,0,B|338:341|338:341|239:202,1,287.999991210938,6|0,1:2|0:0,0:0:0:0:
140,87,70332,1,0,0:0:0:0:
341,195,70507,2,0,L|366:140,1,60,10|0,0:2|0:0,0:0:0:0:
373,124,70856,1,0,1:0:0:0:
254,223,71030,1,0,1:0:0:0:
379,338,71205,70,0,L|506:327,2,128
124,361,71728,1,8,0:2:0:0:
251,349,71902,1,0,0:0:0:0:
379,338,72077,1,0,1:0:0:0:
163,215,72251,6,0,B|128:288|128:288|172:355|172:355|250:349,1,240,8|0,0:2|0:0,0:0:0:0:
379,338,72600,70,0,B|521:324|521:324|437:208,1,287.999991210938,6|0,1:2|0:0,0:0:0:0:
326,53,73123,1,0,0:0:0:0:
106,72,73298,1,8,0:2:0:0:
106,72,73472,1,0,0:0:0:0:
233,32,73646,2,0,L|215:68,1,40,0|0,3:0|0:0,3:0:0:0:
185,144,73821,5,0,1:0:0:0:
276,275,73995,1,2,1:2:0:0:
276,275,74082,1,0,0:0:0:0:
434,261,74256,1,2,1:2:0:0:
434,261,74344,1,0,0:0:0:0:
265,134,74518,70,0,L|344:127,1,55.9999982910157,2|0,1:2|0:0,0:0:0:0:
454,121,74693,1,8,0:2:0:0:
185,144,74955,1,8,0:2:0:0:
339,365,75216,1,0,1:2:0:0:
394,233,75391,6,0,B|480:351|480:351|338:365,1,287.999991210938,6|0,1:2|0:0,0:0:0:0:
150,377,75914,1,0,0:0:0:0:
26,190,76088,2,0,L|53:131,1,60,10|0,0:2|0:0,0:0:0:0:
79,136,76437,2,0,L|106:77,1,60,0|0,1:0|0:0,0:0:0:0:
132,82,76786,69,0,0:0:0:0:
182,202,76960,1,0,0:0:0:0:
182,202,77135,2,0,L|245:196,1,55.9999982910157,0|0,3:0|0:0,3:0:0:0:
369,299,77309,2,0,L|427:172,1,111.999996582031,8|0,0:2|0:0,0:0:0:0:
485,59,77658,1,0,1:0:0:0:
462,263,77832,6,0,B|494:191|494:191|451:125|451:125|369:131|369:131|340:198,1,240,8|0,0:2|0:0,0:0:0:0:
317,201,78181,6,0,L|-1:200,1,320,6|0,1:2|0:0,0:0:0:0:
78,62,79402,1,2,0:2:0:0:
78,62,79577,1,2,0:2:0:0:
157,62,79838,1,2,0:2:0:0:
239,63,80100,1,2,0:2:0:0:
238,339,80972,6,0,L|77:60,1,320,2|0,0:2|0:0,0:0:0:0:
239,63,82367,69,2,0:2:0:0:
277,131,82628,1,2,0:2:0:0:
318,202,82890,1,2,0:2:0:0:
78,339,83763,6,0,L|238:60,1,320,2|0,0:2|0:0,0:0:0:0:
0,200,85158,70,0,L|318:200,1,320,2|0,0:2|0:0,0:0:0:0:
77,60,86553,6,0,L|238:339,1,320,2|0,0:2|0:3,0:3:0:0:
78,341,87949,69,2,0:2:0:0:
39,271,88210,1,2,0:2:0:0:
0,200,88472,1,2,0:2:0:0:
238,337,88995,6,0,L|297:232,1,120,2|0,0:2|0:0,0:0:0:0:
317,200,89344,2,0,B|197:200|197:200|156:130|156:130|8:130,1,320,6|0,1:2|0:0,0:0:0:0:
240,62,90739,69,2,0:2:0:0:
160,60,91000,1,2,0:2:0:0:
77,60,91262,1,2,0:2:0:0:
238,337,92135,6,0,B|177:233|177:233|217:161|217:161|144:33,1,320,2|0,0:2|0:0,0:0:0:0:
320,204,93530,69,2,0:2:0:0:
281,133,93791,1,2,0:2:0:0:
239,63,94053,1,2,0:2:0:0:
78,341,94925,6,0,B|136:236|136:236|219:235|219:235|293:107,1,320,2|0,0:2|0:0,0:0:0:0:
0,200,96321,70,0,B|116:198|116:198|159:270|159:270|306:270,1,320,2|0,0:2|0:0,0:0:0:0:
77,60,97716,6,0,B|138:163|138:163|97:235|97:235|170:363,1,320,2|0,0:2|0:0,0:0:0:0:
0,200,99111,69,2,0:2:0:0:
40,271,99373,1,2,0:2:0:0:
79,342,99634,1,2,0:2:0:0:
512,178,100507,22,0,L|323:191,1,180.000006866455,6|0,1:2|0:0,0:0:0:0:
328,201,101205,1,10,0:2:0:0:
191,206,101379,6,0,L|166:261,1,60.0000022888184,0|0,0:0|0:0,0:0:0:0:
168,297,101641,2,0,L|218:189,1,120,0|0,0:0|0:0,0:0:0:0:
396,104,102077,2,0,L|436:100,1,40,0|0,0:0|0:0,0:0:0:0:
399,110,102251,2,0,L|478:102,1,80,4|4,1:3|2:3,0:0:0:0:
203,45,102600,70,0,L|234:42,4,27.9999991455078,8|8|8|8|8,0:2|0:2|0:2|0:2|0:2,0:0:0:0:
90,116,102861,2,0,L|61:77,1,40,8|8,0:2|0:2,0:0:0:0:
72,57,103036,2,0,L|139:149,1,80,8|0,0:2|0:0,0:0:0:0:
174,187,103298,5,2,1:2:0:0:
174,187,103385,1,0,0:0:0:0:
285,176,103559,1,0,0:0:0:0:
285,176,103821,1,0,0:0:0:0:
349,254,103995,2,0,L|376:251,6,27.9999991455078,8|8|8|8|8|8|0,3:2|3:2|3:2|3:2|3:2|3:2|0:0,0:0:0:0:
232,265,104344,69,0,0:0:0:0:
174,187,104518,1,0,1:0:0:0:
124,279,104693,1,2,0:3:0:0:
124,279,104955,6,0,L|96:337,1,40,8|0,3:2|0:0,0:0:0:0:
22,344,105129,1,0,0:0:0:0:
22,344,105216,2,0,L|-6:389,3,26.6666666666667,8|0|0|0,0:2|0:0|0:0|0:0,0:0:0:0:
211,367,105565,1,0,1:0:0:0:
195,202,105739,70,0,L|315:191,1,120,10|0,1:3|3:0,0:0:0:0:
331,220,106088,54,0,B|188:220|188:220|155:170|155:170|187:123|187:123|491:123|491:123|523:74|523:74|492:26|492:26|370:27,1,800,6|0,1:2|0:3,0:3:0:0:
64,28,107135,5,2,1:2:0:0:
134,26,107251,1,2,1:2:0:0:
204,26,107367,1,0,1:2:0:0:
274,27,107484,69,2,1:2:0:0:
314,123,107658,2,0,L|258:219,1,106.666666666667,0|0,0:0|1:0,3:0:0:0:
189,128,108065,5,8,0:2:0:0:
189,128,108181,69,0,1:0:0:0:
93,294,108443,1,8,0:2:0:0:
284,295,108705,1,0,1:2:0:0:
194,377,108879,22,0,L|401:357,1,192,6|0,1:2|0:0,0:0:0:0:
473,172,109577,2,0,L|428:106,1,80,10|0,0:2|0:0,0:0:0:0:
303,85,109925,2,0,L|349:151,1,80,2|0,1:2|0:0,0:0:0:0:
176,67,110274,2,0,L|239:158,1,111.999996582031,2|0,1:2|0:0,0:0:0:0:
233,189,110536,2,0,L|170:99,1,111.999996582031,2|0,1:2|0:0,0:0:0:0:
124,34,110798,5,10,0:2:0:0:
133,189,110972,2,0,L|91:277,1,80,10|0,1:2|1:0,3:0:0:0:
67,320,111234,1,8,0:2:0:0:
67,320,111321,2,0,L|30:266,2,53.3333333333333,10|2|2,1:2|0:1|0:1,0:0:0:0:
200,324,111670,70,0,L|383:308,1,128,2|0,1:2|0:0,0:0:0:0:
497,124,112018,1,10,0:2:0:0:
484,152,112106,1,2,0:2:0:0:
469,182,112193,1,2,0:2:0:0:
456,210,112280,1,2,0:2:0:0:
442,239,112367,1,2,0:2:0:0:
429,269,112455,2,0,L|409:312,2,40,2|2|2,0:2|0:2|0:2,0:0:0:0:
192,175,112891,6,0,L|82:18,1,167.999994873047,2|0,1:2|0:0,0:0:0:0:
140,45,113239,2,0,L|212:149,1,120,2|0,1:2|0:0,0:0:0:0:
255,202,113588,1,6,1:2:0:0:
336,77,113763,69,8,0:2:0:0:
336,77,113850,1,8,0:2:0:0:
336,77,113937,1,8,0:2:0:0:
336,77,114024,2,0,L|399:71,1,40,8|2,0:2|1:2,0:0:0:0:
494,71,114199,1,8,0:2:0:0:
494,71,114286,2,0,L|462:143,1,80,8|2,0:2|1:2,3:0:0:0:
388,294,114635,2,0,L|429:207,1,80,8|2,0:2|1:2,3:0:0:0:
423,222,115158,6,0,L|327:229,1,80,2|0,1:2|0:0,3:0:0:0:
288,295,115420,1,0,0:0:0:0:
288,295,115507,2,0,L|224:300,1,40,2|0,1:2|0:0,0:0:0:0:
172,335,115681,2,0,L|108:340,1,40,2|0,1:2|0:0,0:0:0:0:
40,266,115856,2,0,L|151:256,1,80,2|0,1:2|0:0,0:0:0:0:
127,267,116292,69,0,0:0:0:0:
127,267,116379,2,0,L|181:150,1,111.999996582031,10|0,0:2|0:0,0:0:0:0:
248,6,116728,1,0,0:0:0:0:
54,90,116902,2,0,L|125:84,1,60,10|0,0:2|0:0,0:0:0:0:
136,94,117251,6,0,B|280:83|280:83|329:154,2,215.999993408203,0|0|0,0:0|0:0|0:0,0:0:0:0:
28,331,117949,2,0,L|283:308,1,256,8|0,0:2|0:0,0:0:0:0:
425,293,118472,69,2,1:2:0:0:
344,178,118734,1,2,1:2:0:0:
206,190,118995,1,2,1:2:0:0:
217,208,119344,5,2,1:2:0:0:
79,220,119605,1,8,0:2:0:0:
0,105,119867,1,0,1:0:0:0:
112,94,120042,69,4,1:2:0:0:
225,83,120216,2,0,L|416:66,1,160,0|0,0:0|0:0,0:0:0:0:
415,283,120739,2,0,L|448:210,2,80,10|0|2,0:2|0:0|1:2,0:0:0:0:
415,283,121437,6,0,L|335:289,1,80,2|0,0:3|0:0,0:0:0:0:
273,360,121786,1,0,0:0:0:0:
201,301,121960,2,0,L|119:307,1,80,0|0,0:0|0:0,0:0:0:0:
91,309,122222,2,0,L|45:243,1,80,0|0,0:0|0:0,0:0:0:0:
31,223,122484,2,0,L|106:58,1,167.999994873047,0|0,0:0|0:0,0:0:0:0:
166,8,122832,22,0,L|245:8,2,80,6|0|0,0:2|0:2|0:2,0:0:0:0:
212,94,123356,2,0,L|292:94,2,80,2|0|0,0:2|0:2|0:2,0:0:0:0:
133,176,123879,6,0,L|53:175,2,80,2|0|0,0:2|0:2|0:2,0:0:0:0:
84,278,124402,2,0,L|44:277,1,40,2|0,0:2|0:2,0:0:0:0:
6,260,124577,2,0,L|86:261,1,80,0|0,0:2|0:2,0:0:0:0:
230,228,124925,70,0,L|309:228,2,80,2|0|0,0:2|0:2|0:2,0:0:0:0:
277,314,125449,2,0,L|356:314,2,80,2|0|0,0:2|0:2|0:2,0:0:0:0:
477,226,125972,6,0,L|428:142,1,80,2|0,0:2|0:2,0:0:0:0:
391,83,126321,1,0,0:2:0:0:
396,231,126495,2,0,L|347:147,1,80,2|0,0:2|0:2,0:0:0:0:
310,88,126844,1,0,0:2:0:0:
179,13,127018,70,0,L|218:82,1,80,2|2,0:2|0:2,0:0:0:0:
202,102,127280,2,0,L|221:135,1,40,0|0,0:2|0:2,0:0:0:0:
72,29,127542,2,0,L|111:98,1,80,2|0,0:2|0:2,0:0:0:0:
154,173,127891,1,0,0:2:0:0:
22,102,128065,2,0,L|62:171,1,80,2|0,0:2|0:2,0:0:0:0:
104,246,128414,1,0,0:2:0:0:
264,250,128588,5,2,0:2:0:0:
320,151,128763,2,0,L|280:81,1,80,0|0,0:2|0:2,3:0:0:0:
387,241,129111,1,2,0:2:0:0:
443,142,129286,2,0,L|402:72,1,80,0|0,0:2|0:2,3:0:0:0:
334,338,129635,69,2,0:2:0:0:
448,336,129810,2,0,L|487:266,1,80,0|0,0:2|0:2,3:0:0:0:
273,243,130158,1,2,0:2:0:0:
387,241,130333,2,0,L|426:171,1,80,0|0,0:2|0:2,3:0:0:0:
207,153,130681,1,2,0:2:0:0:
320,151,130856,2,0,L|360:81,1,80,0|0,0:2|0:2,3:0:0:0:
151,29,131205,6,0,L|111:97,1,80,2|0,0:2|0:2,0:0:0:0:
62,171,131554,1,0,0:2:0:0:
243,34,131728,2,0,L|203:102,1,80,2|0,0:2|0:2,0:0:0:0:
154,176,132077,1,0,0:2:0:0:
319,170,132251,70,0,L|358:239,1,80,2|0,0:2|0:2,0:0:0:0:
396,318,132600,1,2,0:2:0:0:
244,210,132774,2,0,L|283:278,1,80,0|2,0:2|0:2,0:0:0:0:
321,358,133123,1,2,0:2:0:0:
166,242,133298,2,0,L|205:311,1,80,2|2,0:2|0:2,0:0:0:0:
358,239,133646,2,0,L|319:170,1,80,0|0,0:2|0:2,0:0:0:0:
280,43,133995,6,0,L|199:42,2,80,6|0|0,0:2|0:2|0:2,0:0:0:0:
232,128,134519,2,0,L|152:127,2,80,2|0|0,0:2|0:2|0:2,0:0:0:0:
360,167,135042,70,0,L|439:165,2,80,2|0|0,0:2|0:2|0:2,0:0:0:0:
409,269,135565,2,0,L|449:269,1,40,2|2,0:2|0:2,0:0:0:0:
488,251,135740,2,0,L|408:251,1,80,2|0,0:2|0:2,0:0:0:0:
263,219,136088,6,0,L|183:218,2,80,2|0|0,0:2|0:2|0:2,0:0:0:0:
217,305,136612,2,0,L|136:304,2,80,2|0|0,0:2|0:2|0:2,0:0:0:0:
16,217,137135,70,0,L|65:133,1,80,2|0,0:2|0:2,0:0:0:0:
102,74,137484,1,0,0:2:0:0:
98,222,137658,2,0,L|147:138,1,80,2|0,0:2|0:2,0:0:0:0:
184,79,138007,1,0,0:2:0:0:
315,4,138181,6,0,L|275:72,1,80,2|2,0:2|0:2,0:0:0:0:
291,92,138443,2,0,L|271:126,1,40,0|0,0:2|0:2,0:0:0:0:
422,20,138705,2,0,L|382:88,1,80,2|0,0:2|0:2,0:0:0:0:
340,164,139054,1,0,0:2:0:0:
471,93,139228,2,0,L|431:161,1,80,2|0,0:2|0:2,0:0:0:0:
389,236,139577,1,0,0:2:0:0:
229,241,139751,69,2,0:2:0:0:
173,142,139926,2,0,L|213:72,1,80,0|0,0:2|0:2,3:0:0:0:
107,233,140274,1,2,0:2:0:0:
51,132,140449,2,0,L|90:63,1,80,0|0,0:2|0:2,3:0:0:0:
159,329,140798,5,2,0:2:0:0:
46,327,140973,2,0,L|6:256,1,80,0|0,0:2|0:2,3:0:0:0:
221,235,141321,1,2,0:2:0:0:
107,233,141496,2,0,L|67:162,1,80,0|2,0:2|0:2,3:0:0:0:
287,144,141844,1,0,0:2:0:0:
173,142,142019,2,0,L|134:71,1,80,2|0,0:2|0:2,3:0:0:0:
326,7,142368,70,0,L|364:75,1,80,2|0,0:2|0:2,0:0:0:0:
415,150,142717,1,0,0:2:0:0:
233,12,142891,2,0,L|271:80,1,80,2|0,0:2|0:2,0:0:0:0:
323,155,143240,1,0,0:2:0:0:
169,170,143414,6,0,L|88:307,1,160,2|2,0:2|0:2,0:0:0:0:
250,203,143937,2,0,L|169:340,1,160,0|0,0:2|0:2,0:0:0:0:
328,235,144460,2,0,L|248:372,1,160,0|0,0:2|0:2,3:0:0:0:
408,263,144984,1,0,0:0:0:0:
390,106,145158,38,0,B|319:99|319:99|153:334|153:334|81:328|81:328,1,431.999986816407,2|0,1:2|2:2,2:2:0:0:
13,185,145856,2,0,L|150:-10,1,215.999993408203,2|0,0:2|0:0,0:0:0:0:
156,0,146205,1,2,0:2:0:0:
310,21,146379,1,2,0:2:0:0:
116,185,146641,6,0,L|212:193,1,95.9999970703126,2|0,0:2|0:0,0:0:0:0:
254,263,146902,2,0,L|349:271,1,95.9999970703126,2|0,0:2|0:0,0:0:0:0:
401,208,147164,2,0,L|512:217,1,95.9999970703126,2|0,0:2|0:0,0:0:0:0:
511,197,147425,70,0,L|352:182,1,128,2|0,0:2|0:0,0:0:0:0:
320,247,147687,2,0,L|176:233,1,128,2|0,0:2|0:0,0:0:0:0:
116,185,147949,1,2,0:2:0:0:
116,185,148036,6,0,L|198:67,1,128,6|0,1:2|0:0,3:0:0:0:
254,3,148298,2,0,L|315:133,1,128,2|0,1:3|0:0,0:0:0:0:
383,186,148559,1,2,1:3:0:0:
383,186,148646,2,0,L|420:132,1,64,0|0,0:0|0:0,0:0:0:0:
512,67,148821,2,0,L|457:60,1,64,8|0,0:2|0:0,3:0:0:0:
441,48,149082,1,0,0:0:0:0:
502,269,149344,69,0,1:0:0:0:
428,375,149518,1,0,0:0:0:0:
428,375,149606,1,8,0:2:0:0:
248,245,149867,5,0,1:0:0:0:
303,361,150041,1,0,0:0:0:0:
303,361,150129,2,0,B|159:348|159:348|113:264,2,215.999993408203,0|8|8,1:0|0:2|0:2,0:0:0:0:
142,16,151001,70,0,L|-13:238,1,251.999992309571,2|0,1:2|0:0,0:0:0:0:
0,222,151524,2,0,L|266:245,1,251.999992309571,12|0,0:2|0:0,0:0:0:0:
251,243,151873,2,0,L|288:189,1,40
323,119,152048,6,0,B|372:223|372:223|446:231,1,160,2|0,1:2|0:0,0:0:0:0:
506,246,152484,1,0,0:0:0:0:
506,246,152571,1,8,1:2:0:0:
506,246,152658,1,0,0:0:0:0:
506,246,152745,1,0,0:3:0:0:
466,121,152920,1,0,2:2:0:0:
466,121,153007,1,0,2:0:0:0:
466,121,153094,2,0,L|497:123,8,20,8|8|8|8|8|8|8|8|8,0:2|0:2|0:2|0:2|0:2|0:2|0:2|0:2|0:2,0:0:0:0:
301,40,153617,70,0,L|217:32,1,80,6|0,1:2|0:0,0:0:0:0:
212,46,153879,1,0,3:0:0:0:
203,58,153966,1,0,3:0:0:0:
193,72,154053,1,0,0:0:0:0:
184,84,154141,2,0,L|104:76,1,80,2|0,1:2|3:0,3:0:0:0:
96,90,154402,1,0,3:0:0:0:
86,103,154489,1,0,3:0:0:0:
77,116,154576,1,0,0:0:0:0:
68,130,154664,2,0,L|221:145,1,120,2|0,1:2|2:0,3:0:0:0:
317,160,155100,5,0,1:0:0:0:
317,160,155187,1,2,0:2:0:0:
295,386,155449,1,2,1:2:0:0:
376,283,155623,1,0,1:0:0:0:
376,283,155710,1,2,0:2:0:0:
77,303,155972,70,0,B|5:298|5:298|-22:232|-22:232|19:171,1,215.999993408203,10|0,0:2|0:0,3:0:0:0:
63,91,156321,6,0,B|252:70|252:70|321:164,1,287.999991210938,6|0,1:2|0:0,0:0:0:0:
405,291,157018,2,0,L|365:294,2,40,8|0|0,0:2|0:0|0:0,0:0:0:0:
193,312,157367,2,0,L|134:228,1,55.9999982910157
117,200,157542,1,0,1:0:0:0:
243,382,157716,5,2,1:2:0:0:
243,382,157803,1,0,0:0:0:0:
370,373,157978,1,2,1:2:0:0:
370,373,158065,2,0,L|481:363,1,80,0|2,0:0|1:2,0:0:0:0:
511,235,158414,69,8,0:2:0:0:
428,121,158675,1,8,0:2:0:0:
345,2,158937,1,8,0:2:0:0:
342,144,159111,6,0,B|284:65|284:65|95:86,1,287.999991210938,6|0,1:2|0:0,0:0:0:0:
14,254,159809,2,0,L|41:195,1,60,10|0,0:2|0:0,0:0:0:0:
49,179,160158,1,0,1:0:0:0:
131,284,160332,1,0,1:0:0:0:
195,173,160507,2,0,L|235:85,1,80,0|2,0:0|0:2,0:0:0:0:
293,342,161030,69,8,0:2:0:0:
388,333,161205,1,2,0:2:0:0:
484,325,161379,1,0,1:2:0:0:
293,342,161553,6,0,B|229:350|229:350|193:295|193:295|220:238,1,192,8|0,0:2|0:0,3:0:0:0:
263,163,161902,70,0,B|205:84|205:84|16:105,1,287.999991210938,6|0,1:2|0:0,0:0:0:0:
123,262,162600,1,8,0:2:0:0:
332,67,162949,2,0,L|252:76,1,80,0|0,0:0|1:0,0:0:0:0:
418,60,163298,5,2,1:2:0:0:
418,60,163385,1,0,0:0:0:0:
374,178,163559,1,2,1:2:0:0:
374,178,163646,1,0,0:0:0:0:
246,193,163821,70,0,L|220:248,1,60.0000022888184,2|8,1:2|0:2,0:0:0:0:
139,39,164257,1,8,0:2:0:0:
58,206,164518,1,0,1:2:0:0:
8,124,164693,6,0,B|197:119|197:119|247:203,1,287.999991210938,6|0,1:2|0:0,0:0:0:0:
326,354,165391,2,0,L|357:354,6,20,8|8|8|8|8|8|8,0:2|0:2|0:2|0:2|0:2|0:2|0:2,0:0:0:0:
227,339,165739,2,0,B|199:338|199:338|178:322|178:322|137:321,3,80,0|0|0|0,1:2|1:2|1:2|1:2,0:0:0:0:
280,258,166088,69,0,1:2:0:0:
247,203,166205,1,0,0:0:0:0:
215,147,166321,2,0,L|118:146,1,80,0|0,0:0|0:0,0:0:0:0:
59,28,166611,2,0,L|26:26,6,20,8|0|8|8|8|8|8,0:2|0:0|0:2|0:2|0:2|0:2|0:2,0:0:0:0:
169,30,166960,2,0,L|216:30,1,40,0|0,1:2|1:2,0:0:0:0:
341,32,167135,2,0,L|307:31,6,20,8|2|2|2|2|2|2,0:2|0:3|0:3|0:3|0:3|0:3|0:3,0:0:0:0:
293,114,167484,70,0,B|421:102|421:102|495:207|495:207|441:323|441:323,1,384,2|0,1:2|2:2,2:2:0:0:
213,346,168181,2,0,L|93:175,1,192,8|0,0:2|0:0,0:0:0:0:
102,187,168530,1,2,1:3:0:0:
0,113,168705,6,0,L|127:101,1,128,8|0,0:2|0:0,0:0:0:0:
201,146,168966,2,0,L|283:138,1,80,0|0,0:0|0:0,0:0:0:0:
299,159,169228,2,0,B|251:163|251:163|206:244,1,120,0|0,0:0|0:0,0:0:0:0:
195,265,169577,1,8,0:2:0:0:
43,343,169751,70,0,L|186:330,1,111.999996582031,0|0,1:0|0:0,0:0:0:0:
219,375,170013,2,0,L|362:362,1,111.999996582031,0|0,0:0|0:0,0:0:0:0:
393,320,170274,2,0,L|472:313,1,55.9999982910157,0|2,0:0|1:3,0:0:0:0:
512,186,170449,6,0,L|456:107,1,55.9999982910157,0|0,0:0|0:0,0:0:0:0:
423,55,170623,2,0,L|362:185,1,111.999996582031,2|0,1:3|0:0,0:0:0:0:
325,230,170885,1,2,1:3:0:0:
325,230,170972,2,0,L|279:164,1,55.9999982910157,8|0,0:0|0:0,0:0:0:0:
167,117,171146,2,0,L|222:112,1,55.9999982910157,8|0,0:2|0:0,0:0:0:0:
240,112,171408,1,0,1:0:0:0:
74,383,171670,69,2,1:2:0:0:
0,278,171844,1,2,0:2:0:0:
0,278,171931,1,8,0:2:0:0:
202,372,172193,1,0,1:2:0:0:
256,256,172367,1,2,0:2:0:0:
256,256,172455,2,0,B|399:243|399:243|444:311,2,215.999993408203,0|2|8,1:0|1:2|0:2,0:0:0:0:
115,268,173065,5,2,1:2:0:0:
174,138,173239,1,2,0:2:0:0:
317,129,173414,1,2,0:2:0:0:
256,256,173588,1,2,0:2:0:0:
453,373,173763,2,0,B|516:242|516:242|439:122,1,287.999991210938,10|2,0:2|0:2,0:0:0:0:
399,247,174286,69,0,1:0:0:0:
256,256,174460,1,2,0:2:0:0:
256,256,174548,1,2,0:2:0:0:
173,150,174722,1,0,0:0:0:0:
188,122,174810,1,0,1:3:0:0:
201,93,174897,1,0,0:0:0:0:
214,64,174984,1,0,0:3:0:0:
146,5,175158,5,8,0:2:0:0:
146,5,175245,1,0,0:0:0:0:
340,0,175420,1,8,0:2:0:0:
325,27,175508,1,0,0:0:0:0:
312,56,175595,1,0,0:0:0:0:
298,85,175682,1,0,1:2:0:0:
349,166,175856,69,2,1:2:0:0:
237,175,176030,1,2,0:2:0:0:
160,265,176205,2,0,L|255:256,1,95.9999970703126,2|2,0:2|0:2,0:0:0:0:
52,25,176553,2,0,B|-3:156|-3:156|82:275,1,287.999991210938,8|2,0:2|1:2,0:0:0:0:
143,144,177077,5,2,0:2:0:0:
143,144,177251,2,0,L|0:156,2,143.999995605469,2|2|0,0:3|0:2|3:0,3:0:0:0:
373,125,177774,1,10,0:2:0:0:
373,125,177949,2,0,L|277:133,1,71.9999978027344,2|0,0:2|3:0,3:0:0:0:
143,144,178123,1,2,0:2:0:0:
373,125,178298,70,0,B|450:116|450:116|495:182|495:182|461:257,1,240,8|0,0:2|0:0,0:0:0:0:
395,356,178646,6,0,B|251:343|251:343|351:203,1,287.999991210938,6|0,1:2|0:0,0:0:0:0:
448,66,179170,1,0,0:0:0:0:
260,47,179344,2,0,L|196:41,2,40,8|0|0,0:2|0:0|0:2,0:0:0:0:
59,34,179693,2,0,L|92:106,1,47.9999985351563,0|0,3:0|0:0,3:0:0:0:
141,194,179867,5,0,1:0:0:0:
284,206,180042,1,2,1:2:0:0:
284,206,180129,1,0,0:0:0:0:
345,335,180304,1,2,1:2:0:0:
345,335,180391,1,0,0:0:0:0:
488,347,180566,1,2,1:2:0:0:
387,254,180739,70,0,L|466:261,1,64,8|0,0:2|0:0,0:0:0:0:
196,285,181001,2,0,L|275:292,1,64,8|0,0:2|0:0,0:0:0:0:
64,319,181263,1,8,0:2:0:0:
0,189,181437,6,0,B|77:70|77:70|139:199,1,287.999991210938,6|0,1:2|0:0,0:3:0:0:
231,366,181960,1,0,0:0:0:0:
410,384,182135,2,0,L|346:378,1,60,10|0,0:2|0:0,0:0:0:0:
329,379,182484,1,0,1:0:0:0:
273,263,182658,1,0,1:0:0:0:
355,181,182832,70,0,L|482:191,2,128,0|0|0,0:0|0:0|0:0,0:0:0:0:
100,159,183356,1,8,0:2:0:0:
227,169,183531,1,0,0:0:0:0:
355,181,183705,1,0,1:0:0:0:
100,159,183879,6,0,B|64:89|64:89|111:24|111:24|194:30,1,240,8|0,0:2|0:0,0:3:0:0:
292,50,184228,70,0,B|435:61|435:61|354:179,1,287.999991210938,6|0,1:2|0:0,0:3:0:0:
243,341,184751,1,0,0:0:0:0:
450,356,184925,1,8,0:2:0:0:
450,356,185100,1,0,0:0:0:0:
355,370,185274,2,0,L|328:311,1,40,8|0,3:0|0:0,3:0:0:0:
297,258,185449,5,0,1:0:0:0:
169,246,185623,1,2,1:2:0:0:
169,246,185710,1,0,0:0:0:0:
114,129,185884,1,2,1:2:0:0:
114,129,185972,1,0,0:0:0:0:
17,231,186146,70,0,L|62:165,1,55.9999982910157,2|0,1:2|0:0,0:0:0:0:
152,44,186321,1,8,0:2:0:0:
238,203,186582,1,8,0:2:0:0:
347,57,186844,1,0,1:2:0:0:
392,171,187018,6,0,B|454:300|454:300|310:290,1,287.999991210938,6|0,1:2|0:0,0:3:0:0:
98,273,187542,1,0,0:0:0:0:
14,127,187716,2,0,L|51:74,1,60,10|0,0:2|0:0,0:0:0:0:
41,57,188065,2,0,L|78:5,1,60,0|0,1:0|0:0,0:0:0:0:
100,0,188414,69,0,0:0:0:0:
200,120,188588,1,0,0:0:0:0:
200,120,188763,2,0,L|154:185,1,55.9999982910157,0|0,0:0|0:0,0:0:0:0:
98,273,188937,2,0,L|225:284,1,111.999996582031,0|0,0:2|0:0,0:0:0:0:
433,384,189286,2,0,L|365:238,1,143.999995605469,0|0,0:0|0:2,0:0:0:0:
414,175,189548,2,0,L|346:29,1,143.999995605469,0|0,0:0|0:0,0:0:0:0:
263,49,189809,6,0,B|110:47|110:47|62:128,1,240,6|0,1:2|0:0,0:0:0:0:
207,245,191030,2,0,L|6:245,2,200,0|0|0,0:2|0:0|0:0,0:0:0:0:
445,385,192251,2,0,L|509:384,3,40,0|0|0|0,0:2|0:0|0:0|0:0,0:0:0:0:
363,384,192600,6,0,B|282:244|282:244|371:92,1,320,2|0,0:2|0:0,0:0:0:0:
83,244,193908,1,0,0:0:0:0:
83,244,193995,2,0,L|283:243,2,200,0|0|0,0:2|0:0|0:0,0:0:0:0:
88,21,196611,6,0,B|208:31|208:31|239:102|239:102|378:114,2,320,0|0|0,0:2|0:0|0:0,0:0:0:0:
45,108,199053,6,0,B|140:115|140:115|182:204,2,192
185,215,200623,6,0,B|89:224|89:224|48:311,2,192,0|0|0,3:0|3:0|3:0,3:0:0:0:
261,156,201844,6,0,L|372:165,1,95.9999970703126
405,269,202542,2,0,L|516:278,1,95.9999970703126
358,361,203239,6,0,L|453:352,2,96
325,328,204460,2,0,L|261:333,1,60
214,337,205158,1,0,0:0:0:0:
88,370,205507,6,0,L|56:372,1,32
