osu file format v14

[General]
AudioFilename: audio.mp3
AudioLeadIn: 0
PreviewTime: 78088
Countdown: 0
SampleSet: None
StackLeniency: 0.3
Mode: 0
LetterboxInBreaks: 1
WidescreenStoryboard: 0

[Editor]
Bookmarks: 33525,55850,78176,100502,102855,122827,145153,167479,189804
DistanceSpacing: 1
BeatDivisor: 2
GridSize: 16
TimelineZoom: 3.3

[Metadata]
Title:Pencilina
TitleUnicode:Pencilina
Artist:Culprate & Dictate
ArtistUnicode:Culprate & Dictate
Creator:Celektus
Version:idiosyncratic
Source:
Tags:Unity Project, Pt. 2 Open Outlets Drum'n'Bass Neurofunk IDM glitch wub technical gimmicky mapping xd futuristic hexagon yaspo
BeatmapID:1564457
BeatmapSetID:722634

[Difficulty]
HPDrainRate:8
CircleSize:4.5
OverallDifficulty:9
ApproachRate:9.5
SliderMultiplier:2
SliderTickRate:1

[Events]
//Background and Video events
0,0,"692310.jpg",0,0
//Break Periods
2,22567,33005
//Storyboard Layer 0 (Background)
//Storyboard Layer 1 (Fail)
//Storyboard Layer 2 (Pass)
//Storyboard Layer 3 (Foreground)
//Storyboard Sound Samples

[TimingPoints]
11205,348.837209302326,4,3,1,35,1,0
11466,-100,4,3,1,35,0,0
11553,-200,4,3,1,35,0,0
11989,-66.6666666666667,4,3,1,35,0,0
12251,-200,4,3,1,35,0,0
12425,-100,4,3,1,35,0,0
12949,-200,4,3,1,35,0,0
13210,-200,4,3,1,35,0,0
13298,-100,4,3,1,35,0,0
13559,-66.6666666666667,4,3,1,35,0,0
13908,-66.6666666666667,4,3,1,35,0,0
13995,-100,4,3,1,35,0,0
14257,-100,4,3,1,35,0,0
14344,-200,4,3,1,35,0,0
14606,-200,4,3,1,35,0,0
14693,-100,4,3,1,35,0,0
16263,-66.6666666666667,4,3,1,35,0,0
16350,-66.6666666666667,4,3,1,35,0,0
16437,-200,4,3,1,35,0,0
16699,-200,4,3,1,35,0,0
16786,-100,4,3,1,35,0,0
17309,-66.6666666666667,4,3,1,35,0,0
17745,-66.6666666666667,4,3,1,5,0,0
17832,-66.6666666666667,4,3,1,35,0,0
18007,-100,4,3,1,35,0,0
18879,-200,4,3,1,35,0,0
20100,-66.6666666666667,4,3,1,35,0,0
20536,-66.6666666666667,4,3,1,35,0,0
20623,-66.6666666666667,4,3,1,35,0,0
20798,-100,4,3,1,35,0,0
21321,-133.333333333333,4,3,1,35,0,0
22018,-200,4,3,1,35,0,0
22280,-200,4,3,1,5,0,0
22367,-400,4,3,1,35,0,0
33530,-50,4,3,1,70,0,1
34141,-50,4,3,1,5,0,0
34228,-66.6666666666667,4,3,1,70,0,0
34664,-66.6666666666667,4,3,1,5,0,0
34751,-100,4,3,1,70,0,0
35623,-200,4,3,1,70,0,0
36059,-133.333333333333,4,3,1,70,0,0
36234,-133.333333333333,4,3,1,5,0,0
36321,-50,4,3,1,70,0,0
36931,-50,4,3,1,5,0,0
37018,-50,4,3,1,70,0,0
37280,-50,4,3,1,5,0,0
37367,-50,4,3,1,70,0,0
37716,-100,4,3,1,70,0,0
38239,-200,4,3,1,70,0,0
39111,-50,4,3,1,70,0,0
39460,-80,4,3,1,70,0,0
39635,-50,4,3,1,70,0,0
39809,-200,4,3,1,70,0,0
40332,-66.6666666666667,4,3,1,70,0,0
40856,-100,4,3,1,70,0,0
41205,-66.6666666666667,4,3,1,70,0,0
41641,-66.6666666666667,4,3,1,5,0,0
41728,-100,4,3,1,70,0,0
41902,-50,4,3,1,70,0,0
42251,-80,4,3,1,70,0,0
42425,-50,4,3,1,70,0,0
42600,-200,4,3,1,70,0,0
43123,-100,4,3,1,70,0,0
43821,-200,4,3,1,70,0,0
44082,-50,4,3,1,70,0,0
44344,-200,4,3,1,70,0,0
44606,-200,4,3,1,5,0,0
44693,-50,4,3,1,70,0,1
45303,-50,4,3,1,5,0,0
45391,-66.6666666666667,4,3,1,70,0,0
45652,-50,4,3,1,70,0,0
45827,-50,4,3,1,5,0,0
45914,-100,4,3,1,70,0,0
47484,-50,4,3,1,70,0,0
48094,-50,4,3,1,5,0,0
48181,-50,4,3,1,70,0,0
48443,-50,4,3,1,5,0,0
48530,-50,4,3,1,70,0,0
49053,-100,4,3,1,70,0,0
49228,-200,4,3,1,70,0,0
50274,-50,4,3,1,70,0,0
50623,-80,4,3,1,70,0,0
50798,-50,4,3,1,70,0,0
50972,-200,4,3,1,70,0,0
51495,-66.6666666666667,4,3,1,70,0,0
52018,-100,4,3,1,70,0,0
52280,-100,4,3,1,5,0,0
52367,-66.6666666666667,4,3,1,70,0,0
52803,-66.6666666666667,4,3,1,5,0,0
52891,-100,4,3,1,70,0,0
53414,-80,4,3,1,70,0,0
53588,-50,4,3,1,70,0,0
53763,-200,4,3,1,70,0,0
54286,-100,4,3,1,70,0,0
55158,-100,4,3,1,5,0,0
55245,-100,4,3,1,70,0,0
55420,-66.6666666666667,4,3,1,70,0,0
55507,-66.6666666666667,4,3,1,70,0,0
55768,-66.6666666666667,4,3,1,70,0,0
55856,-200,4,3,1,70,0,0
56117,-100,4,3,1,70,0,0
56466,-100,4,3,1,5,0,0
56553,-50,4,3,1,70,0,0
56815,-50,4,3,1,5,0,0
56902,-50,4,3,1,70,0,0
57513,-50,4,3,1,5,0,0
57600,-50,4,3,1,70,0,0
57861,-50,4,3,1,5,0,0
57949,-50,4,3,1,70,0,0
58123,-50,4,3,1,5,0,0
58210,-50,4,3,1,70,0,0
58385,-50,4,3,1,5,0,0
58472,-50,4,3,1,70,0,0
58734,-50,4,3,1,70,0,0
58908,-50,4,3,1,5,0,0
58995,-50,4,3,1,70,0,0
59170,-50,4,3,1,5,0,0
59257,-50,4,3,1,70,0,0
59431,-50,4,3,1,5,0,0
59518,-133.333333333333,4,3,1,70,0,0
60042,-100,4,3,1,70,0,0
60478,-100,4,3,1,5,0,0
60565,-100,4,3,1,70,0,0
61699,-50,4,3,1,70,0,0
62048,-50,4,3,1,5,0,0
62135,-50,4,3,1,70,0,0
62396,-50,4,3,1,5,0,0
62484,-133.333333333333,4,3,1,70,0,0
64228,-50,4,3,1,70,0,0
64838,-50,4,3,1,5,0,0
64925,-100,4,3,1,70,0,0
65187,-100,4,3,1,5,0,0
65274,-50,4,3,1,70,0,0
65536,-50,4,3,1,5,0,0
65623,-100,4,3,1,70,0,0
66059,-100,4,3,1,5,0,0
66146,-100,4,3,1,70,0,0
66408,-50,4,3,1,70,0,0
67018,-50,4,3,1,70,0,1
67629,-50,4,3,1,5,0,0
67716,-66.6666666666667,4,3,1,70,0,0
67891,-50,4,3,1,70,0,0
68152,-50,4,3,1,5,0,0
68239,-50,4,3,1,70,0,0
68414,-100,4,3,1,70,0,0
69809,-50,4,3,1,70,0,0
70420,-50,4,3,1,5,0,0
70507,-100,4,3,1,70,0,0
70768,-100,4,3,1,5,0,0
70856,-50,4,3,1,70,0,0
71205,-100,4,3,1,70,0,0
71641,-100,4,3,1,5,0,0
71728,-100,4,3,1,70,0,0
71989,-50,4,3,1,70,0,0
72600,-50,4,3,1,70,0,1
73210,-50,4,3,1,5,0,1
73298,-66.6666666666667,4,3,1,70,0,0
73734,-66.6666666666667,4,3,1,5,0,0
73821,-66.6666666666667,4,3,1,70,0,0
76001,-66.6666666666667,4,3,1,5,0,0
76088,-100,4,3,1,70,0,0
76350,-100,4,3,1,5,0,0
76437,-50,4,3,1,70,0,0
76699,-50,4,3,1,5,0,0
76786,-100,4,3,1,70,0,0
77048,-133.333333333333,4,3,1,70,0,0
77222,-133.333333333333,4,3,1,5,0,0
77309,-100,4,3,1,70,0,0
77571,-50,4,3,1,70,0,0
78007,-52.6315789473684,4,3,1,70,0,0
78181,-133.333333333333,4,2,1,30,0,0
80972,-200,4,2,1,30,0,0
81670,-133.333333333333,4,2,1,30,0,0
83763,-200,4,2,1,30,0,0
87251,-133.333333333333,4,2,1,30,0,0
92135,-200,4,2,1,30,0,0
94053,-133.333333333333,4,2,1,30,0,0
94925,-200,4,2,1,30,0,0
100158,-76.9230769230769,4,3,1,30,0,0
100420,-76.9230769230769,4,3,1,5,0,0
100507,-100,4,3,1,60,0,0
101117,-100,4,3,1,5,0,0
101205,-50,4,3,1,70,0,0
101379,-50,4,3,1,5,0,0
101466,-66.6666666666667,4,3,1,70,0,0
101641,-50,4,3,1,5,0,0
101728,-100,4,3,1,70,0,0
102251,-133.333333333333,4,3,1,70,0,0
102600,-66.6666666666667,4,3,1,70,0,0
103298,-50,4,3,1,70,0,0
103646,-50,4,3,1,70,0,0
103908,-50,4,3,1,5,0,0
103995,-66.6666666666667,4,3,1,60,0,0
104344,-66.6666666666667,4,3,1,70,0,0
104693,-200,4,3,1,70,0,0
104955,-66.6666666666667,4,3,1,70,0,0
105739,-200,4,3,1,70,0,0
106001,-200,4,3,1,5,0,0
106088,-43.859649122807,4,3,1,70,0,0
106699,-43.859649122807,4,3,1,5,0,0
106786,-43.859649122807,4,3,1,70,0,0
107135,-100,4,3,1,70,0,0
108879,-66.6666666666667,4,3,1,70,0,0
109489,-66.6666666666667,4,3,1,5,0,0
109577,-100,4,3,1,70,0,0
109925,-66.6666666666667,4,3,1,70,0,0
110187,-66.6666666666667,4,3,1,5,0,0
110274,-66.6666666666667,4,3,1,70,0,0
110798,-57.1428571428571,4,3,1,70,0,0
111670,-66.6666666666667,4,3,1,70,0,0
112018,-100,4,3,1,70,0,0
112891,-66.6666666666667,4,3,1,70,0,0
113239,-100,4,3,1,70,0,0
113588,-43.859649122807,4,3,1,70,0,0
114024,-80,4,3,1,70,0,0
114460,-66.6666666666667,4,3,1,70,0,0
115071,-66.6666666666667,4,3,1,5,0,0
115158,-100,4,3,1,70,0,0
116902,-150,4,3,1,70,0,0
117251,-100,4,3,1,70,0,0
117861,-100,4,3,1,5,0,0
117949,-50,4,3,1,70,0,0
118385,-50,4,3,1,5,0,0
118472,-100,4,3,1,70,0,0
118908,-100,4,3,1,5,0,0
118995,-100,4,3,1,70,0,0
119257,-100,4,3,1,5,0,0
119344,-100,4,3,1,70,0,0
119518,-100,4,3,1,5,0,0
119606,-100,4,3,1,70,0,0
120042,-50,4,3,1,70,0,0
120652,-50,4,3,1,5,0,0
120739,-66.6666666666667,4,3,1,70,0,0
121001,-66.6666666666667,4,3,1,5,0,0
121088,-66.6666666666667,4,3,1,70,0,0
121350,-66.6666666666667,4,3,1,5,0,0
121437,-57.1428571428571,4,3,1,70,0,0
122745,-57.1428571428571,4,3,1,5,0,0
122832,-200,4,3,1,25,0,0
124925,-181.818181818182,4,3,1,27,0,0
125972,-153.846153846153,4,3,1,30,0,0
127018,-133.333333333333,4,3,1,32,0,0
128588,-125,4,3,1,35,0,0
129635,-117.647058823529,4,3,1,40,0,0
131205,-111.111111111111,4,3,1,45,0,0
131728,-105.263157894737,4,3,1,45,0,0
132251,-100,4,3,1,45,0,0
133646,-133.333333333333,4,3,1,30,0,0
133995,-200,4,3,1,25,0,0
136088,-181.818181818182,4,3,1,27,0,0
137135,-153.846153846154,4,3,1,30,0,0
138181,-133.333333333333,4,3,1,32,0,0
139751,-125,4,3,1,35,0,0
140798,-117.647058823529,4,3,1,40,0,0
142367,-111.111111111111,4,3,1,45,0,0
142891,-105.263157894737,4,3,1,45,0,0
143414,-100,4,3,1,45,0,0
144809,-200,4,3,1,60,0,0
145071,-200,4,3,1,5,0,0
145158,-200,4,3,1,70,0,0
145768,-200,4,3,1,5,0,0
145856,-66.6666666666667,4,3,1,70,0,0
146117,-66.6666666666667,4,3,1,5,0,0
146205,-66.6666666666667,4,3,1,70,0,0
146553,-66.6666666666667,4,3,1,5,0,0
146641,-66.6666666666667,4,3,1,70,0,0
146815,-66.6666666666667,4,3,1,5,0,0
146902,-66.6666666666667,4,3,1,70,0,0
147077,-66.6666666666667,4,3,1,5,0,0
147164,-66.6666666666667,4,3,1,70,0,0
147251,-66.6666666666667,4,3,1,5,0,0
147338,-66.6666666666667,4,3,1,70,0,0
147600,-66.6666666666667,4,3,1,70,0,0
147861,-66.6666666666667,4,3,1,70,0,0
148036,-50,4,3,1,70,0,0
148210,-50,4,3,1,5,0,0
148298,-50,4,3,1,70,0,0
148472,-50,4,3,1,5,0,0
148559,-50,4,3,1,70,0,0
148734,-50,4,3,1,5,0,0
148821,-133.333333333333,4,3,1,70,0,0
149344,-100,4,3,1,70,0,0
149780,-100,4,3,1,5,0,0
149867,-100,4,3,1,70,0,0
151001,-50,4,3,1,70,0,0
151786,-133.333333333333,4,3,1,70,0,0
153094,-33.3333333333333,4,3,1,70,0,0
153138,-33.3333333333333,4,3,1,66,0,0
153181,-33.3333333333333,4,3,1,62,0,0
153225,-33.3333333333333,4,3,1,58,0,0
153268,-33.3333333333333,4,3,1,54,0,0
153312,-33.3333333333333,4,3,1,50,0,0
153356,-33.3333333333333,4,3,1,46,0,0
153399,-33.3333333333333,4,3,1,42,0,0
153443,-33.3333333333333,4,3,1,38,0,0
153486,-33.3333333333333,4,3,1,34,0,0
153530,-33.3333333333333,4,3,1,30,0,0
153617,-50,4,3,1,70,0,0
155100,-100,4,3,1,70,0,0
155972,-50,4,3,1,70,0,0
156234,-50,4,3,1,5,0,0
156321,-50,4,3,1,70,0,0
156931,-50,4,3,1,5,0,0
157018,-66.6666666666667,4,3,1,70,0,0
157193,-50,4,3,1,70,0,0
158414,-100,4,3,1,70,0,0
159111,-50,4,3,1,70,0,0
159722,-50,4,3,1,5,0,0
159809,-100,4,3,1,70,0,0
160071,-100,4,3,1,5,0,0
160158,-50,4,3,1,70,0,0
162513,-50,4,3,1,5,0,0
162600,-66.6666666666667,4,3,1,70,0,0
163036,-66.6666666666667,4,3,1,5,0,0
163123,-66.6666666666667,4,3,1,70,0,0
164693,-50,4,3,1,70,0,0
165303,-50,4,3,1,5,0,0
165391,-33.3333333333333,4,3,1,70,0,0
165739,-66.6666666666667,4,3,1,70,0,0
166611,-33.3333333333333,4,3,1,70,0,0
166699,-33.3333333333333,4,3,1,40,0,0
167484,-50,4,3,1,70,0,0
168094,-50,4,3,1,5,0,0
168181,-50,4,3,1,70,0,0
168443,-50,4,3,1,5,0,0
168530,-50,4,3,1,70,0,0
168966,-100,4,3,1,70,0,0
169489,-100,4,3,1,5,0,0
169577,-50,4,3,1,70,0,0
170013,-50,4,3,1,5,0,0
170100,-50,4,3,1,70,0,0
170536,-50,4,3,1,5,0,0
170623,-50,4,3,1,70,0,0
171059,-50,4,3,1,5,0,0
171146,-66.6666666666667,4,3,1,70,0,0
171670,-100,4,3,1,70,0,0
172455,-66.6666666666667,4,3,1,70,0,0
172629,-66.6666666666667,4,3,1,5,0,0
172716,-66.6666666666667,4,3,1,70,0,0
173065,-50,4,3,1,70,0,0
173239,-80,4,3,1,70,0,0
173588,-66.6666666666667,4,3,1,70,0,0
173763,-200,4,3,1,70,0,0
174286,-66.6666666666667,4,3,1,70,0,0
174460,-133.333333333333,4,3,1,70,0,0
175681,-100,4,3,1,70,0,0
176205,-50,4,3,1,70,0,0
176553,-200,4,3,1,70,0,0
178559,-200,4,3,1,5,0,0
178646,-50,4,3,1,70,0,0
179257,-50,4,3,1,5,0,0
179344,-66.6666666666667,4,3,1,70,0,0
179518,-50,4,3,1,70,0,0
179780,-50,4,3,1,5,0,0
179867,-100,4,3,1,70,0,0
181437,-50,4,3,1,70,0,0
182048,-50,4,3,1,5,0,0
182135,-100,4,3,1,70,0,0
182396,-100,4,3,1,5,0,0
182484,-50,4,3,1,70,0,0
182832,-100,4,3,1,70,0,0
183007,-100,4,3,1,70,0,0
183268,-100,4,3,1,5,0,0
183356,-200,4,3,1,70,0,0
183530,-50,4,3,1,70,0,0
184751,-50,4,3,1,70,0,0
184838,-50,4,3,1,5,0,0
184925,-66.6666666666667,4,3,1,70,0,0
185361,-66.6666666666667,4,3,1,5,0,0
185449,-66.6666666666667,4,3,1,70,0,0
186844,-100,4,3,1,70,0,0
187018,-66.6666666666667,4,3,1,70,0,0
187367,-50,4,3,1,70,0,0
187629,-50,4,3,1,5,0,0
187716,-100,4,3,1,70,0,0
187978,-100,4,3,1,5,0,0
188065,-50,4,3,1,70,0,0
188327,-50,4,3,1,5,0,0
188414,-100,4,3,1,70,0,0
188675,-133.333333333333,4,3,1,70,0,0
188850,-133.333333333333,4,3,1,5,0,0
188937,-100,4,3,1,70,0,0
189111,-100,4,3,1,5,0,0
189199,-50,4,3,1,70,0,0
189809,-200,4,2,1,25,0,0
192251,-66.6666666666667,4,2,1,25,0,0
192513,-66.6666666666667,4,2,1,5,0,0
192600,-200,4,2,1,25,0,0
200972,-200,4,2,1,25,0,0
201059,-200,4,2,1,25,0,0
201146,-200,4,2,1,25,0,0
201234,-200,4,2,1,24,0,0
201321,-200,4,2,1,24,0,0
201408,-200,4,2,1,24,0,0
201495,-200,4,2,1,23,0,0
201582,-200,4,2,1,23,0,0
201670,-200,4,2,1,23,0,0
201757,-200,4,2,1,22,0,0
201844,-200,4,2,1,22,0,0
201931,-200,4,2,1,22,0,0
202018,-200,4,2,1,21,0,0
202106,-200,4,2,1,21,0,0
202193,-200,4,2,1,21,0,0
202280,-200,4,2,1,20,0,0
202367,-200,4,2,1,20,0,0
202455,-200,4,2,1,20,0,0
202542,-200,4,2,1,19,0,0
202629,-200,4,2,1,19,0,0
202716,-200,4,2,1,19,0,0
202803,-200,4,2,1,18,0,0
202891,-200,4,2,1,18,0,0
202978,-200,4,2,1,18,0,0
203065,-200,4,2,1,17,0,0
203152,-200,4,2,1,17,0,0
203239,-200,4,2,1,17,0,0
203327,-200,4,2,1,16,0,0
203414,-200,4,2,1,16,0,0
203501,-200,4,2,1,16,0,0
203588,-200,4,2,1,15,0,0
203675,-200,4,2,1,15,0,0
203763,-200,4,2,1,15,0,0
203850,-200,4,2,1,14,0,0
203937,-200,4,2,1,14,0,0
204024,-200,4,2,1,14,0,0
204111,-200,4,2,1,13,0,0
204199,-200,4,2,1,13,0,0
204286,-200,4,2,1,13,0,0
204373,-200,4,2,1,12,0,0
204460,-200,4,2,1,12,0,0
204548,-200,4,2,1,12,0,0
204635,-200,4,2,1,11,0,0
204722,-200,4,2,1,11,0,0
204809,-200,4,2,1,11,0,0
204896,-200,4,2,1,10,0,0
204984,-200,4,2,1,10,0,0
205071,-200,4,2,1,10,0,0
205158,-200,4,2,1,9,0,0
205245,-200,4,2,1,9,0,0
205332,-200,4,2,1,9,0,0
205420,-200,4,2,1,8,0,0
205507,-200,4,2,1,8,0,0
205594,-200,4,2,1,8,0,0
205681,-200,4,2,1,7,0,0
205768,-200,4,2,1,7,0,0
205856,-200,4,2,1,7,0,0
205943,-200,4,2,1,6,0,0
206030,-200,4,2,1,6,0,0
206117,-200,4,2,1,6,0,0
206205,-200,4,2,1,5,0,0
206292,-200,4,2,1,5,0,0
206379,-200,4,2,1,5,0,0

[Colours]
Combo1 : 64,255,165
Combo2 : 255,128,64
Combo3 : 255,64,83
Combo4 : 245,80,200
Combo5 : 131,64,255
Combo6 : 64,203,255

[HitObjects]
0,66,11204,22,0,B|99:75|99:75|130:31,1,150,2|0,0:2|0:0,0:0:0:0:
100,75,11553,2,0,L|71:116,2,50
163,131,11989,6,0,L|207:70,2,75.0000028610231
256,5,12251,1,0,0:0:0:0:
256,5,12425,70,0,L|372:16,1,100,2|0,0:2|0:0,0:0:0:0:
402,89,12687,2,0,L|344:171,1,100,2|0,0:2|0:2,0:0:0:0:
236,236,12949,2,0,L|192:298,1,75,2|0,0:2|0:0,0:0:0:0:
157,295,13298,2,0,L|106:290,2,50
1,176,13646,6,0,L|225:198,1,225.000008583069,2|0,0:3|0:0,0:0:0:0:
225,198,13995,70,0,B|125:188|125:188|96:228,1,150,2|0,0:2|0:0,0:0:0:0:
80,252,14344,2,0,L|36:314,1,75
235,379,14693,6,0,L|263:338,1,50,6|0,0:2|0:0,0:0:0:0:
243,251,14867,2,0,L|272:210,1,50
359,199,15042,2,0,L|387:159,1,50
367,71,15216,1,0,0:0:0:0:
367,71,15391,69,2,0:2:0:0:
242,59,15565,2,0,L|142:50,2,100,2|0|0,0:2|0:0|0:0,0:0:0:0:
84,131,16088,2,0,L|55:170,1,50
0,281,16263,6,0,L|30:348,1,75.0000028610231
183,360,16437,2,0,L|257:367,1,75.0000028610231
332,321,16786,70,0,L|310:275,2,50,2|0|2,0:2|0:0|0:2,0:0:0:0:
345,113,17135,1,2,0:2:0:0:
384,254,17309,6,2,B|234:240|234:240|171:103|171:103|97:97,1,375.000014305115,2|0,3:2|2:0,2:2:0:0:
70,94,17832,1,0,0:0:0:0:
318,116,18007,70,0,L|218:109,1,100,2|0,0:2|0:0,0:0:0:0:
115,185,18268,2,0,L|158:276,1,100,2|0,0:2|0:0,0:0:0:0:
303,316,18530,2,0,L|259:226,1,100,2|0,0:2|0:0,0:0:0:0:
195,90,18879,1,2,0:2:0:0:
195,90,19053,1,2,0:2:0:0:
175,216,19228,2,0,L|225:220,1,50,2|0,0:2|0:0,0:0:0:0:
360,229,19577,5,2,0:2:0:0:
297,94,19751,2,0,L|318:140,1,50,2|2,0:2|0:2,0:0:0:0:
194,0,20100,70,2,B|344:14|344:14|407:151|407:151|481:157,1,375.000014305115,2|0,0:2|2:0,2:2:0:0:
508,160,20623,5,0,0:0:0:0:
512,316,20798,2,0,L|412:308,2,100,2|0|0,0:2|0:0|0:0,0:0:0:0:
369,219,21321,2,0,L|336:152,1,75.0000028610231,2|0,0:2|0:0,0:0:0:0:
186,141,21670,2,0,L|143:203,1,75.0000028610231
207,339,22018,2,0,L|282:345,1,75.0000028610231
313,330,22367,69,4,1:2:0:0:
0,70,33530,6,2,B|398:35|398:35|512:199|512:199|470:290,1,700,6|0,1:2|0:0,0:2:0:0:
431,375,34228,6,0,L|505:368,2,75.0000028610231,8|0|0,0:2|0:0|0:0,0:0:0:0:
378,278,34489,2,0,L|228:291,1,150.000005722046
133,273,34751,70,0,L|34:282,1,100,2|0,1:2|0:0,0:0:0:0:
163,354,35100,1,0,0:0:0:0:
194,218,35274,2,0,L|293:209,1,100,2|0,1:2|0:0,0:0:0:0:
452,199,35623,2,0,L|473:153,2,50,8|0|0,0:2|0:0|0:0,0:0:0:0:
447,69,36059,6,0,L|479:1,1,75.0000028610231
512,0,36321,70,2,B|343:362|343:362|144:378|144:378|86:297,1,700,6|0,1:2|0:0,0:2:0:0:
0,304,37018,6,0,L|298:277,1,300,8|0,0:2|0:0,0:0:0:0:
343,149,37367,2,0,L|243:157,1,100
0,178,37542,2,0,L|99:169,1,100,0|0,1:0|0:0,0:0:0:0:
243,30,37716,69,2,1:2:0:0:
99,42,37891,2,0,L|0:51,1,100,2|0,0:2|0:0,0:0:0:0:
0,304,38239,6,0,L|21:258,1,50,8|0,0:2|0:0,0:0:0:0:
31,235,38501,1,0,0:0:0:0:
42,212,38588,1,0,1:0:0:0:
256,369,38763,2,0,L|277:323,1,50,8|0,0:2|0:0,0:0:0:0:
287,300,39025,1,0,0:0:0:0:
298,277,39111,69,2,1:2:0:0:
497,259,39286,1,2,0:2:0:0:
287,162,39460,2,0,L|349:156,1,62.5,2|0,0:2|0:0,0:0:0:0:
486,145,39635,2,0,L|374:154,1,100,2|0,0:2|0:0,0:0:0:0:
187,170,39809,6,0,L|208:124,1,50,10|0,0:2|0:0,0:0:0:0:
248,33,40158,1,2,0:2:0:0:
63,49,40332,70,0,L|0:184,1,150.000005722046,2|0,1:2|0:0,0:0:0:0:
86,307,40594,2,0,L|236:294,1,150.000005722046,2|0,1:2|0:0,0:0:0:0:
297,158,40856,2,0,L|210:34,1,150.000005722046,2|0,1:2|0:0,0:0:0:0:
360,22,41205,2,0,L|433:16,2,75.0000028610231,2|2|0,1:2|0:2|0:0,0:0:0:0:
297,158,41466,6,0,L|234:293,1,150.000005722046,10|0,0:2|0:0,0:0:0:0:
86,307,41728,2,0,L|135:302,1,50,2|0,1:2|0:0,0:0:0:0:
433,275,41902,69,2,1:2:0:0:
234,294,42077,1,2,0:2:0:0:
297,158,42251,2,0,L|234:164,1,62.5,2|0,0:2|0:0,0:0:0:0:
100,177,42425,2,0,L|211:166,1,100,2|0,0:2|0:0,0:0:0:0:
395,146,42600,6,0,L|366:104,1,50,10|0,0:2|0:0,0:0:0:0:
158,36,42949,1,2,1:2:0:0:
158,36,43123,1,2,0:2:0:0:
308,23,43298,70,0,L|365:104,1,100,0|0,1:0|0:2,0:0:0:0:
449,227,43646,1,2,0:2:0:0:
378,384,43821,6,0,L|398:338,1,50,8|0,0:2|0:0,0:0:0:0:
345,207,44082,69,0,0:0:0:0:
305,299,44170,2,0,L|346:207,1,100,0|0,1:0|0:0,0:0:0:0:
421,38,44344,6,0,L|495:29,1,75,8|0,0:2|0:0,0:0:0:0:
512,0,44693,70,2,B|113:34|113:34|30:215|30:215|87:298,1,700,6|0,1:2|0:0,0:2:0:0:
140,375,45391,6,0,L|65:380,2,75.0000028610231,8|0|0,0:2|0:0|0:0,0:0:0:0:
245,363,45652,70,0,L|130:199,1,200
114,35,45914,6,0,L|213:26,1,100,2|0,1:2|0:0,0:0:0:0:
266,102,46175,2,0,L|224:191,1,100,2|0,1:2|0:0,0:0:0:0:
131,200,46437,2,0,L|74:119,1,100,2|0,1:2|0:0,0:0:0:0:
0,177,46786,69,8,0:2:0:0:
26,375,47048,1,8,0:2:0:0:
0,177,47309,1,8,0:2:0:0:
26,375,47484,6,2,B|195:13|195:13|394:-3|394:-3|452:78,1,700,6|0,1:2|0:0,0:2:0:0:
512,75,48181,70,0,L|214:102,1,300,10|0,0:2|0:0,0:0:0:0:
169,235,48530,2,0,L|269:227,1,100,2|0,1:2|0:0,0:0:0:0:
512,206,48705,2,0,L|413:215,1,100,2|0,1:2|0:0,0:0:0:0:
269,354,48879,5,2,1:2:0:0:
413,342,49054,2,0,L|511:333,1,100,2|0,0:2|0:0,0:0:0:0:
512,80,49402,70,0,L|491:126,1,50,8|0,0:2|0:0,0:0:0:0:
481,149,49664,1,0,0:0:0:0:
470,172,49751,1,0,1:0:0:0:
256,15,49925,2,0,L|235:61,1,50,8|0,0:2|0:0,0:0:0:0:
225,84,50188,1,0,0:0:0:0:
214,107,50274,5,2,1:2:0:0:
15,125,50449,1,2,0:2:0:0:
225,222,50623,2,0,L|162:227,1,62.5,2|0,0:2|0:0,0:0:0:0:
26,240,50798,2,0,L|138:231,1,100,2|0,0:2|0:0,0:0:0:0:
325,214,50972,70,0,L|304:260,1,50,8|0,0:2|0:0,0:0:0:0:
264,351,51321,1,0,0:0:0:0:
449,335,51495,6,0,L|512:200,1,150.000005722046,2|0,1:2|0:0,0:0:0:0:
425,76,51757,2,0,L|275:89,1,150.000005722046,2|0,1:2|0:0,0:0:0:0:
212,226,52018,2,0,L|298:349,1,150.000005722046,2|0,1:2|0:0,0:0:0:0:
148,361,52367,2,0,L|73:369,2,75.0000028610231,2|2|2,1:2|0:2|0:2,0:0:0:0:
212,225,52629,70,0,L|275:89,1,150.000005722046,10|0,0:2|0:0,0:0:0:0:
425,76,52891,2,0,L|376:81,1,50,2|0,1:2|0:0,0:0:0:0:
79,109,53065,5,2,1:2:0:0:
275,88,53240,1,2,0:2:0:0:
212,224,53414,2,0,L|274:217,1,62.5,2|0,0:2|0:0,0:0:0:0:
412,202,53588,2,0,L|312:211,1,100,2|0,0:2|0:0,0:0:0:0:
117,238,53763,70,0,L|146:280,1,50,12|0,0:2|0:0,0:0:0:0:
404,343,54111,1,0,1:0:0:0:
404,343,54286,1,2,0:2:0:0:
204,361,54460,6,0,L|147:280,1,100
34,121,54809,2,0,B|91:202|91:202|190:193,1,200,2|0,2:2|2:0,2:0:0:0:
168,96,55245,70,0,L|267:86,1,100
354,43,55507,2,0,L|482:227,1,225.000008583069
416,195,55856,6,0,L|390:152,1,50
413,352,56117,2,0,L|213:352,1,200,0|0,0:1|0:0,0:0:0:0:
213,351,56553,6,0,B|110:178|110:178|61:263,1,300,8|0,0:2|0:0,0:0:0:0:
0,374,56902,2,0,L|24:374,2,50,2|2|2,1:3|1:3|1:3,1:3:0:0:
13,352,57077,70,0,L|187:352,1,200,8|0,0:2|0:0,0:0:0:0:
276,260,57338,6,0,L|174:86,1,200,0|0,1:2|0:0,0:0:0:0:
32,14,57600,2,0,B|132:176|132:176|77:271,1,300,0|0,1:2|0:0,0:0:0:0:
13,352,57949,70,0,L|114:176,1,200,8|0,0:2|0:0,0:0:0:0:
187,48,58210,2,0,L|390:48,1,200,8|0,0:2|0:0,0:0:0:0:
462,177,58472,2,0,L|363:351,1,200,8|0,0:2|0:0,0:0:0:0:
293,384,58734,6,0,L|392:209,1,200,2|0,1:3|0:0,0:0:0:0:
498,24,58995,2,0,L|315:22,1,200,2|0,1:3|0:0,0:0:0:0:
96,9,59257,2,0,L|196:177,1,200,2|0,1:3|0:0,0:0:0:0:
293,384,59518,70,0,L|242:297,1,75.0000028610231,8|0,0:2|0:0,0:0:0:0:
197,181,59780,1,0,0:0:0:0:
197,181,60042,6,0,L|296:181,1,100,0|0,1:0|0:0,0:0:0:0:
421,201,60303,2,0,L|356:312,1,100,8|0,0:2|0:0,0:0:0:0:
293,387,60565,2,0,L|242:300,1,100,0|0,1:0|0:0,0:0:0:0:
171,226,60827,1,0,1:0:0:0:
196,182,60914,2,0,L|171:139,1,50
93,13,61088,69,8,0:2:0:0:
138,240,61350,1,8,0:2:0:0:
50,252,61437,1,0,1:0:0:0:
50,252,61699,6,0,L|449:252,1,400
508,138,62135,2,0,L|208:138,1,300,12|0,0:2|0:0,0:0:0:0:
208,138,62484,70,0,L|226:170,1,37.5000014305115
272,252,62658,1,0,1:0:0:0:
450,251,62832,5,2,0:2:0:0:
450,251,62920,2,0,L|386:250,2,37.5000014305115,0|0|0,0:2|0:0|0:0,0:0:0:0:
348,384,63181,2,0,L|329:351,1,37.5000014305115,2|0,1:3|0:0,0:0:0:0:
272,252,63356,2,0,L|208:252,1,37.5000014305115,2|0,0:3|0:0,0:0:0:0:
8,242,63530,70,0,L|40:186,2,37.5000014305115,8|0|0,0:2|0:0|0:0,0:0:0:0:
130,49,63792,2,0,L|162:104,2,37.5000014305115,8|0|0,0:2|0:0|0:0,0:0:0:0:
234,252,64053,2,0,L|271:252,1,37.5000014305115,0|0,1:2|0:0,0:0:0:0:
499,335,64228,6,2,B|98:336|98:336|0:162|0:162|50:75,1,700,6|0,1:2|0:0,0:2:0:0:
50,75,64925,70,0,L|200:75,1,150,10|0,0:2|0:0,0:0:0:0:
200,75,65274,6,0,L|500:75,1,300,0|0,1:0|0:0,0:0:0:0:
449,159,65623,70,0,L|398:245,1,100
398,245,65885,2,0,L|298:245,1,100
98,245,66146,2,0,L|148:331,1,100,8|0,0:2|0:0,0:0:0:0:
148,331,66408,6,0,L|247:330,2,100,0|0|0,0:0|1:0|0:0,0:0:0:0:
3,244,66670,2,0,L|47:158,1,100,8|0,0:2|0:0,0:0:0:0:
246,156,66844,2,0,L|196:70,1,100
11,41,67018,70,2,B|410:40|410:40|509:214|509:214|460:301,1,700,6|0,1:2|0:0,0:2:0:0:
413,382,67716,6,0,L|338:383,1,75.0000028610231,8|0,0:2|0:0,0:0:0:0:
209,379,67891,70,0,L|57:121,1,300,0|0,0:2|0:0,0:0:0:0:
11,39,68239,1,0,1:0:0:0:
237,42,68414,5,2,1:2:0:0:
187,41,68501,1,0,0:0:0:0:
269,189,68675,1,2,1:2:0:0:
243,145,68763,1,0,0:0:0:0:
131,245,68937,1,2,1:2:0:0:
157,289,69024,1,0,0:0:0:0:
207,289,69111,69,8,0:2:0:0:
421,142,69373,2,0,L|396:142,1,25,8|0,0:2|0:0,0:0:0:0:
499,327,69635,2,0,L|466:271,1,50,8|0,0:2|0:0,0:0:0:0:
500,46,69809,6,2,B|99:45|99:45|0:218|0:218|50:305,1,700,6|0,1:2|0:0,0:2:0:0:
49,304,70507,70,0,L|199:304,1,150,10|0,0:2|0:0,0:0:0:0:
199,304,70856,6,0,L|298:304,1,100,0|0,1:0|0:0,0:0:0:0:
399,306,71030,2,0,L|499:306,1,100,0|0,1:0|0:0,0:0:0:0:
449,222,71205,70,0,L|398:135,1,100
398,135,71466,2,0,L|297:136,1,100
98,136,71727,2,0,L|147:50,1,100,8|0,0:2|0:0,0:0:0:0:
147,50,71989,6,0,L|247:50,2,100,0|0|0,0:0|1:0|0:0,0:0:0:0:
2,136,72251,2,0,L|47:223,1,100,8|0,0:2|0:0,0:0:0:0:
245,225,72425,2,0,L|196:311,1,100
13,356,72600,70,2,B|382:357|382:357|481:184|481:184|431:97,1,700,6|0,1:2|0:0,0:2:0:0:
376,0,73298,6,0,B|225:260|225:260|265:331,1,375.000014305115,8|0,0:2|0:0,0:0:0:0:
184,356,73821,1,0,1:0:0:0:
385,158,73996,69,2,1:2:0:0:
360,200,74083,1,0,0:0:0:0:
272,57,74257,1,2,1:2:0:0:
297,102,74345,1,0,0:0:0:0:
155,146,74519,1,2,1:2:0:0:
129,103,74606,1,0,0:0:0:0:
154,59,74693,5,8,0:2:0:0:
415,98,74954,1,8,0:2:0:0:
303,305,75216,1,0,1:2:0:0:
495,384,75391,70,2,B|294:37|294:37|170:37,1,525.000020027161,6|0,1:2|0:0,0:2:0:0:
170,37,76088,6,0,L|20:37,1,150,10|0,0:2|0:0,0:0:0:0:
20,37,76437,70,0,L|169:296,1,300,0|0,1:0|0:0,0:0:0:0:
451,298,76786,6,0,L|400:212,1,100
400,212,77048,2,0,L|301:213,1,75.0000028610231
100,212,77309,2,0,L|150:127,1,100,8|0,0:2|0:0,0:0:0:0:
151,126,77571,70,0,L|250:126,2,100,0|0|0,0:0|1:0|0:0,0:0:0:0:
1,213,77833,2,0,L|49:300,1,100,8|0,0:2|0:0,0:0:0:0:
248,302,78007,2,0,L|198:387,1,94.9999974632264,0|0,1:0|0:0,0:0:0:0:
104,227,78181,5,6,1:2:0:0:
440,198,79402,1,2,0:2:0:0:
440,198,79577,5,2,0:2:0:0:
327,206,79838,1,2,0:2:0:0:
215,213,80100,2,0,L|289:207,1,75.0000028610231,2|0,0:2|0:0,0:0:0:0:
311,13,80972,70,0,L|426:177,1,200,2|0,0:2|0:0,0:0:0:0:
311,13,82367,5,2,0:2:0:0:
216,217,82629,1,2,0:2:0:0:
86,32,82891,2,0,L|129:93,1,75.0000028610231,2|0,0:2|0:0,0:0:0:0:
440,198,83763,70,0,L|355:380,1,200,2|0,0:2|0:0,0:0:0:0:
96,160,85158,6,0,L|295:143,1,200,2|0,0:2|0:0,0:0:0:0:
250,351,86553,70,0,L|134:186,1,200,2|0,0:2|0:0,0:0:0:0:
362,27,87949,5,2,0:2:0:0:
314,129,88210,1,2,0:2:0:0:
266,231,88472,2,0,L|234:298,1,75.0000028610231,2|0,0:2|0:0,0:0:0:0:
62,324,88995,1,2,0:2:0:0:
408,157,89344,69,6,1:2:0:0:
72,186,90740,5,2,0:2:0:0:
184,176,91001,1,2,0:2:0:0:
296,167,91263,2,0,L|221:173,1,75.0000028610231,2|0,0:2|0:0,0:0:0:0:
201,371,92135,70,0,L|85:206,1,200,2|0,0:2|0:0,0:0:0:0:
201,371,93530,5,2,0:2:0:0:
296,167,93792,1,2,0:2:0:0:
426,352,94054,2,0,L|382:290,1,75.0000028610231,2|0,0:2|0:0,0:0:0:0:
72,186,94925,70,0,L|156:3,1,200,2|0,0:2|0:0,0:0:0:0:
415,223,96321,6,0,L|214:240,1,200,2|0,0:2|0:0,0:0:0:0:
262,33,97716,70,0,L|377:197,1,200,2|0,0:2|0:0,0:0:0:0:
150,357,99112,5,2,0:2:0:0:
198,255,99373,1,2,0:2:0:0:
246,153,99635,70,0,L|320:146,1,75.0000028610231,2|0,0:2|0:0,0:0:0:0:
512,235,100158,2,0,L|400:74,1,194.999991073609
394,45,100507,6,0,L|44:75,1,350,6|0,1:2|0:0,0:0:0:0:
9,52,101205,6,0,L|76:239,1,200,10|0,0:2|0:0,0:0:0:0:
127,380,101466,2,0,L|241:241,1,150.000005722046,2|0,1:2|0:0,0:0:0:0:
318,148,101728,2,0,L|351:241,1,100,2|0,1:2|0:0,0:0:0:0:
386,335,102077,1,0,0:0:0:0:
386,335,102251,6,4,L|370:351,6,18.7500007152558,4|4|4|4|4|4|4,1:3|2:3|2:3|2:3|2:3|2:3|2:3,2:3:0:0:
358,353,102600,70,8,L|335:382,1,37.5000014305115,8|8,0:2|0:2,0:2:0:0:
284,340,102687,2,8,L|261:369,1,37.5000014305115,8|8,0:2|0:2,0:2:0:0:
210,326,102774,2,8,L|187:355,1,37.5000014305115,8|8,0:2|0:2,0:2:0:0:
135,311,102861,6,8,L|113:342,2,37.5000014305115,8|8|8,0:2|0:2|0:2,0:2:0:0:
228,201,103036,2,0,L|190:195,1,37.5000014305115,8|0,0:2|0:0,0:0:0:0:
232,189,103123,2,0,L|157:177,1,75.0000028610231,2|0,0:2|0:0,0:0:0:0:
102,81,103298,70,0,B|298:115|298:115|233:190,1,300,2|0,1:2|0:0,0:0:0:0:
295,7,103646,2,0,B|491:42|491:42|426:118,1,300,2|0,0:2|0:0,0:0:0:0:
457,192,103995,6,8,L|473:230,1,37.5000014305115,8|8,3:2|3:2,3:2:0:0:
420,234,104082,2,8,L|434:268,1,37.5000014305115,8|8,3:2|3:2,3:2:0:0:
385,277,104169,2,8,L|400:317,1,37.5000014305115,8|8,3:2|3:2,3:2:0:0:
398,311,104344,70,0,L|249:285,1,150.000005722046,0|0,0:0|1:0,0:0:0:0:
212,280,104606,1,2,0:2:0:0:
236,131,104693,6,0,L|284:139,1,50,2|0,0:3|3:0,0:0:0:0:
243,49,104955,2,8,L|228:13,2,37.5000014305115,8|8|8,3:2|3:2|3:2,3:2:0:0:
198,125,105216,70,8,L|175:154,1,37.5000014305115,8|8,0:2|0:2,0:2:0:0:
124,112,105303,2,8,L|102:141,1,37.5000014305115,8|8,0:2|0:2,0:2:0:0:
50,98,105391,1,0,0:0:0:0:
50,98,105565,1,0,1:0:0:0:
76,328,105739,6,0,L|150:339,1,75,10|0,1:3|3:0,0:0:0:0:
181,346,106088,70,6,B|379:380|379:380|506:227|506:227|437:40|437:40|240:3|240:3,1,800,6|0,1:2|0:0,0:2:0:0:
161,0,106786,2,0,B|15:164|15:164|128:183,1,341.999995825195,10|0,0:2|0:0,0:0:0:0:
272,207,107135,5,2,1:2:0:0:
337,219,107251,1,2,1:2:0:0:
404,230,107367,1,0,1:2:0:0:
469,241,107484,69,2,1:2:0:0:
469,241,107658,2,0,L|491:300,1,50,0|2,0:0|0:2,0:0:0:0:
337,219,107891,2,0,L|367:298,1,66.6666666666667,0|0,1:0|0:0,0:0:0:0:
389,353,108065,1,10,0:2:0:0:
389,353,108181,1,0,1:0:0:0:
210,201,108356,1,2,0:2:0:0:
210,201,108443,2,0,L|239:279,1,50,8|0,0:2|1:2,0:0:0:0:
83,183,108705,2,0,L|111:262,1,50,0|2,1:2|0:2,0:0:0:0:
1,318,108879,6,2,B|224:5|224:5|362:30,1,525.000020027161,6|0,1:2|0:0,0:2:0:0:
363,31,109577,70,0,L|510:57,1,150,10|0,0:2|0:0,0:0:0:0:
510,57,109925,6,0,L|364:227,1,225.000008583069,2|0,1:2|0:0,0:0:0:0:
364,228,110274,70,0,L|215:201,1,150.000005722046,2|0,1:2|0:0,0:0:0:0:
67,194,110536,2,0,L|164:79,1,150.000005722046,2|0,1:2|0:0,0:0:0:0:
251,0,110798,6,0,L|201:60,1,87.500000834465,10|0,0:2|0:0,0:0:0:0:
67,194,110972,2,0,L|239:224,1,175.00000166893,10|0,1:2|0:0,0:0:0:0:
342,283,111233,1,8,0:2:0:0:
327,242,111321,2,0,L|282:121,1,116.666667779287,10|2,1:2|0:1,0:0:0:0:
353,84,111553,1,2,0:1:0:0:
422,36,111670,70,0,L|499:248,1,225.000008583069,2|0,1:2|0:0,0:0:0:0:
484,265,112018,5,10,0:2:0:0:
469,281,112105,1,2,0:2:0:0:
455,298,112192,1,2,0:2:0:0:
441,315,112279,1,2,0:2:0:0:
427,332,112367,1,2,0:2:0:0:
416,344,112455,70,0,L|440:347,1,25,2|0,0:2|0:0,0:0:0:0:
406,356,112542,2,0,L|429:360,1,25,2|0,0:2|0:0,0:0:0:0:
394,370,112629,2,0,L|418:373,1,25,2|0,0:2|0:0,0:0:0:0:
383,383,112716,1,0,0:0:0:0:
427,332,112891,6,0,L|230:296,1,200.000007629395,2|0,1:2|0:0,0:0:0:0:
68,325,113239,70,0,B|111:272|111:272|88:210,1,133.333333333333,2|0,1:2|0:0,0:0:0:0:
57,112,113588,6,0,L|297:154,1,227.999997216797,6|8,1:2|0:2,0:0:0:0:
473,51,113850,1,8,2:2:0:0:
419,114,113937,1,8,2:2:0:0:
365,181,114024,2,0,L|325:229,1,62.5,8|0,0:2|0:0,0:0:0:0:
478,338,114199,1,8,3:2:0:0:
410,325,114286,1,0,3:0:0:0:
410,325,114460,70,0,L|336:311,1,75.0000028610231,2|0,1:2|0:0,0:0:0:0:
111,271,114635,1,8,0:2:0:0:
336,311,114809,2,0,L|259:98,1,225.000008583069,2|0,1:2|0:0,0:0:0:0:
232,6,115158,5,2,1:2:0:0:
379,32,115332,1,0,0:0:0:0:
404,35,115419,1,0,0:0:0:0:
428,40,115507,2,0,L|380:96,1,50,2|0,1:2|0:0,0:0:0:0:
296,198,115681,2,0,L|247:189,1,50,2|0,1:2|0:0,0:0:0:0:
92,162,115856,70,0,L|55:63,2,100,2|0|0,1:2|0:0|0:0,0:0:0:0:
281,81,116292,1,0,3:0:0:0:
265,100,116379,2,0,L|197:179,1,100,10|0,0:2|0:0,0:0:0:0:
120,272,116641,1,0,0:0:0:0:
103,291,116728,1,0,1:0:0:0:
200,177,116902,2,0,L|136:253,1,100,10|0,0:2|0:0,0:0:0:0:
136,253,117251,6,0,B|234:270|234:270|265:229|265:229|314:239|314:239|370:156|370:156|420:166,1,350,0|0,0:2|0:0,0:0:0:0:
512,183,117949,2,0,B|119:112|119:112|85:19,1,500,8|0,0:2|0:0,0:0:0:0:
18,87,118472,70,0,L|51:180,1,100,2|0,1:2|0:0,0:0:0:0:
101,321,118733,2,0,L|199:338,1,100,2|0,1:2|0:0,0:0:0:0:
345,366,118995,2,0,L|461:227,1,150,2|0,1:2|0:0,0:0:0:0:
505,61,119344,2,0,L|440:135,1,100,2|0,1:2|0:0,0:0:0:0:
307,286,119606,1,8,0:2:0:0:
505,61,119867,1,0,1:0:0:0:
505,61,120042,6,0,B|407:42|407:42|342:120|342:120|308:25|308:25|209:7|209:7|17:236|17:236,1,700,4|0,1:2|0:0,0:0:0:0:
18,235,120739,70,0,L|239:273,1,225.000008583069,10|0,0:2|0:0,0:0:0:0:
239,273,121088,2,0,L|461:312,1,225.000008583069,2|0,1:2|0:0,0:0:0:0:
484,379,121437,6,0,B|425:213|425:213|251:183|251:183|312:346|312:346|139:314|139:314|79:151|79:151|191:15|191:15|363:46|363:46|392:128,1,1312.50001251698,2|0,0:3|0:0,0:0:0:0:
391,126,122832,54,0,L|390:191,2,50,6|0|0,0:2|0:2|0:2,0:2:0:0:
392,281,123356,2,0,L|391:332,2,50,2|0|0,0:2|0:2|0:2,0:2:0:0:
310,87,123879,6,0,L|309:152,2,50,2|0|0,0:2|0:2|0:2,0:2:0:0:
306,255,124402,70,0,L|305:281,1,25,2|0,0:2|0:2,0:2:0:0:
305,383,124577,2,0,L|305:359,1,25,0|0,0:2|0:2,0:2:0:0:
306,255,124751,1,0,0:2:0:0:
451,359,124925,6,0,L|394:327,2,55.0000016784668,2|0|0,0:2|0:2|0:2,0:2:0:0:
305,279,125449,1,2,0:2:0:0:
305,279,125623,2,0,L|253:251,1,55.0000016784668,0|0,0:2|0:2,0:2:0:0:
458,273,125972,70,0,L|391:236,2,64.9999970245363,2|0|0,0:2|0:2|0:2,0:2:0:0:
287,177,126495,2,0,L|220:140,2,64.9999970245363,2|0|0,0:2|0:2|0:2,0:2:0:0:
478,194,127018,6,0,L|420:162,1,37.5000014305115,2|0,0:2|0:2,0:2:0:0:
350,123,127193,2,0,L|317:104,1,37.5000014305115,2|0,0:2|0:2,0:2:0:0:
213,42,127367,1,0,0:2:0:0:
355,0,127542,70,0,L|285:39,2,75.0000028610231,2|0|0,0:2|0:2|0:2,0:2:0:0:
92,147,128065,2,0,L|156:108,1,75.0000028610231,2|0,0:2|0:2,0:2:0:0:
290,37,128414,1,0,0:2:0:0:
373,85,128588,6,0,L|303:124,2,80,2|0|0,0:2|0:2|0:2,0:2:0:0:
162,200,129111,2,0,L|91:239,2,80,2|0|0,0:2|0:2|0:2,0:2:0:0:
394,160,129635,69,2,0:2:0:0:
394,160,129809,2,0,L|318:203,1,85.0000016212464,0|0,0:2|0:2,0:2:0:0:
172,285,130158,2,0,L|95:328,1,85.0000016212464,2|0,0:2|0:2,0:2:0:0:
217,384,130507,2,0,L|291:341,1,85.0000016212464,0|2,0:2|0:2,0:2:0:0:
436,256,130856,2,0,L|509:212,1,85.0000016212464,0|0,0:2|0:2,0:2:0:0:
507,16,131205,6,0,L|424:63,2,89.9999972534181,2|0|0,0:2|0:2|0:2,0:2:0:0:
341,307,131728,2,0,L|340:210,2,94.9999974632264,2|0|0,0:2|0:2|0:2,0:2:0:0:
168,4,132251,2,0,L|253:54,1,100,2|0,0:2|0:2,0:2:0:0:
509,212,132600,70,0,L|422:162,1,100,2|0,0:2|0:2,0:2:0:0:
339,109,132861,1,2,0:2:0:0:
339,109,132949,1,2,0:2:0:0:
254,55,133123,5,2,0:2:0:0:
142,120,133298,1,2,0:2:0:0:
133,263,133472,69,2,0:2:0:0:
217,319,133646,2,0,L|216:244,1,75.0000028610231,0|0,0:2|0:2,0:2:0:0:
119,131,133995,6,0,L|120:196,2,50,6|0|0,0:2|0:2|0:2,0:2:0:0:
118,286,134519,2,0,L|119:337,2,50,2|0|0,0:2|0:2|0:2,0:2:0:0:
202,87,135042,70,0,L|203:152,2,50,2|0|0,0:2|0:2|0:2,0:2:0:0:
206,255,135565,6,0,L|207:281,1,25,2|0,0:2|0:2,0:2:0:0:
207,383,135740,2,0,L|207:359,1,25,0|0,0:2|0:2,0:2:0:0:
206,255,135914,1,0,0:2:0:0:
61,359,136088,70,0,L|118:327,2,55.0000016784668,2|0|0,0:2|0:2|0:2,0:2:0:0:
207,279,136612,1,2,0:2:0:0:
207,279,136786,2,0,L|259:251,1,55.0000016784668,0|0,0:2|0:2,0:2:0:0:
54,273,137135,6,0,L|121:236,2,64.9999970245363,2|0|0,0:2|0:2|0:2,0:2:0:0:
225,177,137658,2,0,L|292:140,2,64.9999970245363,2|0|0,0:2|0:2|0:2,0:2:0:0:
34,194,138181,70,0,L|92:162,1,37.5000014305115,2|0,0:2|0:2,0:2:0:0:
162,123,138356,2,0,L|195:104,1,37.5000014305115,2|0,0:2|0:2,0:2:0:0:
299,42,138530,1,0,0:2:0:0:
157,0,138705,6,0,L|226:39,2,75.0000028610231,2|0|0,0:2|0:2|0:2,0:2:0:0:
420,147,139228,2,0,L|355:108,1,75.0000028610231,2|0,0:2|0:2,0:2:0:0:
222,37,139577,1,0,0:2:0:0:
139,85,139751,70,0,L|208:124,2,80,2|0|0,0:2|0:2|0:2,0:2:0:0:
350,200,140274,2,0,L|420:239,2,80,2|0|0,0:2|0:2|0:2,0:2:0:0:
118,160,140798,5,2,0:2:0:0:
118,160,140972,2,0,L|193:203,1,85.0000016212464,0|0,0:2|0:2,0:2:0:0:
340,285,141321,2,0,L|416:328,1,85.0000016212464,2|0,0:2|0:2,0:2:0:0:
295,384,141670,2,0,L|220:341,1,85.0000016212464,0|2,0:2|0:2,0:2:0:0:
76,256,142019,2,0,L|2:212,1,85.0000016212464,0|0,0:2|0:2,0:2:0:0:
5,16,142368,70,0,L|87:63,2,89.9999972534181,2|0|0,0:2|0:2|0:2,0:2:0:0:
171,307,142891,2,0,L|171:210,2,94.9999974632264,2|0|0,0:2|0:2|0:2,0:2:0:0:
344,4,143414,2,0,L|258:54,1,100,2|0,0:2|0:2,0:2:0:0:
3,212,143763,6,0,L|89:162,1,100,2|0,0:2|0:2,0:2:0:0:
173,109,144024,1,2,0:2:0:0:
173,109,144112,1,2,0:2:0:0:
258,55,144286,69,2,0:2:0:0:
370,120,144461,1,2,0:2:0:0:
379,263,144635,5,2,0:2:0:0:
295,319,144809,2,0,L|230:280,1,75,0|0,0:2|0:2,0:2:0:0:
457,318,145158,22,0,B|407:322|407:322|376:281|376:281|398:237|398:237|425:235,1,175,2|0,1:2|0:0,0:0:0:0:
422,235,145856,6,0,L|197:255,1,225.000008583069,2|0,0:2|0:0,0:0:0:0:
99,265,146205,1,2,0:2:0:0:
198,255,146379,2,0,L|111:133,1,150.000005722046,2|0,0:2|0:0,0:0:0:0:
173,0,146641,70,0,L|259:123,1,150.000005722046,2|0,0:2|0:0,0:0:0:0:
209,233,146902,2,0,L|122:111,1,150.000005722046,2|0,0:2|0:0,0:0:0:0:
198,0,147164,2,0,L|271:106,1,75.0000028610231,2|0,0:2|0:0,0:0:0:0:
368,244,147425,5,2,0:2:0:0:
368,244,147512,1,0,0:0:0:0:
283,122,147687,1,2,0:2:0:0:
283,122,147774,1,0,0:0:0:0:
198,0,147949,1,2,0:2:0:0:
198,0,148036,70,0,L|114:182,1,200,6|0,1:2|0:0,0:0:0:0:
4,378,148297,2,0,L|204:361,1,200,2|0,1:3|0:0,0:0:0:0:
427,360,148559,2,0,L|312:197,1,200,2|0,1:3|0:0,0:0:0:0:
198,0,148821,6,0,L|256:82,1,75.0000028610231,8|0,0:2|0:0,0:0:0:0:
312,197,149082,1,0,0:0:0:0:
312,197,149344,70,0,L|212:206,1,100,0|0,1:0|0:0,0:0:0:0:
86,196,149605,2,0,L|141:80,1,100,8|0,0:2|0:0,0:0:0:0:
198,0,149867,2,0,L|256:82,1,100,0|0,1:0|0:0,0:0:0:0:
333,149,150129,1,0,1:0:0:0:
312,197,150216,2,0,L|341:238,1,50
433,384,150390,5,8,0:2:0:0:
377,121,150652,1,8,0:2:0:0:
451,113,150739,1,0,1:0:0:0:
451,113,151001,70,0,L|53:148,1,400,2|0,1:2|0:0,0:0:0:0:
54,177,151524,2,0,L|353:151,1,300,12|0,0:2|0:0,0:0:0:0:
489,109,151873,6,0,L|452:113,1,37.5000014305115
230,132,152047,1,2,1:2:0:0:
319,5,152222,70,0,L|356:2,3,37.5000014305115,0|0|0|0,0:2|0:0|0:0|0:0,0:0:0:0:
143,0,152571,2,0,L|165:31,1,37.5000014305115,8|0,1:2|0:0,0:0:0:0:
230,132,152745,1,0,0:0:0:0:
494,119,152919,6,0,L|467:178,1,37.5000014305115,0|0,2:2|2:0,2:0:0:0:
468,177,153094,70,8,B|489:207|489:207|473:241,10,75.0000028610231,8|8|8|8|8|8|8|8|8|8|8,0:2|0:2|0:2|0:2|0:2|0:2|0:2|0:2|0:2|0:2|0:2,0:2:0:0:
462,373,153617,6,0,B|261:390|261:390|89:145,1,500,6|0,1:2|0:0,0:0:0:0:
0,13,154141,2,0,B|201:-3|201:-3|372:240,1,500,2|0,1:2|0:0,0:0:0:0:
367,381,154664,2,0,B|251:215|251:215|293:126,1,300,2|0,1:2|2:0,2:0:0:0:
512,11,155100,69,0,1:0:0:0:
490,56,155187,1,2,0:2:0:0:
391,117,155449,1,2,1:2:0:0:
137,40,155623,1,0,1:0:0:0:
159,85,155710,1,2,0:2:0:0:
159,85,155972,6,0,B|273:249|273:249|372:240,1,300,10|0,0:2|0:0,0:0:0:0:
512,320,156321,70,2,B|114:355|114:355|0:191|0:191|42:100,1,700,6|0,1:2|0:0,0:2:0:0:
81,15,157019,6,0,L|155:8,1,75.0000028610231,8|0,0:2|0:0,0:0:0:0:
285,0,157194,70,0,L|459:245,1,300,0|0,0:2|0:0,0:0:0:0:
512,322,157542,1,0,1:0:0:0:
286,339,157717,5,2,1:2:0:0:
336,335,157804,1,0,0:0:0:0:
242,195,157978,1,2,1:2:0:0:
271,236,158066,1,0,0:0:0:0:
374,127,158240,1,0,0:0:0:0:
345,85,158327,1,2,1:2:0:0:
295,89,158414,69,8,0:2:0:0:
94,255,158676,2,0,L|119:253,1,25,8|0,0:2|0:0,0:0:0:0:
1,77,158938,2,0,L|38:130,1,50,8|0,0:2|0:0,0:0:0:0:
26,358,159112,6,2,B|424:323|424:323|508:142|508:142|450:60,1,700,6|0,1:2|0:0,0:2:0:0:
450,59,159810,70,0,L|301:71,1,150,10|0,0:2|0:0,0:0:0:0:
301,71,160158,6,0,L|201:79,1,100,0|0,1:0|0:0,0:0:0:0:
102,89,160333,2,0,L|2:97,1,100,0|0,1:0|0:0,0:0:0:0:
60,178,160508,70,0,L|118:260,1,100,0|0,1:0|0:0,0:0:0:0:
117,259,160681,1,2,0:2:0:0:
417,233,161030,2,0,L|375:323,1,100,8|0,0:2|0:0,0:0:0:0:
374,323,161205,1,2,0:2:0:0:
378,326,161379,1,0,1:2:0:0:
512,224,161554,2,0,L|460:142,1,100,8|0,0:2|0:0,0:0:0:0:
262,157,161728,2,0,L|304:67,1,100
512,2,161903,6,2,B|114:37|114:37|31:218|31:218|88:301,1,700,6|0,1:2|0:0,0:2:0:0:
142,378,162600,70,0,B|270:106|270:106|224:39,1,375.000014305115,8|0,0:2|0:0,0:0:0:0:
312,21,163123,1,0,1:0:0:0:
129,236,163298,5,2,1:2:0:0:
150,192,163385,1,0,0:0:0:0:
250,327,163559,1,2,1:2:0:0:
221,285,163647,1,0,0:0:0:0:
359,226,163821,1,2,1:2:0:0:
388,268,163908,1,0,0:0:0:0:
366,313,163995,69,8,0:2:0:0:
104,298,164256,1,8,0:2:0:0:
198,82,164518,1,0,1:2:0:0:
1,1,164693,6,2,B|230:328|230:328|429:309|429:309|472:219,1,700,6|0,1:2|0:0,0:2:0:0:
448,200,165391,70,8,L|415:268,1,75.0000028610231,8|8,0:2|0:2,0:2:0:0:
421,189,165478,2,8,L|388:257,1,75.0000028610231,8|8,0:2|0:2,0:2:0:0:
394,178,165565,2,8,L|361:246,1,75.0000028610231,8|8,0:2|0:2,0:2:0:0:
367,167,165652,2,8,L|334:235,1,75.0000028610231,8|8,0:2|0:2,0:2:0:0:
308,192,165739,6,0,B|301:210|301:210|311:224,6,37.5000014305115,0|0|0|0|0|0|0,1:2|1:2|1:2|1:2|1:2|1:2|1:2,1:2:0:0:
227,112,166088,2,0,B|238:127|238:127|230:144,10,37.5000014305115,0|0|0|0|0|0|0|0|0|0|0,1:2|1:2|1:2|1:2|1:2|1:2|1:2|1:2|1:2|1:2|1:2,1:2:0:0:
311,224,166611,69,8,0:2:0:0:
174,274,166699,2,8,B|189:241|189:241|227:238,4,75.0000028610231,8|8|8|8|8,0:2|0:2|0:2|0:2|0:2,0:2:0:0:
230,144,166960,6,0,B|246:110|246:110|225:80,2,75.0000028610231,0|0|0,1:2|1:2|1:2,1:2:0:0:
344,189,167135,6,2,B|308:192|308:192|327:151,6,75.0000028610231,8|2|2|2|2|2|2,0:2|0:3|0:3|0:3|0:3|0:3|0:3,0:0:0:0:
512,76,167484,38,2,B|114:41|114:41|0:205|0:205|42:296,1,700,2|0,1:2|0:0,0:2:0:0:
213,310,168181,6,0,B|413:327|413:327|369:238,1,300,8|0,0:2|0:0,0:0:0:0:
314,111,168530,70,0,L|287:151,2,50,2|2|2,1:3|1:3|1:3,1:3:0:0:
328,146,168705,6,0,L|214:310,1,200,8|0,0:2|0:0,0:0:0:0:
214,309,168966,2,0,L|115:300,1,100,0|0,1:0|0:0,0:0:0:0:
115,300,169228,2,0,L|46:150,1,150
4,7,169577,70,0,L|203:25,1,200,8|0,0:2|1:0,0:0:0:0:
352,38,169838,2,0,L|436:220,1,200,0|0,0:2|0:0,0:0:0:0:
348,341,170100,2,0,L|263:160,1,200,0|0,1:2|0:0,0:0:0:0:
311,0,170362,6,0,L|395:182,1,200,2|0,1:3|0:0,0:0:0:0:
505,378,170623,2,0,L|305:361,1,200,2|0,1:3|0:0,0:0:0:0:
82,358,170885,2,0,L|197:195,1,200,2|0,1:3|0:0,0:0:0:0:
311,0,171146,70,0,L|253:82,1,75.0000028610231,8|0,0:2|0:0,0:0:0:0:
197,195,171408,1,0,1:0:0:0:
197,195,171670,5,2,1:2:0:0:
344,207,171843,1,2,0:2:0:0:
393,211,171931,1,8,0:2:0:0:
466,286,172193,1,0,1:2:0:0:
320,374,172366,1,2,0:2:0:0:
282,372,172455,2,0,L|219:236,1,150,0|0,1:0|0:0,0:0:0:0:
197,195,172716,69,2,1:2:0:0:
113,17,172891,1,8,0:2:0:0:
134,61,172977,1,2,0:2:0:0:
155,105,173065,5,2,1:2:0:0:
0,66,173239,2,0,L|63:71,1,62.5,2|0,0:2|0:0,0:0:0:0:
197,195,173414,2,0,L|135:189,1,62.5,2|0,0:2|0:0,0:0:0:0:
0,177,173589,2,0,L|112:187,1,100,2|0,0:2|0:0,0:0:0:0:
299,207,173763,70,0,L|271:248,1,50,10|0,0:2|0:0,0:0:0:0:
215,331,174112,1,2,0:2:0:0:
197,195,174286,1,0,1:0:0:0:
20,181,174460,5,2,0:2:0:0:
20,181,174548,2,0,L|84:187,2,37.5000014305115,2|0|0,0:2|0:0|0:0,0:0:0:0:
135,49,174809,2,0,L|152:83,1,37.5000014305115,2|0,1:3|0:0,0:0:0:0:
197,195,174984,2,0,L|261:201,1,37.5000014305115,2|0,0:3|0:0,0:0:0:0:
489,231,175158,70,0,L|425:225,2,37.5000014305115,8|0|0,0:2|0:0|0:0,0:0:0:0:
264,201,175420,2,0,L|301:149,2,37.5000014305115,8|0|0,0:2|0:0|0:0,0:0:0:0:
403,21,175681,2,0,L|366:18,1,37.5000014305115,0|0,1:2|0:0,0:0:0:0:
75,61,175856,5,2,1:2:0:0:
273,79,176031,1,2,0:2:0:0:
89,194,176205,2,0,L|188:202,1,100,2|0,0:2|0:0,0:0:0:0:
388,220,176379,2,0,L|277:211,1,100,2|0,0:2|0:0,0:0:0:0:
88,195,176554,70,0,L|110:241,1,50,8|0,0:2|0:0,0:0:0:0:
355,348,176903,1,2,1:2:0:0:
355,348,177077,1,2,0:2:0:0:
443,225,177251,5,2,0:3:0:0:
381,87,177425,1,2,0:2:0:0:
381,87,177513,1,2,0:3:0:0:
474,294,177774,69,10,0:2:0:0:
265,265,177949,1,2,0:2:0:0:
58,235,178123,1,2,0:2:0:0:
58,235,178298,6,0,L|14:295,1,75,8|0,0:2|0:0,0:0:0:0:
1,320,178646,70,2,B|399:355|399:355|513:191|513:191|471:100,1,700,6|0,1:2|0:0,0:2:0:0:
432,15,179344,6,0,L|358:8,1,75.0000028610231,8|0,0:2|0:0,0:0:0:0:
228,0,179518,70,0,L|54:245,1,300,0|0,0:2|0:0,0:0:0:0:
1,322,179867,1,0,1:0:0:0:
227,339,180042,5,2,1:2:0:0:
177,335,180129,1,0,0:0:0:0:
271,195,180303,1,2,1:2:0:0:
242,236,180391,1,0,0:0:0:0:
139,127,180565,1,2,1:2:0:0:
168,85,180652,1,0,0:0:0:0:
218,89,180739,69,8,0:2:0:0:
419,255,181001,2,0,L|394:253,1,25,8|0,0:2|0:0,0:0:0:0:
512,77,181263,2,0,L|475:130,1,50,8|0,0:2|0:0,0:0:0:0:
487,358,181437,6,2,B|89:323|89:323|5:142|5:142|63:60,1,700,6|0,1:2|0:0,0:2:0:0:
63,59,182135,70,0,L|212:71,1,150,10|0,0:2|0:0,0:0:0:0:
212,71,182484,6,0,L|312:79,1,100,0|0,1:0|0:0,0:0:0:0:
411,89,182658,2,0,L|511:97,1,100,0|0,1:0|0:0,0:0:0:0:
453,178,182832,70,0,L|395:260,1,100,0|0,1:0|0:0,0:0:0:0:
395,260,183094,2,0,L|295:250,1,100
96,233,183356,1,8,0:2:0:0:
237,331,183530,6,0,L|138:323,1,100
295,250,183705,2,0,L|253:160,1,100,0|0,1:0|0:0,0:0:0:0:
1,224,183879,2,0,L|53:142,1,100,8|0,0:2|0:0,0:0:0:0:
252,159,184053,2,0,L|210:69,1,100
1,2,184228,70,2,B|399:37|399:37|482:218|482:218|425:301,1,700,6|0,1:2|0:0,0:2:0:0:
371,378,184925,6,0,B|243:106|243:106|170:99,1,375.000014305115,8|0,0:2|0:0,0:0:0:0:
175,17,185449,1,0,1:0:0:0:
267,223,185624,69,2,1:2:0:0:
246,179,185711,1,0,0:0:0:0:
146,314,185885,1,2,1:2:0:0:
175,272,185973,1,0,0:0:0:0:
37,213,186146,1,2,1:2:0:0:
8,255,186234,1,0,0:0:0:0:
30,300,186321,5,8,0:2:0:0:
409,298,186582,1,8,0:2:0:0:
315,82,186844,1,0,1:2:0:0:
512,1,187019,70,2,B|282:329|282:329|157:317,1,525.000020027161,6|0,1:2|0:0,0:2:0:0:
159,317,187716,6,0,L|10:303,1,150,10|0,0:2|0:0,0:0:0:0:
10,302,188065,70,0,L|182:56,1,300,0|0,1:0|0:0,0:0:0:0:
466,202,188414,6,0,L|408:283,1,100,0|0,1:0|0:0,0:0:0:0:
408,283,188675,2,0,L|309:274,1,75.0000028610231
109,257,188937,2,0,L|151:346,1,100,0|0,0:2|0:0,0:0:0:0:
152,347,189199,70,0,L|251:356,2,100
10,247,189461,2,0,L|66:165,1,100,0|0,0:2|0:0,0:0:0:0:
264,180,189635,2,0,L|222:91,1,100
371,302,189809,54,0,L|201:257,1,175,6|0,1:2|0:0,0:0:0:0:
202,257,191030,6,0,L|148:309,2,75,0|0|0,0:2|0:2|0:2,0:2:0:0:
202,257,192251,6,0,L|142:38,1,225.000008583069,0|0,0:2|0:0,0:0:0:0:
143,40,192600,6,0,L|311:85,1,175,2|0,0:2|0:0,0:0:0:0:
312,84,193995,6,0,L|366:31,2,75,0|0|0,0:2|0:2|0:2,0:2:0:0:
312,84,196611,6,0,L|481:129,1,175,0|0,0:2|0:0,0:0:0:0:
481,129,198879,6,0,L|312:84,1,175,0|0,0:2|0:0,0:0:0:0:
256,192,200972,12,0,206379,0:0:0:0:
