osu file format v14

[General]
AudioFilename: audio.mp3
AudioLeadIn: 0
PreviewTime: 208703
Countdown: 0
SampleSet: Soft
StackLeniency: 0.2
Mode: 0
LetterboxInBreaks: 0
EpilepsyWarning: 1
WidescreenStoryboard: 1

[Editor]
Bookmarks: 50674,95850,118439,141027,163615,186203,208792,253968,276556,299145
DistanceSpacing: 0.5
BeatDivisor: 4
GridSize: 16
TimelineZoom: 3.099999

[Metadata]
Title:Impulse
TitleUnicode:Impulse
Artist:Culprate & Au5
ArtistUnicode:Culprate & Au5
Creator:handsome
Version:Master
Source:
Tags:electronic dubstep unity project part 2 drumstep electro edm darky1
BeatmapID:1492654
BeatmapSetID:705788

[Difficulty]
HPDrainRate:5
CircleSize:4.8
OverallDifficulty:9
ApproachRate:9.6
SliderMultiplier:2.2
SliderTickRate:1

[Events]
//Background and Video events
0,0,"impulse.jpg",0,0
//Break Periods
2,118639,127106
2,129933,138400
2,324891,327097
//Storyboard Layer 0 (Background)
//Storyboard Layer 1 (Fail)
//Storyboard Layer 2 (Pass)
//Storyboard Layer 3 (Foreground)
//Storyboard Sound Samples

[TimingPoints]
5498,352.941176470588,4,2,1,20,1,0
5498,-333.333333333333,4,2,1,20,0,0
5586,-333.333333333333,4,2,99,5,0,0
11145,-222.222222222222,4,2,1,20,0,0
11233,-222.222222222222,4,2,99,5,0,0
16792,-166.666666666667,4,2,1,20,0,0
16880,-166.666666666667,4,2,99,5,0,0
17145,-166.666666666667,4,2,1,25,0,0
17233,-166.666666666667,4,2,99,5,0,0
22439,-166.666666666667,4,2,1,30,0,0
25262,-142.857142857143,4,2,1,30,0,0
26674,-100,4,2,1,30,0,0
28086,-142.857142857143,4,2,1,35,0,0
34439,-333.333333333333,4,2,1,30,0,0
37262,-142.857142857143,4,2,1,30,0,0
39380,-200,4,2,1,35,0,0
43262,-142.857142857143,4,2,1,40,0,0
48556,-142.857142857143,4,2,1,45,0,0
50674,-62.5,4,2,13,70,0,1
50939,-62.5,4,2,11,70,0,1
51203,-62.5,4,2,12,70,0,1
51247,-62.5,4,2,11,70,0,1
51380,-62.5,4,2,11,60,0,0
51909,-62.5,4,2,2,60,0,0
52086,-166.666666666667,4,2,2,60,0,0
53497,-62.5,4,2,14,70,0,1
53762,-62.5,4,2,15,70,0,1
54027,-62.5,4,2,16,70,0,1
54203,-62.5,4,2,2,60,0,0
55439,-50,4,2,2,80,0,0
56277,-62.5,4,2,2,30,0,0
56321,-62.5,4,2,13,70,0,1
56586,-62.5,4,2,17,70,0,1
56850,-62.5,4,2,12,70,0,1
57115,-100,4,2,2,50,0,0
57380,-71.4285714285714,4,2,2,60,0,0
57645,-55.5555555555556,4,2,2,70,0,0
57909,-200,4,2,2,60,0,0
57953,-100,4,2,2,10,0,0
57997,-100,4,2,2,60,0,0
58042,-66.6666666666667,4,2,2,10,0,0
58086,-66.6666666666667,4,2,2,60,0,0
58130,-66.6666666666667,4,2,2,30,0,0
58439,-66.6666666666667,4,2,2,60,0,0
59145,-100,4,2,16,60,0,1
59409,-66.6666666666667,4,2,16,70,0,1
59674,-50,4,2,16,80,0,1
59939,-55.5555555555556,4,2,15,90,0,1
60733,-62.5,4,2,14,80,0,1
60997,-76.9230769230769,4,2,14,70,0,1
61262,-100,4,2,14,60,0,1
61527,-100,4,2,2,50,0,0
61968,-62.5,4,2,18,70,0,1
62233,-62.5,4,2,21,70,0,1
62497,-62.5,4,2,12,70,0,1
62674,-83.3333333333333,4,2,2,60,0,0
63556,-83.3333333333333,4,2,2,80,0,0
64086,-83.3333333333333,4,2,2,60,0,0
64792,-62.5,4,2,14,70,0,1
65057,-62.5,4,2,15,70,0,1
65322,-62.5,4,2,22,70,0,1
65586,-100,4,2,2,50,0,0
65851,-71.4285714285714,4,2,2,60,0,0
66116,-55.5555555555556,4,2,2,70,0,0
66468,-83.3333333333333,4,2,2,60,0,0
66909,-50,4,2,2,80,0,0
67571,-62.5,4,2,2,30,0,0
67615,-62.5,4,2,13,70,0,1
67880,-62.5,4,2,17,70,0,1
68145,-62.5,4,2,11,70,0,1
68321,-62.5,4,2,2,60,0,0
69203,-100,4,2,2,70,0,0
69247,-100,4,2,2,10,0,0
69292,-100,4,2,2,70,0,0
69336,-100,4,2,2,10,0,0
69381,-100,4,2,2,70,0,0
69424,-100,4,2,2,10,0,0
69850,-125,4,2,1,40,0,0
69909,-125,4,2,1,30,0,0
69967,-90.9090909090909,4,2,1,45,0,0
70027,-90.9090909090909,4,2,1,30,0,0
70086,-71.4285714285714,4,2,1,50,0,0
70145,-71.4285714285714,4,2,1,30,0,0
70203,-58.8235294117647,4,2,1,55,0,0
70262,-58.8235294117647,4,2,1,30,0,0
70321,-50,4,2,1,60,0,0
70380,-50,4,2,1,30,0,0
70439,-100,4,2,16,60,0,1
70703,-76.9230769230769,4,2,16,70,0,1
70968,-62.5,4,2,16,80,0,1
71233,-50,4,2,15,90,0,1
72027,-62.5,4,2,14,80,0,1
72291,-76.9230769230769,4,2,14,70,0,1
72556,-100,4,2,14,60,0,1
72821,-100,4,2,2,50,0,0
73968,-100,4,2,1,70,0,0
74439,-100,4,2,1,10,0,0
74497,-100,4,2,2,30,0,0
74586,-100,4,2,3,50,0,0
74674,-100,4,2,2,80,0,0
74762,-100,4,2,3,50,0,0
74850,-100,4,2,2,30,0,0
74939,-100,4,2,1,5,0,0
75027,-250,4,2,2,60,0,0
75468,-100,4,2,2,60,0,0
75733,-76.9230769230769,4,2,2,60,0,0
75997,-62.5,4,2,2,70,0,0
76086,-62.5,4,2,14,70,0,1
76351,-62.5,4,2,15,70,0,1
76615,-200,4,2,22,70,0,1
76792,-200,4,2,2,60,0,0
77497,-62.5,4,2,2,60,0,0
78027,-50,4,2,2,80,0,0
78865,-62.5,4,2,2,30,0,0
78909,-62.5,4,2,13,70,0,1
79174,-62.5,4,2,17,70,0,1
79439,-62.5,4,2,11,70,0,1
79703,-83.3333333333333,4,2,2,50,0,0
79968,-62.5,4,2,2,60,0,0
80233,-50,4,2,2,70,0,0
80497,-200,4,2,2,60,0,0
80542,-100,4,2,2,10,0,0
80585,-100,4,2,2,60,0,0
80630,-66.6666666666667,4,2,2,10,0,0
80674,-66.6666666666667,4,2,2,60,0,0
80718,-66.6666666666667,4,2,2,30,0,0
81027,-66.6666666666667,4,2,2,60,0,0
81733,-100,4,2,16,60,0,1
81997,-66.6666666666667,4,2,16,70,0,1
82262,-50,4,2,16,80,0,1
82527,-55.5555555555556,4,2,15,90,0,1
83321,-62.5,4,2,14,80,0,1
83585,-76.9230769230769,4,2,14,70,0,1
83850,-100,4,2,14,60,0,1
84115,-100,4,2,2,50,0,0
84556,-62.5,4,2,13,70,0,1
84821,-62.5,4,2,11,70,0,1
85086,-62.5,4,2,12,70,0,1
85262,-100,4,2,2,60,0,0
86145,-100,4,2,2,80,0,0
86674,-100,4,2,2,60,0,0
87380,-62.5,4,2,14,70,0,1
87645,-62.5,4,2,15,70,0,1
87909,-62.5,4,2,22,70,0,1
88174,-100,4,2,2,50,0,0
88439,-71.4285714285714,4,2,2,60,0,0
88703,-55.5555555555556,4,2,2,70,0,0
89056,-83.3333333333333,4,2,2,60,0,0
89497,-50,4,2,2,80,0,0
90159,-62.5,4,2,2,30,0,0
90203,-62.5,4,2,13,70,0,1
90468,-62.5,4,2,17,70,0,1
90733,-62.5,4,2,11,70,0,1
90909,-62.5,4,2,2,60,0,0
91792,-100,4,2,2,70,0,0
91836,-100,4,2,2,10,0,0
91880,-100,4,2,2,70,0,0
91924,-100,4,2,2,10,0,0
91968,-71.4285714285714,4,2,14,80,0,0
92012,-71.4285714285714,4,2,2,50,0,0
92321,-71.4285714285714,4,2,2,60,0,0
93027,-100,4,2,16,60,0,1
93291,-76.9230769230769,4,2,16,70,0,1
93556,-62.5,4,2,16,80,0,1
93821,-50,4,2,15,90,0,1
94615,-62.5,4,2,14,80,0,1
94879,-76.9230769230769,4,2,14,70,0,1
95144,-100,4,2,14,60,0,1
95409,-100,4,2,2,50,0,0
96556,-100,4,2,2,70,0,0
97027,-100,4,2,2,10,0,0
97086,-62.5,4,2,2,30,0,0
97174,-62.5,4,2,2,50,0,0
97262,-62.5,4,2,2,80,0,0
97350,-62.5,4,2,2,30,0,0
97439,-166.666666666667,4,2,3,70,0,0
97968,-166.666666666667,4,2,3,60,0,0
98674,-166.666666666667,4,2,3,70,0,0
99115,-83.3333333333333,4,2,3,70,0,0
99997,-142.857142857143,4,2,3,70,0,0
100262,-71.4285714285714,4,2,3,70,0,0
100615,-71.4285714285714,4,2,3,80,0,0
101497,-71.4285714285714,4,2,3,60,0,0
102292,-71.4285714285714,4,2,3,80,0,0
102468,-71.4285714285714,4,2,3,70,0,0
102645,-71.4285714285714,4,2,3,60,0,0
102821,-71.4285714285714,4,2,3,50,0,0
103615,-71.4285714285714,4,2,3,60,0,0
104762,-142.857142857143,4,2,3,50,0,0
105027,-100,4,2,3,60,0,0
105292,-66.6666666666667,4,2,3,70,0,0
105556,-50,4,2,3,80,0,0
105821,-50,4,2,3,90,0,0
106086,-50,4,2,3,60,0,0
106439,-62.5,4,2,3,70,0,0
106615,-62.5,4,2,3,75,0,0
106792,-62.5,4,2,3,80,0,0
106968,-62.5,4,2,3,85,0,0
107145,-62.5,4,2,3,90,0,0
107409,-62.5,4,2,3,60,0,0
108733,-62.5,4,2,3,80,0,0
109262,-62.5,4,2,3,60,0,0
109968,-166.666666666667,4,2,3,70,0,0
110409,-83.3333333333333,4,2,3,70,0,0
111468,-71.4285714285714,4,2,3,70,0,0
111997,-50,4,2,3,80,0,0
112792,-50,4,2,3,60,0,0
113674,-50,4,2,3,60,0,0
113850,-50,4,2,3,70,0,0
114027,-50,4,2,3,80,0,0
114203,-50,4,2,3,90,0,0
114556,-100,4,2,3,90,0,0
114645,-100,4,2,3,60,0,0
115615,-71.4285714285714,4,2,3,70,0,0
116321,-71.4285714285714,4,2,3,80,0,0
116850,-71.4285714285714,4,2,3,60,0,0
117734,-100,4,2,3,90,0,0
117997,-100,4,2,1,70,0,0
127615,-200,4,2,1,20,0,0
141027,-142.857142857143,4,2,1,20,0,0
144380,-200,4,2,1,20,0,0
144909,-142.857142857143,4,2,1,20,0,0
145262,-111.111111111111,4,2,1,30,0,0
146850,-111.111111111111,4,2,1,20,0,0
150203,-142.857142857143,4,2,1,30,0,0
151792,-142.857142857143,4,2,1,20,0,0
155674,-200,4,2,1,20,0,0
156203,-142.857142857143,4,2,1,20,0,0
156556,-111.111111111111,4,2,1,30,0,0
158145,-111.111111111111,4,2,1,20,0,0
160792,-200,4,2,1,20,0,0
160880,-200,4,2,1,5,0,0
161321,-125,4,2,1,30,0,0
161409,-125,4,2,1,5,0,0
161850,-90.9090909090909,4,2,1,50,0,0
161939,-90.9090909090909,4,2,1,5,0,0
162380,-71.4285714285714,4,2,1,70,0,0
162468,-71.4285714285714,4,2,1,5,0,0
162909,-400,4,2,1,90,0,0
163527,-400,4,2,1,10,0,0
163615,-100,4,2,1,80,0,0
163703,-100,4,2,1,60,0,0
163968,-33.3333333333333,4,2,3,80,0,0
164321,-33.3333333333333,4,2,3,100,0,1
164674,-71.4285714285714,4,2,3,80,0,0
165203,-55.5555555555556,4,2,3,80,0,0
165380,-83.3333333333333,4,2,3,80,0,0
165733,-33.3333333333333,4,2,3,100,0,0
165821,-33.3333333333333,4,2,3,80,0,0
166439,-100,4,2,3,80,0,0
166527,-100,4,2,1,60,0,0
166792,-33.3333333333333,4,2,3,80,0,0
167145,-33.3333333333333,4,2,3,100,0,1
167497,-55.5555555555556,4,2,3,80,0,0
168026,-55.5555555555556,4,2,3,80,0,0
168203,-125,4,2,3,80,0,0
168556,-166.666666666667,4,2,3,100,0,0
168644,-166.666666666667,4,2,3,80,0,0
168909,-83.3333333333333,4,2,3,80,0,0
169262,-100,4,2,3,80,0,0
169350,-100,4,2,1,60,0,0
169615,-33.3333333333333,4,2,3,80,0,0
169968,-33.3333333333333,4,2,3,100,0,1
170321,-71.4285714285714,4,2,3,80,0,0
170850,-55.5555555555556,4,2,3,80,0,0
171027,-83.3333333333333,4,2,3,80,0,0
171380,-33.3333333333333,4,2,3,100,0,0
171468,-33.3333333333333,4,2,3,80,0,0
172086,-100,4,2,3,80,0,0
172174,-100,4,2,1,60,0,0
172439,-33.3333333333333,4,2,3,80,0,0
172792,-33.3333333333333,4,2,3,100,0,1
173145,-71.4285714285714,4,2,3,80,0,0
173674,-50,4,2,3,80,0,0
173850,-83.3333333333333,4,2,3,80,0,0
174203,-50,4,2,3,100,0,0
174247,-50,4,2,3,60,0,0
174380,-50,4,2,3,80,0,0
174424,-50,4,2,3,60,0,0
174556,-50,4,2,3,80,0,0
174600,-50,4,2,3,60,0,0
174733,-50,4,2,3,80,0,0
174777,-50,4,2,3,60,0,0
174909,-100,4,2,3,80,0,0
174997,-100,4,2,1,60,0,0
175262,-33.3333333333333,4,2,3,80,0,0
175615,-33.3333333333333,4,2,3,100,0,1
175968,-71.4285714285714,4,2,3,80,0,0
176497,-55.5555555555556,4,2,3,80,0,0
176674,-83.3333333333333,4,2,3,80,0,0
177027,-33.3333333333333,4,2,3,100,0,0
177115,-33.3333333333333,4,2,3,80,0,0
177733,-100,4,2,3,80,0,0
177821,-100,4,2,1,60,0,0
178086,-33.3333333333333,4,2,3,80,0,0
178439,-33.3333333333333,4,2,3,100,0,1
178792,-55.5555555555556,4,2,3,80,0,0
179320,-55.5555555555556,4,2,3,80,0,0
179497,-100,4,2,3,80,0,0
179850,-166.666666666667,4,2,3,100,0,0
179939,-166.666666666667,4,2,3,80,0,0
180203,-83.3333333333333,4,2,3,80,0,0
180556,-100,4,2,3,80,0,0
180645,-100,4,2,1,60,0,0
180909,-33.3333333333333,4,2,3,80,0,0
181262,-33.3333333333333,4,2,3,100,0,1
181615,-71.4285714285714,4,2,3,80,0,0
182144,-55.5555555555556,4,2,3,80,0,0
182321,-83.3333333333333,4,2,3,80,0,0
182674,-50,4,2,3,100,0,0
182718,-50,4,2,3,60,0,0
182850,-50,4,2,3,80,0,0
182895,-50,4,2,3,60,0,0
183027,-50,4,2,3,80,0,0
183071,-50,4,2,3,60,0,0
183203,-50,4,2,3,80,0,0
183247,-50,4,2,3,60,0,0
183380,-100,4,2,1,40,0,0
183556,-100,4,2,1,50,0,0
183733,-25,4,2,1,60,0,0
183909,-25,4,2,1,70,0,0
184086,-125,4,2,1,80,0,0
184439,-83.3333333333333,4,2,3,100,0,0
184703,-125,4,2,3,60,0,0
184968,-71.4285714285714,4,2,3,70,0,0
185233,-50,4,2,3,80,0,0
185497,-71.4285714285714,4,2,3,80,0,0
186027,-55.5555555555556,4,2,3,80,0,0
186203,-200,4,2,3,90,0,1
186909,-66.6666666666667,4,2,3,80,0,1
186953,-66.6666666666667,4,2,3,60,0,1
187086,-66.6666666666667,4,2,3,80,0,1
187130,-66.6666666666667,4,2,3,60,0,1
187262,-66.6666666666667,4,2,3,80,0,1
187306,-66.6666666666667,4,2,3,60,0,1
187439,-66.6666666666667,4,2,3,80,0,1
187483,-66.6666666666667,4,2,3,60,0,1
187615,-66.6666666666667,4,2,3,80,0,1
187659,-66.6666666666667,4,2,3,60,0,1
187792,-66.6666666666667,4,2,3,80,0,1
187836,-66.6666666666667,4,2,3,60,0,1
187968,-100,4,2,3,80,0,1
188321,-50,4,2,3,100,0,1
189027,-200,4,2,3,90,0,1
189733,-71.4285714285714,4,2,3,80,0,1
189777,-71.4285714285714,4,2,3,60,0,1
189909,-90.9090909090909,4,2,3,80,0,1
189953,-90.9090909090909,4,2,3,60,0,1
190086,-125,4,2,3,80,0,1
190130,-125,4,2,3,60,0,1
190262,-200,4,2,3,80,0,1
190306,-200,4,2,3,60,0,1
190439,-500,4,2,3,80,0,1
190483,-500,4,2,3,60,0,1
190792,-100,4,2,3,80,0,1
191145,-71.4285714285714,4,2,3,80,0,1
191850,-200,4,2,3,90,0,1
192556,-66.6666666666667,4,2,3,80,0,1
192600,-66.6666666666667,4,2,3,60,0,1
192733,-66.6666666666667,4,2,3,80,0,1
192777,-66.6666666666667,4,2,3,60,0,1
192909,-66.6666666666667,4,2,3,80,0,1
192953,-66.6666666666667,4,2,3,60,0,1
193086,-66.6666666666667,4,2,3,80,0,1
193130,-66.6666666666667,4,2,3,60,0,1
193262,-66.6666666666667,4,2,3,80,0,1
193306,-66.6666666666667,4,2,3,60,0,1
193439,-66.6666666666667,4,2,3,80,0,1
193483,-66.6666666666667,4,2,3,60,0,1
193615,-100,4,2,3,80,0,1
193968,-50,4,2,3,100,0,1
194674,-200,4,2,3,90,0,1
195380,-66.6666666666667,4,2,3,80,0,1
195424,-66.6666666666667,4,2,3,60,0,1
195556,-66.6666666666667,4,2,3,80,0,1
195600,-66.6666666666667,4,2,3,60,0,1
195733,-66.6666666666667,4,2,3,80,0,1
195777,-66.6666666666667,4,2,3,60,0,1
195909,-66.6666666666667,4,2,3,80,0,1
196439,-133.333333333333,4,2,3,80,0,1
196792,-50,4,2,3,100,0,1
197497,-200,4,2,3,90,0,1
198203,-66.6666666666667,4,2,3,80,0,1
198247,-66.6666666666667,4,2,3,60,0,1
198380,-66.6666666666667,4,2,3,80,0,1
198424,-66.6666666666667,4,2,3,60,0,1
198556,-66.6666666666667,4,2,3,80,0,1
198600,-66.6666666666667,4,2,3,60,0,1
198733,-66.6666666666667,4,2,3,80,0,1
198777,-66.6666666666667,4,2,3,60,0,1
198909,-66.6666666666667,4,2,3,80,0,1
198953,-66.6666666666667,4,2,3,60,0,1
199086,-66.6666666666667,4,2,3,80,0,1
199130,-66.6666666666667,4,2,3,60,0,1
199262,-100,4,2,3,80,0,1
199615,-50,4,2,3,100,0,1
200321,-200,4,2,3,90,0,1
201027,-55.5555555555556,4,2,3,80,0,1
201071,-55.5555555555556,4,2,3,60,0,1
201203,-71.4285714285714,4,2,3,80,0,1
201247,-71.4285714285714,4,2,3,60,0,1
201380,-100,4,2,3,80,0,1
201424,-100,4,2,3,60,0,1
201556,-166.666666666667,4,2,3,80,0,1
201600,-166.666666666667,4,2,3,60,0,1
201733,-333.333333333333,4,2,3,80,0,1
201777,-333.333333333333,4,2,3,60,0,1
202086,-100,4,2,3,80,0,1
202439,-71.4285714285714,4,2,3,80,0,1
203144,-200,4,2,3,90,0,1
203850,-66.6666666666667,4,2,3,80,0,1
203895,-66.6666666666667,4,2,3,60,0,1
204028,-66.6666666666667,4,2,3,80,0,1
204072,-66.6666666666667,4,2,3,60,0,1
204204,-66.6666666666667,4,2,3,80,0,1
204248,-66.6666666666667,4,2,3,60,0,1
204381,-66.6666666666667,4,2,3,80,0,1
204425,-66.6666666666667,4,2,3,60,0,1
204557,-66.6666666666667,4,2,3,80,0,1
204601,-66.6666666666667,4,2,3,60,0,1
204734,-66.6666666666667,4,2,3,80,0,1
204778,-66.6666666666667,4,2,3,60,0,1
204909,-100,4,2,3,80,0,1
205262,-50,4,2,3,100,0,1
205968,-200,4,2,3,90,0,1
206674,-66.6666666666667,4,2,3,80,0,1
206718,-66.6666666666667,4,2,3,60,0,1
206850,-66.6666666666667,4,2,3,80,0,1
206894,-66.6666666666667,4,2,3,60,0,1
207027,-66.6666666666667,4,2,3,80,0,1
207071,-66.6666666666667,4,2,3,60,0,1
207203,-100,4,2,3,80,0,1
207733,-66.6666666666667,4,2,3,80,0,1
208086,-50,4,2,3,80,0,1
208130,-50,4,2,0,80,0,1
208792,-71.4285714285714,4,2,0,80,0,0
208880,-71.4285714285714,4,2,0,30,0,0
209321,-83.3333333333333,4,2,0,30,0,0
209850,-100,4,2,0,30,0,0
210380,-125,4,2,0,30,0,0
210909,-333.333333333333,4,2,0,30,0,0
211615,-71.4285714285714,4,2,0,30,0,0
212144,-83.3333333333333,4,2,0,30,0,0
212673,-100,4,2,0,30,0,0
213203,-125,4,2,0,30,0,0
213733,-333.333333333333,4,2,0,30,0,0
214439,-83.3333333333333,4,2,0,30,0,0
214968,-100,4,2,0,30,0,0
215497,-125,4,2,0,30,0,0
216027,-166.666666666667,4,2,0,30,0,0
216556,-333.333333333333,4,2,0,30,0,0
217262,-71.4285714285714,4,2,0,30,0,0
217791,-83.3333333333333,4,2,0,30,0,0
218320,-100,4,2,0,30,0,0
218850,-125,4,2,0,30,0,0
219380,-333.333333333333,4,2,0,30,0,0
220086,-500,4,2,0,35,0,0
231380,-200,4,2,3,40,0,0
231909,-100,4,2,0,40,0,0
232439,-142.857142857143,4,2,0,40,0,0
232968,-250,4,2,0,40,0,0
234203,-76.9230769230769,4,2,0,40,0,0
234733,-100,4,2,0,40,0,0
237027,-76.9230769230769,4,2,0,45,0,0
237556,-100,4,2,0,45,0,0
238086,-142.857142857143,4,2,0,45,0,0
238615,-250,4,2,0,45,0,0
239850,-76.9230769230769,4,2,0,45,0,0
240556,-100,4,2,1,50,0,0
241262,-142.857142857143,4,2,1,50,0,0
241968,-250,4,2,1,50,0,0
242674,-250,4,2,0,50,0,0
248321,-66.6666666666667,4,2,0,50,0,0
248850,-83.3333333333333,4,2,0,50,0,0
249380,-111.111111111111,4,2,0,50,0,0
249909,-166.666666666666,4,2,0,50,0,0
251145,-166.666666666666,4,2,0,50,0,0
251850,-166.666666666666,4,2,0,55,0,0
252556,-125,4,2,0,60,0,0
252821,-166.666666666667,4,2,0,60,0,0
253968,-50,4,2,3,80,0,0
254100,-50,4,2,3,60,0,0
254674,-40,4,2,3,100,0,1
256086,-33.3333333333333,4,2,3,100,0,0
256439,-66.6666666666667,4,2,3,80,0,0
256792,-200,4,2,3,80,0,0
257145,-66.6666666666667,4,2,3,80,0,0
257497,-50,4,2,3,80,0,0
258556,-66.6666666666667,4,2,3,80,0,0
258909,-100,4,2,3,80,0,0
259262,-66.6666666666667,4,2,3,80,0,0
259615,-50,4,2,3,80,0,0
259747,-50,4,2,3,60,0,0
260321,-40,4,2,3,100,0,1
261733,-33.3333333333333,4,2,3,100,0,0
262086,-40,4,2,3,80,0,0
262439,-200,4,2,3,80,0,0
262483,-200,4,2,0,10,0,0
263145,-50,4,2,3,80,0,0
263497,-100,4,2,3,80,0,0
263674,-66.6666666666667,4,2,3,80,0,0
263850,-50,4,2,3,80,0,0
264027,-66.6666666666667,4,2,3,80,0,0
265262,-200,4,2,2,80,0,0
265968,-33.3333333333333,4,2,3,100,0,1
267380,-33.3333333333333,4,2,3,100,0,0
267468,-33.3333333333333,4,2,3,80,0,0
267733,-133.333333333333,4,2,3,80,0,0
267777,-100,4,2,3,30,0,0
267821,-100,4,2,3,80,0,0
267865,-66.6666666666667,4,2,3,30,0,0
267909,-66.6666666666667,4,2,3,80,0,0
267953,-50,4,2,3,30,0,0
267997,-50,4,2,3,80,0,0
268042,-200,4,2,3,30,0,0
268086,-200,4,2,3,80,0,0
268439,-66.6666666666667,4,2,3,80,0,0
268792,-50,4,2,3,80,0,0
269674,-66.6666666666667,4,2,3,80,0,0
269850,-50,4,2,3,80,0,0
270203,-66.6666666666667,4,2,3,80,0,0
270909,-50,4,2,3,80,0,0
271042,-50,4,2,3,60,0,0
271615,-40,4,2,3,100,0,1
273027,-33.3333333333333,4,2,3,100,0,0
273380,-33.3333333333333,4,2,3,80,0,0
273777,-33.3333333333333,4,2,0,80,0,0
274439,-50,4,2,3,80,0,0
274791,-100,4,2,3,80,0,0
274968,-66.6666666666667,4,2,3,80,0,0
275144,-50,4,2,3,80,0,0
275321,-66.6666666666667,4,2,3,80,0,0
275497,-50,4,2,3,80,0,0
275850,-200,4,2,3,80,0,0
275895,-200,4,2,0,40,0,0
276556,-50,4,2,3,90,0,1
276689,-50,4,2,3,60,0,0
277262,-31.25,4,2,3,100,0,1
277395,-50,4,2,3,60,0,0
277968,-50,4,2,3,90,0,1
278100,-50,4,2,3,60,0,0
278674,-31.25,4,2,3,100,0,1
278806,-50,4,2,3,60,0,0
279380,-25,4,2,3,90,0,1
279512,-50,4,2,3,60,0,0
280086,-100,4,2,3,90,0,1
280174,-100,4,2,3,100,0,0
280792,-66.6666666666667,4,2,3,90,0,1
280880,-66.6666666666667,4,2,3,90,0,0
281497,-50,4,2,3,90,0,0
282027,-200,4,2,0,90,0,0
282909,-31.25,4,2,3,100,0,1
283042,-50,4,2,3,60,0,0
283615,-50,4,2,3,90,0,1
283747,-50,4,2,3,60,0,0
284321,-31.25,4,2,3,100,0,1
284453,-50,4,2,3,60,0,0
285027,-25,4,2,3,90,0,1
285159,-50,4,2,3,60,0,0
285733,-50,4,2,3,90,0,1
285821,-50,4,2,3,100,0,0
286439,-50,4,2,0,90,0,0
287497,-100,4,2,0,90,0,0
287850,-50,4,2,3,90,0,1
287983,-50,4,2,3,60,0,0
288380,-50,4,2,3,90,0,0
288556,-50,4,2,3,90,0,1
288689,-50,4,2,3,60,0,0
289262,-31.25,4,2,3,100,0,1
289395,-50,4,2,3,60,0,0
289968,-50,4,2,3,90,0,1
290100,-50,4,2,3,60,0,0
290674,-66.6666666666667,4,2,3,90,0,1
290806,-50,4,2,3,60,0,0
291203,-66.6666666666667,4,2,3,90,0,1
291336,-50,4,2,3,60,0,0
291733,-100,4,2,3,100,0,0
292086,-100,4,2,3,100,0,1
292174,-100,4,2,3,90,0,0
293497,-250,4,2,3,90,0,0
293850,-50,4,2,3,90,0,0
294027,-50,4,2,3,90,0,1
294159,-50,4,2,3,60,0,0
294909,-31.25,4,2,3,100,0,1
295042,-50,4,2,3,60,0,0
295615,-50,4,2,3,90,0,1
295747,-50,4,2,3,60,0,0
296321,-25,4,2,3,90,0,1
296453,-50,4,2,3,60,0,0
297027,-66.6666666666667,4,2,3,90,0,1
297071,-66.6666666666667,4,2,3,60,0,0
297380,-66.6666666666667,4,2,3,90,0,0
297424,-66.6666666666667,4,2,3,60,0,0
297733,-31.25,4,2,3,100,0,1
297865,-50,4,2,3,60,0,0
298086,-33.3333333333333,4,2,3,90,0,0
298792,-33.3333333333333,4,2,0,90,0,0
299145,-100,4,2,3,90,0,1
299189,-50,4,2,3,50,0,1
299409,-50,4,2,3,80,0,1
299850,-50,4,2,3,60,0,0
300203,-200,4,2,1,30,0,0
301968,-142.857142857143,4,2,1,30,0,0
303380,-111.111111111111,4,2,1,30,0,0
305145,-142.857142857143,4,2,1,30,0,0
305850,-333.333333333333,4,2,1,20,0,0
307615,-142.857142857143,4,2,1,20,0,0
311497,-333.333333333333,4,2,1,20,0,0
313262,-142.857142857143,4,2,1,20,0,0
317145,-333.333333333333,4,2,1,20,0,0
317850,-142.857142857143,4,2,1,20,0,0
318909,375,4,2,1,10,1,0
319659,400,4,2,1,10,1,0
320459,428.571428571429,4,2,1,10,1,0
321101,451.127819548872,4,2,1,10,1,0
321777,728.685936361428,4,2,1,10,1,0
324691,-100,4,2,69,5,0,0
327606,-333.333333333333,4,2,1,5,0,0

[Colours]
Combo1 : 252,138,255
Combo2 : 221,198,236
Combo3 : 172,188,208
Combo4 : 255,223,98
Combo5 : 255,179,94
Combo6 : 203,140,255

[HitObjects]
425,117,5498,6,0,B|449:64|404:-5|314:-12|249:70|266:189|366:197|355:152|429:105|523:190|495:324|444:435|316:485|173:380|161:318|159:219|221:122|267:179|248:251|361:225|299:3|201:-4|105:38|53:122|100:219|161:222,1,1022.99996878052,4|0,0:0|0:0,0:0:0:0:
181,156,11145,6,0,B|170:279|170:279|167:313|130:328|97:308|100:273|100:273|112:133|112:133|122:116|122:116|128:46|128:46|131:11|98:-10|61:5|58:40|58:40|54:92|54:92|43:109|43:109|38:165|38:165|34:166|34:166|38:166|38:166|36:197|36:197|34:214|50:233|68:235|68:235|234:250|234:250|252:251|271:235|272:218|272:218|274:200|274:200|277:165|313:150|347:171|344:206|344:206|342:224|342:224|341:243|354:258|374:262|374:262|426:266|426:266|427:271|427:271|427:266|427:266|480:271|480:271|515:274|535:241|521:204|486:201|486:201|407:194,1,1534.49995317078,4|0,0:0|0:0,0:0:0:0:
289,8,16792,70,0,L|296:87,1,65.9999979858399,4|0,0:0|0:0,0:0:0:0:
286,338,17145,2,0,B|298:252|398:205|478:224|478:224|326:313|194:221|153:73|153:73|297:61|461:210|474:380|474:380|545:273|534:138|455:44|455:44|432:156|288:217|125:177,1,1913.99994158936,4|0,0:0|0:0,0:0:0:0:
89,112,22439,5,4,0:0:0:0:
256,192,22615,12,2,24203,0:0:0:0:
444,255,25262,70,0,P|409:181|331:160,1,153.999995300293,4|0,0:0|0:0,0:0:0:0:
272,191,25792,1,0,0:0:0:0:
304,339,25968,2,0,P|311:300|306:262,1,76.9999976501465,2|0,0:0|0:0,0:0:0:0:
214,134,26321,2,0,P|174:119|132:120,1,76.9999976501465,2|0,0:0|0:0,0:0:0:0:
88,237,26674,6,0,P|126:274|144:325,1,110,2|0,0:0|0:0,0:0:0:0:
304,339,27027,2,0,P|335:294|344:240,1,110,2|0,0:0|0:0,0:0:0:0:
490,118,27380,69,2,0:0:0:0:
359,119,27556,1,0,0:0:0:0:
423,100,27733,1,2,0:0:0:0:
314,170,27909,1,0,0:0:0:0:
374,53,28086,6,0,B|428:97|445:149|430:211|430:211|430:182|405:163,1,230.99999295044,4|0,0:0|0:0,0:0:0:0:
338,146,28792,2,0,P|337:184|359:216,1,76.9999976501465,2|0,0:0|0:0,0:0:0:0:
332,279,29145,2,0,P|294:271|268:244,1,76.9999976501465,2|0,0:0|0:0,0:0:0:0:
51,97,29497,69,2,0:0:0:0:
107,138,29674,1,0,0:0:0:0:
101,88,29850,1,2,0:0:0:0:
59,147,30027,1,0,0:0:0:0:
276,105,30203,5,2,0:0:0:0:
283,174,30380,1,0,0:0:0:0:
338,75,30556,1,2,0:0:0:0:
352,186,30733,1,0,0:0:0:0:
386,125,30909,70,0,P|298:80|252:9,1,153.999995300293,4|0,0:0|0:0,0:0:0:0:
207,87,31439,2,0,P|191:50|198:-3,1,76.9999976501465,2|0,0:0|0:0,0:0:0:0:
75,308,31968,6,0,P|65:289|64:267,1,38.4999988250733,2|0,0:0|0:0,0:0:0:0:
131,236,32145,2,0,P|142:217|161:207,1,38.4999988250733,2|0,0:0|0:0,0:0:0:0:
220,336,32321,70,0,B|180:347|147:321|147:321|114:296|75:308,1,153.999995300293,4|0,0:0|0:0,0:0:0:0:
150,126,32850,2,0,B|179:155|173:196|173:196|168:237|198:266,1,153.999995300293,4|0,0:0|0:0,0:0:0:0:
3,293,33380,2,0,B|13:252|52:237|52:237|90:220|100:181,1,153.999995300293,4|2,0:0|0:0,0:0:0:0:
303,270,34439,6,0,P|317:299|324:331,1,65.9999979858399,2|0,0:0|0:0,0:0:0:0:
324,332,35321,69,6,0:0:0:0:
436,214,35850,5,2,0:0:0:0:
477,154,36027,1,0,0:0:0:0:
443,141,36203,1,2,0:0:0:0:
408,145,36380,1,0,0:0:0:0:
436,214,36556,1,4,0:0:0:0:
171,214,37086,69,2,0:0:0:0:
106,240,37262,2,0,B|57:224|17:148|52:82|113:65|154:115|121:181|46:191|10:177,2,307.999990600586,2|2|2,0:0|0:0|0:0,0:0:0:0:
431,163,39380,5,4,0:0:0:0:
256,192,39556,12,4,42203,0:0:0:0:
52,286,42909,69,4,0:0:0:0:
421,309,43262,6,0,L|397:267,1,38.4999988250733,2|0,0:0|0:0,0:0:0:0:
366,215,43439,2,0,L|342:173,1,38.4999988250733,2|0,0:0|0:0,0:0:0:0:
396,108,43615,70,0,P|335:151|245:153,1,153.999995300293,4|0,0:0|0:0,0:0:0:0:
421,309,44145,2,0,P|414:234|457:156,1,153.999995300293,4|0,0:0|0:0,0:0:0:0:
235,230,44674,2,0,P|303:260|349:337,1,153.999995300293,4|2,0:0|0:0,0:0:0:0:
256,192,45203,12,2,47850,0:0:0:0:
440,222,48556,6,0,B|449:191|439:130|372:91|290:104|256:177|293:226|336:227|365:205,2,307.999990600586,2|2|2,0:0|0:0|0:0,0:0:0:0:
440,222,50674,6,0,P|355:184|266:214,1,176,2|0,3:2|0:0,0:0:0:0:
269,284,50939,2,0,B|250:296|261:327|323:334|334:283|308:221|277:204,1,176,10|0,1:2|0:0,0:0:0:0:
226,158,51203,2,0,P|212:177|212:207,2,44,10|0|0,3:2|0:0|0:0,0:0:0:0:
19,194,51909,53,8,0:0:0:0:
70,153,51997,1,8,1:2:0:0:
93,91,52086,2,0,B|87:58,2,32.99999899292,0|8|8,3:0|0:0|0:0,0:0:0:0:
134,142,52350,1,8,0:0:0:0:
196,165,52439,1,8,1:2:0:0:
459,286,52792,5,0,0:0:0:0:
459,286,52880,1,0,0:0:0:0:
467,219,52968,69,0,3:0:0:0:
449,351,53056,1,8,1:2:0:0:
334,163,53233,5,8,3:2:0:0:
316,295,53321,1,8,0:0:0:0:
326,230,53409,5,8,1:2:0:0:
326,230,53497,2,0,B|279:222|245:255|245:255|211:288|165:281,1,176,2|0,3:2|0:0,0:0:0:0:
95,293,53762,1,2,1:2:0:0:
81,313,53850,2,0,P|106:350|152:347,1,88,8|0,1:2|0:0,0:0:0:0:
184,208,54027,2,0,P|198:161|178:119,1,88,10|0,3:2|0:0,0:0:0:0:
139,68,54203,53,0,0:0:0:0:
127,78,54292,1,0,0:0:0:0:
128,166,54468,5,8,0:0:0:0:
92,168,54557,1,8,1:2:0:0:
81,313,54733,69,8,1:2:0:0:
9,276,54822,1,8,1:2:0:0:
95,293,54909,6,0,L|114:387,1,88,0|8,3:0|0:0,0:0:0:0:
168,294,55086,2,0,L|181:356,3,58.6666666666667,8|8|8|8,0:0|0:0|0:0|1:2,0:0:0:0:
504,363,55439,53,0,0:0:0:0:
493,344,55527,2,0,B|429:284|307:295|388:347|329:468|211:502|-62:322|53:106|276:23|443:143|349:254|288:210|337:347|627:265|552:70|389:22|340:137,1,935,0|0,3:0|0:0,1:0:0:0:
349,120,56321,38,0,P|318:52|216:3,1,176,2|0,3:2|0:0,0:0:0:0:
227,183,56586,2,0,P|160:142|203:77,1,176,10|0,1:2|0:0,0:0:0:0:
335,44,56850,2,0,B|357:22|357:22|304:15|265:65|274:115,1,176,10|0,3:2|0:0,0:0:0:0:
378,190,57115,53,0,0:0:0:0:
361,198,57203,2,0,P|333:197|309:184,1,55,0|8,3:0|0:0,0:0:0:0:
277,254,57380,5,8,0:0:0:0:
258,249,57468,2,0,P|233:220|227:181,1,76.9999976501466,0|8,3:0|0:0,0:0:0:0:
142,207,57645,69,8,0:0:0:0:
132,190,57733,2,0,P|139:142|177:110,1,98.9999969787599,0|8,3:0|1:2,0:0:0:0:
414,63,57909,6,0,L|413:86,1,13.75,0|0,3:0|0:0,0:0:0:0:
348,50,57997,2,0,L|344:93,1,27.5,0|0,3:0|0:0,0:0:0:0:
281,35,58086,2,0,L|276:89,2,41.2500015735627,8|0|0,1:2|0:0|0:0,0:0:0:0:
67,200,58439,69,0,0:0:0:0:
67,200,58527,1,0,0:0:0:0:
0,208,58615,5,0,3:0:0:0:
132,190,58703,1,8,0:0:0:0:
29,332,58880,69,0,3:0:0:0:
158,298,58968,1,8,0:0:0:0:
95,315,59056,21,8,1:2:0:0:
95,315,59145,2,0,B|93:342|124:356|124:356|90:354|76:378,1,110,2|0,3:2|0:0,0:0:0:0:
247,249,59409,2,0,B|217:276|233:323|233:323|200:286|161:297,1,165.000006294251,10|0,0:0|0:0,0:0:0:0:
431,329,59674,2,0,B|376:327|346:387|346:387|350:320|303:294,1,220,10|0,1:2|0:0,0:0:0:0:
312,288,59939,6,0,B|354:311|350:371|350:371|376:317|426:318,1,197.99999395752,10|0,3:2|0:0,0:0:0:0:
379,133,60203,2,0,B|338:157|288:124|288:124|321:173|296:216,1,197.99999395752,10|0,3:2|0:0,0:0:0:0:
479,268,60468,2,0,B|477:220|531:193|531:193|472:198|447:154,1,197.99999395752,10|0,3:2|0:0,0:0:0:0:
439,163,60733,70,0,B|461:203|514:198|514:198|466:222|468:266,1,176,10|0,1:2|0:0,0:0:0:0:
352,178,60997,2,0,B|351:216|390:234|390:234|347:232|331:264,1,142.99999345398,10|0,3:2|0:0,0:0:0:0:
269,150,61262,2,0,B|254:176|273:203|273:203|246:185|223:200,1,110,10|0,3:2|0:0,0:0:0:0:
194,124,61527,53,0,3:0:0:0:
190,112,61615,1,8,1:2:0:0:
146,249,61792,5,0,3:0:0:0:
142,237,61880,1,8,1:2:0:0:
172,312,61968,6,0,P|211:256|318:286,1,176,2|0,3:2|0:0,0:0:0:0:
382,371,62233,2,0,P|383:290|409:200,1,176,10|0,1:2|0:0,0:0:0:0:
471,142,62497,53,10,3:2:0:0:
414,116,62586,1,8,0:0:0:0:
354,140,62674,1,2,0:0:0:0:
329,199,62762,1,8,0:0:0:0:
353,258,62850,1,2,0:0:0:0:
320,199,63027,5,8,3:2:0:0:
347,264,63115,1,2,0:0:0:0:
319,330,63203,1,8,0:0:0:0:
253,355,63292,1,8,0:0:0:0:
189,327,63380,1,2,0:0:0:0:
252,362,63556,69,0,3:0:0:0:
183,332,63644,1,8,0:0:0:0:
115,302,63733,1,8,1:2:0:0:
470,56,64086,5,0,3:0:0:0:
298,73,64262,69,8,1:2:0:0:
302,85,64350,1,8,0:0:0:0:
126,90,64527,5,8,1:2:0:0:
130,102,64615,1,0,3:0:0:0:
151,164,64703,5,8,1:2:0:0:
154,176,64792,2,0,P|126:208|84:219,1,88,2|0,3:2|0:0,0:0:0:0:
23,266,64968,1,8,0:0:0:0:
14,283,65056,2,0,P|68:342|129:291,1,176,10|0,1:2|0:0,0:0:0:0:
207,128,65321,2,0,P|187:213|203:299,1,176,10|0,3:2|0:0,0:0:0:0:
272,340,65586,53,0,0:0:0:0:
258,346,65674,2,0,P|274:315|265:273,1,55,0|8,3:0|0:0,0:0:0:0:
369,283,65850,5,8,0:0:0:0:
365,298,65939,2,0,P|354:262|314:236,1,76.9999976501466,0|8,3:0|0:0,0:0:0:0:
393,161,66115,69,8,0:0:0:0:
401,175,66203,2,0,P|359:154|301:166,1,98.9999969787599,0|8,3:0|0:0,0:0:0:0:
39,127,66468,5,8,0:0:0:0:
42,121,66556,2,0,P|88:95|183:119,1,131.99999597168,8|0,1:2|0:0,0:0:0:0:
203,44,66821,53,0,3:0:0:0:
222,55,66909,2,0,B|252:76|259:200|241:138|148:161|122:246|129:329|169:409|256:451|355:443|434:386|460:300|452:218|412:138|316:133|311:197|297:72|325:42,1,825,0|0,0:0|0:0,1:0:0:0:
323,44,67615,38,0,P|401:10|460:69,1,176,2|0,3:2|0:0,0:0:0:0:
363,257,67880,2,0,P|360:174|397:66,1,176,10|0,1:2|0:0,0:0:0:0:
207,8,68145,2,0,P|234:42|243:100,1,88,2|0,3:2|0:0,0:0:0:0:
278,159,68321,53,0,0:0:0:0:
262,168,68409,1,0,0:0:0:0:
238,176,68497,1,8,0:0:0:0:
191,173,68586,1,8,0:0:0:0:
153,140,68674,5,8,3:2:0:0:
145,70,68762,1,8,0:0:0:0:
161,139,68850,69,8,1:2:0:0:
152,73,68938,1,8,1:2:0:0:
434,320,69203,6,0,L|446:353,1,27.5,0|0,3:0|0:0,0:0:0:0:
378,279,69292,2,0,L|343:273,1,27.5,8|0,0:0|0:0,0:0:0:0:
441,251,69380,2,0,L|464:224,1,27.5,8|0,1:2|0:0,0:0:0:0:
261,40,69850,70,0,P|272:46|260:45,1,29.3333333333333,2|0,0:0|0:0,0:0:0:0:
253,120,69968,2,0,P|262:133|249:125,1,40.333334564209,2|0,0:0|0:0,0:0:0:0:
207,191,70086,2,0,P|214:209|201:196,1,51.3333317667644,2|0,0:0|0:0,0:0:0:0:
137,242,70203,2,0,P|139:265|128:245,1,62.3333345222473,2|0,0:0|0:0,0:0:0:0:
46,256,70321,2,0,P|42:282|35:257,1,73.3333333333333,2|0,0:0|0:0,0:0:0:0:
0,195,70439,22,0,B|-9:163|12:144|12:144|39:150|47:182,1,110,2|0,3:2|0:0,0:0:0:0:
99,115,70703,2,0,B|109:73|145:65|145:65|171:89|159:130,1,142.99999345398,10|0,0:0|0:0,0:0:0:0:
242,76,70968,2,0,B|278:38|321:51|321:51|334:93|297:130,1,176,2|0,0:0|0:0,0:0:0:0:
299,141,71233,6,0,B|346:95|329:43|329:43|276:25|229:73,1,220,2|0,3:2|0:0,0:0:0:0:
174,234,71497,2,0,B|189:297|243:309|243:309|285:271|267:208,1,220,10|0,0:0|0:0,0:0:0:0:
155,79,71762,2,0,B|92:60|54:101|54:101|66:156|130:172,1,220,2|0,3:2|0:0,0:0:0:0:
128,162,72027,70,0,B|76:148|67:104|67:104|97:72|147:86,1,176,2|0,3:2|0:0,0:0:0:0:
232,213,72292,2,0,B|201:183|212:148|212:148|246:137|276:168,1,142.99999345398,2|0,3:2|0:0,0:0:0:0:
292,297,72556,2,0,B|283:265|303:246|303:246|330:252|338:284,1,110,2|0,3:2|0:0,0:0:0:0:
335,363,72821,53,0,3:0:0:0:
329,378,72909,1,8,1:2:0:0:
394,209,73086,5,0,3:0:0:0:
388,224,73174,1,8,0:0:0:0:
323,259,73968,70,0,B|314:324|314:324|302:309|302:309|295:370,2,146.666666666667,0|0|0,0:0|0:0|0:0,1:0:0:0:
332,249,74497,2,0,P|405:198|287:174,1,275,0|0,0:0|0:3,1:0:0:0:
332,249,75027,6,0,P|288:241|249:255,1,88,4|0,1:2|0:0,0:0:0:0:
173,351,75468,69,0,0:0:0:0:
175,335,75556,2,0,L|177:275,1,55,0|0,3:0|0:0,0:0:0:0:
180,208,75733,5,0,0:0:0:0:
181,192,75821,2,0,L|184:114,1,71.4999967269899,0|0,3:0|0:0,0:0:0:0:
52,86,75997,5,8,0:0:0:0:
85,27,76086,2,0,P|169:12|235:74,1,176,2|0,3:2|0:0,0:0:0:0:
334,120,76350,2,0,B|286:118|257:155|257:155|228:192|181:191,1,176,10|0,1:2|0:0,0:0:0:0:
162,47,76615,2,0,P|159:87|184:120,1,82.5,2|0,3:2|0:0,0:0:0:0:
245,184,76968,53,0,3:0:0:0:
214,206,77056,1,0,0:0:0:0:
180,208,77145,1,8,0:0:0:0:
135,272,77233,5,0,3:0:0:0:
177,325,77321,1,8,0:0:0:0:
242,322,77409,1,8,0:0:0:0:
311,379,77497,70,0,L|322:284,1,88,0|0,3:0|0:0,0:0:0:0:
380,373,77674,2,0,L|388:311,3,58.6666666666667,8|8|8|8,0:0|0:0|0:0|1:2,0:0:0:0:
410,232,78027,69,0,0:0:0:0:
422,249,78115,2,0,B|456:260|533:223|525:134|476:19|229:62|273:243|401:199|370:382|35:432|-141:239|27:-73|215:-6|267:44,1,935,0|0,3:0|0:0,1:0:0:0:
267,43,78909,38,0,P|251:128|160:134,1,176,2|0,3:2|0:0,0:0:0:0:
16,36,79174,2,0,P|73:103|103:185,1,176,10|0,1:2|0:0,0:0:0:0:
198,75,79439,2,0,P|176:71|154:72,4,44,14|0|0|0|0,1:2|0:0|0:0|0:0|0:0,0:0:0:0:
56,136,79703,53,8,0:0:0:0:
51,150,79792,2,0,P|81:179|120:183,1,65.9999979858399,0|0,3:0|0:0,0:0:0:0:
63,259,79968,5,8,0:0:0:0:
70,272,80057,2,0,P|124:275|168:240,1,88,0|0,3:0|0:0,0:0:0:0:
177,339,80232,69,8,0:0:0:0:
190,341,80321,2,0,P|234:302|238:239,1,110,0|0,3:0|0:0,0:0:0:0:
432,98,80497,6,0,L|455:94,1,13.75,0|0,3:0|0:0,0:0:0:0:
436,166,80586,2,0,L|474:162,1,27.5,0|0,3:0|0:0,0:0:0:0:
440,234,80674,2,0,L|507:226,2,41.2500015735627,8|0|0,1:2|0:0|0:0,0:0:0:0:
191,207,81027,69,0,0:0:0:0:
191,207,81115,1,0,0:0:0:0:
126,225,81203,5,4,3:0:0:0:
253,186,81291,1,8,0:0:0:0:
225,370,81468,69,0,3:0:0:0:
352,331,81556,1,8,0:0:0:0:
290,351,81645,21,8,1:2:0:0:
290,351,81733,2,0,B|275:328|294:300|294:300|267:319|242:305,1,110,2|0,3:2|0:0,0:0:0:0:
176,280,81997,2,0,B|184:240|233:230|233:230|184:220|174:181,1,165.000006294251,10|0,0:0|0:0,0:0:0:0:
130,115,82262,2,0,B|176:85|232:122|232:122|195:66|223:20,1,220,10|0,1:2|0:0,0:0:0:0:
212,21,82527,6,0,B|187:61|220:111|220:111|171:78|128:103,1,197.99999395752,2|0,3:2|0:0,0:0:0:0:
17,223,82792,2,0,B|64:223|91:169|91:169|87:228|133:254,1,197.99999395752,10|0,3:2|0:0,0:0:0:0:
290,292,83056,2,0,B|267:249|207:253|207:253|261:227|260:175,1,197.99999395752,2|0,3:2|0:0,0:0:0:0:
270,180,83321,70,0,B|270:226|222:249|222:249|276:245|296:283,1,176,10|0,1:2|0:0,0:0:0:0:
350,152,83586,2,0,B|369:184|344:219|344:219|381:195|410:214,1,142.99999345398,2|0,3:2|0:0,0:0:0:0:
405,89,83850,2,0,B|430:103|427:135|427:135|442:106|469:107,1,110,2|0,3:2|0:0,0:0:0:0:
454,34,84115,53,0,3:0:0:0:
450,21,84203,1,8,0:0:0:0:
417,2,84292,5,8,1:2:0:0:
348,6,84380,1,0,3:0:0:0:
286,57,84468,1,8,0:0:0:0:
271,156,84556,6,0,P|196:188|164:97,1,176,2|0,3:2|0:0,0:0:0:0:
29,5,84821,2,0,P|68:83|85:169,1,176,10|0,1:2|0:0,0:0:0:0:
198,232,85086,53,10,3:2:0:0:
138,264,85174,1,8,0:0:0:0:
71,256,85262,1,0,0:0:0:0:
23,211,85350,1,8,0:0:0:0:
8,146,85438,1,0,0:0:0:0:
16,216,85616,5,8,3:2:0:0:
0,142,85704,1,0,0:0:0:0:
29,74,85792,1,8,0:0:0:0:
93,38,85880,1,8,0:0:0:0:
166,43,85968,1,0,0:0:0:0:
89,28,86145,69,0,3:0:0:0:
174,33,86233,1,8,0:0:0:0:
259,37,86322,1,8,1:2:0:0:
55,352,86674,5,0,3:0:0:0:
84,194,86850,69,8,1:2:0:0:
94,196,86939,1,8,0:0:0:0:
113,36,87114,5,8,0:0:0:0:
123,38,87203,1,0,3:0:0:0:
188,50,87292,5,0,3:0:0:0:
198,52,87380,2,0,P|236:24|283:19,1,88,10|0,3:2|0:0,0:0:0:0:
381,192,87556,1,8,0:0:0:0:
364,171,87645,2,0,P|275:136|180:147,1,176,10|0,1:2|0:0,0:0:0:0:
345,76,87909,2,0,P|391:19|400:105,1,176,10|0,3:2|0:0,0:0:0:0:
490,139,88174,53,8,0:0:0:0:
503,152,88262,2,0,P|474:145|432:167,1,55,0|8,3:0|0:0,0:0:0:0:
499,268,88439,5,8,0:0:0:0:
499,286,88527,2,0,P|480:256|417:230,1,76.9999976501466,0|8,3:0|0:0,0:0:0:0:
401,361,88703,69,8,0:0:0:0:
388,374,88791,2,0,P|395:340|363:266,1,98.9999969787599,0|8,3:0|0:0,0:0:0:0:
187,143,89056,5,8,0:0:0:0:
194,146,89145,2,0,P|232:186|232:284,1,131.99999597168,8|0,1:2|0:0,0:0:0:0:
297,338,89409,53,0,3:0:0:0:
319,335,89497,2,0,B|364:295|389:240|309:177|208:167|264:216|247:281|190:300|93:274|46:192|43:140|60:75|89:31|171:-15|267:10|307:55|290:120|217:135|309:177|405:156|415:102|396:45,1,825,0|0,0:0|0:0,1:0:0:0:
396,45,90203,38,0,P|350:144|368:230,1,176,10|0,3:2|0:0,0:0:0:0:
479,98,90468,2,0,P|504:170|427:179,1,176,10|0,1:2|0:0,0:0:0:0:
305,289,90733,2,0,P|285:240|245:218,1,88,2|0,3:2|0:0,0:0:0:0:
186,136,90909,53,0,0:0:0:0:
159,142,90997,1,0,0:0:0:0:
127,171,91086,1,8,0:0:0:0:
118,218,91174,1,8,0:0:0:0:
146,281,91262,5,0,3:0:0:0:
227,293,91350,1,8,0:0:0:0:
153,286,91439,69,8,0:0:0:0:
219,296,91527,1,8,1:2:0:0:
391,10,91792,6,0,L|363:42,1,27.5,0|0,3:0|0:0,0:0:0:0:
282,45,91880,2,0,L|325:55,1,27.5,8|0,0:0|0:0,0:0:0:0:
359,97,91968,70,2,L|372:137,4,38.4999988250733,14|0|0|0|0,1:2|0:0|0:0|0:0|0:0,0:1:0:0:
274,220,92321,5,0,3:0:0:0:
274,220,92409,1,0,0:0:0:0:
264,285,92497,69,8,1:2:0:0:
280,153,92585,1,8,0:0:0:0:
486,157,92762,5,8,0:0:0:0:
502,25,92850,1,0,3:0:0:0:
496,92,92939,5,8,0:0:0:0:
496,92,93027,2,0,B|475:66|448:71|448:71|437:97|458:121,1,110,2|0,3:2|0:0,0:0:0:0:
473,253,93292,2,0,B|467:210|433:197|433:197|404:218|410:260,1,142.99999345398,2|0,1:2|0:0,0:0:0:0:
337,372,93556,2,0,B|360:325|333:289|333:289|289:292|267:339,1,176,10|0,0:0|0:0,0:0:0:0:
256,340,93821,6,0,B|284:281|338:278|338:278|372:323|343:382,1,220,2|0,3:2|0:0,0:0:0:0:
495,270,94086,2,0,B|428:275|399:228|399:228|421:177|487:172,1,220,10|0,0:0|0:0,0:0:0:0:
318,99,94350,2,0,B|354:152|329:201|329:201|274:208|237:152,1,220,2|0,3:2|0:0,0:0:0:0:
251,154,94615,70,0,B|279:197|324:192|324:192|344:152|313:109,1,176,10|0,3:2|0:0,0:0:0:0:
171,81,94880,2,0,B|208:99|237:78|237:78|235:42|197:24,1,142.99999345398,10|0,3:2|0:0,0:0:0:0:
78,51,95145,2,0,B|110:48|121:23|121:23|106:0|73:3,1,110,2|0,3:2|0:0,0:0:0:0:
9,37,95409,53,0,3:0:0:0:
0,45,95497,1,8,1:2:0:0:
75,127,95674,5,0,3:0:0:0:
66,135,95762,1,8,0:0:0:0:
363,323,96556,70,0,B|427:313|427:313|416:329|416:329|477:319,2,146.666666666667,0|0|0,0:0|0:0|0:0,1:0:0:0:
355,330,97086,2,0,P|456:303|361:255,1,264,0|0,0:0|0:0,1:0:0:0:
355,330,97439,6,0,P|307:304|255:313,1,110,4|0,1:2|0:0,0:0:0:0:
61,300,97968,69,0,0:0:0:0:
70,311,98056,1,0,0:0:0:0:
130,377,98145,5,0,3:0:0:0:
61,342,98233,1,8,0:0:0:0:
71,155,98409,69,0,3:0:0:0:
140,190,98497,1,8,0:0:0:0:
80,124,98586,5,8,1:2:0:0:
71,113,98674,2,0,L|116:118,1,32.99999899292,2|2,3:2|0:0,0:0:0:0:
185,139,98850,5,2,0:0:0:0:
178,126,98938,2,0,L|215:130,1,32.99999899292,8|2,1:2|0:0,0:0:0:0:
292,152,99115,5,2,0:0:0:0:
285,139,99203,2,2,L|336:145,6,32.99999899292,6|2|2|2|2|2|2,3:2|0:0|0:0|0:0|0:0|0:0|0:0,0:0:0:0:
380,104,99556,69,8,3:2:0:0:
433,104,99644,1,10,0:0:0:0:
472,141,99732,1,10,1:2:0:0:
445,209,99821,5,10,3:2:0:0:
365,209,99909,1,10,0:0:0:0:
308,264,99997,69,10,1:2:0:0:
323,334,100086,2,0,L|314:297,1,38.4999988250733,6|0,3:2|0:0,0:0:0:0:
212,264,100262,5,10,1:2:0:0:
235,371,100350,2,0,L|218:295,1,76.9999976501466,6|0,3:2|0:0,0:0:0:0:
30,231,100527,21,0,0:0:0:0:
16,224,100615,2,0,B|-24:183|-24:82|56:41|137:41|198:102|218:183|178:264|137:142|97:224|117:305|178:365|259:365|340:325|340:224|299:183,1,692.999978851319,12|0,1:2|0:0,1:0:0:0:
292,106,101497,5,0,3:0:0:0:
262,111,101586,1,0,0:0:0:0:
239,130,101674,1,0,0:0:0:0:
290,115,101762,5,8,1:2:0:0:
267,122,101850,1,0,0:0:0:0:
248,138,101939,1,0,0:0:0:0:
299,182,102027,5,4,3:2:0:0:
357,19,102292,53,2,0:3:0:0:
437,32,102380,1,2,3:3:0:0:
492,77,102468,1,2,0:3:0:0:
510,125,102556,1,2,1:3:0:0:
504,163,102645,1,2,3:3:0:0:
487,187,102733,1,2,0:3:0:0:
471,194,102821,1,2,0:3:0:0:
398,165,102909,5,0,3:0:0:0:
407,238,102997,1,8,0:0:0:0:
401,189,103085,1,0,3:0:0:0:
403,214,103173,1,0,3:0:0:0:
333,208,103262,69,12,1:2:0:0:
32,215,103615,5,0,0:0:0:0:
45,230,103703,1,0,0:0:0:0:
88,213,103792,69,10,1:2:0:0:
107,285,103880,1,8,0:0:0:0:
262,199,104056,5,8,3:2:0:0:
243,127,104144,1,8,0:0:0:0:
200,144,104233,69,8,1:2:0:0:
187,129,104321,1,0,3:0:0:0:
355,58,104586,21,0,3:0:0:0:
512,288,104762,53,8,0:0:0:0:
510,275,104850,2,0,L|505:236,1,38.4999988250733,12|0,1:2|0:0,0:0:0:0:
441,309,105027,5,0,0:0:0:0:
439,297,105115,2,0,L|430:233,1,55,4|0,3:2|0:0,0:0:0:0:
371,331,105292,69,2,0:0:0:0:
369,319,105380,2,0,L|354:204,1,82.5000031471254,4|0,3:2|0:0,0:0:0:0:
301,353,105557,5,8,0:0:0:0:
299,341,105645,2,0,L|279:178,1,110,12|0,3:2|0:0,0:0:0:0:
231,375,105821,5,8,0:0:0:0:
212,226,105909,1,12,1:2:0:0:
27,353,106086,53,8,0:0:0:0:
103,339,106174,1,0,3:0:0:0:
31,341,106262,5,8,1:2:0:0:
63,336,106350,1,8,0:0:0:0:
94,332,106439,2,0,L|213:314,1,88,0|0,3:0|0:0,0:0:0:0:
454,284,106615,5,8,0:0:0:0:
469,262,106703,1,0,3:0:0:0:
474,216,106792,1,8,0:0:0:0:
450,161,106880,1,8,1:2:0:0:
389,117,106968,1,0,3:0:0:0:
300,107,107056,1,0,0:0:0:0:
200,150,107145,1,4,3:2:0:0:
456,7,107409,53,8,1:2:0:0:
454,284,107674,5,2,3:0:0:0:
419,321,107763,1,8,0:0:0:0:
367,326,107851,1,2,0:0:0:0:
328,292,107939,1,10,0:0:0:0:
322,240,108027,1,2,0:0:0:0:
329,236,108203,69,8,3:2:0:0:
324,172,108292,1,2,0:0:0:0:
277,131,108380,1,8,0:0:0:0:
213,135,108468,1,8,1:2:0:0:
171,184,108556,1,2,0:0:0:0:
166,190,108733,5,0,3:0:0:0:
101,215,108821,1,8,0:0:0:0:
154,259,108909,1,8,1:2:0:0:
350,369,109262,69,0,3:0:0:0:
424,200,109439,5,8,1:2:0:0:
423,212,109527,1,8,0:0:0:0:
498,31,109704,69,8,1:2:0:0:
497,43,109792,1,0,3:0:0:0:
489,112,109880,5,8,1:2:0:0:
488,124,109968,2,0,L|434:132,1,32.99999899292,10|2,3:2|0:0,0:0:0:0:
380,128,110145,5,10,0:0:0:0:
379,140,110233,2,0,L|325:148,1,32.99999899292,10|2,1:2|0:0,0:0:0:0:
271,144,110409,5,2,0:0:0:0:
270,156,110497,2,2,L|216:164,6,32.99999899292,6|2|2|2|2|2|2,3:2|0:0|0:0|0:0|0:0|0:0|0:0,0:0:0:0:
201,228,110850,69,0,3:0:0:0:
161,260,110939,1,8,0:0:0:0:
111,254,111027,1,8,1:2:0:0:
15,317,111115,5,0,3:0:0:0:
20,266,111204,1,8,0:0:0:0:
77,216,111291,1,8,0:0:0:0:
82,166,111380,1,0,3:0:0:0:
52,88,111468,54,0,P|85:77|123:94,1,76.9999976501466,8|0,0:0|0:0,0:0:0:0:
226,100,111645,1,8,0:0:0:0:
229,89,111733,2,0,P|224:47|198:20,1,76.9999976501466,8|0,1:2|0:0,0:0:0:0:
362,217,111909,53,0,0:0:0:0:
384,216,111997,2,0,B|438:185|452:119|436:60|391:9|325:-3|266:11|215:56|201:123|217:181|262:232|276:166|321:217|337:275|323:342|272:387|214:403|147:389|102:338|86:279|100:213|155:183,1,880,0|0,3:0|0:0,1:0:0:0:
184,122,112792,5,0,3:0:0:0:
205,136,112881,1,0,0:0:0:0:
217,157,112968,1,0,0:0:0:0:
190,112,113057,5,8,1:2:0:0:
214,129,113145,1,0,0:0:0:0:
227,157,113234,1,0,0:0:0:0:
155,183,113321,5,4,3:2:0:0:
494,308,113674,53,2,0:3:0:0:
500,323,113762,1,2,0:3:0:0:
492,351,113850,1,2,3:3:0:0:
457,370,113939,1,2,0:3:0:0:
406,353,114027,1,2,0:3:0:0:
371,288,114115,1,2,0:3:0:0:
396,194,114203,1,2,0:3:0:0:
278,211,114292,21,8,0:0:0:0:
396,194,114380,1,0,3:0:0:0:
332,168,114468,5,8,0:0:0:0:
396,194,114556,2,0,L|404:259,3,55,8|0|0|0,1:2|0:0|0:0|0:0,0:0:0:0:
386,125,114909,37,0,3:0:0:0:
183,83,115086,5,8,1:2:0:0:
185,96,115174,1,8,0:0:0:0:
1,66,115351,69,8,1:2:0:0:
3,79,115439,1,0,3:0:0:0:
14,151,115527,5,8,1:2:0:0:
16,164,115615,2,0,L|107:176,1,76.9999976501466,0|8,3:0|0:0,0:0:0:0:
170,184,115792,5,0,0:0:0:0:
252,194,115880,1,8,1:2:0:0:
305,171,115968,1,8,0:0:0:0:
330,139,116056,1,8,1:2:0:0:
332,112,116145,1,8,0:0:0:0:
332,112,116321,5,8,1:2:0:0:
416,90,116409,1,0,0:0:0:0:
490,136,116497,1,0,0:0:0:0:
507,222,116585,1,0,3:0:0:0:
457,294,116673,1,8,0:0:0:0:
107,243,116850,37,8,1:2:0:0:
97,256,116939,2,0,L|176:245,1,76.9999976501466,0|0,3:0|0:0,0:0:0:0:
348,229,117115,5,8,0:0:0:0:
358,217,117204,2,0,L|280:228,1,76.9999976501466,0|0,3:0|0:0,0:0:0:0:
234,356,117380,69,8,0:0:0:0:
246,367,117469,2,0,L|235:289,1,76.9999976501466,0|0,3:0|0:0,0:0:0:0:
206,83,117645,69,8,0:0:0:0:
219,183,117734,2,0,B|194:138|194:138|208:96|208:96|234:134|234:134|224:162,2,165,12|0|0,1:2|3:0|3:0,0:0:0:0:
246,367,118439,5,4,0:1:0:0:
265,279,127615,6,0,B|269:334|269:334|272:367|308:381|342:360|339:326|339:326|334:273,2,220,2|2|2,0:0|0:0|0:0,0:0:0:0:
256,192,129733,69,4,0:0:0:0:
62,189,138909,6,0,B|49:140|49:140|44:124|56:104|72:100|72:100|88:95|88:95|104:91|116:71|112:54|112:54|99:6,2,220,2|2|2,0:0|0:0|0:0,0:0:0:0:
103,313,141027,69,4,0:0:0:0:
147,251,141203,1,0,0:0:0:0:
94,260,141380,1,0,0:0:0:0:
155,304,141556,1,2,0:0:0:0:
500,319,141909,5,0,0:0:0:0:
485,270,142086,1,0,0:0:0:0:
444,238,142262,1,2,0:0:0:0:
270,287,142615,69,0,0:0:0:0:
319,298,142792,1,0,0:0:0:0:
368,279,142968,1,2,0:0:0:0:
412,104,143145,5,0,0:0:0:0:
377,140,143322,1,0,0:0:0:0:
369,192,143498,1,0,0:0:0:0:
394,236,143674,1,2,0:0:0:0:
290,308,143850,69,0,0:0:0:0:
209,244,144027,1,2,0:0:0:0:
110,355,144203,5,0,0:0:0:0:
55,163,144380,2,0,P|56:123|66:161,1,110,2|0,0:0|0:0,0:0:0:0:
242,186,144909,70,0,L|297:178,1,38.4999988250733,2|0,0:0|0:0,0:0:0:0:
348,168,145086,2,0,L|403:160,1,38.4999988250733,2|0,0:0|0:0,0:0:0:0:
439,107,145262,6,0,B|416:153|444:197|444:197|499:207|510:267,1,197.99999395752,4|0,0:0|0:0,0:0:0:0:
280,181,145792,2,0,B|331:176|355:130|355:130|336:77|382:38,1,197.99999395752,4|0,0:0|0:0,0:0:0:0:
423,282,146321,2,0,B|393:239|341:241|341:241|305:284|248:264,1,197.99999395752,4|2,0:0|0:0,0:0:0:0:
266,184,146850,69,0,0:0:0:0:
211,143,147027,1,0,0:0:0:0:
147,171,147203,1,2,0:0:0:0:
134,166,147556,5,0,0:0:0:0:
125,235,147733,1,0,0:0:0:0:
182,276,147909,1,2,0:0:0:0:
184,290,148262,69,0,0:0:0:0:
248,264,148439,1,0,0:0:0:0:
255,194,148615,1,2,0:0:0:0:
369,305,148792,5,0,0:0:0:0:
434,289,148968,1,0,0:0:0:0:
419,223,149145,1,0,0:0:0:0:
353,239,149321,1,2,0:0:0:0:
281,119,149497,69,0,0:0:0:0:
266,115,149674,1,2,0:0:0:0:
269,100,149850,1,0,0:0:0:0:
284,104,150027,1,2,0:0:0:0:
382,130,150203,6,0,B|463:171|568:100|546:16|461:8|434:45|447:107,2,307.999990600586,4|4|4,0:0|0:0|0:0,0:0:0:0:
496,162,151792,1,0,0:0:0:0:
512,200,151968,1,0,0:0:0:0:
504,241,152145,1,2,0:0:0:0:
457,357,152321,69,6,0:0:0:0:
414,235,152497,1,0,0:0:0:0:
456,288,152674,1,0,0:0:0:0:
348,219,152850,1,2,0:0:0:0:
94,182,153203,5,0,0:0:0:0:
143,100,153380,1,0,0:0:0:0:
148,120,153556,1,2,0:0:0:0:
153,140,153909,69,0,0:0:0:0:
278,123,154086,1,0,0:0:0:0:
272,142,154262,1,2,0:0:0:0:
294,209,154439,5,0,0:0:0:0:
288,228,154615,1,0,0:0:0:0:
367,261,154792,1,0,0:0:0:0:
352,275,154968,1,2,0:0:0:0:
210,226,155145,69,0,0:0:0:0:
256,348,155321,1,2,0:0:0:0:
409,131,155497,5,0,0:0:0:0:
401,363,155674,2,0,B|432:373|454:351|454:351|425:338|402:357,1,110,2|0,0:0|0:0,0:0:0:0:
186,375,156203,70,0,P|167:364|155:348,1,38.4999988250733,2|0,0:0|0:0,0:0:0:0:
87,333,156380,2,0,P|81:312|84:291,1,38.4999988250733,2|0,0:0|0:0,0:0:0:0:
114,103,156556,6,0,B|51:147|72:231|124:256|141:209|110:178,1,197.99999395752,4|0,0:0|0:0,0:0:0:0:
301,241,157086,2,0,B|293:164|210:140|162:173|195:211|237:200,1,197.99999395752,4|0,0:0|0:0,0:0:0:0:
87,333,157615,2,0,B|156:364|219:304|214:246|165:256|153:298,1,197.99999395752,4|2,0:0|0:0,0:0:0:0:
378,344,158145,69,0,0:0:0:0:
386,276,158321,1,0,0:0:0:0:
394,209,158497,1,2,0:0:0:0:
369,348,158851,5,0,0:0:0:0:
377,275,159027,1,0,0:0:0:0:
386,204,159203,1,2,0:0:0:0:
360,352,159556,69,0,0:0:0:0:
368,274,159733,1,0,0:0:0:0:
378,199,159909,1,2,0:0:0:0:
227,99,160086,5,0,0:0:0:0:
209,163,160262,1,0,0:0:0:0:
128,210,160439,1,0,0:0:0:0:
0,176,160615,1,2,0:0:0:0:
114,112,160792,70,0,L|119:151,1,27.5,2|0,0:1|0:0,0:0:0:0:
185,93,161321,2,0,L|192:142,1,44,2|0,0:1|0:0,0:0:0:0:
256,74,161850,2,0,L|266:144,1,60.5000018463135,2|0,0:1|0:0,0:0:0:0:
327,55,162380,2,0,L|339:143,1,76.9999976501466,2|0,0:1|0:0,0:0:0:0:
398,36,162909,6,2,L|411:136,1,96.25,2|0,0:1|0:0,0:1:0:0:
420,206,163615,54,0,L|458:211,7,27.5,0|0|0|0|0|0|0|0,1:0|1:0|1:0|1:0|1:0|1:0|1:0|1:0,1:0:0:0:
404,203,163968,2,0,B|349:195|349:195|349:190|349:190|348:195|348:195|307:188|307:188|306:184|306:184|305:188|305:188|263:182|263:182|230:177|208:209|220:245|254:250|254:250|322:259,2,330.000012588501,2|2|8,1:2|0:0|1:2,0:0:0:0:
18,82,164674,6,0,P|87:110|123:176,1,153.999995300293,2|0,0:1|0:0,0:0:0:0:
47,311,165027,1,4,0:2:0:0:
191,142,165203,6,0,P|186:219|147:251,1,98.9999969787599,2|0,0:1|0:0,0:0:0:0:
24,239,165380,2,0,B|77:225|110:270|110:270|143:315|197:302,1,197.99999395752,4|0,3:1|0:0,0:0:0:0:
254,335,165733,37,10,1:2:0:0:
374,287,165909,1,2,0:0:0:0:
308,293,166086,1,2,0:0:0:0:
437,316,166262,1,2,0:0:0:0:
335,232,166439,6,0,L|330:200,7,27.5,0|0|0|0|0|0|0|0,1:0|1:0|1:0|1:0|1:0|1:0|1:0|1:0,1:0:0:0:
336,246,166792,2,0,B|343:296|343:296|347:330|316:351|280:339|275:305|275:305|268:255|268:255|257:239|257:239|254:216|254:216|250:215|250:215|254:214|254:214|247:138,2,330.000012588501,2|2|8,1:2|0:0|1:2,0:0:0:0:
345,40,167497,6,0,P|414:-13|459:61,1,197.99999395752,2|0,0:1|0:0,0:0:0:0:
280,82,167850,1,4,0:2:0:0:
415,115,168027,6,0,B|432:133|456:131|456:131|403:138,1,98.9999969787599,4|0,3:0|0:0,0:0:0:0:
323,152,168203,2,0,B|265:159|265:159|244:149|244:149|194:154,1,131.99999597168,4|0,3:1|0:0,0:0:0:0:
168,54,168556,6,0,L|178:96,1,32.99999899292,10|0,1:2|0:0,0:0:0:0:
244,66,168733,2,0,L|236:33,1,32.99999899292,2|0,0:0|0:0,0:0:0:0:
299,236,168909,6,0,L|290:319,1,65.9999979858399,2|0,0:0|0:0,0:0:0:0:
220,291,169086,2,0,L|227:225,1,65.9999979858399,2|0,0:0|0:0,0:0:0:0:
403,137,169262,22,0,L|450:130,7,27.5,0|0|0|0|0|0|0|0,1:0|1:0|1:0|1:0|1:0|1:0|1:0|1:0,1:0:0:0:
387,138,169615,2,0,B|357:142|357:142|340:144|326:163|328:180|328:180|330:188|330:188|334:222|303:243|267:231|263:198|263:198|261:189|261:189|259:172|240:158|223:160|223:160|199:164|199:164|198:160|198:160|198:164|198:164|161:169,2,330.000012588501,2|2|8,1:2|0:0|1:2,0:0:0:0:
52,368,170321,6,0,B|32:335|38:300|54:277|54:277|84:264|92:227,1,153.999995300293,2|0,0:1|0:0,0:0:0:0:
40,142,170674,1,4,0:2:0:0:
129,378,170850,6,0,P|151:335|134:270,1,98.9999969787599,2|0,0:1|0:0,0:0:0:0:
24,211,171027,2,0,B|148:200|148:200|189:195|202:156,1,197.99999395752,4|0,3:1|0:0,0:0:0:0:
223,93,171380,37,10,1:2:0:0:
447,117,171556,1,2,0:0:0:0:
266,144,171733,1,2,0:0:0:0:
391,160,171909,1,2,0:0:0:0:
325,190,172086,6,0,L|320:222,7,27.5,0|0|0|0|0|0|0|0,1:0|1:0|1:0|1:0|1:0|1:0|1:0|1:0,1:0:0:0:
327,174,172439,2,0,B|332:132|332:132|335:115|354:101|371:103|371:103|405:108|405:108|420:119|420:119|454:123|454:123|471:126|486:145|483:162|483:162|478:202|478:202|482:205|482:205|477:206|477:206|470:256,2,330.000012588501,2|2|8,1:2|0:2|1:2,0:0:0:0:
223,313,173145,6,0,P|235:348|273:372,1,76.9999976501466,2|0,0:1|0:0,0:0:0:0:
396,321,173321,1,0,3:0:0:0:
161,270,173497,1,4,0:0:0:0:
396,321,173674,6,0,P|328:297|274:324,1,110,4|0,3:0|0:0,0:0:0:0:
144,202,173850,2,0,B|115:234|117:293|150:328|150:328|141:298|165:266,1,197.99999395752,4|0,3:1|0:0,0:0:0:0:
223,313,174203,6,0,L|231:376,2,55,10|0|0,1:2|1:0|1:0,1:0:0:0:
192,95,174380,2,0,L|183:31,2,55,2|0|0,1:2|1:0|1:0,1:0:0:0:
316,188,174556,6,0,L|370:180,2,55,2|0|0,1:2|1:0|1:0,1:0:0:0:
98,219,174733,2,0,L|44:227,2,55,2|0|0,1:2|1:0|1:0,1:0:0:0:
207,203,174909,22,0,L|202:171,7,27.5,0|0|0|0|0|0|0|0,1:0|1:0|1:0|1:0|1:0|1:0|1:0|1:0,1:0:0:0:
209,218,175262,2,0,B|217:277|217:277|219:294|239:309|256:306|256:306|290:301|290:301|308:307|308:307|358:300|358:300|359:305|359:305|359:300|359:300|409:293|409:293|410:297|410:297|410:293|410:293|483:283,2,330.000012588501,2|2|8,1:2|0:0|1:2,0:0:0:0:
485,215,175968,6,0,P|437:179|417:73,1,153.999995300293,2|0,0:1|0:0,0:0:0:0:
385,262,176321,1,4,0:0:0:0:
258,83,176497,6,0,P|318:95|345:142,1,98.9999969787599,2|0,0:1|0:0,0:0:0:0:
451,147,176674,2,0,B|462:107|462:107|407:100|354:137|352:195,1,197.99999395752,4|0,3:1|0:0,0:0:0:0:
385,262,177027,37,10,1:2:0:0:
237,247,177203,1,2,0:0:0:0:
311,254,177380,1,2,0:0:0:0:
163,239,177556,1,2,0:0:0:0:
186,126,177733,6,0,L|179:78,7,27.5,0|0|0|0|0|0|0|0,1:0|1:0|1:0|1:0|1:0|1:0|1:0|1:0,1:0:0:0:
188,142,178086,2,0,B|193:178|193:178|195:196|179:217|161:220|161:220|115:226|115:226|98:238|98:238|63:243|63:243|62:248|62:248|61:243|61:243|34:247|34:247|16:250|0:270|3:289|3:289|12:334,2,330.000012588501,2|2|8,1:2|0:0|1:2,0:0:0:0:
325,344,178792,6,0,B|343:375|376:381|376:381|210:360,1,197.99999395752,2|0,0:1|0:0,0:0:0:0:
276,144,179145,1,4,0:0:0:0:
388,311,179321,6,0,B|410:266|410:266|368:241,1,98.9999969787599,4|0,3:0|0:0,0:0:0:0:
244,364,179497,2,0,P|214:299|242:195,1,165,4|0,3:1|0:0,0:0:0:0:
276,144,179850,6,2,L|280:100,1,32.99999899292,8|0,1:2|0:0,0:0:0:0:
288,42,180027,2,0,L|292:-2,1,32.99999899292,2|0,0:0|0:0,0:0:0:0:
408,94,180203,6,0,L|327:86,1,65.9999979858399,2|0,0:0|0:0,0:0:0:0:
220,71,180380,2,0,L|139:63,1,65.9999979858399,2|0,0:0|0:0,0:0:0:0:
60,58,180556,22,0,L|55:26,7,27.5,0|0|0|0|0|0|0|0,1:0|1:0|1:0|1:0|1:0|1:0|1:0|1:0,1:0:0:0:
62,73,180909,2,0,B|69:122|69:122|64:124|64:124|69:123|69:123|76:174|76:174|78:191|93:207|115:204|115:204|123:202|123:202|143:200|159:215|162:232|162:232|176:334,2,330.000012588501,2|2|8,1:2|0:0|1:2,0:0:0:0:
372,260,181615,6,0,P|347:187|347:111,1,153.999995300293,2|0,0:1|0:0,0:0:0:0:
216,84,181968,1,4,0:0:0:0:
395,54,182145,6,0,P|427:95|397:156,1,98.9999969787599,2|0,0:1|0:0,0:0:0:0:
149,64,182321,2,0,P|184:149|272:126,1,197.99999395752,4|0,3:1|0:0,0:0:0:0:
347,110,182674,6,0,P|330:89|324:63,2,55,8|0|0,1:2|0:0|0:0,0:0:0:0:
395,54,182850,2,0,P|412:31|435:16,2,55,2|0|0,1:2|1:0|1:0,1:0:0:0:
465,82,183027,6,0,P|491:90|512:106,2,55,2|0|0,1:2|1:0|1:0,1:0:0:0:
459,157,183203,2,0,P|460:185|451:211,2,55,2|0|0,1:2|1:0|1:0,1:0:0:0:
385,175,183380,37,2,0:0:0:0:
373,199,183556,5,2,0:0:0:0:
345,225,183733,69,2,0:0:0:0:
280,251,183909,5,2,0:0:0:0:
191,228,184086,6,2,P|169:180|183:88,1,132,2|0,0:0|0:0,0:1:0:0:
176,103,184439,2,0,B|192:134|192:134|172:182,1,65.9999979858399,2|0,0:0|0:0,0:0:0:0:
454,78,184704,53,0,0:0:0:0:
453,91,184792,2,0,L|446:153,1,44,0|0,3:0|0:0,0:0:0:0:
387,51,184968,5,0,0:0:0:0:
386,64,185056,2,0,L|375:160,1,76.9999976501466,0|0,3:0|0:0,0:0:0:0:
320,24,185233,69,0,0:0:0:0:
319,37,185321,2,0,L|306:147,1,110,0|0,3:0|0:0,0:0:0:0:
36,134,185497,38,0,P|87:162|139:260,1,153.999995300293,12|0,1:2|0:0,0:0:0:0:
241,84,185762,2,0,P|210:133|214:244,1,153.999995300293,12|0,1:2|0:0,0:0:0:0:
129,314,186027,2,0,P|75:307|71:258,1,98.9999969787599,12|0,1:2|0:0,0:0:0:0:
136,242,186203,54,0,B|188:229|220:272|220:272|252:316|304:303,1,192.5,4|0,3:1|0:0,0:0:0:0:
380,282,186909,6,0,P|365:266|357:247,2,41.2500015735627,10|0|0,1:3|1:0|1:0,1:0:0:0:
366,69,187086,2,0,P|381:83|388:103,2,41.2500015735627,2|0|0,1:3|1:0|1:0,1:0:0:0:
284,235,187262,6,0,P|288:214|302:198,2,41.2500015735627,2|0|0,1:3|1:0|1:0,1:0:0:0:
463,116,187439,2,0,P|458:136|444:152,2,41.2500015735627,0|0|0,1:0|1:0|1:0,1:0:0:0:
276,128,187616,70,0,P|296:121|316:125,2,41.2500015735627,2|0|0,1:3|1:0|1:0,1:0:0:0:
469,223,187792,2,0,P|448:228|428:225,2,41.2500015735627,2|0|0,1:3|1:0|1:0,1:0:0:0:
305,302,187968,54,4,P|252:309|202:354,1,110,0|0,0:0|0:0,3:0:0:0:
203,359,188233,1,0,0:0:0:0:
66,335,188321,70,0,B|129:339|129:339|144:334|144:334|476:364|476:364|511:366|531:333|516:296|482:293|482:293|185:268,1,825,8|0,1:2|0:0,1:0:0:0:
184,267,189027,22,0,P|162:189|74:111,1,192.5,4|0,3:1|0:0,0:0:0:0:
37,63,189733,6,0,L|32:25,2,38.4999988250733,10|0|0,1:3|1:0|1:0,1:0:0:0:
103,50,189909,2,0,L|98:12,2,30.2500009231568,2|0|0,1:3|1:0|1:0,1:0:0:0:
170,37,190086,2,0,L|165:0,2,22,2|0|0,1:3|1:0|1:0,1:0:0:0:
237,25,190262,2,0,L|234:6,2,13.75,2|0|0,1:3|1:0|1:0,1:0:0:0:
304,13,190439,2,0,L|302:3,2,5.5,2|0|0,1:3|1:0|1:0,1:0:0:0:
371,1,190615,53,4,3:0:0:0:
498,140,190792,2,0,B|505:128|505:128|475:114|431:127|418:174,1,110,4|0,3:1|0:0,0:0:0:0:
420,176,191056,1,0,0:0:0:0:
287,116,191145,6,0,P|323:79|378:75,1,76.9999976501466,8|0,1:2|0:0,0:0:0:0:
359,219,191321,2,0,P|346:182|351:145,1,76.9999976501466,0|0,3:0|0:0,0:0:0:0:
268,234,191497,69,2,1:3:0:0:
274,216,191586,2,0,P|221:162|147:148,1,153.999995300293,0|0,0:0|0:0,0:0:0:0:
90,94,191850,6,0,B|68:131|6:129|6:129|67:142|79:183,1,192.5,4|0,3:1|0:0,0:0:0:0:
110,256,192556,6,0,L|150:248,2,41.2500015735627,10|0|0,1:3|1:0|1:0,1:0:0:0:
333,215,192733,2,0,L|292:222,2,41.2500015735627,2|0|0,1:3|1:0|1:0,1:0:0:0:
181,341,192909,6,0,L|195:302,2,41.2500015735627,2|0|0,1:3|1:0|1:0,1:0:0:0:
259,128,193086,2,0,L|244:166,2,41.2500015735627,2|0|0,1:3|1:0|1:0,1:0:0:0:
293,321,193262,70,0,L|266:289,2,41.2500015735627,2|0|0,1:3|1:0|1:0,1:0:0:0:
147,148,193439,2,0,L|173:179,2,41.2500015735627,2|0|0,1:3|1:0|1:0,1:0:0:0:
337,134,193615,54,0,P|401:153|453:123,1,110,4|0,3:0|0:0,0:0:0:0:
447,123,193880,1,0,0:0:0:0:
464,0,193968,70,0,B|484:118|484:118|479:136|479:136|515:339|515:339|521:373|490:396|453:385|447:351|447:351|423:216|423:216|417:182|380:171|349:194|355:228|355:228|376:344,1,825,8|0,1:2|0:0,1:0:0:0:
376,344,194674,22,0,B|325:364|290:321|290:321|256:277|205:298,1,192.5,4|0,3:1|0:0,0:0:0:0:
152,345,195380,6,0,P|160:363|163:384,2,41.2500015735627,10|0|0,1:3|1:0|1:0,1:0:0:0:
44,304,195556,2,0,P|23:301|4:294,2,41.2500015735627,2|0|0,1:3|1:0|1:0,1:0:0:0:
133,230,195733,2,0,P|145:213|161:200,2,41.2500015735627,2|0|0,1:3|1:0|1:0,1:0:0:0:
110,293,195909,53,4,3:0:0:0:
284,265,196086,2,0,P|282:233|231:192,1,82.5000031471254,0|0,0:0|0:0,0:0:0:0:
110,293,196262,6,0,P|183:290|222:247,1,123.750004720688,2|0,0:1|0:0,0:0:0:0:
249,197,196439,2,0,L|234:114,1,82.5000031471254,4|0,3:1|0:0,0:0:0:0:
233,103,196703,1,2,0:3:0:0:
85,124,196792,54,0,B|70:43|70:43|63:9|94:-13|130:-3|137:30|137:30|148:89|148:89|160:104|160:104|171:162|171:162|175:179|192:192|211:189|211:189|278:176|278:176|295:173|315:187|319:203|319:203|325:237|362:247|392:224|386:190|386:190|379:157|409:134|446:144|453:177|453:177|476:296,1,825,8|0,1:2|0:0,1:0:0:0:
471,272,197497,22,0,P|384:309|327:386,1,192.5,4|0,3:1|0:0,0:0:0:0:
272,328,198203,6,0,L|274:273,2,41.2500015735627,10|0|0,1:2|1:0|1:0,1:0:0:0:
302,178,198380,2,0,L|299:232,2,41.2500015735627,10|0|0,1:3|1:0|1:0,1:0:0:0:
343,316,198556,6,0,L|345:261,2,41.2500015735627,2|0|0,1:3|1:0|1:0,1:0:0:0:
230,190,198733,2,0,L|227:244,2,41.2500015735627,2|0|0,1:3|1:0|1:0,1:0:0:0:
414,305,198909,70,0,L|416:250,2,41.2500015735627,2|0|0,1:3|1:0|1:0,1:0:0:0:
159,201,199086,2,0,L|156:255,2,41.2500015735627,2|0|0,1:3|1:0|1:0,1:0:0:0:
384,2,199262,54,0,P|354:46|353:101,1,110,4|0,3:0|0:0,0:0:0:0:
361,116,199527,1,0,0:0:0:0:
512,152,199615,70,0,B|507:84|507:84|504:50|468:36|436:56|439:90|439:90|443:140|443:140|436:158|436:158|441:209|441:209|444:243|411:263|376:249|373:215|373:215|369:164|369:164|367:147|349:132|332:133|332:133|205:145|205:145|189:154|189:154|11:170,1,825,4|0,1:2|0:0,1:0:0:0:
26,168,200321,22,0,P|94:141|146:33,1,192.5,4|0,3:1|0:0,0:0:0:0:
219,48,201027,6,0,P|223:24|207:-1,2,49.4999984893799,10|0|0,1:3|1:0|1:0,1:0:0:0:
264,105,201203,2,0,P|282:91|290:59,2,38.4999988250733,2|0|0,1:3|1:0|1:0,1:0:0:0:
255,175,201380,2,0,P|279:176|293:170,2,27.5,2|0|0,1:3|1:0|1:0,1:0:0:0:
197,221,201556,2,0,P|208:232|219:237,2,16.49999949646,2|0|0,1:3|1:0|1:0,1:0:0:0:
124,209,201733,2,0,L|128:220,2,8.24999974822999,2|0|0,1:3|1:0|1:0,1:0:0:0:
82,151,201909,53,4,3:0:0:0:
289,77,202086,2,0,P|327:100|346:164,1,110,4|0,3:1|0:0,0:0:0:0:
339,174,202350,1,0,0:0:0:0:
469,144,202439,6,0,P|436:180|400:186,1,76.9999976501466,8|0,1:2|0:0,0:0:0:0:
307,243,202615,2,0,P|271:209|265:173,1,76.9999976501466,0|0,3:0|0:0,0:0:0:0:
355,45,202792,69,2,1:3:0:0:
365,31,202880,2,0,B|296:37|296:37|287:48|287:48|217:54,1,153.999995300293,0|0,0:0|0:0,0:0:0:0:
65,166,203145,6,0,B|58:113|103:83|103:83|153:99|160:152,1,192.5,4|0,3:1|0:0,0:0:0:0:
239,195,203850,6,0,P|221:201|207:217,2,41.2500015735627,10|0|0,1:3|1:0|1:0,1:0:0:0:
317,188,204027,2,0,P|336:181|350:165,2,41.2500015735627,2|0|0,1:3|1:0|1:0,1:0:0:0:
268,129,204203,6,0,P|251:120|230:121,2,41.2500015735627,2|0|0,1:3|1:0|1:0,1:0:0:0:
288,256,204380,2,0,P|306:264|327:263,2,41.2500015735627,2|0|0,1:3|1:0|1:0,1:0:0:0:
338,100,204556,70,0,P|332:81|316:67,2,41.2500015735627,2|0|0,1:3|1:3|1:3,1:3:0:0:
220,284,204733,2,0,P|227:302|243:316,2,41.2500015735627,2|0|0,1:3|1:3|1:3,1:3:0:0:
512,194,204909,54,0,L|401:211,1,110,4|0,3:0|0:0,0:3:0:0:
394,224,205174,1,0,0:0:0:0:
399,384,205262,70,0,B|403:333|403:333|395:315|395:315|399:281|399:281|402:247|369:228|334:242|331:276|331:276|323:359|323:359|320:393|285:407|254:388|256:354|256:354|266:235|266:235|277:220|277:220|288:76|288:76|291:59|275:41|258:40|258:40|129:28,1,825,8|0,1:2|0:0,1:0:0:0:
177,33,205968,22,0,B|168:86|113:94|113:94|58:102|50:157,1,192.5,4|0,3:1|0:0,0:0:0:0:
127,207,206674,6,0,L|121:157,2,41.2500015735627,10|0|0,1:3|1:0|1:0,1:0:0:0:
201,214,206850,2,0,L|195:164,2,41.2500015735627,2|0|0,1:3|1:0|1:0,1:0:0:0:
275,221,207027,2,0,L|269:171,2,41.2500015735627,2|0|0,1:3|1:0|1:0,1:0:0:0:
62,338,207203,53,0,3:0:0:0:
347,243,207380,2,0,P|290:251|206:342,1,165.000006294251,4|0,3:0|0:0,0:0:0:0:
150,358,207733,5,4,3:1:0:0:
136,366,207821,2,0,B|104:334|104:334|127:258|127:258|173:253,1,165.000006294251
275,285,208086,6,0,L|286:340,14,55,8|0|0|0|0|0|0|0|0|0|0|0|0|0|0,1:2|0:0|0:0|0:0|0:0|0:0|0:0|0:0|0:0|0:0|0:0|0:0|0:0|0:0|0:0,0:0:0:0:
385,219,208792,54,0,B|348:237|311:219|311:219|274:200|237:219,1,153.999995300293,6|0,0:0|0:0,0:0:0:0:
167,253,209145,5,0,0:0:0:0:
235,65,209321,70,0,B|233:101|204:120|204:120|175:139|173:175,1,131.99999597168,2|0,0:0|0:0,0:0:0:0:
167,253,209674,5,0,0:0:0:0:
50,118,209850,70,0,B|74:134|76:163|76:163|78:192|103:209,1,110,2|0,0:0|0:0,0:0:0:0:
167,253,210203,5,0,0:0:0:0:
13,287,210380,70,0,B|33:276|54:287|54:287|75:297|96:287,1,88,2|0,0:0|0:0,0:0:0:0:
167,253,210733,5,0,0:0:0:0:
206,346,210909,70,0,L|211:302,1,32.99999899292,2|0,0:0|0:0,0:0:0:0:
277,325,211262,2,0,L|272:357,1,32.99999899292,2|0,0:0|0:0,0:0:0:0:
464,316,211615,6,0,P|388:310|333:252,1,153.999995300293,6|0,0:0|0:0,0:0:0:0:
316,182,211968,69,2,0:0:0:0:
272,357,212145,6,0,P|243:299|259:236,1,131.99999597168,2|0,0:0|0:0,0:0:0:0:
316,182,212498,69,0,0:0:0:0:
158,219,212674,6,0,P|188:174|241:161,1,110,2|0,0:0|0:0,0:0:0:0:
316,182,213027,69,0,0:0:0:0:
223,73,213203,6,0,P|266:76|297:106,1,88,2|0,0:0|0:0,0:0:0:0:
316,182,213556,69,0,0:0:0:0:
509,160,213733,6,0,L|465:154,1,32.99999899292,2|0,0:0|0:0,0:0:0:0:
409,147,214086,2,0,L|365:141,1,32.99999899292,2|0,0:0|0:0,0:0:0:0:
146,14,214439,70,0,L|165:144,1,131.99999597168,6|0,0:0|0:0,0:0:0:0:
176,218,214792,5,0,0:0:0:0:
320,104,214968,70,0,L|234:173,1,110,2|0,0:0|0:0,0:0:0:0:
176,218,215321,5,0,0:0:0:0:
326,277,215497,70,0,L|244:244,1,88,2|0,0:0|0:0,0:0:0:0:
176,218,215850,5,0,0:0:0:0:
197,357,216027,70,0,L|187:291,1,65.9999979858399,2|0,0:0|0:0,0:0:0:0:
176,218,216380,5,0,0:0:0:0:
44,246,216556,70,0,L|36:299,1,32.99999899292,2|0,0:0|0:0,0:0:0:0:
108,286,216909,2,0,L|112:253,1,32.99999899292,2|0,0:0|0:0,0:0:0:0:
187,27,217262,6,0,P|256:59|292:126,1,153.999995300293,6|0,0:0|0:0,0:0:0:0:
260,196,217615,69,0,0:0:0:0:
98,170,217792,6,0,P|150:132|215:133,1,131.99999597168,2|0,0:0|0:0,0:0:0:0:
260,196,218145,69,0,0:0:0:0:
162,304,218321,6,0,P|156:250|184:203,1,110,2|0,0:0|0:0,0:0:0:0:
260,196,218674,69,0,0:0:0:0:
290,321,218850,6,0,P|250:303|229:265,1,88,2|0,0:0|0:0,0:0:0:0:
260,196,219203,69,0,0:0:0:0:
399,61,219380,6,0,L|395:114,1,32.99999899292,2|0,0:0|0:0,0:0:0:0:
391,164,219733,2,0,L|387:217,1,32.99999899292,2|0,0:0|0:0,0:0:0:0:
377,357,220086,69,6,0:0:0:0:
307,293,220263,1,0,0:0:0:0:
302,198,220439,1,0,0:0:0:0:
365,128,220615,5,2,0:0:0:0:
431,124,220792,1,0,0:0:0:0:
480,169,220968,1,0,0:0:0:0:
483,235,221145,69,2,0:0:0:0:
453,268,221321,1,0,0:0:0:0:
406,270,221497,1,0,0:0:0:0:
370,238,221675,5,2,0:0:0:0:
368,206,221851,1,0,0:0:0:0:
390,182,222027,1,0,0:0:0:0:
422,180,222203,70,0,P|430:191|431:207,3,22,2|2|2|2,0:0|0:0|0:0|0:0,0:0:0:0:
297,45,222909,5,6,0:0:0:0:
118,79,223085,1,0,0:0:0:0:
201,25,223262,1,0,0:0:0:0:
97,175,223439,69,2,0:0:0:0:
201,246,223615,1,0,0:0:0:0:
134,232,223792,1,0,0:0:0:0:
258,208,223968,5,2,0:0:0:0:
241,121,224144,1,0,0:0:0:0:
267,161,224321,1,0,0:0:0:0:
194,111,224497,69,2,0:0:0:0:
159,162,224674,1,0,0:0:0:0:
166,129,224851,1,0,0:0:0:0:
178,191,225027,6,0,P|187:195|198:196,3,22,2|2|2|2,0:0|0:0|0:0|0:0,0:0:0:0:
419,262,225733,69,6,0:0:0:0:
463,137,225909,1,0,0:0:0:0:
299,318,226086,1,0,0:0:0:0:
139,204,226262,5,2,0:0:0:0:
174,275,226438,1,0,0:0:0:0:
166,129,226615,1,0,0:0:0:0:
281,112,226792,69,2,0:0:0:0:
236,96,226968,1,0,0:0:0:0:
301,155,227145,1,0,0:0:0:0:
258,214,227321,5,2,0:0:0:0:
284,200,227497,1,0,0:0:0:0:
231,203,227674,1,0,0:0:0:0:
221,171,227850,70,0,P|224:161|232:153,3,22,2|2|2|2,0:0|0:0|0:0|0:0,0:0:0:0:
26,117,228556,5,6,0:0:0:0:
16,258,228733,1,0,0:0:0:0:
108,366,228909,1,0,0:0:0:0:
271,94,229085,69,2,0:0:0:0:
217,30,229262,1,0,0:0:0:0:
132,24,229438,1,0,0:0:0:0:
175,205,229615,5,2,0:0:0:0:
226,211,229792,1,0,0:0:0:0:
265,178,229968,1,0,0:0:0:0:
168,116,230144,69,2,0:0:0:0:
145,134,230321,1,0,0:0:0:0:
143,166,230497,1,0,0:0:0:0:
198,125,230674,6,0,P|204:133|206:144,3,22,2|2|2|2,0:0|0:0|0:0|0:0,0:0:0:0:
421,34,231380,6,0,P|349:51|326:102,1,110,4|0,3:1|0:0,0:0:0:0:
375,286,231909,54,0,L|392:164,1,110,2|0,0:0|0:0,0:0:0:0:
400,108,232262,1,0,0:0:0:0:
306,258,232439,6,0,L|317:182,1,76.9999976501466,2|0,0:0|0:0,0:0:0:0:
327,113,232792,1,0,0:0:0:0:
237,230,232968,70,0,L|243:186,1,44,2|0,0:0|0:0,0:0:0:0:
254,118,233321,1,0,0:0:0:0:
168,202,233497,5,2,0:0:0:0:
181,123,233674,1,2,0:0:0:0:
172,175,233850,1,2,0:0:0:0:
175,148,234027,1,2,0:0:0:0:
44,312,234203,70,0,P|100:270|170:275,1,142.99999345398,6|0,0:0|0:0,0:0:0:0:
219,329,234556,1,0,0:0:0:0:
144,137,234733,6,0,P|197:144|232:185,1,110,2|0,0:0|0:0,0:0:0:0:
239,259,235086,1,0,0:0:0:0:
422,341,235262,69,2,0:0:0:0:
349,330,235439,1,0,0:0:0:0:
311,269,235615,1,0,0:0:0:0:
467,217,235792,5,2,0:0:0:0:
473,289,235968,1,0,0:0:0:0:
422,341,236145,1,0,0:0:0:0:
336,200,236321,69,2,0:0:0:0:
405,177,236497,1,2,0:0:0:0:
358,191,236674,1,2,0:0:0:0:
382,184,236850,1,2,0:0:0:0:
102,28,237027,6,0,L|261:48,1,142.99999345398,6|0,0:0|0:0,0:0:0:0:
321,55,237380,1,0,0:0:0:0:
110,100,237556,70,0,L|219:113,1,110,2|0,0:0|0:0,0:0:0:0:
297,123,237909,1,0,0:0:0:0:
118,172,238086,6,0,L|195:181,1,76.9999976501466,2|0,0:0|0:0,0:0:0:0:
273,191,238439,1,0,0:0:0:0:
126,244,238615,70,0,L|170:249,1,44,2|0,0:0|0:0,0:0:0:0:
249,259,238968,1,0,0:0:0:0:
133,316,239145,5,2,0:0:0:0:
225,327,239321,1,2,0:0:0:0:
163,319,239497,1,2,0:0:0:0:
194,322,239673,1,2,0:0:0:0:
360,92,239850,70,2,P|312:131|211:108,1,142.99999345398,6|2,0:0|0:0,0:0:0:0:
176,169,240203,1,0,0:0:0:0:
135,9,240380,1,0,0:0:0:0:
87,264,240556,5,4,0:0:0:0:
120,78,240733,2,0,L|101:187,2,110
164,261,241262,69,4,0:0:0:0:
191,108,241439,2,0,L|178:184,2,76.9999976501466
241,258,241968,5,4,0:0:0:0:
262,137,242145,2,0,L|255:181,2,44
491,142,242674,69,6,0:0:0:0:
400,221,242850,1,0,0:0:0:0:
377,102,243027,1,0,0:0:0:0:
480,150,243203,5,2,0:0:0:0:
355,224,243379,1,0,0:0:0:0:
353,79,243556,1,0,0:0:0:0:
464,156,243733,69,2,0:0:0:0:
302,218,243909,1,0,0:0:0:0:
329,45,244086,1,0,0:0:0:0:
444,160,244262,5,2,0:0:0:0:
239,198,244438,1,0,0:0:0:0:
307,0,244615,1,0,0:0:0:0:
384,208,244792,69,2,0:0:0:0:
370,142,244968,1,2,0:0:0:0:
393,211,245145,5,2,0:0:0:0:
377,136,245321,1,2,0:0:0:0:
206,146,245497,69,6,0:0:0:0:
98,103,245674,1,0,0:0:0:0:
55,210,245850,1,0,0:0:0:0:
208,136,246027,5,2,0:0:0:0:
71,107,246204,1,0,0:0:0:0:
42,242,246380,1,0,0:0:0:0:
206,121,246556,69,2,0:0:0:0:
38,115,246733,1,0,0:0:0:0:
32,281,246909,1,0,0:0:0:0:
200,103,247086,5,2,0:0:0:0:
0,131,247263,1,0,0:0:0:0:
27,329,247439,1,0,0:0:0:0:
116,179,247615,69,2,0:0:0:0:
106,245,247791,1,2,0:0:0:0:
108,173,247968,5,2,0:0:0:0:
97,249,248144,1,2,0:0:0:0:
269,137,248321,69,4,0:0:0:0:
160,301,248497,2,0,B|197:316|200:366|200:366|217:319|258:314,1,165.000006294251,0|0,0:0|0:0,0:0:0:0:
219,247,248850,5,6,0:0:0:0:
220,78,249027,2,0,B|250:65|253:24|253:24|266:63|298:66,1,131.99999597168,0|0,0:0|0:0,0:0:0:0:
346,200,249380,69,6,0:0:0:0:
308,261,249556,2,0,B|330:270|332:300|332:300|342:271|366:269,1,98.9999969787599,0|0,0:0|0:0,0:0:0:0:
445,175,249909,5,6,0:0:0:0:
418,112,250085,2,0,B|433:105|434:85|434:85|441:104|456:106,1,65.9999979858399,0|0,0:0|0:0,0:0:0:0:
340,351,250439,69,2,0:0:0:0:
403,323,250615,1,2,0:0:0:0:
431,287,250792,1,2,0:0:0:0:
433,257,250968,1,2,0:0:0:0:
426,243,251145,5,0,0:0:0:0:
396,208,251321,1,0,0:0:0:0:
369,145,251497,1,0,0:0:0:0:
390,72,251674,1,0,0:0:0:0:
458,25,251850,1,0,3:0:0:0:
512,181,252027,1,0,3:0:0:0:
357,344,252203,1,0,3:0:0:0:
92,182,252380,1,0,3:0:0:0:
396,208,252556,70,0,B|418:196|418:196|394:184|370:201|374:226,1,88,0|0,3:0|3:0,1:0:0:0:
315,272,252821,2,0,B|280:264|254:288|254:288|227:311|193:304,3,131.99999597168,0|0|0|0,3:0|3:0|3:0|3:0,1:0:0:0:
99,329,253968,53,4,3:2:0:0:
108,335,254056,2,0,P|123:357|120:391,12,55,0|0|0|0|0|0|0|0|0|0|0|0|0,1:0|1:0|1:0|1:0|1:0|1:0|1:0|1:0|1:0|1:0|1:0|1:0|1:0,1:0:0:0:
50,384,254674,6,0,B|105:252|338:178|516:272|516:272|313:420|60:309|-14:111|-14:111|94:108|207:165|268:264|268:264|280:114|367:40|480:43|480:43|444:141|301:182|172:123,1,2200,8|8,1:2|1:2,1:0:0:0:
13,282,256439,6,0,P|40:251|79:241,1,82.5000031471254,2|0,0:0|0:0,0:0:0:0:
78,63,256615,2,0,P|137:77|175:124,1,123.750004720688,2|0,3:2|0:0,0:0:0:0:
179,137,256792,6,0,L|185:159,6,13.75,4|0|0|0|0|0|0,3:0|0:0|0:0|0:0|0:0|0:0|0:0,0:0:0:0:
144,223,257145,70,0,B|140:198|120:185|120:185|158:175|201:182|230:213,1,165.000006294251,2|0,3:2|0:0,0:0:0:0:
252,284,257409,1,0,3:0:0:0:
229,212,257497,6,0,P|177:266|273:355,1,220,8|0,1:2|0:0,0:0:0:0:
415,318,257762,2,0,P|444:308|462:287,2,55,2|0|0,0:2|0:0|0:0,0:0:0:0:
264,291,257939,69,0,3:0:0:0:
252,284,258027,2,0,P|318:266|369:313,1,110,4|0,3:0|0:0,0:0:0:0:
351,284,258380,6,0,P|315:243|318:190,1,110,2|0,3:2|0:0,0:0:0:0:
406,0,258556,2,0,B|381:32|375:69|386:108|386:108|404:111|404:111|416:150|410:187|385:220,1,247.500009441376,4|0,3:0|0:0,0:0:0:0:
491,169,258909,6,0,L|411:180,1,55,10|0,1:2|0:0,0:0:0:0:
318,190,259086,2,0,L|238:201,1,55,2|0,0:0|0:0,0:0:0:0:
66,232,259262,6,0,L|209:248,1,123.750004720688,2|0,0:1|0:0,0:0:0:0:
192,253,259439,2,0,L|49:237,1,123.750004720688,2|0,0:1|0:0,0:0:0:0:
44,164,259615,5,4,3:2:0:0:
41,150,259703,2,0,L|27:80,12,55,0|0|0|0|0|0|0|0|0|0|0|0|0,1:0|1:0|1:0|1:0|1:0|1:0|1:0|1:0|1:0|1:0|1:0|1:0|1:0,1:0:0:0:
3,214,260321,6,0,B|27:151|16:64|-4:11|-4:11|84:93|130:239|138:371|138:371|174:275|176:128|142:33|142:33|193:74|250:196|254:302|254:302|284:239|284:151|262:76|262:76|298:101|328:150|336:223|336:223|356:184|362:139|345:94|345:94|370:110|386:142|393:182|393:182|402:159|406:134|395:101|395:101|405:115|417:133|421:161|421:161|433:138|428:108|428:108|442:121|448:138|448:138|457:127|454:114|454:114|465:124|465:124|468:114|468:114|479:116|479:116|484:113|484:113|500:110,1,2200,8|8,1:2|1:2,1:0:0:0:
486,355,262086,5,0,0:0:0:0:
417,296,262174,1,0,0:0:0:0:
396,236,262262,1,0,0:0:0:0:
404,192,262350,1,0,0:0:0:0:
424,167,262439,2,0,L|448:162,14,13.75,4|0|0|0|0|0|0|0|0|0|0|0|0|0|0,3:0|0:0|0:0|0:0|0:0|0:0|0:0|0:0|0:0|0:0|0:0|0:0|0:0|0:0|0:0,0:0:0:0:
371,123,263145,6,0,B|386:100|413:98|413:98|380:101|344:81|331:53|331:53|293:56|252:99|249:164|277:196,1,330,12|0,1:2|0:0,0:0:0:0:
330,293,263497,70,0,L|339:217,1,55,2|0,0:1|0:0,0:0:0:0:
159,226,263674,6,0,P|189:252|234:251,1,82.5000031471254,4|0,3:0|0:0,0:0:0:0:
347,367,263850,2,0,P|380:351|400:273,1,110,8|0,3:2|0:0,0:0:0:0:
288,114,264027,70,0,L|277:195,1,82.5000031471254,2|0,0:0|0:0,0:0:0:0:
260,318,264204,5,0,0:0:0:0:
257,339,264292,1,0,0:0:0:0:
212,350,264380,5,2,0:0:0:0:
167,361,264468,1,2,0:0:0:0:
3,345,264556,5,10,1:2:0:0:
91,376,264645,1,0,0:0:0:0:
151,349,264733,1,0,0:0:0:0:
168,306,264821,1,0,0:0:0:0:
156,277,264909,1,0,0:0:0:0:
136,269,264997,1,0,0:0:0:0:
123,275,265086,1,0,0:0:0:0:
120,285,265174,1,0,0:0:0:0:
123,291,265262,54,0,B|174:277|206:321|206:321|238:364|291:352,1,192.5,12|0,3:3|0:0,0:0:0:0:
362,387,265968,54,0,B|354:297|437:215|503:179|503:179|308:305|24:179|-1:9|-1:9|184:161|389:152|496:29|496:29|297:-26|84:62|-12:262|-12:262|129:294|276:209|303:90|303:90|260:109|237:177|268:278,1,2640.00010070801,8|8,1:2|1:2,1:0:0:0:
211,315,267468,1,0,0:0:0:0:
145,314,267556,1,0,0:0:0:0:
105,290,267645,1,0,0:0:0:0:
89,261,267733,6,0,P|92:246|101:237,1,20.6250007867813,2|0,0:3|0:0,0:0:0:0:
89,237,267821,2,0,P|99:225|111:222,1,27.5,2|0,0:3|0:0,0:0:0:0:
95,218,267909,2,0,P|112:208|132:209,1,41.2500015735627,2|0,0:3|0:0,0:0:0:0:
103,206,267997,2,0,P|128:194|155:209,1,55,2|0,0:3|0:0,0:0:0:0:
219,210,268086,6,0,L|223:232,6,13.75,4|0|0|0|0|0|0,3:0|0:0|0:0|0:0|0:0|0:0|0:0,0:0:0:0:
269,279,268439,70,0,P|259:188|286:102,1,165.000006294251,6|0,3:2|0:0,0:0:0:0:
429,119,268703,1,0,3:0:0:0:
211,86,268792,6,0,P|248:48|312:51,1,110,8|0,1:2|0:0,0:0:0:0:
429,119,268968,2,0,B|460:115|492:65|427:-11|344:68|357:135,1,220,4|0,3:0|0:0,0:0:0:0:
398,213,269233,69,0,3:0:0:0:
401,187,269321,2,0,P|427:243|392:312,1,110,4|0,3:0|0:0,0:0:0:0:
153,306,269497,6,0,L|16:293,1,110,2|0,0:0|0:0,0:0:0:0:
317,321,269674,2,0,L|201:310,1,82.5000031471254,2|0,3:2|0:0,0:0:0:0:
153,306,269850,70,0,B|210:324|249:274|249:274|286:226|347:242,1,220,4|0,3:0|0:0,0:0:0:0:
415,287,270115,1,0,0:0:0:0:
509,187,270203,22,0,P|501:136|462:108,1,82.5000031471254,10|0,1:2|0:0,0:0:0:0:
360,168,270380,2,0,P|373:130|408:108,1,82.5000031471254,2|0,0:0|0:0,0:0:0:0:
316,78,270556,6,0,P|255:70|202:103,1,123.750004720688,2|0,0:1|0:0,0:0:0:0:
177,179,270733,2,0,P|201:233|255:262,1,123.750004720688,2|0,0:1|0:0,0:0:0:0:
327,239,270909,5,4,3:2:0:0:
348,242,270997,2,0,L|402:251,12,55,0|0|0|0|0|0|0|0|0|0|0|0|0,1:0|1:0|1:0|1:0|1:0|1:0|1:0|1:0|1:0|1:0|1:0|1:0|1:0,1:0:0:0:
498,157,271615,6,0,B|523:242|501:315|465:371|465:371|454:235|375:89|315:53|315:53|365:163|362:305|332:355|332:355|333:248|272:155|215:122|215:122|258:193|261:289|226:337|226:337|209:265|178:190|143:183|143:183|166:235|168:283|150:327|150:327|143:272|119:235|101:230|101:230|113:259|116:296|106:324|106:324|101:278|75:259|75:259|87:287|75:317|75:317|67:294|51:279|51:279|55:293|48:307|48:307|34:290|34:290|24:303|24:303|14:300|14:300|-3:307,1,2200,8|8,1:2|1:2,1:0:0:0:
40,41,273380,5,2,0:0:0:0:
106,37,273468,1,2,0:0:0:0:
166,65,273556,1,2,0:0:0:0:
209,117,273644,1,2,0:0:0:0:
224,182,273733,2,0,P|237:220|276:242,14,82.5000031471254,4|0|0|0|0|0|0|0|0|0|0|0|0|0|0,3:0|0:0|0:0|0:0|0:0|0:0|0:0|0:0|0:0|0:0|0:0|0:0|0:0|0:0|0:0,0:0:0:0:
297,172,274439,6,0,B|369:139|369:139|252:159|252:159|248:153|248:153|249:160|249:160|130:181,1,330,8|0,1:2|0:0,0:0:0:0:
11,256,274792,70,0,P|0:281|3:308,1,55,2|0,0:1|0:0,0:0:0:0:
123,351,274968,2,0,P|83:317|73:265,1,82.5000031471254,0|0,3:0|0:0,0:0:0:0:
133,181,275145,1,0,0:0:0:0:
11,256,275321,6,0,L|107:241,1,82.5000031471254,0|0,3:0|0:0,0:0:0:0:
84,131,275497,2,0,L|252:157,1,165,4|0,3:0|0:0,0:0:0:0:
316,166,275674,69,2,0:0:0:0:
322,186,275762,1,2,0:0:0:0:
349,270,275850,2,0,L|343:253,8,13.75,10|0|0|0|0|0|0|0|0,1:2|0:0|0:0|0:0|0:0|0:0|0:0|0:0|0:0,0:0:0:0:
146,333,276556,21,4,3:0:0:0:
200,278,276645,2,0,P|213:292|220:341,10,55,0|0|0|0|0|0|0|0|0|0|0,1:0|1:0|1:0|1:0|1:0|1:0|1:0|1:0|1:0|1:0|1:0,1:0:0:0:
512,188,277262,5,8,1:2:0:0:
382,153,277350,2,0,P|420:130|468:135,10,88,0|0|0|0|0|0|0|0|0|0|0,1:0|1:0|1:0|1:0|1:0|1:0|1:0|1:0|1:0|1:0|1:0,1:0:0:0:
84,99,277968,69,4,3:0:0:0:
99,167,278056,2,0,L|112:227,10,55,0|0|0|0|0|0|0|0|0|0|0,1:0|1:0|1:0|1:0|1:0|1:0|1:0|1:0|1:0|1:0|1:0,1:0:0:0:
420,360,278674,5,8,1:2:0:0:
436,200,278762,2,0,L|428:287,10,88,0|0|0|0|0|0|0|0|0|0|0,1:0|1:0|1:0|1:0|1:0|1:0|1:0|1:0|1:0|1:0|1:0,1:0:0:0:
173,180,279380,69,4,3:0:0:0:
159,277,279468,2,0,B|182:284|190:318|190:318|188:283|209:271,10,110,0|0|0|0|0|0|0|0|0|0|0,1:0|1:0|1:0|1:0|1:0|1:0|1:0|1:0|1:0|1:0|1:0,1:0:0:0:
500,158,280086,5,8,1:2:0:0:
472,70,280174,2,0,B|383:46|328:121|328:121|272:197|182:175,1,330,0|0,0:0|0:0,1:0:0:0:
151,70,280792,69,4,3:0:0:0:
173,180,280880,2,0,P|107:26|96:221,1,495.000018882752,0|0,0:0|0:0,1:0:0:0:
211,238,281497,69,8,1:2:0:0:
76,213,281586,2,0,B|176:150|302:215|311:347|311:347|300:332|271:325|271:325|337:333,1,440
406,338,282027,2,0,L|436:342,6,18.3333333333333,0|0|0|0|0|0|0,3:0|3:0|3:0|3:0|3:0|3:0|3:0,3:0:0:0:
86,133,282909,21,4,1:2:0:0:
248,101,282997,2,0,L|142:122,10,88,0|0|0|0|0|0|0|0|0|0|0,1:0|1:0|1:0|1:0|1:0|1:0|1:0|1:0|1:0|1:0|1:0,1:0:0:0:
421,360,283615,69,4,3:0:0:0:
402,293,283703,2,0,P|376:302|361:324,10,55,0|0|0|0|0|0|0|0|0|0|0,1:0|1:0|1:0|1:0|1:0|1:0|1:0|1:0|1:0|1:0|1:0,1:0:0:0:
103,359,284321,5,8,1:2:0:0:
139,226,284409,2,0,P|157:258|143:330,10,88,0|0|0|0|0|0|0|0|0|0|0,1:0|1:0|1:0|1:0|1:0|1:0|1:0|1:0|1:0|1:0|1:0,1:0:0:0:
434,121,285027,69,4,3:0:0:0:
343,84,285115,2,0,B|313:69|293:93|293:93|300:122|335:121,10,110,0|0|0|0|0|0|0|0|0|0|0,1:0|1:0|1:0|1:0|1:0|1:0|1:0|1:0|1:0|1:0|1:0,1:0:0:0:
139,226,285733,5,8,1:2:0:0:
110,383,285821,2,0,P|122:275|73:179,1,220,0|0,0:0|0:0,0:0:0:0:
25,124,286086,2,0,P|16:98|20:71,6,55,2|0|0|0|0|0|0,0:0|0:0|0:0|0:0|0:0|0:0|0:0,0:0:0:0:
92,93,286439,38,0,L|207:76,5,110,2|0|0|0|0|0,0:0|0:0|0:0|0:0|0:0|0:0,0:0:0:0:
255,16,286968,5,2,0:0:0:0:
276,19,287056,1,0,0:0:0:0:
297,26,287144,1,0,0:0:0:0:
315,38,287232,1,0,0:0:0:0:
331,54,287320,1,0,0:0:0:0:
342,72,287409,1,0,0:0:0:0:
411,40,287497,70,0,L|488:28,3,55,2|0|0|0,0:0|0:0|0:0|0:0,0:0:0:0:
374,173,287850,37,8,1:2:0:0:
324,122,287939,2,0,P|327:95|343:72,8,55,0|0|0|0|0|0|0|0|0,1:0|1:0|1:0|1:0|1:0|1:0|1:0|1:0|1:0,1:0:0:0:
374,173,288380,2,0,P|387:212|353:289,1,110,0|0,3:0|0:0,0:0:0:0:
354,345,288556,69,4,1:2:0:0:
284,346,288645,2,0,P|267:324|263:297,10,55,0|0|0|0|0|0|0|0|0|0|0,1:0|1:0|1:0|1:0|1:0|1:0|1:0|1:0|1:0|1:0|1:0,1:0:0:0:
27,148,289262,5,8,1:2:0:0:
187,99,289350,2,0,P|155:75|86:88,10,88,0|0|0|0|0|0|0|0|0|0|0,1:0|1:0|1:0|1:0|1:0|1:0|1:0|1:0|1:0|1:0|1:0,1:0:0:0:
109,245,289968,69,4,1:2:0:0:
92,179,290056,2,0,P|106:155|130:142,10,55,0|0|0|0|0|0|0|0|0|0|0,1:0|1:0|1:0|1:0|1:0|1:0|1:0|1:0|1:0|1:0|1:0,1:0:0:0:
373,215,290674,5,4,3:0:0:0:
402,275,290762,2,0,L|461:292,8,41.2500015735627,0|0|0|0|0|0|0|0|0,1:0|1:0|1:0|1:0|1:0|1:0|1:0|1:0|1:0,1:0:0:0:
313,158,291203,69,4,3:0:0:0:
284,218,291292,2,0,L|225:235,8,41.2500015735627,0|0|0|0|0|0|0|0|0,1:0|1:0|1:0|1:0|1:0|1:0|1:0|1:0|1:0,1:0:0:0:
224,160,291733,6,0,L|207:343,1,165,8|0,1:2|0:0,1:0:0:0:
350,343,292086,69,12,1:2:0:0:
215,333,292174,2,0,B|304:357|359:282|359:282|415:206|505:228,1,330,0|0,0:0|0:0,1:0:0:0:
404,216,292792,53,0,0:0:0:0:
348,174,292880,1,0,0:0:0:0:
330,130,292968,1,0,0:0:0:0:
335,97,293056,1,0,0:0:0:0:
350,79,293145,1,0,0:0:0:0:
366,74,293233,1,0,0:0:0:0:
378,76,293321,1,0,0:0:0:0:
385,82,293409,1,0,0:0:0:0:
387,87,293497,6,0,P|377:60|383:21,1,65.9999979858399,2|0,0:3|0:0,0:0:0:0:
382,24,293850,2,0,P|404:77|382:148,1,110,2|0,0:1|0:0,0:0:0:0:
260,268,294027,5,4,3:0:0:0:
192,281,294115,2,0,L|127:293,14,55,0|0|0|0|0|0|0|0|0|0|0|0|0|0|0,1:0|1:0|1:0|1:0|1:0|1:0|1:0|1:0|1:0|1:0|1:0|1:0|1:0|1:0|1:0,1:0:0:0:
464,45,294909,5,8,1:2:0:0:
485,210,294997,2,0,L|472:102,10,88,0|0|0|0|0|0|0|0|0|0|0,1:0|1:0|1:0|1:0|1:0|1:0|1:0|1:0|1:0|1:0|1:0,1:0:0:0:
138,91,295615,69,4,1:2:0:0:
71,72,295703,2,0,P|80:46|101:29,10,55,0|0|0|0|0|0|0|0|0|0|0,1:0|1:0|1:0|1:0|1:0|1:0|1:0|1:0|1:0|1:0|1:0,1:0:0:0:
299,340,296321,5,4,3:0:0:0:
392,304,296409,2,0,B|445:316|445:316|399:344,10,110,0|0|0|0|0|0|0|0|0|0|0,1:0|1:0|1:0|1:0|1:0|1:0|1:0|1:0|1:0|1:0|1:0,1:0:0:0:
89,219,297027,70,0,L|80:178,6,41.2500015735627,2|0|0|0|0|0|0,1:2|1:0|1:0|1:0|1:0|1:0|1:0,1:0:0:0:
115,330,297380,2,0,L|107:290,6,41.2500015735627,2|0|0|0|0|0|0,1:2|1:0|1:0|1:0|1:0|1:0|1:0,1:0:0:0:
39,112,297733,5,8,1:2:0:0:
221,151,297821,2,0,L|121:132,4,88,0|0|0|0|0,1:0|1:0|1:0|1:0|1:0,1:0:0:0:
250,244,298086,5,0,0:0:0:0:
328,289,298174,1,0,0:0:0:0:
398,266,298262,1,0,0:0:0:0:
418,200,298350,1,0,0:0:0:0:
403,162,298439,1,0,0:0:0:0:
406,133,298527,1,0,0:0:0:0:
412,121,298615,1,0,0:0:0:0:
419,117,298703,1,0,0:0:0:0:
486,120,298792,5,0,3:0:0:0:
492,123,298880,1,0,3:0:0:0:
489,130,298968,1,0,3:0:0:0:
482,126,299056,1,0,3:0:0:0:
466,29,299145,6,0,L|473:63,16,27.5
75,223,300203,6,0,P|122:240|188:333,1,165,2|2,0:3|0:3,0:0:0:0:
456,197,301968,2,0,B|407:171|346:191|322:259|359:304|422:307|425:241,1,230.99999295044,4|0,0:0|0:0,0:0:0:0:
193,237,303027,70,2,L|198:192,1,38.4999988250733
205,126,303203,2,0,L|210:81,1,38.4999988250733,2|0,0:0|0:0,0:0:0:0:
158,39,303380,6,0,B|136:88|84:101|84:101|28:92|-1:140,1,197.99999395752,4|0,0:0|0:0,0:0:0:0:
237,186,303909,2,0,B|205:142|220:90|220:90|256:46|229:-3,1,197.99999395752,4|0,0:0|0:0,0:0:0:0:
70,180,304439,2,0,B|123:174|160:213|160:213|180:266|237:267,1,197.99999395752,4|2,0:0|0:0,0:0:0:0:
428,109,305145,69,2,0:0:0:0:
237,186,305497,1,2,0:0:0:0:
428,109,305850,6,0,L|430:89,1,16.49999949646,2|0,0:3|0:0,0:0:0:0:
237,186,306380,2,0,L|239:166,1,16.49999949646,2|0,0:3|0:0,0:0:0:0:
147,265,307615,70,0,B|168:181|71:159|5:206|35:331|100:357,3,307.999990600586,4|4|4|4,0:0|0:0|0:0|0:0,0:0:0:0:
463,348,310439,5,2,0:0:0:0:
301,256,310968,1,2,0:0:0:0:
463,348,311497,70,0,L|435:352,1,16.49999949646,2|0,0:3|0:0,0:0:0:0:
301,256,312027,2,0,L|273:260,1,16.49999949646,2|0,0:3|0:0,0:0:0:0:
17,50,313262,6,0,B|161:64|161:64|209:69|224:114,1,230.99999295044,4|0,0:0|0:0,0:0:0:0:
364,362,314321,70,0,P|383:361|399:351,1,38.4999988250733,2|0,0:0|0:0,0:0:0:0:
470,347,314497,2,0,P|477:330|477:311,1,38.4999988250733,2|0,0:0|0:0,0:0:0:0:
398,142,314674,6,0,P|430:210|410:282,1,153.999995300293,4|0,0:0|0:0,0:0:0:0:
332,176,315203,2,0,P|323:137|337:101,1,76.9999976501466,4|0,0:0|0:0,0:0:0:0:
186,22,316086,69,2,0:0:0:0:
102,298,316615,1,2,0:0:0:0:
186,22,317145,6,0,L|192:53,1,16.49999949646,2|0,0:3|0:0,0:0:0:0:
102,298,317674,2,0,L|108:329,1,16.49999949646,2|0,0:3|0:0,0:0:0:0:
108,324,317850,70,0,B|169:314|169:314|186:290|186:290|247:280,1,153.999995300293,2|0,0:0|0:0,0:0:0:0:
479,128,318909,5,4,0:0:0:0:
381,92,319659,69,2,0:0:0:0:
309,103,320059,1,2,0:0:0:0:
268,135,320459,5,4,0:0:0:0:
254,167,321101,1,4,0:0:0:0:
256,192,321777,1,4,0:0:0:0:
256,192,321959,12,0,324691,0:0:0:0:
256,384,327606,5,0,0:2:0:0:
