osu file format v14

[General]
AudioFilename: Impulse.mp3
AudioLeadIn: 0
PreviewTime: 50693
Countdown: 0
SampleSet: Normal
StackLeniency: 0.7
Mode: 3
LetterboxInBreaks: 0
SpecialStyle: 0
WidescreenStoryboard: 0

[Editor]
Bookmarks: 5517,50693,118458,163634,208810,253986,299164,327611
DistanceSpacing: 1.3
BeatDivisor: 4
GridSize: 16
TimelineZoom: 2.000005

[Metadata]
Title:Impulse
TitleUnicode:Impulse
Artist:Culprate & Au5
ArtistUnicode:Culprate & Au5
Creator:Pope Gadget
Version:The Reaction
Source:osu!
Tags:unity project pt 2 2017 instrumental drumstep electronic hybrid fa featured artist mamachacha phasex
BeatmapID:2794432
BeatmapSetID:1349658

[Difficulty]
HPDrainRate:8
CircleSize:4
OverallDifficulty:8
ApproachRate:5
SliderMultiplier:1.4
SliderTickRate:1

[Events]
//Background and Video events
0,0,"bg.jpg",0,0
//Break Periods
2,5717,9964
2,11364,15611
2,17364,21258
2,322010,326411
//Storyboard Layer 0 (Background)
//Storyboard Layer 1 (Fail)
//Storyboard Layer 2 (Pass)
//Storyboard Layer 3 (Foreground)
//Storyboard Layer 4 (Overlay)
//Storyboard Sound Samples

[TimingPoints]
-705,888.888888888889,7,1,1,15,1,8
-50,-10000,7,1,1,15,0,0
2486,-5000.00000000002,7,1,1,15,0,0
2734,-3333.33333333334,7,1,1,15,0,0
2956,-2500,7,1,1,15,0,0
3155,-2000,7,1,1,15,0,0
3334,-1666.66666666667,7,1,1,15,0,0
3495,-1428.57142857143,7,1,1,15,0,0
3640,-1250,7,1,1,15,0,0
3772,-1111.11111111111,7,1,1,15,0,0
3891,-1000,7,1,1,15,0,0
4000,-909.09090909091,7,1,1,15,0,0
4099,-833.33333333333,7,1,1,15,0,0
4190,-769.23076923077,7,1,1,15,0,0
4273,-714.28571428571,7,1,1,15,0,0
4350,-666.66666666667,7,1,1,15,0,0
4420,-625,7,1,1,15,0,0
4485,-588.23529411765,7,1,1,15,0,0
4545,-555.55555555556,7,1,1,15,0,0
4601,-526.31578947368,7,1,1,15,0,0
4652,-500,7,1,1,15,0,0
4700,-476.19047619048,7,1,1,15,0,0
4745,-454.54545454545,7,1,1,15,0,0
4787,-434.78260869565,7,1,1,15,0,0
4825,-416.66666666667,7,1,1,15,0,0
4862,-400,7,1,1,15,0,0
4896,-384.61538461538,7,1,1,15,0,0
4928,-370.37037037037,7,1,1,15,0,0
4958,-357.14285714286,7,1,1,15,0,0
4987,-344.8275862069,7,1,1,15,0,0
5014,-333.33333333333,7,1,1,15,0,0
5039,-322.58064516129,7,1,1,15,0,0
5063,-312.5,7,1,1,15,0,0
5086,-303.0303030303,7,1,1,15,0,0
5107,-294.11764705882,7,1,1,15,0,0
5128,-285.71428571429,7,1,1,15,0,0
5148,-277.77777777778,7,1,1,15,0,0
5166,-270.27027027027,7,1,1,15,0,0
5184,-263.15789473684,7,1,1,15,0,0
5201,-256.41025641026,7,1,1,15,0,0
5217,-250,7,1,1,15,0,0
5233,-243.90243902439,7,1,1,15,0,0
5248,-238.09523809524,7,1,1,15,0,0
5262,-232.55813953488,7,1,1,15,0,0
5276,-227.27272727273,7,1,1,15,0,0
5289,-222.22222222222,7,1,1,15,0,0
5301,-217.39130434783,7,1,1,15,0,0
5314,-212.76595744681,7,1,1,15,0,0
5326,-208.33333333333,7,1,1,15,0,0
5337,-204.08163265306,7,1,1,15,0,0
5348,-200,7,1,1,15,0,0
5359,-196.07843137255,7,1,1,15,0,0
5369,-192.30769230769,7,1,1,15,0,0
5379,-188.67924528302,7,1,1,15,0,0
5389,-185.18518518519,7,1,1,15,0,0
5398,-181.81818181818,7,1,1,15,0,0
5408,-178.57142857143,7,1,1,15,0,0
5417,-175.43859649123,7,1,1,15,0,0
5425,-172.41379310345,7,1,1,15,0,0
5434,-169.49152542373,7,1,1,15,0,0
5442,-166.66666666667,7,1,1,15,0,0
5450,-163.93442622951,7,1,1,15,0,0
5458,-161.29032258065,7,1,1,15,0,0
5466,-158.73015873016,7,1,1,15,0,0
5474,-156.25,7,1,1,15,0,0
5481,-153.84615384615,7,1,1,15,0,0
5489,-151.51515151515,7,1,1,15,0,0
5496,-149.25373134328,7,1,1,15,0,0
5503,-147.05882352941,7,1,1,15,0,0
5510,-144.92753623188,7,1,1,15,0,0
5517,705.882353,4,1,1,15,1,0
5517,-142.857142857143,4,1,1,15,0,0
28105,-125,4,1,1,15,0,0
30928,-111.111111111111,4,1,1,15,0,0
33752,-100,4,1,1,15,0,0
36575,-90.9090909090909,4,1,1,20,0,0
39399,-83.3333333333333,4,1,1,20,0,0
42222,-76.9230769230769,4,1,1,20,0,0
45046,-71.4285714285714,4,1,1,25,0,0
47869,-66.6666666666667,4,1,1,25,0,0
48575,-62.5,4,1,1,25,0,0
49281,-58.8235294117647,4,1,1,25,0,0
49987,-55.5555555555556,4,1,1,25,0,0
50340,-52.6315789473684,4,1,1,25,0,0
50693,352.941176,4,1,1,40,1,0
118458,705.882353,4,1,1,10,1,0
118458,-57.1428571428571,4,1,1,10,0,0
140369,-50,4,1,1,10,0,0
141046,-50,4,1,1,15,0,0
162928,-50,4,1,1,25,0,0
163634,352.941176470588,4,1,1,60,1,0
208810,352.941176470588,8,1,1,15,1,0
231398,-100,8,1,1,20,0,0
237045,-100,8,1,1,25,0,0
242692,-100,8,1,1,30,0,0
245515,-100,8,1,1,35,0,0
248339,-100,8,1,1,40,0,0
249751,-100,8,1,1,45,0,0
251162,-100,8,1,1,50,0,0
251868,-100,8,1,1,55,0,0
252574,-100,8,1,1,60,0,0
253986,352.941176470588,4,1,1,65,1,0
265280,-100,4,1,1,15,0,0
265986,-100,4,1,1,65,0,0
299164,355.029585798817,4,1,1,65,1,0
299164,-99.009900990099,4,1,1,65,0,0
299874,705.882353,4,1,1,65,1,8
299874,-50,4,1,1,65,0,0
300226,-52.6315789473684,4,1,1,15,0,0
300579,-55.5555555555556,4,1,1,15,0,0
301285,-58.8235294117647,4,1,1,15,0,0
301991,705.882353,4,1,1,15,1,0
301991,-62.5,4,1,1,15,0,0
303402,-66.6666666666667,4,1,1,15,0,0
304814,-71.4285714285714,4,1,1,15,0,0
307638,-76.9230769230769,4,1,1,15,0,0
310461,-83.3333333333333,4,1,1,15,0,0
313285,-90.9090909090909,4,1,1,15,0,0
316109,706.921944,4,1,1,15,1,0
316109,-99.8529411764779,4,1,1,15,0,0
318937,750,4,1,1,15,1,0
318937,-104.575163398693,4,1,1,15,0,0
319687,800,4,1,1,15,1,0
319687,-98.0392156862745,4,1,1,15,0,0
320487,857.142857,4,1,1,15,1,0
320487,-102.941176471497,4,1,1,15,0,0
321344,933.85214,4,1,1,15,1,0
321344,-94.4852941180813,4,1,1,15,0,0
322278,888.888889,1,1,1,15,1,0
322278,-99.2647058820975,1,1,1,15,0,0
322476,-100,1,1,1,15,0,0
322653,-101.0101010101,1,1,1,15,0,0
322823,-102.04081632653,1,1,1,15,0,0
322986,-103.09278350515,1,1,1,15,0,0
323143,-104.16666666667,1,1,1,15,0,0
323294,-105.26315789474,1,1,1,15,0,0
323439,-106.3829787234,1,1,1,15,0,0
323578,-107.52688172043,1,1,1,15,0,0
323713,-108.69565217391,1,1,1,15,0,0
323842,-109.89010989011,1,1,1,15,0,0
323967,-111.11111111111,1,1,1,15,0,0
324087,-112.3595505618,1,1,1,15,0,0
324203,-113.63636363636,1,1,1,15,0,0
324314,-114.94252873563,1,1,1,15,0,0
324422,-116.27906976744,1,1,1,15,0,0
324525,-117.64705882353,1,1,1,15,0,0
324625,-119.04761904762,1,1,1,15,0,0
324722,-120.48192771084,1,1,1,15,0,0
324815,-121.9512195122,1,1,1,15,0,0
324905,-123.45679012346,1,1,1,15,0,0
324992,-125,1,1,1,15,0,0
325076,-126.58227848101,1,1,1,15,0,0
325157,-128.20512820513,1,1,1,15,0,0
325235,-129.87012987013,1,1,1,15,0,0
325311,-131.57894736842,1,1,1,15,0,0
325384,-133.33333333333,1,1,1,15,0,0
325455,-135.13513513514,1,1,1,15,0,0
325524,-136.98630136986,1,1,1,15,0,0
325590,-138.88888888889,1,1,1,15,0,0
325654,-140.84507042254,1,1,1,15,0,0
325717,-142.85714285714,1,1,1,15,0,0
325777,-144.92753623188,1,1,1,15,0,0
325835,-147.05882352941,1,1,1,15,0,0
325892,-149.25373134328,1,1,1,15,0,0
325947,-151.51515151515,1,1,1,15,0,0
326000,-153.84615384615,1,1,1,15,0,0
326051,-156.25,1,1,1,15,0,0
326101,-158.73015873016,1,1,1,15,0,0
326150,-161.29032258065,1,1,1,15,0,0
326197,-163.93442622951,1,1,1,15,0,0
326243,-166.66666666667,1,1,1,15,0,0
326287,-169.49152542373,1,1,1,15,0,0
326330,-172.41379310345,1,1,1,15,0,0
326372,-175.43859649123,1,1,1,15,0,0
326413,-178.57142857143,1,1,1,15,0,0
326452,-181.81818181818,1,1,1,15,0,0
326491,-185.18518518519,1,1,1,15,0,0
326528,-188.67924528302,1,1,1,15,0,0
326564,-192.30769230769,1,1,1,15,0,0
326600,-196.07843137255,1,1,1,15,0,0
326634,-200,1,1,1,15,0,0
326667,-204.08163265306,1,1,1,15,0,0
326700,-208.33333333333,1,1,1,15,0,0
326731,-212.76595744681,1,1,1,15,0,0
326762,-217.39130434783,1,1,1,15,0,0
326792,-222.22222222222,1,1,1,15,0,0
326822,-227.27272727273,1,1,1,15,0,0
326850,-232.55813953488,1,1,1,15,0,0
326878,-238.09523809524,1,1,1,15,0,0
326905,-243.90243902439,1,1,1,15,0,0
326931,-250,1,1,1,15,0,0
326957,-256.41025641026,1,1,1,15,0,0
326982,-263.15789473684,1,1,1,15,0,0
327006,-270.27027027027,1,1,1,15,0,0
327030,-277.77777777778,1,1,1,15,0,0
327053,-285.71428571429,1,1,1,15,0,0
327076,-294.11764705882,1,1,1,15,0,0
327098,-303.0303030303,1,1,1,15,0,0
327120,-312.5,1,1,1,15,0,0
327141,-322.58064516129,1,1,1,15,0,0
327162,-333.33333333333,1,1,1,15,0,0
327182,-344.8275862069,1,1,1,15,0,0
327202,-357.14285714286,1,1,1,15,0,0
327221,-370.37037037037,1,1,1,15,0,0
327240,-384.61538461538,1,1,1,15,0,0
327258,-400,1,1,1,15,0,0
327276,-416.66666666667,1,1,1,15,0,0
327294,-434.78260869565,1,1,1,15,0,0
327311,-454.54545454545,1,1,1,15,0,0
327328,-476.19047619048,1,1,1,15,0,0
327344,-500,1,1,1,15,0,0
327360,-526.31578947368,1,1,1,15,0,0
327376,-555.55555555556,1,1,1,15,0,0
327391,-588.23529411765,1,1,1,15,0,0
327407,-625,1,1,1,15,0,0
327421,-666.66666666667,1,1,1,15,0,0
327436,-714.28571428571,1,1,1,15,0,0
327450,-769.23076923077,1,1,1,15,0,0
327464,-833.33333333333,1,1,1,15,0,0
327478,-909.09090909091,1,1,1,15,0,0
327491,-1000,1,1,1,15,0,0
327504,-1111.11111111111,1,1,1,15,0,0
327517,-1250,1,1,1,15,0,0
327529,-1428.57142857143,1,1,1,15,0,0
327542,-1666.66666666667,1,1,1,15,0,0
327554,-2000,1,1,1,15,0,0
327566,-2500,1,1,1,15,0,0
327577,-3333.33333333333,1,1,1,15,0,0
327589,-5000,1,1,1,15,0,0
327600,-10000,1,1,1,15,0,0

[HitObjects]
64,192,5517,5,0,0:0:0:0:
320,192,5517,1,0,0:0:0:0:
192,192,11164,5,0,0:0:0:0:
448,192,11164,1,0,0:0:0:0:
64,192,16811,5,0,0:0:0:0:
448,192,16811,1,0,0:0:0:0:
192,192,17164,1,0,0:0:0:0:
192,192,22458,5,0,0:0:0:0:
320,192,22458,1,0,0:0:0:0:
64,192,24222,1,0,0:0:0:0:
192,192,25281,1,0,0:0:0:0:
448,192,25281,1,0,0:0:0:0:
320,192,25987,1,0,0:0:0:0:
192,192,26340,1,0,0:0:0:0:
320,192,26693,1,0,0:0:0:0:
448,192,26693,1,0,0:0:0:0:
64,192,27046,1,0,0:0:0:0:
448,192,27399,1,0,0:0:0:0:
192,192,27752,1,0,0:0:0:0:
64,192,28105,128,0,28193:0:0:0:0:
320,192,28105,1,0,0:0:0:0:
192,192,28458,1,0,0:0:0:0:
448,192,28811,1,0,0:0:0:0:
64,192,29164,1,0,0:0:0:0:
192,192,29164,1,0,0:0:0:0:
192,192,30928,1,0,0:0:0:0:
320,192,30928,1,0,0:0:0:0:
192,192,31987,128,0,32075:0:0:0:0:
320,192,32164,128,0,32252:0:0:0:0:
448,192,32340,128,0,32428:0:0:0:0:
320,192,32869,128,0,32958:0:0:0:0:
192,192,33399,128,0,33487:0:0:0:0:
64,192,33752,128,0,33840:0:0:0:0:
448,192,33752,1,0,0:0:0:0:
64,192,34458,1,0,0:0:0:0:
192,192,36575,1,0,0:0:0:0:
448,192,36575,1,0,0:0:0:0:
448,192,37281,128,0,37384:0:0:0:0:
320,192,37987,128,0,38090:0:0:0:0:
192,192,38693,128,0,38796:0:0:0:0:
64,192,39399,128,0,39516:0:0:0:0:
320,192,39399,1,0,0:0:0:0:
192,192,42222,1,0,0:0:0:0:
320,192,42222,1,0,0:0:0:0:
64,192,42928,1,0,0:0:0:0:
192,192,43281,128,0,43414:0:0:0:0:
320,192,43458,128,0,43590:0:0:0:0:
448,192,43634,128,0,43767:0:0:0:0:
320,192,44164,128,0,44296:0:0:0:0:
192,192,44693,128,0,44825:0:0:0:0:
64,192,45046,128,0,45193:0:0:0:0:
448,192,45046,1,0,0:0:0:0:
192,192,46722,1,0,0:0:0:0:
320,192,47693,1,0,0:0:0:0:
448,192,48575,128,0,48737:0:0:0:0:
320,192,49281,128,0,49443:0:0:0:0:
192,192,49987,128,0,50149:0:0:0:0:
64,192,50693,128,0,50869:0:0:0:0:
320,192,50693,128,0,50957:0:0:0:0:
192,192,50869,1,0,0:0:0:0:
192,192,50957,128,0,51134:0:0:0:0:
448,192,50957,128,0,51222:0:0:0:0:
320,192,51134,1,0,0:0:0:0:
64,192,51222,128,0,51575:0:0:0:0:
192,192,51222,128,0,51398:0:0:0:0:
320,192,51928,1,0,0:0:0:0:
320,192,52016,1,0,0:0:0:0:
64,192,52104,1,0,0:0:0:0:
192,192,52104,1,0,0:0:0:0:
448,192,52192,1,0,0:0:0:0:
192,192,52281,1,0,0:0:0:0:
192,192,52369,1,0,0:0:0:0:
192,192,52457,1,0,0:0:0:0:
320,192,52457,1,0,0:0:0:0:
192,192,52810,1,0,0:0:0:0:
448,192,52898,1,0,0:0:0:0:
192,192,52987,1,0,0:0:0:0:
320,192,52987,1,0,0:0:0:0:
320,192,53075,1,0,0:0:0:0:
192,192,53251,1,0,0:0:0:0:
320,192,53251,1,0,0:0:0:0:
320,192,53340,1,0,0:0:0:0:
64,192,53428,1,0,0:0:0:0:
192,192,53428,1,0,0:0:0:0:
320,192,53516,128,0,53692:0:0:0:0:
448,192,53516,128,0,53781:0:0:0:0:
192,192,53692,1,0,0:0:0:0:
64,192,53781,128,0,54045:0:0:0:0:
320,192,53781,128,0,53957:0:0:0:0:
192,192,53869,1,0,0:0:0:0:
448,192,53869,1,0,0:0:0:0:
192,192,54045,128,0,54398:0:0:0:0:
320,192,54045,128,0,54222:0:0:0:0:
448,192,54222,1,0,0:0:0:0:
448,192,54310,1,0,0:0:0:0:
320,192,54487,1,0,0:0:0:0:
320,192,54575,1,0,0:0:0:0:
320,192,54751,1,0,0:0:0:0:
320,192,54840,1,0,0:0:0:0:
64,192,54928,1,0,0:0:0:0:
192,192,54928,1,0,0:0:0:0:
448,192,55016,1,0,0:0:0:0:
320,192,55104,1,0,0:0:0:0:
192,192,55163,1,0,0:0:0:0:
320,192,55222,1,0,0:0:0:0:
64,192,55281,1,0,0:0:0:0:
448,192,55281,1,0,0:0:0:0:
192,192,55457,1,0,0:0:0:0:
320,192,55545,1,0,0:0:0:0:
448,192,55545,1,0,0:0:0:0:
64,192,55634,128,0,55722:0:0:0:0:
192,192,55722,1,0,0:0:0:0:
64,192,55810,128,0,55898:0:0:0:0:
320,192,55898,1,0,0:0:0:0:
64,192,55987,128,0,56075:0:0:0:0:
320,192,56075,1,0,0:0:0:0:
448,192,56075,1,0,0:0:0:0:
64,192,56163,128,0,56251:0:0:0:0:
192,192,56163,1,0,0:0:0:0:
448,192,56251,1,0,0:0:0:0:
64,192,56340,128,0,56516:0:0:0:0:
320,192,56340,128,0,56604:0:0:0:0:
192,192,56516,1,0,0:0:0:0:
192,192,56604,128,0,56781:0:0:0:0:
448,192,56604,128,0,56869:0:0:0:0:
64,192,56869,128,0,57222:0:0:0:0:
192,192,56869,128,0,57045:0:0:0:0:
448,192,57045,1,0,0:0:0:0:
192,192,57134,1,0,0:0:0:0:
320,192,57222,1,0,0:0:0:0:
448,192,57222,1,0,0:0:0:0:
320,192,57310,1,0,0:0:0:0:
320,192,57398,1,0,0:0:0:0:
64,192,57487,1,0,0:0:0:0:
192,192,57487,1,0,0:0:0:0:
448,192,57575,1,0,0:0:0:0:
448,192,57663,1,0,0:0:0:0:
320,192,57663,1,0,0:0:0:0:
64,192,57751,1,0,0:0:0:0:
192,192,57751,1,0,0:0:0:0:
448,192,57840,1,0,0:0:0:0:
320,192,57840,1,0,0:0:0:0:
64,192,57928,1,0,0:0:0:0:
64,192,58016,1,0,0:0:0:0:
192,192,58104,1,0,0:0:0:0:
320,192,58104,1,0,0:0:0:0:
448,192,58104,1,0,0:0:0:0:
192,192,58457,1,0,0:0:0:0:
448,192,58545,1,0,0:0:0:0:
192,192,58634,1,0,0:0:0:0:
320,192,58634,1,0,0:0:0:0:
64,192,58722,1,0,0:0:0:0:
448,192,58810,1,0,0:0:0:0:
192,192,58898,1,0,0:0:0:0:
320,192,58898,1,0,0:0:0:0:
64,192,58987,1,0,0:0:0:0:
64,192,59075,1,0,0:0:0:0:
448,192,59075,1,0,0:0:0:0:
192,192,59163,128,0,59340:0:0:0:0:
320,192,59163,128,0,59340:0:0:0:0:
448,192,59251,1,0,0:0:0:0:
64,192,59340,1,0,0:0:0:0:
192,192,59428,128,0,59604:0:0:0:0:
320,192,59428,128,0,59604:0:0:0:0:
448,192,59516,1,0,0:0:0:0:
64,192,59604,1,0,0:0:0:0:
448,192,59604,1,0,0:0:0:0:
192,192,59692,128,0,59869:0:0:0:0:
320,192,59692,128,0,59869:0:0:0:0:
64,192,59957,128,0,60134:0:0:0:0:
320,192,59957,128,0,60134:0:0:0:0:
192,192,60134,1,0,0:0:0:0:
64,192,60222,128,0,60398:0:0:0:0:
320,192,60222,128,0,60398:0:0:0:0:
192,192,60398,1,0,0:0:0:0:
64,192,60487,128,0,60663:0:0:0:0:
448,192,60487,128,0,60663:0:0:0:0:
192,192,60575,1,0,0:0:0:0:
320,192,60751,128,0,60840:0:0:0:0:
448,192,60751,128,0,60928:0:0:0:0:
64,192,60810,1,0,0:0:0:0:
192,192,60869,1,0,0:0:0:0:
64,192,60928,1,0,0:0:0:0:
320,192,60928,1,0,0:0:0:0:
192,192,61016,128,0,61192:0:0:0:0:
448,192,61016,128,0,61192:0:0:0:0:
64,192,61104,1,0,0:0:0:0:
192,192,61281,128,0,61457:0:0:0:0:
64,192,61281,128,0,61369:0:0:0:0:
448,192,61281,128,0,61457:0:0:0:0:
64,192,61457,128,0,61545:0:0:0:0:
192,192,61545,128,0,61722:0:0:0:0:
320,192,61545,128,0,61722:0:0:0:0:
64,192,61634,1,0,0:0:0:0:
448,192,61634,128,0,61722:0:0:0:0:
64,192,61810,128,0,61987:0:0:0:0:
192,192,61810,128,0,61898:0:0:0:0:
448,192,61810,128,0,61898:0:0:0:0:
320,192,61898,1,0,0:0:0:0:
192,192,61987,128,0,62251:0:0:0:0:
448,192,61987,128,0,62163:0:0:0:0:
64,192,62163,1,0,0:0:0:0:
320,192,62251,128,0,62428:0:0:0:0:
448,192,62251,128,0,62516:0:0:0:0:
192,192,62428,1,0,0:0:0:0:
64,192,62516,128,0,62869:0:0:0:0:
320,192,62516,128,0,62692:0:0:0:0:
448,192,62604,1,0,0:0:0:0:
192,192,62692,1,0,0:0:0:0:
448,192,62781,1,0,0:0:0:0:
192,192,62869,1,0,0:0:0:0:
320,192,62957,1,0,0:0:0:0:
64,192,63045,1,0,0:0:0:0:
192,192,63045,1,0,0:0:0:0:
448,192,63134,1,0,0:0:0:0:
320,192,63222,1,0,0:0:0:0:
320,192,63310,1,0,0:0:0:0:
192,192,63398,1,0,0:0:0:0:
64,192,63575,1,0,0:0:0:0:
192,192,63575,1,0,0:0:0:0:
320,192,63663,1,0,0:0:0:0:
320,192,63751,1,0,0:0:0:0:
448,192,63751,1,0,0:0:0:0:
64,192,64104,1,0,0:0:0:0:
192,192,64104,1,0,0:0:0:0:
448,192,64192,1,0,0:0:0:0:
192,192,64281,1,0,0:0:0:0:
192,192,64369,1,0,0:0:0:0:
448,192,64457,1,0,0:0:0:0:
192,192,64545,1,0,0:0:0:0:
64,192,64634,1,0,0:0:0:0:
320,192,64634,1,0,0:0:0:0:
192,192,64722,1,0,0:0:0:0:
64,192,64810,128,0,64987:0:0:0:0:
320,192,64810,128,0,65075:0:0:0:0:
192,192,64987,1,0,0:0:0:0:
64,192,65075,128,0,65340:0:0:0:0:
192,192,65075,128,0,65251:0:0:0:0:
192,192,65340,128,0,65516:0:0:0:0:
448,192,65340,128,0,65692:0:0:0:0:
320,192,65516,1,0,0:0:0:0:
320,192,65604,1,0,0:0:0:0:
64,192,65692,1,0,0:0:0:0:
192,192,65692,1,0,0:0:0:0:
448,192,65781,1,0,0:0:0:0:
448,192,65869,1,0,0:0:0:0:
64,192,65957,1,0,0:0:0:0:
192,192,65957,1,0,0:0:0:0:
448,192,66045,1,0,0:0:0:0:
448,192,66134,1,0,0:0:0:0:
192,192,66222,1,0,0:0:0:0:
320,192,66222,1,0,0:0:0:0:
64,192,66310,1,0,0:0:0:0:
64,192,66487,1,0,0:0:0:0:
64,192,66575,1,0,0:0:0:0:
448,192,66575,1,0,0:0:0:0:
320,192,66663,1,0,0:0:0:0:
192,192,66751,1,0,0:0:0:0:
64,192,66840,1,0,0:0:0:0:
320,192,66840,1,0,0:0:0:0:
448,192,66928,128,0,67016:0:0:0:0:
320,192,67016,1,0,0:0:0:0:
448,192,67104,128,0,67192:0:0:0:0:
192,192,67192,1,0,0:0:0:0:
192,192,67281,1,0,0:0:0:0:
448,192,67281,128,0,67369:0:0:0:0:
320,192,67457,1,0,0:0:0:0:
448,192,67457,128,0,67545:0:0:0:0:
192,192,67545,1,0,0:0:0:0:
64,192,67634,128,0,67810:0:0:0:0:
448,192,67634,128,0,67898:0:0:0:0:
192,192,67810,1,0,0:0:0:0:
64,192,67898,128,0,68163:0:0:0:0:
320,192,67898,128,0,68075:0:0:0:0:
192,192,68075,1,0,0:0:0:0:
192,192,68163,128,0,68604:0:0:0:0:
448,192,68163,128,0,68340:0:0:0:0:
320,192,68340,1,0,0:0:0:0:
64,192,68428,1,0,0:0:0:0:
448,192,68516,1,0,0:0:0:0:
448,192,68604,1,0,0:0:0:0:
64,192,68692,1,0,0:0:0:0:
192,192,68692,128,0,69134:0:0:0:0:
320,192,68781,1,0,0:0:0:0:
320,192,68869,1,0,0:0:0:0:
320,192,68957,1,0,0:0:0:0:
448,192,69045,1,0,0:0:0:0:
64,192,69222,1,0,0:0:0:0:
192,192,69222,128,0,69310:0:0:0:0:
320,192,69310,1,0,0:0:0:0:
192,192,69398,128,0,69457:0:0:0:0:
320,192,69398,1,0,0:0:0:0:
64,192,69795,128,0,69862:0:0:0:0:
192,192,69862,1,0,0:0:0:0:
64,192,69928,128,0,69994:0:0:0:0:
192,192,70060,128,0,70126:0:0:0:0:
448,192,70192,128,0,70259:0:0:0:0:
320,192,70259,1,0,0:0:0:0:
448,192,70325,128,0,70391:0:0:0:0:
192,192,70457,128,0,70634:0:0:0:0:
320,192,70457,128,0,70634:0:0:0:0:
448,192,70634,1,0,0:0:0:0:
192,192,70722,128,0,70898:0:0:0:0:
320,192,70722,128,0,70898:0:0:0:0:
64,192,70810,1,0,0:0:0:0:
448,192,70810,1,0,0:0:0:0:
192,192,70987,128,0,71163:0:0:0:0:
320,192,70987,128,0,71163:0:0:0:0:
448,192,71163,1,0,0:0:0:0:
64,192,71251,128,0,71428:0:0:0:0:
192,192,71251,128,0,71428:0:0:0:0:
320,192,71428,1,0,0:0:0:0:
64,192,71516,128,0,71692:0:0:0:0:
192,192,71516,128,0,71692:0:0:0:0:
448,192,71692,1,0,0:0:0:0:
64,192,71781,128,0,71957:0:0:0:0:
320,192,71781,128,0,71957:0:0:0:0:
192,192,71869,1,0,0:0:0:0:
192,192,72045,128,0,72134:0:0:0:0:
448,192,72045,128,0,72222:0:0:0:0:
64,192,72104,1,0,0:0:0:0:
320,192,72163,1,0,0:0:0:0:
64,192,72222,1,0,0:0:0:0:
192,192,72222,1,0,0:0:0:0:
320,192,72310,128,0,72487:0:0:0:0:
448,192,72310,128,0,72487:0:0:0:0:
64,192,72398,1,0,0:0:0:0:
64,192,72575,128,0,72663:0:0:0:0:
320,192,72575,128,0,72751:0:0:0:0:
448,192,72575,128,0,72751:0:0:0:0:
64,192,72751,128,0,72840:0:0:0:0:
192,192,72840,128,0,73016:0:0:0:0:
320,192,72840,128,0,72928:0:0:0:0:
448,192,72928,1,0,0:0:0:0:
64,192,72928,1,0,0:0:0:0:
320,192,73016,1,0,0:0:0:0:
64,192,73104,128,0,73281:0:0:0:0:
192,192,73104,128,0,73192:0:0:0:0:
320,192,73192,1,0,0:0:0:0:
448,192,74516,1,0,0:0:0:0:
320,192,74604,1,0,0:0:0:0:
448,192,74692,1,0,0:0:0:0:
192,192,74781,1,0,0:0:0:0:
448,192,74869,1,0,0:0:0:0:
64,192,74957,1,0,0:0:0:0:
192,192,75045,128,0,75104:0:0:0:0:
320,192,75045,128,0,75104:0:0:0:0:
448,192,75045,1,0,0:0:0:0:
64,192,75398,5,0,0:0:0:0:
192,192,75487,1,0,0:0:0:0:
320,192,75561,1,0,0:0:0:0:
448,192,75575,1,0,0:0:0:0:
64,192,75649,1,0,0:0:0:0:
192,192,75729,1,0,0:0:0:0:
320,192,75817,1,0,0:0:0:0:
448,192,75840,1,0,0:0:0:0:
64,192,75898,1,0,0:0:0:0:
192,192,75980,1,0,0:0:0:0:
64,192,76016,1,0,0:0:0:0:
320,192,76104,128,0,76281:0:0:0:0:
448,192,76104,128,0,76369:0:0:0:0:
192,192,76281,1,0,0:0:0:0:
64,192,76369,128,0,76545:0:0:0:0:
320,192,76369,128,0,76634:0:0:0:0:
64,192,76634,128,0,76987:0:0:0:0:
192,192,76634,1,0,0:0:0:0:
448,192,76634,128,0,76810:0:0:0:0:
192,192,76810,1,0,0:0:0:0:
192,192,76898,1,0,0:0:0:0:
320,192,76951,1,0,0:0:0:0:
448,192,76987,1,0,0:0:0:0:
192,192,77061,1,0,0:0:0:0:
448,192,77141,1,0,0:0:0:0:
64,192,77163,1,0,0:0:0:0:
320,192,77251,1,0,0:0:0:0:
448,192,77251,1,0,0:0:0:0:
64,192,77340,1,0,0:0:0:0:
320,192,77392,1,0,0:0:0:0:
64,192,77443,1,0,0:0:0:0:
320,192,77516,1,0,0:0:0:0:
448,192,77516,1,0,0:0:0:0:
192,192,77692,1,0,0:0:0:0:
320,192,77751,1,0,0:0:0:0:
192,192,77810,1,0,0:0:0:0:
64,192,77869,1,0,0:0:0:0:
448,192,77869,1,0,0:0:0:0:
64,192,78045,1,0,0:0:0:0:
192,192,78134,1,0,0:0:0:0:
320,192,78134,1,0,0:0:0:0:
64,192,78222,128,0,78310:0:0:0:0:
320,192,78310,1,0,0:0:0:0:
64,192,78398,128,0,78487:0:0:0:0:
448,192,78398,1,0,0:0:0:0:
448,192,78487,1,0,0:0:0:0:
64,192,78575,128,0,78663:0:0:0:0:
320,192,78575,1,0,0:0:0:0:
64,192,78751,128,0,78840:0:0:0:0:
192,192,78751,1,0,0:0:0:0:
448,192,78840,1,0,0:0:0:0:
192,192,78928,128,0,79192:0:0:0:0:
320,192,78928,128,0,79104:0:0:0:0:
448,192,78998,1,0,0:0:0:0:
64,192,79069,1,0,0:0:0:0:
448,192,79140,1,0,0:0:0:0:
64,192,79192,128,0,79457:0:0:0:0:
320,192,79192,128,0,79369:0:0:0:0:
192,192,79281,1,0,0:0:0:0:
192,192,79457,128,0,79634:0:0:0:0:
448,192,79457,128,0,79810:0:0:0:0:
320,192,79492,1,0,0:0:0:0:
64,192,79563,1,0,0:0:0:0:
320,192,79634,1,0,0:0:0:0:
64,192,79704,1,0,0:0:0:0:
192,192,79810,1,0,0:0:0:0:
320,192,79810,1,0,0:0:0:0:
192,192,79898,5,0,0:0:0:0:
64,192,79987,1,0,0:0:0:0:
448,192,79987,1,0,0:0:0:0:
320,192,80075,1,0,0:0:0:0:
192,192,80104,1,0,0:0:0:0:
320,192,80192,1,0,0:0:0:0:
64,192,80251,1,0,0:0:0:0:
448,192,80251,1,0,0:0:0:0:
192,192,80340,1,0,0:0:0:0:
320,192,80340,1,0,0:0:0:0:
64,192,80428,1,0,0:0:0:0:
448,192,80428,1,0,0:0:0:0:
192,192,80487,1,0,0:0:0:0:
320,192,80575,1,0,0:0:0:0:
192,192,80604,1,0,0:0:0:0:
64,192,80692,128,0,80751:0:0:0:0:
320,192,80692,1,0,0:0:0:0:
448,192,80692,128,0,80751:0:0:0:0:
320,192,81045,5,0,0:0:0:0:
64,192,81134,1,0,0:0:0:0:
192,192,81222,1,0,0:0:0:0:
320,192,81222,1,0,0:0:0:0:
448,192,81310,1,0,0:0:0:0:
448,192,81398,1,0,0:0:0:0:
192,192,81487,1,0,0:0:0:0:
320,192,81487,1,0,0:0:0:0:
64,192,81575,1,0,0:0:0:0:
64,192,81663,1,0,0:0:0:0:
448,192,81663,1,0,0:0:0:0:
192,192,81751,128,0,81928:0:0:0:0:
320,192,81751,128,0,81928:0:0:0:0:
448,192,81840,1,0,0:0:0:0:
64,192,81928,1,0,0:0:0:0:
192,192,82016,128,0,82192:0:0:0:0:
320,192,82016,128,0,82192:0:0:0:0:
448,192,82104,1,0,0:0:0:0:
64,192,82192,1,0,0:0:0:0:
448,192,82192,1,0,0:0:0:0:
192,192,82281,128,0,82457:0:0:0:0:
320,192,82281,128,0,82457:0:0:0:0:
64,192,82545,128,0,82722:0:0:0:0:
320,192,82545,128,0,82722:0:0:0:0:
448,192,82722,1,0,0:0:0:0:
64,192,82810,128,0,82987:0:0:0:0:
320,192,82810,128,0,82987:0:0:0:0:
448,192,82987,1,0,0:0:0:0:
192,192,83075,128,0,83251:0:0:0:0:
320,192,83075,128,0,83251:0:0:0:0:
64,192,83163,1,0,0:0:0:0:
64,192,83340,128,0,83516:0:0:0:0:
448,192,83340,128,0,83516:0:0:0:0:
192,192,83457,1,0,0:0:0:0:
320,192,83516,1,0,0:0:0:0:
192,192,83604,128,0,83781:0:0:0:0:
448,192,83604,128,0,83781:0:0:0:0:
64,192,83692,1,0,0:0:0:0:
192,192,83869,128,0,84045:0:0:0:0:
64,192,83869,128,0,83957:0:0:0:0:
448,192,83869,128,0,84045:0:0:0:0:
64,192,84045,128,0,84134:0:0:0:0:
320,192,84134,128,0,84310:0:0:0:0:
448,192,84134,128,0,84222:0:0:0:0:
192,192,84222,128,0,84310:0:0:0:0:
64,192,84310,1,0,0:0:0:0:
448,192,84310,128,0,84398:0:0:0:0:
64,192,84398,128,0,84487:0:0:0:0:
192,192,84398,128,0,84575:0:0:0:0:
320,192,84487,128,0,84575:0:0:0:0:
64,192,84575,128,0,84840:0:0:0:0:
448,192,84575,128,0,84751:0:0:0:0:
192,192,84751,1,0,0:0:0:0:
320,192,84840,128,0,85016:0:0:0:0:
448,192,84840,128,0,85104:0:0:0:0:
64,192,84928,1,0,0:0:0:0:
192,192,85016,1,0,0:0:0:0:
64,192,85104,128,0,85457:0:0:0:0:
320,192,85104,128,0,85281:0:0:0:0:
448,192,85192,1,0,0:0:0:0:
192,192,85281,1,0,0:0:0:0:
448,192,85369,1,0,0:0:0:0:
192,192,85457,1,0,0:0:0:0:
320,192,85545,1,0,0:0:0:0:
64,192,85634,1,0,0:0:0:0:
192,192,85634,1,0,0:0:0:0:
448,192,85722,1,0,0:0:0:0:
320,192,85810,1,0,0:0:0:0:
320,192,85898,1,0,0:0:0:0:
192,192,85987,1,0,0:0:0:0:
64,192,86163,1,0,0:0:0:0:
192,192,86163,1,0,0:0:0:0:
320,192,86251,1,0,0:0:0:0:
64,192,86340,128,0,86398:0:0:0:0:
192,192,86340,128,0,86398:0:0:0:0:
320,192,86340,1,0,0:0:0:0:
320,192,86692,1,0,0:0:0:0:
448,192,86692,1,0,0:0:0:0:
64,192,86781,1,0,0:0:0:0:
192,192,86869,1,0,0:0:0:0:
192,192,86957,1,0,0:0:0:0:
448,192,87045,1,0,0:0:0:0:
192,192,87134,1,0,0:0:0:0:
64,192,87222,1,0,0:0:0:0:
320,192,87222,1,0,0:0:0:0:
192,192,87310,1,0,0:0:0:0:
64,192,87398,128,0,87575:0:0:0:0:
320,192,87398,128,0,87663:0:0:0:0:
192,192,87575,1,0,0:0:0:0:
64,192,87663,128,0,87928:0:0:0:0:
192,192,87663,128,0,87840:0:0:0:0:
192,192,87928,128,0,88104:0:0:0:0:
448,192,87928,128,0,88281:0:0:0:0:
320,192,88104,1,0,0:0:0:0:
320,192,88192,1,0,0:0:0:0:
64,192,88281,1,0,0:0:0:0:
192,192,88281,1,0,0:0:0:0:
448,192,88369,1,0,0:0:0:0:
448,192,88457,1,0,0:0:0:0:
64,192,88545,1,0,0:0:0:0:
192,192,88545,1,0,0:0:0:0:
448,192,88634,1,0,0:0:0:0:
448,192,88722,1,0,0:0:0:0:
192,192,88810,1,0,0:0:0:0:
320,192,88810,1,0,0:0:0:0:
64,192,88898,1,0,0:0:0:0:
64,192,89075,1,0,0:0:0:0:
64,192,89163,1,0,0:0:0:0:
448,192,89163,1,0,0:0:0:0:
320,192,89251,1,0,0:0:0:0:
192,192,89340,1,0,0:0:0:0:
64,192,89428,1,0,0:0:0:0:
320,192,89428,1,0,0:0:0:0:
448,192,89516,128,0,89604:0:0:0:0:
320,192,89604,1,0,0:0:0:0:
448,192,89692,128,0,89781:0:0:0:0:
192,192,89781,1,0,0:0:0:0:
192,192,89869,1,0,0:0:0:0:
448,192,89869,128,0,89957:0:0:0:0:
320,192,90045,1,0,0:0:0:0:
448,192,90045,128,0,90134:0:0:0:0:
192,192,90134,1,0,0:0:0:0:
64,192,90222,128,0,90398:0:0:0:0:
448,192,90222,128,0,90487:0:0:0:0:
192,192,90398,1,0,0:0:0:0:
64,192,90487,128,0,90751:0:0:0:0:
320,192,90487,128,0,90663:0:0:0:0:
192,192,90663,1,0,0:0:0:0:
192,192,90751,128,0,91104:0:0:0:0:
448,192,90751,128,0,90928:0:0:0:0:
320,192,90928,1,0,0:0:0:0:
64,192,91016,1,0,0:0:0:0:
448,192,91104,1,0,0:0:0:0:
448,192,91192,1,0,0:0:0:0:
64,192,91281,1,0,0:0:0:0:
320,192,91281,1,0,0:0:0:0:
192,192,91369,1,0,0:0:0:0:
192,192,91457,1,0,0:0:0:0:
192,192,91545,1,0,0:0:0:0:
448,192,91634,1,0,0:0:0:0:
64,192,91810,1,0,0:0:0:0:
192,192,91810,1,0,0:0:0:0:
320,192,91898,1,0,0:0:0:0:
64,192,91987,128,0,92045:0:0:0:0:
320,192,91987,128,0,92045:0:0:0:0:
192,192,91987,1,0,0:0:0:0:
192,192,92340,1,0,0:0:0:0:
320,192,92340,1,0,0:0:0:0:
448,192,92428,1,0,0:0:0:0:
64,192,92516,1,0,0:0:0:0:
64,192,92604,1,0,0:0:0:0:
192,192,92692,1,0,0:0:0:0:
448,192,92781,1,0,0:0:0:0:
192,192,92869,1,0,0:0:0:0:
320,192,92869,1,0,0:0:0:0:
64,192,92957,1,0,0:0:0:0:
192,192,93045,128,0,93222:0:0:0:0:
320,192,93045,128,0,93222:0:0:0:0:
448,192,93222,1,0,0:0:0:0:
192,192,93310,128,0,93487:0:0:0:0:
320,192,93310,128,0,93487:0:0:0:0:
64,192,93398,1,0,0:0:0:0:
448,192,93398,1,0,0:0:0:0:
192,192,93575,128,0,93751:0:0:0:0:
320,192,93575,128,0,93751:0:0:0:0:
448,192,93751,1,0,0:0:0:0:
64,192,93840,128,0,94016:0:0:0:0:
192,192,93840,128,0,94016:0:0:0:0:
320,192,94016,1,0,0:0:0:0:
64,192,94104,128,0,94281:0:0:0:0:
192,192,94104,128,0,94281:0:0:0:0:
448,192,94281,1,0,0:0:0:0:
64,192,94369,128,0,94545:0:0:0:0:
320,192,94369,128,0,94545:0:0:0:0:
192,192,94457,1,0,0:0:0:0:
192,192,94634,128,0,94722:0:0:0:0:
448,192,94634,128,0,94810:0:0:0:0:
64,192,94692,1,0,0:0:0:0:
320,192,94751,1,0,0:0:0:0:
64,192,94810,1,0,0:0:0:0:
192,192,94810,1,0,0:0:0:0:
320,192,94898,128,0,95075:0:0:0:0:
448,192,94898,128,0,95075:0:0:0:0:
64,192,94987,1,0,0:0:0:0:
64,192,95163,128,0,95251:0:0:0:0:
320,192,95163,128,0,95340:0:0:0:0:
448,192,95163,128,0,95340:0:0:0:0:
64,192,95340,128,0,95428:0:0:0:0:
192,192,95428,128,0,95604:0:0:0:0:
320,192,95428,128,0,95516:0:0:0:0:
64,192,95516,1,0,0:0:0:0:
448,192,95516,128,0,95604:0:0:0:0:
320,192,95604,128,0,95692:0:0:0:0:
64,192,95692,128,0,95869:0:0:0:0:
192,192,95692,128,0,95781:0:0:0:0:
320,192,95781,128,0,95869:0:0:0:0:
448,192,97164,1,0,0:0:0:0:
192,192,97238,1,0,0:0:0:0:
448,192,97311,1,0,0:0:0:0:
64,192,97385,1,0,0:0:0:0:
320,192,97457,128,0,97516:0:0:0:0:
192,192,97457,128,0,97516:0:0:0:0:
448,192,97457,1,0,0:0:0:0:
64,192,97987,1,0,0:0:0:0:
192,192,98075,1,0,0:0:0:0:
320,192,98163,1,0,0:0:0:0:
448,192,98163,1,0,0:0:0:0:
64,192,98251,1,0,0:0:0:0:
192,192,98340,1,0,0:0:0:0:
320,192,98428,1,0,0:0:0:0:
448,192,98428,1,0,0:0:0:0:
64,192,98516,1,0,0:0:0:0:
64,192,98604,1,0,0:0:0:0:
192,192,98604,1,0,0:0:0:0:
320,192,98692,1,0,0:0:0:0:
448,192,98692,1,0,0:0:0:0:
64,192,98766,1,0,0:0:0:0:
320,192,98825,1,0,0:0:0:0:
192,192,98869,1,0,0:0:0:0:
448,192,98943,1,0,0:0:0:0:
64,192,98957,1,0,0:0:0:0:
320,192,98987,1,0,0:0:0:0:
192,192,99104,1,0,0:0:0:0:
64,192,99222,1,0,0:0:0:0:
448,192,99222,1,0,0:0:0:0:
192,192,99281,1,0,0:0:0:0:
320,192,99318,1,0,0:0:0:0:
448,192,99363,1,0,0:0:0:0:
192,192,99414,1,0,0:0:0:0:
64,192,99473,1,0,0:0:0:0:
192,192,99539,1,0,0:0:0:0:
320,192,99575,1,0,0:0:0:0:
448,192,99575,1,0,0:0:0:0:
64,192,99663,1,0,0:0:0:0:
192,192,99685,1,0,0:0:0:0:
64,192,99751,1,0,0:0:0:0:
320,192,99840,1,0,0:0:0:0:
448,192,99840,1,0,0:0:0:0:
64,192,99928,1,0,0:0:0:0:
192,192,99950,1,0,0:0:0:0:
64,192,100016,1,0,0:0:0:0:
320,192,100104,1,0,0:0:0:0:
448,192,100104,1,0,0:0:0:0:
192,192,100126,1,0,0:0:0:0:
64,192,100281,1,0,0:0:0:0:
320,192,100369,1,0,0:0:0:0:
448,192,100369,1,0,0:0:0:0:
192,192,100391,1,0,0:0:0:0:
192,192,100545,1,0,0:0:0:0:
320,192,100604,1,0,0:0:0:0:
64,192,100634,128,0,100722:0:0:0:0:
448,192,100634,1,0,0:0:0:0:
448,192,100722,1,0,0:0:0:0:
64,192,100810,128,0,100898:0:0:0:0:
192,192,100898,1,0,0:0:0:0:
448,192,100898,1,0,0:0:0:0:
64,192,100987,128,0,101075:0:0:0:0:
448,192,100987,1,0,0:0:0:0:
320,192,101075,1,0,0:0:0:0:
64,192,101163,128,0,101251:0:0:0:0:
192,192,101163,1,0,0:0:0:0:
320,192,101251,1,0,0:0:0:0:
64,192,101340,128,0,101428:0:0:0:0:
448,192,101340,1,0,0:0:0:0:
448,192,101428,1,0,0:0:0:0:
64,192,101516,1,0,0:0:0:0:
192,192,101516,1,0,0:0:0:0:
320,192,101781,1,0,0:0:0:0:
64,192,101781,1,0,0:0:0:0:
448,192,101803,1,0,0:0:0:0:
192,192,101885,1,0,0:0:0:0:
448,192,101966,1,0,0:0:0:0:
192,192,102045,128,0,102104:0:0:0:0:
64,192,102045,128,0,102104:0:0:0:0:
320,192,102222,1,0,0:0:0:0:
320,192,102310,1,0,0:0:0:0:
448,192,102310,1,0,0:0:0:0:
64,192,102398,1,0,0:0:0:0:
192,192,102398,1,0,0:0:0:0:
192,192,102487,1,0,0:0:0:0:
320,192,102487,1,0,0:0:0:0:
320,192,102575,1,0,0:0:0:0:
448,192,102575,1,0,0:0:0:0:
64,192,102663,1,0,0:0:0:0:
192,192,102663,1,0,0:0:0:0:
320,192,102751,1,0,0:0:0:0:
448,192,102751,1,0,0:0:0:0:
192,192,102840,1,0,0:0:0:0:
320,192,102840,1,0,0:0:0:0:
64,192,102928,1,0,0:0:0:0:
192,192,102928,1,0,0:0:0:0:
320,192,103016,1,0,0:0:0:0:
448,192,103016,1,0,0:0:0:0:
192,192,103104,1,0,0:0:0:0:
192,192,103192,1,0,0:0:0:0:
64,192,103281,128,0,103340:0:0:0:0:
320,192,103281,1,0,0:0:0:0:
448,192,103281,128,0,103340:0:0:0:0:
448,192,103634,1,0,0:0:0:0:
320,192,103722,1,0,0:0:0:0:
64,192,103810,1,0,0:0:0:0:
192,192,103810,1,0,0:0:0:0:
64,192,103898,1,0,0:0:0:0:
320,192,103987,1,0,0:0:0:0:
64,192,104075,1,0,0:0:0:0:
192,192,104075,1,0,0:0:0:0:
448,192,104163,1,0,0:0:0:0:
320,192,104251,1,0,0:0:0:0:
448,192,104251,1,0,0:0:0:0:
64,192,104340,1,0,0:0:0:0:
192,192,104340,1,0,0:0:0:0:
320,192,104355,1,0,0:0:0:0:
448,192,104406,1,0,0:0:0:0:
192,192,104466,1,0,0:0:0:0:
320,192,104532,1,0,0:0:0:0:
448,192,104591,1,0,0:0:0:0:
64,192,104604,1,0,0:0:0:0:
320,192,104648,1,0,0:0:0:0:
192,192,104708,1,0,0:0:0:0:
64,192,104767,1,0,0:0:0:0:
448,192,104781,1,0,0:0:0:0:
192,192,104825,1,0,0:0:0:0:
320,192,104869,1,0,0:0:0:0:
448,192,104869,1,0,0:0:0:0:
64,192,104957,1,0,0:0:0:0:
320,192,105045,1,0,0:0:0:0:
320,192,105134,1,0,0:0:0:0:
448,192,105222,1,0,0:0:0:0:
192,192,105310,1,0,0:0:0:0:
64,192,105398,1,0,0:0:0:0:
192,192,105398,1,0,0:0:0:0:
320,192,105531,1,0,0:0:0:0:
64,192,105575,1,0,0:0:0:0:
64,192,105663,1,0,0:0:0:0:
192,192,105663,1,0,0:0:0:0:
448,192,105685,1,0,0:0:0:0:
320,192,105795,1,0,0:0:0:0:
192,192,105862,1,0,0:0:0:0:
320,192,105928,1,0,0:0:0:0:
448,192,105928,1,0,0:0:0:0:
320,192,106104,1,0,0:0:0:0:
64,192,106192,1,0,0:0:0:0:
192,192,106192,1,0,0:0:0:0:
320,192,106281,1,0,0:0:0:0:
320,192,106369,1,0,0:0:0:0:
64,192,106457,1,0,0:0:0:0:
448,192,106457,128,0,106545:0:0:0:0:
448,192,106634,128,0,106722:0:0:0:0:
192,192,106722,1,0,0:0:0:0:
320,192,106722,1,0,0:0:0:0:
64,192,106810,128,0,106898:0:0:0:0:
320,192,106832,1,0,0:0:0:0:
320,192,106920,1,0,0:0:0:0:
64,192,106987,128,0,107075:0:0:0:0:
192,192,106987,1,0,0:0:0:0:
448,192,107075,1,0,0:0:0:0:
192,192,107163,1,0,0:0:0:0:
320,192,107163,1,0,0:0:0:0:
64,192,107428,1,0,0:0:0:0:
192,192,107428,1,0,0:0:0:0:
320,192,107516,1,0,0:0:0:0:
192,192,107604,1,0,0:0:0:0:
320,192,107692,1,0,0:0:0:0:
448,192,107692,1,0,0:0:0:0:
64,192,107781,1,0,0:0:0:0:
192,192,107781,1,0,0:0:0:0:
320,192,107869,1,0,0:0:0:0:
64,192,107957,1,0,0:0:0:0:
192,192,107957,1,0,0:0:0:0:
192,192,108134,1,0,0:0:0:0:
320,192,108222,1,0,0:0:0:0:
448,192,108222,1,0,0:0:0:0:
192,192,108398,1,0,0:0:0:0:
192,192,108487,1,0,0:0:0:0:
448,192,108575,1,0,0:0:0:0:
320,192,108751,1,0,0:0:0:0:
448,192,108751,1,0,0:0:0:0:
192,192,108840,1,0,0:0:0:0:
64,192,108928,128,0,108987:0:0:0:0:
192,192,108928,1,0,0:0:0:0:
320,192,108928,128,0,108987:0:0:0:0:
320,192,109104,1,0,0:0:0:0:
320,192,109281,1,0,0:0:0:0:
448,192,109281,1,0,0:0:0:0:
64,192,109457,1,0,0:0:0:0:
192,192,109457,1,0,0:0:0:0:
192,192,109545,1,0,0:0:0:0:
320,192,109634,1,0,0:0:0:0:
192,192,109722,1,0,0:0:0:0:
320,192,109810,1,0,0:0:0:0:
448,192,109810,1,0,0:0:0:0:
64,192,109898,1,0,0:0:0:0:
320,192,109987,1,0,0:0:0:0:
448,192,109987,1,0,0:0:0:0:
192,192,110075,1,0,0:0:0:0:
64,192,110163,1,0,0:0:0:0:
192,192,110163,1,0,0:0:0:0:
64,192,110251,1,0,0:0:0:0:
320,192,110251,1,0,0:0:0:0:
448,192,110340,1,0,0:0:0:0:
64,192,110428,1,0,0:0:0:0:
448,192,110516,1,0,0:0:0:0:
320,192,110516,1,0,0:0:0:0:
192,192,110604,1,0,0:0:0:0:
64,192,110692,1,0,0:0:0:0:
192,192,110781,1,0,0:0:0:0:
320,192,110869,1,0,0:0:0:0:
448,192,110869,1,0,0:0:0:0:
64,192,110913,1,0,0:0:0:0:
320,192,110957,1,0,0:0:0:0:
192,192,111045,1,0,0:0:0:0:
320,192,111134,1,0,0:0:0:0:
448,192,111134,1,0,0:0:0:0:
192,192,111222,1,0,0:0:0:0:
192,192,111310,1,0,0:0:0:0:
320,192,111398,1,0,0:0:0:0:
448,192,111398,1,0,0:0:0:0:
192,192,111487,1,0,0:0:0:0:
320,192,111575,1,0,0:0:0:0:
64,192,111663,1,0,0:0:0:0:
64,192,111751,1,0,0:0:0:0:
192,192,111751,1,0,0:0:0:0:
448,192,111840,1,0,0:0:0:0:
64,192,111928,1,0,0:0:0:0:
192,192,112016,1,0,0:0:0:0:
320,192,112016,1,0,0:0:0:0:
448,192,112104,128,0,112192:0:0:0:0:
64,192,112192,1,0,0:0:0:0:
448,192,112281,128,0,112369:0:0:0:0:
320,192,112369,1,0,0:0:0:0:
192,192,112457,1,0,0:0:0:0:
448,192,112457,128,0,112545:0:0:0:0:
320,192,112634,1,0,0:0:0:0:
448,192,112634,128,0,112722:0:0:0:0:
64,192,112722,1,0,0:0:0:0:
320,192,112810,1,0,0:0:0:0:
448,192,112810,1,0,0:0:0:0:
192,192,112898,1,0,0:0:0:0:
448,192,112987,1,0,0:0:0:0:
64,192,113075,1,0,0:0:0:0:
192,192,113075,1,0,0:0:0:0:
320,192,113163,1,0,0:0:0:0:
64,192,113251,1,0,0:0:0:0:
192,192,113340,128,0,113398:0:0:0:0:
320,192,113340,128,0,113398:0:0:0:0:
64,192,113634,1,0,0:0:0:0:
192,192,113692,1,0,0:0:0:0:
320,192,113781,1,0,0:0:0:0:
64,192,113869,1,0,0:0:0:0:
192,192,113869,1,0,0:0:0:0:
448,192,113957,1,0,0:0:0:0:
192,192,114045,1,0,0:0:0:0:
448,192,114045,1,0,0:0:0:0:
64,192,114134,1,0,0:0:0:0:
64,192,114222,1,0,0:0:0:0:
320,192,114222,1,0,0:0:0:0:
448,192,114310,1,0,0:0:0:0:
320,192,114354,1,0,0:0:0:0:
64,192,114398,1,0,0:0:0:0:
192,192,114398,1,0,0:0:0:0:
320,192,114487,1,0,0:0:0:0:
192,192,114531,1,0,0:0:0:0:
64,192,114575,128,0,114634:0:0:0:0:
448,192,114575,128,0,114634:0:0:0:0:
64,192,114928,1,0,0:0:0:0:
192,192,114928,1,0,0:0:0:0:
320,192,115104,1,0,0:0:0:0:
448,192,115104,1,0,0:0:0:0:
320,192,115192,1,0,0:0:0:0:
192,192,115281,1,0,0:0:0:0:
320,192,115369,1,0,0:0:0:0:
448,192,115369,1,0,0:0:0:0:
64,192,115457,1,0,0:0:0:0:
192,192,115457,1,0,0:0:0:0:
320,192,115545,1,0,0:0:0:0:
448,192,115545,1,0,0:0:0:0:
64,192,115634,1,0,0:0:0:0:
192,192,115634,1,0,0:0:0:0:
448,192,115722,1,0,0:0:0:0:
64,192,115810,1,0,0:0:0:0:
448,192,115898,1,0,0:0:0:0:
320,192,115987,1,0,0:0:0:0:
192,192,116075,1,0,0:0:0:0:
192,192,116163,1,0,0:0:0:0:
448,192,116251,1,0,0:0:0:0:
320,192,116340,1,0,0:0:0:0:
64,192,116340,1,0,0:0:0:0:
448,192,116428,1,0,0:0:0:0:
64,192,116494,1,0,0:0:0:0:
448,192,116560,1,0,0:0:0:0:
192,192,116604,1,0,0:0:0:0:
64,192,116604,1,0,0:0:0:0:
320,192,116692,1,0,0:0:0:0:
192,192,116869,1,0,0:0:0:0:
192,192,116957,1,0,0:0:0:0:
320,192,116957,1,0,0:0:0:0:
320,192,117045,1,0,0:0:0:0:
192,192,117134,1,0,0:0:0:0:
192,192,117222,1,0,0:0:0:0:
320,192,117222,1,0,0:0:0:0:
320,192,117310,1,0,0:0:0:0:
192,192,117398,1,0,0:0:0:0:
192,192,117487,1,0,0:0:0:0:
320,192,117487,1,0,0:0:0:0:
320,192,117575,1,0,0:0:0:0:
192,192,117663,1,0,0:0:0:0:
64,192,117751,128,0,117840:0:0:0:0:
320,192,117751,1,0,0:0:0:0:
448,192,117751,128,0,117928:0:0:0:0:
64,192,117928,128,0,118016:0:0:0:0:
192,192,118016,1,0,0:0:0:0:
320,192,118016,1,0,0:0:0:0:
64,192,118104,1,0,0:0:0:0:
448,192,118104,128,0,118192:0:0:0:0:
64,192,118281,128,0,118458:0:0:0:0:
192,192,118281,1,0,0:0:0:0:
448,192,118281,128,0,118369:0:0:0:0:
320,192,118369,1,0,0:0:0:0:
192,192,118458,1,0,0:0:0:0:
320,192,118458,1,0,0:0:0:0:
192,192,122355,5,0,0:0:0:0:
320,192,122575,1,0,0:0:0:0:
448,192,122796,1,0,0:0:0:0:
320,192,123266,1,0,0:0:0:0:
192,192,123782,1,0,0:0:0:0:
64,192,124135,1,0,0:0:0:0:
448,192,127664,1,0,0:0:0:0:
320,192,128370,1,0,0:0:0:0:
192,192,129076,1,0,0:0:0:0:
64,192,129767,1,0,0:0:0:0:
192,192,130105,1,0,0:0:0:0:
320,192,130281,1,0,0:0:0:0:
192,192,133649,1,0,0:0:0:0:
320,192,133841,1,0,0:0:0:0:
448,192,134046,1,0,0:0:0:0:
320,192,134530,1,0,0:0:0:0:
192,192,135090,1,0,0:0:0:0:
64,192,135414,1,0,0:0:0:0:
448,192,138943,1,0,0:0:0:0:
320,192,139649,1,0,0:0:0:0:
192,192,140369,5,0,0:0:0:0:
64,192,141046,128,0,141134:0:0:0:0:
320,192,141046,1,0,0:0:0:0:
192,192,141222,1,0,0:0:0:0:
448,192,141399,1,0,0:0:0:0:
64,192,141575,1,0,0:0:0:0:
192,192,141928,1,0,0:0:0:0:
448,192,142105,1,0,0:0:0:0:
192,192,142281,1,0,0:0:0:0:
192,192,142634,1,0,0:0:0:0:
448,192,142810,1,0,0:0:0:0:
192,192,142987,1,0,0:0:0:0:
320,192,143163,1,0,0:0:0:0:
192,192,143340,1,0,0:0:0:0:
448,192,143516,1,0,0:0:0:0:
64,192,143693,1,0,0:0:0:0:
192,192,144046,1,0,0:0:0:0:
448,192,144222,1,0,0:0:0:0:
64,192,144399,1,0,0:0:0:0:
320,192,144752,1,0,0:0:0:0:
192,192,144928,128,0,145016:0:0:0:0:
320,192,145105,128,0,145193:0:0:0:0:
448,192,145281,128,0,145369:0:0:0:0:
192,192,145458,1,0,0:0:0:0:
448,192,145634,1,0,0:0:0:0:
320,192,145810,128,0,145899:0:0:0:0:
64,192,145987,1,0,0:0:0:0:
320,192,146163,1,0,0:0:0:0:
192,192,146340,128,0,146428:0:0:0:0:
448,192,146516,1,0,0:0:0:0:
64,192,146693,128,0,146781:0:0:0:0:
192,192,146693,1,0,0:0:0:0:
320,192,146869,1,0,0:0:0:0:
448,192,147046,1,0,0:0:0:0:
192,192,147222,1,0,0:0:0:0:
320,192,147575,1,0,0:0:0:0:
448,192,147752,1,0,0:0:0:0:
320,192,147928,1,0,0:0:0:0:
320,192,148281,1,0,0:0:0:0:
448,192,148458,1,0,0:0:0:0:
320,192,148634,1,0,0:0:0:0:
64,192,148810,1,0,0:0:0:0:
320,192,148987,1,0,0:0:0:0:
448,192,149163,1,0,0:0:0:0:
192,192,149340,1,0,0:0:0:0:
64,192,149516,1,0,0:0:0:0:
320,192,149693,1,0,0:0:0:0:
448,192,149869,1,0,0:0:0:0:
192,192,150046,1,0,0:0:0:0:
448,192,150222,128,0,150325:0:0:0:0:
320,192,150399,1,0,0:0:0:0:
448,192,150575,1,0,0:0:0:0:
64,192,150752,1,0,0:0:0:0:
320,192,150928,128,0,151031:0:0:0:0:
192,192,151105,1,0,0:0:0:0:
448,192,151281,1,0,0:0:0:0:
320,192,151458,1,0,0:0:0:0:
192,192,151634,128,0,151737:0:0:0:0:
320,192,151810,1,0,0:0:0:0:
448,192,151987,1,0,0:0:0:0:
192,192,152163,1,0,0:0:0:0:
320,192,152340,1,0,0:0:0:0:
64,192,152340,128,0,152457:0:0:0:0:
192,192,152516,1,0,0:0:0:0:
448,192,152693,1,0,0:0:0:0:
64,192,152869,1,0,0:0:0:0:
192,192,153222,1,0,0:0:0:0:
448,192,153399,1,0,0:0:0:0:
192,192,153575,1,0,0:0:0:0:
192,192,153928,1,0,0:0:0:0:
448,192,154105,1,0,0:0:0:0:
192,192,154281,1,0,0:0:0:0:
320,192,154458,1,0,0:0:0:0:
192,192,154634,1,0,0:0:0:0:
448,192,154810,1,0,0:0:0:0:
64,192,154987,1,0,0:0:0:0:
320,192,155163,1,0,0:0:0:0:
192,192,155340,1,0,0:0:0:0:
448,192,155516,1,0,0:0:0:0:
64,192,155693,1,0,0:0:0:0:
192,192,155869,1,0,0:0:0:0:
320,192,156046,1,0,0:0:0:0:
192,192,156222,128,0,156355:0:0:0:0:
320,192,156399,128,0,156531:0:0:0:0:
448,192,156575,128,0,156708:0:0:0:0:
192,192,156752,1,0,0:0:0:0:
448,192,156928,1,0,0:0:0:0:
320,192,157105,128,0,157237:0:0:0:0:
64,192,157281,1,0,0:0:0:0:
320,192,157458,1,0,0:0:0:0:
192,192,157634,128,0,157766:0:0:0:0:
448,192,157810,1,0,0:0:0:0:
192,192,157987,1,0,0:0:0:0:
64,192,157987,128,0,158134:0:0:0:0:
320,192,158163,1,0,0:0:0:0:
448,192,158340,1,0,0:0:0:0:
192,192,158516,1,0,0:0:0:0:
64,192,158693,1,0,0:0:0:0:
320,192,158869,1,0,0:0:0:0:
448,192,159046,1,0,0:0:0:0:
320,192,159222,1,0,0:0:0:0:
320,192,159575,1,0,0:0:0:0:
448,192,159752,1,0,0:0:0:0:
320,192,159928,1,0,0:0:0:0:
64,192,160105,1,0,0:0:0:0:
320,192,160281,1,0,0:0:0:0:
448,192,160458,1,0,0:0:0:0:
64,192,160634,128,0,160810:0:0:0:0:
192,192,160810,1,0,0:0:0:0:
320,192,160987,1,0,0:0:0:0:
448,192,161163,1,0,0:0:0:0:
64,192,161340,128,0,161472:0:0:0:0:
192,192,161340,1,0,0:0:0:0:
448,192,161516,128,0,161678:0:0:0:0:
320,192,161693,1,0,0:0:0:0:
64,192,161869,128,0,161958:0:0:0:0:
448,192,161869,1,0,0:0:0:0:
192,192,162046,1,0,0:0:0:0:
320,192,162222,128,0,162384:0:0:0:0:
64,192,162399,128,0,162458:0:0:0:0:
192,192,162399,1,0,0:0:0:0:
448,192,162575,1,0,0:0:0:0:
320,192,162752,1,0,0:0:0:0:
64,192,162928,128,0,163634:0:0:0:0:
192,192,162928,128,0,163090:0:0:0:0:
320,192,163105,1,0,0:0:0:0:
448,192,163281,1,0,0:0:0:0:
192,192,163458,1,0,0:0:0:0:
320,192,163634,1,0,0:0:0:0:
448,192,163634,1,0,0:0:0:0:
192,192,163692,1,0,0:0:0:0:
64,192,163751,1,0,0:0:0:0:
320,192,163810,1,0,0:0:0:0:
192,192,163869,1,0,0:0:0:0:
320,192,163928,1,0,0:0:0:0:
64,192,163980,1,0,0:0:0:0:
448,192,164031,1,0,0:0:0:0:
192,192,164075,1,0,0:0:0:0:
64,192,164119,1,0,0:0:0:0:
320,192,164163,1,0,0:0:0:0:
448,192,164207,1,0,0:0:0:0:
192,192,164251,1,0,0:0:0:0:
320,192,164295,1,0,0:0:0:0:
64,192,164339,1,0,0:0:0:0:
448,192,164339,1,0,0:0:0:0:
192,192,164692,128,0,164810:0:0:0:0:
448,192,164869,1,0,0:0:0:0:
64,192,165045,1,0,0:0:0:0:
320,192,165222,128,0,165339:0:0:0:0:
320,192,165398,1,0,0:0:0:0:
448,192,165398,1,0,0:0:0:0:
192,192,165469,1,0,0:0:0:0:
64,192,165539,1,0,0:0:0:0:
320,192,165610,1,0,0:0:0:0:
64,192,165751,1,0,0:0:0:0:
448,192,165751,1,0,0:0:0:0:
320,192,165795,1,0,0:0:0:0:
192,192,165839,1,0,0:0:0:0:
448,192,165884,1,0,0:0:0:0:
320,192,165928,1,0,0:0:0:0:
64,192,165972,1,0,0:0:0:0:
192,192,166016,1,0,0:0:0:0:
320,192,166060,1,0,0:0:0:0:
64,192,166104,1,0,0:0:0:0:
448,192,166148,1,0,0:0:0:0:
64,192,166201,1,0,0:0:0:0:
320,192,166252,1,0,0:0:0:0:
192,192,166304,1,0,0:0:0:0:
448,192,166355,1,0,0:0:0:0:
64,192,166407,1,0,0:0:0:0:
320,192,166457,1,0,0:0:0:0:
448,192,166457,1,0,0:0:0:0:
192,192,166516,1,0,0:0:0:0:
448,192,166575,1,0,0:0:0:0:
64,192,166634,1,0,0:0:0:0:
192,192,166692,1,0,0:0:0:0:
320,192,166751,1,0,0:0:0:0:
192,192,166804,1,0,0:0:0:0:
64,192,166854,1,0,0:0:0:0:
448,192,166898,1,0,0:0:0:0:
192,192,166942,1,0,0:0:0:0:
320,192,166986,1,0,0:0:0:0:
64,192,167031,1,0,0:0:0:0:
192,192,167075,1,0,0:0:0:0:
320,192,167119,1,0,0:0:0:0:
64,192,167163,1,0,0:0:0:0:
448,192,167163,1,0,0:0:0:0:
192,192,167516,128,0,167634:0:0:0:0:
448,192,167692,1,0,0:0:0:0:
64,192,167869,1,0,0:0:0:0:
192,192,168045,128,0,168163:0:0:0:0:
320,192,168045,1,0,0:0:0:0:
320,192,168222,1,0,0:0:0:0:
448,192,168222,1,0,0:0:0:0:
192,192,168292,1,0,0:0:0:0:
64,192,168363,1,0,0:0:0:0:
320,192,168434,1,0,0:0:0:0:
64,192,168575,1,0,0:0:0:0:
448,192,168575,1,0,0:0:0:0:
320,192,168619,1,0,0:0:0:0:
192,192,168663,1,0,0:0:0:0:
64,192,168707,1,0,0:0:0:0:
320,192,168751,1,0,0:0:0:0:
448,192,168795,1,0,0:0:0:0:
192,192,168839,1,0,0:0:0:0:
64,192,168884,1,0,0:0:0:0:
320,192,168928,1,0,0:0:0:0:
192,192,168972,1,0,0:0:0:0:
320,192,169024,1,0,0:0:0:0:
64,192,169076,1,0,0:0:0:0:
448,192,169127,1,0,0:0:0:0:
192,192,169179,1,0,0:0:0:0:
320,192,169230,1,0,0:0:0:0:
64,192,169281,1,0,0:0:0:0:
192,192,169281,1,0,0:0:0:0:
448,192,169339,1,0,0:0:0:0:
64,192,169398,1,0,0:0:0:0:
192,192,169457,1,0,0:0:0:0:
320,192,169516,1,0,0:0:0:0:
448,192,169575,1,0,0:0:0:0:
192,192,169627,1,0,0:0:0:0:
448,192,169678,1,0,0:0:0:0:
320,192,169722,1,0,0:0:0:0:
192,192,169766,1,0,0:0:0:0:
448,192,169810,1,0,0:0:0:0:
64,192,169854,1,0,0:0:0:0:
320,192,169898,1,0,0:0:0:0:
192,192,169942,1,0,0:0:0:0:
64,192,169986,1,0,0:0:0:0:
448,192,169986,1,0,0:0:0:0:
64,192,170339,128,0,170457:0:0:0:0:
320,192,170516,1,0,0:0:0:0:
192,192,170692,1,0,0:0:0:0:
448,192,170869,128,0,170986:0:0:0:0:
192,192,171045,1,0,0:0:0:0:
64,192,171045,1,0,0:0:0:0:
320,192,171116,1,0,0:0:0:0:
448,192,171186,1,0,0:0:0:0:
192,192,171257,1,0,0:0:0:0:
64,192,171398,1,0,0:0:0:0:
448,192,171398,1,0,0:0:0:0:
192,192,171442,1,0,0:0:0:0:
320,192,171486,1,0,0:0:0:0:
448,192,171531,1,0,0:0:0:0:
192,192,171575,1,0,0:0:0:0:
320,192,171619,1,0,0:0:0:0:
64,192,171663,1,0,0:0:0:0:
192,192,171707,1,0,0:0:0:0:
448,192,171751,1,0,0:0:0:0:
64,192,171795,1,0,0:0:0:0:
448,192,171848,1,0,0:0:0:0:
192,192,171899,1,0,0:0:0:0:
320,192,171951,1,0,0:0:0:0:
64,192,172002,1,0,0:0:0:0:
448,192,172054,1,0,0:0:0:0:
64,192,172104,1,0,0:0:0:0:
192,192,172104,1,0,0:0:0:0:
320,192,172163,1,0,0:0:0:0:
64,192,172222,1,0,0:0:0:0:
448,192,172281,1,0,0:0:0:0:
192,192,172339,1,0,0:0:0:0:
320,192,172398,1,0,0:0:0:0:
448,192,172451,1,0,0:0:0:0:
192,192,172501,1,0,0:0:0:0:
320,192,172545,1,0,0:0:0:0:
64,192,172589,1,0,0:0:0:0:
192,192,172634,1,0,0:0:0:0:
448,192,172678,1,0,0:0:0:0:
320,192,172722,1,0,0:0:0:0:
192,192,172766,1,0,0:0:0:0:
64,192,172810,1,0,0:0:0:0:
448,192,172810,1,0,0:0:0:0:
192,192,173163,128,0,173281:0:0:0:0:
320,192,173339,1,0,0:0:0:0:
448,192,173339,1,0,0:0:0:0:
64,192,173516,1,0,0:0:0:0:
320,192,173692,128,0,173810:0:0:0:0:
64,192,173728,1,0,0:0:0:0:
192,192,173798,1,0,0:0:0:0:
64,192,173869,1,0,0:0:0:0:
448,192,173869,1,0,0:0:0:0:
320,192,173939,1,0,0:0:0:0:
448,192,174010,1,0,0:0:0:0:
192,192,174081,1,0,0:0:0:0:
448,192,174222,1,0,0:0:0:0:
64,192,174222,1,0,0:0:0:0:
192,192,174272,1,0,0:0:0:0:
320,192,174323,1,0,0:0:0:0:
448,192,174373,1,0,0:0:0:0:
320,192,174423,1,0,0:0:0:0:
192,192,174474,1,0,0:0:0:0:
64,192,174524,1,0,0:0:0:0:
192,192,174575,1,0,0:0:0:0:
320,192,174625,1,0,0:0:0:0:
448,192,174676,1,0,0:0:0:0:
320,192,174726,1,0,0:0:0:0:
192,192,174776,1,0,0:0:0:0:
64,192,174827,1,0,0:0:0:0:
192,192,174877,1,0,0:0:0:0:
320,192,174928,1,0,0:0:0:0:
448,192,174928,1,0,0:0:0:0:
64,192,174986,1,0,0:0:0:0:
192,192,175045,1,0,0:0:0:0:
448,192,175104,1,0,0:0:0:0:
64,192,175163,1,0,0:0:0:0:
320,192,175222,1,0,0:0:0:0:
192,192,175274,1,0,0:0:0:0:
320,192,175325,1,0,0:0:0:0:
64,192,175369,1,0,0:0:0:0:
192,192,175413,1,0,0:0:0:0:
320,192,175457,1,0,0:0:0:0:
448,192,175501,1,0,0:0:0:0:
192,192,175545,1,0,0:0:0:0:
320,192,175589,1,0,0:0:0:0:
64,192,175634,1,0,0:0:0:0:
448,192,175634,1,0,0:0:0:0:
192,192,175986,128,0,176104:0:0:0:0:
448,192,176163,1,0,0:0:0:0:
64,192,176339,1,0,0:0:0:0:
448,192,176516,128,0,176634:0:0:0:0:
192,192,176692,1,0,0:0:0:0:
64,192,176692,1,0,0:0:0:0:
320,192,176763,1,0,0:0:0:0:
64,192,176834,1,0,0:0:0:0:
192,192,176904,1,0,0:0:0:0:
64,192,177045,1,0,0:0:0:0:
448,192,177045,1,0,0:0:0:0:
192,192,177089,1,0,0:0:0:0:
320,192,177134,1,0,0:0:0:0:
448,192,177178,1,0,0:0:0:0:
192,192,177222,1,0,0:0:0:0:
320,192,177266,1,0,0:0:0:0:
64,192,177310,1,0,0:0:0:0:
448,192,177354,1,0,0:0:0:0:
192,192,177398,1,0,0:0:0:0:
320,192,177442,1,0,0:0:0:0:
192,192,177495,1,0,0:0:0:0:
448,192,177546,1,0,0:0:0:0:
64,192,177598,1,0,0:0:0:0:
320,192,177649,1,0,0:0:0:0:
192,192,177701,1,0,0:0:0:0:
320,192,177751,1,0,0:0:0:0:
448,192,177751,1,0,0:0:0:0:
64,192,177810,1,0,0:0:0:0:
448,192,177869,1,0,0:0:0:0:
192,192,177928,1,0,0:0:0:0:
320,192,177986,1,0,0:0:0:0:
448,192,178045,1,0,0:0:0:0:
64,192,178098,1,0,0:0:0:0:
192,192,178148,1,0,0:0:0:0:
320,192,178192,1,0,0:0:0:0:
192,192,178236,1,0,0:0:0:0:
448,192,178281,1,0,0:0:0:0:
64,192,178325,1,0,0:0:0:0:
192,192,178369,1,0,0:0:0:0:
320,192,178413,1,0,0:0:0:0:
64,192,178457,1,0,0:0:0:0:
448,192,178457,1,0,0:0:0:0:
192,192,178810,128,0,178928:0:0:0:0:
448,192,178986,1,0,0:0:0:0:
64,192,179163,1,0,0:0:0:0:
192,192,179339,128,0,179457:0:0:0:0:
320,192,179339,1,0,0:0:0:0:
64,192,179516,1,0,0:0:0:0:
192,192,179516,1,0,0:0:0:0:
320,192,179586,1,0,0:0:0:0:
192,192,179657,1,0,0:0:0:0:
64,192,179728,1,0,0:0:0:0:
64,192,179869,1,0,0:0:0:0:
448,192,179869,1,0,0:0:0:0:
192,192,179913,1,0,0:0:0:0:
320,192,179957,1,0,0:0:0:0:
64,192,180001,1,0,0:0:0:0:
192,192,180045,1,0,0:0:0:0:
320,192,180089,1,0,0:0:0:0:
448,192,180134,1,0,0:0:0:0:
64,192,180178,1,0,0:0:0:0:
320,192,180222,1,0,0:0:0:0:
192,192,180266,1,0,0:0:0:0:
320,192,180318,1,0,0:0:0:0:
448,192,180370,1,0,0:0:0:0:
64,192,180421,1,0,0:0:0:0:
192,192,180473,1,0,0:0:0:0:
448,192,180524,1,0,0:0:0:0:
192,192,180575,1,0,0:0:0:0:
320,192,180575,1,0,0:0:0:0:
448,192,180634,1,0,0:0:0:0:
64,192,180692,1,0,0:0:0:0:
192,192,180751,1,0,0:0:0:0:
320,192,180810,1,0,0:0:0:0:
64,192,180869,1,0,0:0:0:0:
192,192,180921,1,0,0:0:0:0:
64,192,180972,1,0,0:0:0:0:
320,192,181016,1,0,0:0:0:0:
192,192,181060,1,0,0:0:0:0:
64,192,181104,1,0,0:0:0:0:
448,192,181148,1,0,0:0:0:0:
320,192,181192,1,0,0:0:0:0:
192,192,181236,1,0,0:0:0:0:
64,192,181281,1,0,0:0:0:0:
448,192,181281,1,0,0:0:0:0:
64,192,181634,128,0,181751:0:0:0:0:
320,192,181810,1,0,0:0:0:0:
192,192,181986,1,0,0:0:0:0:
320,192,182163,128,0,182281:0:0:0:0:
448,192,182339,1,0,0:0:0:0:
192,192,182339,1,0,0:0:0:0:
320,192,182410,1,0,0:0:0:0:
448,192,182481,1,0,0:0:0:0:
192,192,182551,1,0,0:0:0:0:
64,192,182692,1,0,0:0:0:0:
448,192,182692,1,0,0:0:0:0:
192,192,182736,1,0,0:0:0:0:
320,192,182781,1,0,0:0:0:0:
448,192,182825,1,0,0:0:0:0:
192,192,182869,1,0,0:0:0:0:
320,192,182913,1,0,0:0:0:0:
64,192,182957,1,0,0:0:0:0:
192,192,183001,1,0,0:0:0:0:
448,192,183045,1,0,0:0:0:0:
320,192,183089,1,0,0:0:0:0:
192,192,183134,1,0,0:0:0:0:
64,192,183178,1,0,0:0:0:0:
320,192,183222,1,0,0:0:0:0:
192,192,183266,1,0,0:0:0:0:
448,192,183310,1,0,0:0:0:0:
64,192,183354,1,0,0:0:0:0:
192,192,183398,1,0,0:0:0:0:
320,192,183398,1,0,0:0:0:0:
448,192,184722,1,0,0:0:0:0:
192,192,184810,1,0,0:0:0:0:
320,192,184810,1,0,0:0:0:0:
448,192,184986,1,0,0:0:0:0:
192,192,185075,1,0,0:0:0:0:
320,192,185075,1,0,0:0:0:0:
64,192,185163,1,0,0:0:0:0:
448,192,185222,1,0,0:0:0:0:
64,192,185281,1,0,0:0:0:0:
192,192,185339,1,0,0:0:0:0:
320,192,185339,1,0,0:0:0:0:
448,192,185428,1,0,0:0:0:0:
64,192,185516,1,0,0:0:0:0:
448,192,185516,1,0,0:0:0:0:
64,192,185781,1,0,0:0:0:0:
448,192,185781,1,0,0:0:0:0:
64,192,185869,1,0,0:0:0:0:
192,192,185869,1,0,0:0:0:0:
64,192,186045,1,0,0:0:0:0:
448,192,186045,1,0,0:0:0:0:
320,192,186222,1,0,0:0:0:0:
448,192,186222,1,0,0:0:0:0:
192,192,186281,1,0,0:0:0:0:
64,192,186339,1,0,0:0:0:0:
448,192,186398,1,0,0:0:0:0:
64,192,186457,1,0,0:0:0:0:
320,192,186516,1,0,0:0:0:0:
192,192,186568,1,0,0:0:0:0:
64,192,186619,1,0,0:0:0:0:
320,192,186663,1,0,0:0:0:0:
192,192,186707,1,0,0:0:0:0:
448,192,186751,1,0,0:0:0:0:
64,192,186795,1,0,0:0:0:0:
192,192,186839,1,0,0:0:0:0:
320,192,186884,1,0,0:0:0:0:
64,192,186928,1,0,0:0:0:0:
448,192,186928,1,0,0:0:0:0:
192,192,186986,1,0,0:0:0:0:
320,192,187016,1,0,0:0:0:0:
192,192,187104,1,0,0:0:0:0:
320,192,187134,1,0,0:0:0:0:
64,192,187163,1,0,0:0:0:0:
448,192,187192,1,0,0:0:0:0:
64,192,187281,1,0,0:0:0:0:
448,192,187310,1,0,0:0:0:0:
192,192,187339,1,0,0:0:0:0:
320,192,187369,1,0,0:0:0:0:
192,192,187457,1,0,0:0:0:0:
320,192,187486,1,0,0:0:0:0:
64,192,187516,1,0,0:0:0:0:
448,192,187545,1,0,0:0:0:0:
64,192,187634,1,0,0:0:0:0:
448,192,187663,1,0,0:0:0:0:
192,192,187692,1,0,0:0:0:0:
320,192,187722,1,0,0:0:0:0:
192,192,187810,1,0,0:0:0:0:
320,192,187839,1,0,0:0:0:0:
64,192,187869,1,0,0:0:0:0:
448,192,187898,1,0,0:0:0:0:
64,192,187986,1,0,0:0:0:0:
192,192,187986,1,0,0:0:0:0:
320,192,188163,1,0,0:0:0:0:
192,192,188251,1,0,0:0:0:0:
448,192,188339,1,0,0:0:0:0:
64,192,188339,1,0,0:0:0:0:
320,192,188390,1,0,0:0:0:0:
192,192,188440,1,0,0:0:0:0:
64,192,188491,1,0,0:0:0:0:
320,192,188541,1,0,0:0:0:0:
192,192,188591,1,0,0:0:0:0:
64,192,188642,1,0,0:0:0:0:
448,192,188692,1,0,0:0:0:0:
320,192,188743,1,0,0:0:0:0:
192,192,188793,1,0,0:0:0:0:
448,192,188844,1,0,0:0:0:0:
320,192,188894,1,0,0:0:0:0:
192,192,188944,1,0,0:0:0:0:
64,192,188995,1,0,0:0:0:0:
320,192,189045,1,0,0:0:0:0:
448,192,189045,1,0,0:0:0:0:
192,192,189104,1,0,0:0:0:0:
448,192,189163,1,0,0:0:0:0:
64,192,189222,1,0,0:0:0:0:
320,192,189281,1,0,0:0:0:0:
192,192,189339,1,0,0:0:0:0:
448,192,189392,1,0,0:0:0:0:
320,192,189442,1,0,0:0:0:0:
64,192,189486,1,0,0:0:0:0:
192,192,189531,1,0,0:0:0:0:
448,192,189575,1,0,0:0:0:0:
64,192,189619,1,0,0:0:0:0:
192,192,189663,1,0,0:0:0:0:
320,192,189707,1,0,0:0:0:0:
64,192,189751,1,0,0:0:0:0:
448,192,189751,1,0,0:0:0:0:
192,192,189810,1,0,0:0:0:0:
320,192,189839,1,0,0:0:0:0:
192,192,189928,1,0,0:0:0:0:
320,192,189957,1,0,0:0:0:0:
64,192,189986,1,0,0:0:0:0:
448,192,190016,1,0,0:0:0:0:
64,192,190104,1,0,0:0:0:0:
448,192,190133,1,0,0:0:0:0:
192,192,190163,1,0,0:0:0:0:
320,192,190192,1,0,0:0:0:0:
192,192,190281,1,0,0:0:0:0:
320,192,190310,1,0,0:0:0:0:
64,192,190339,1,0,0:0:0:0:
448,192,190369,1,0,0:0:0:0:
64,192,190457,1,0,0:0:0:0:
448,192,190486,1,0,0:0:0:0:
192,192,190516,1,0,0:0:0:0:
320,192,190545,1,0,0:0:0:0:
64,192,190633,1,0,0:0:0:0:
192,192,190633,1,0,0:0:0:0:
320,192,190663,1,0,0:0:0:0:
448,192,190722,1,0,0:0:0:0:
64,192,190810,1,0,0:0:0:0:
192,192,190810,1,0,0:0:0:0:
320,192,190986,1,0,0:0:0:0:
192,192,191075,1,0,0:0:0:0:
64,192,191163,1,0,0:0:0:0:
448,192,191163,1,0,0:0:0:0:
320,192,191339,1,0,0:0:0:0:
448,192,191516,1,0,0:0:0:0:
192,192,191538,1,0,0:0:0:0:
320,192,191582,1,0,0:0:0:0:
64,192,191692,1,0,0:0:0:0:
320,192,191781,1,0,0:0:0:0:
64,192,191869,1,0,0:0:0:0:
192,192,191869,1,0,0:0:0:0:
448,192,191928,1,0,0:0:0:0:
320,192,191986,1,0,0:0:0:0:
64,192,192045,1,0,0:0:0:0:
448,192,192104,1,0,0:0:0:0:
320,192,192163,1,0,0:0:0:0:
192,192,192216,1,0,0:0:0:0:
448,192,192266,1,0,0:0:0:0:
64,192,192310,1,0,0:0:0:0:
320,192,192354,1,0,0:0:0:0:
192,192,192398,1,0,0:0:0:0:
64,192,192442,1,0,0:0:0:0:
448,192,192486,1,0,0:0:0:0:
320,192,192531,1,0,0:0:0:0:
64,192,192575,1,0,0:0:0:0:
192,192,192575,1,0,0:0:0:0:
448,192,192633,1,0,0:0:0:0:
320,192,192663,1,0,0:0:0:0:
448,192,192751,1,0,0:0:0:0:
320,192,192781,1,0,0:0:0:0:
64,192,192810,1,0,0:0:0:0:
192,192,192839,1,0,0:0:0:0:
192,192,192928,1,0,0:0:0:0:
64,192,192957,1,0,0:0:0:0:
448,192,192986,1,0,0:0:0:0:
320,192,193016,1,0,0:0:0:0:
320,192,193104,1,0,0:0:0:0:
448,192,193133,1,0,0:0:0:0:
64,192,193163,1,0,0:0:0:0:
192,192,193192,1,0,0:0:0:0:
192,192,193281,1,0,0:0:0:0:
64,192,193310,1,0,0:0:0:0:
448,192,193339,1,0,0:0:0:0:
320,192,193369,1,0,0:0:0:0:
320,192,193457,1,0,0:0:0:0:
448,192,193486,1,0,0:0:0:0:
64,192,193516,1,0,0:0:0:0:
192,192,193545,1,0,0:0:0:0:
320,192,193633,1,0,0:0:0:0:
448,192,193633,1,0,0:0:0:0:
192,192,193810,1,0,0:0:0:0:
320,192,193898,1,0,0:0:0:0:
448,192,193986,1,0,0:0:0:0:
64,192,193986,1,0,0:0:0:0:
192,192,194037,1,0,0:0:0:0:
320,192,194087,1,0,0:0:0:0:
448,192,194138,1,0,0:0:0:0:
192,192,194188,1,0,0:0:0:0:
320,192,194239,1,0,0:0:0:0:
448,192,194289,1,0,0:0:0:0:
64,192,194339,1,0,0:0:0:0:
192,192,194390,1,0,0:0:0:0:
320,192,194440,1,0,0:0:0:0:
64,192,194491,1,0,0:0:0:0:
192,192,194541,1,0,0:0:0:0:
320,192,194591,1,0,0:0:0:0:
448,192,194642,1,0,0:0:0:0:
64,192,194692,1,0,0:0:0:0:
192,192,194692,1,0,0:0:0:0:
320,192,194751,1,0,0:0:0:0:
64,192,194810,1,0,0:0:0:0:
448,192,194869,1,0,0:0:0:0:
320,192,194928,1,0,0:0:0:0:
192,192,194986,1,0,0:0:0:0:
448,192,195039,1,0,0:0:0:0:
320,192,195089,1,0,0:0:0:0:
64,192,195133,1,0,0:0:0:0:
192,192,195178,1,0,0:0:0:0:
320,192,195222,1,0,0:0:0:0:
64,192,195266,1,0,0:0:0:0:
448,192,195310,1,0,0:0:0:0:
320,192,195354,1,0,0:0:0:0:
64,192,195398,1,0,0:0:0:0:
192,192,195398,1,0,0:0:0:0:
448,192,195457,1,0,0:0:0:0:
320,192,195486,1,0,0:0:0:0:
448,192,195575,1,0,0:0:0:0:
320,192,195604,1,0,0:0:0:0:
64,192,195633,1,0,0:0:0:0:
192,192,195663,1,0,0:0:0:0:
192,192,195751,1,0,0:0:0:0:
64,192,195781,1,0,0:0:0:0:
448,192,195810,1,0,0:0:0:0:
320,192,195839,1,0,0:0:0:0:
192,192,195928,1,0,0:0:0:0:
320,192,195928,1,0,0:0:0:0:
448,192,195957,1,0,0:0:0:0:
192,192,196104,1,0,0:0:0:0:
64,192,196133,1,0,0:0:0:0:
448,192,196163,1,0,0:0:0:0:
320,192,196192,1,0,0:0:0:0:
64,192,196281,1,0,0:0:0:0:
320,192,196325,1,0,0:0:0:0:
192,192,196369,1,0,0:0:0:0:
64,192,196413,1,0,0:0:0:0:
320,192,196457,1,0,0:0:0:0:
448,192,196457,1,0,0:0:0:0:
192,192,196528,1,0,0:0:0:0:
448,192,196598,1,0,0:0:0:0:
192,192,196669,1,0,0:0:0:0:
320,192,196739,1,0,0:0:0:0:
64,192,196810,1,0,0:0:0:0:
448,192,196810,1,0,0:0:0:0:
192,192,196854,1,0,0:0:0:0:
320,192,196898,1,0,0:0:0:0:
448,192,196942,1,0,0:0:0:0:
64,192,196986,1,0,0:0:0:0:
192,192,197031,1,0,0:0:0:0:
448,192,197075,1,0,0:0:0:0:
64,192,197119,1,0,0:0:0:0:
320,192,197163,1,0,0:0:0:0:
192,192,197207,1,0,0:0:0:0:
320,192,197260,1,0,0:0:0:0:
448,192,197311,1,0,0:0:0:0:
64,192,197363,1,0,0:0:0:0:
192,192,197414,1,0,0:0:0:0:
320,192,197466,1,0,0:0:0:0:
64,192,197516,1,0,0:0:0:0:
192,192,197516,1,0,0:0:0:0:
448,192,197575,1,0,0:0:0:0:
64,192,197633,1,0,0:0:0:0:
320,192,197692,1,0,0:0:0:0:
448,192,197751,1,0,0:0:0:0:
64,192,197810,1,0,0:0:0:0:
192,192,197863,1,0,0:0:0:0:
320,192,197913,1,0,0:0:0:0:
64,192,197957,1,0,0:0:0:0:
192,192,198001,1,0,0:0:0:0:
320,192,198045,1,0,0:0:0:0:
448,192,198089,1,0,0:0:0:0:
192,192,198133,1,0,0:0:0:0:
320,192,198178,1,0,0:0:0:0:
64,192,198222,1,0,0:0:0:0:
448,192,198222,1,0,0:0:0:0:
192,192,198281,1,0,0:0:0:0:
320,192,198310,1,0,0:0:0:0:
192,192,198398,1,0,0:0:0:0:
320,192,198428,1,0,0:0:0:0:
64,192,198457,1,0,0:0:0:0:
448,192,198486,1,0,0:0:0:0:
64,192,198575,1,0,0:0:0:0:
448,192,198604,1,0,0:0:0:0:
192,192,198633,1,0,0:0:0:0:
320,192,198663,1,0,0:0:0:0:
192,192,198751,1,0,0:0:0:0:
320,192,198781,1,0,0:0:0:0:
64,192,198810,1,0,0:0:0:0:
448,192,198839,1,0,0:0:0:0:
64,192,198928,1,0,0:0:0:0:
448,192,198957,1,0,0:0:0:0:
192,192,198986,1,0,0:0:0:0:
320,192,199016,1,0,0:0:0:0:
192,192,199104,1,0,0:0:0:0:
320,192,199133,1,0,0:0:0:0:
64,192,199163,1,0,0:0:0:0:
448,192,199192,1,0,0:0:0:0:
64,192,199281,1,0,0:0:0:0:
192,192,199281,1,0,0:0:0:0:
320,192,199457,1,0,0:0:0:0:
192,192,199545,1,0,0:0:0:0:
448,192,199633,1,0,0:0:0:0:
64,192,199633,1,0,0:0:0:0:
320,192,199684,1,0,0:0:0:0:
192,192,199734,1,0,0:0:0:0:
64,192,199785,1,0,0:0:0:0:
448,192,199835,1,0,0:0:0:0:
320,192,199886,1,0,0:0:0:0:
192,192,199936,1,0,0:0:0:0:
320,192,199986,1,0,0:0:0:0:
192,192,200037,1,0,0:0:0:0:
64,192,200087,1,0,0:0:0:0:
448,192,200138,1,0,0:0:0:0:
320,192,200188,1,0,0:0:0:0:
192,192,200239,1,0,0:0:0:0:
64,192,200289,1,0,0:0:0:0:
320,192,200339,1,0,0:0:0:0:
448,192,200339,1,0,0:0:0:0:
192,192,200398,1,0,0:0:0:0:
448,192,200457,1,0,0:0:0:0:
64,192,200516,1,0,0:0:0:0:
320,192,200575,1,0,0:0:0:0:
192,192,200633,1,0,0:0:0:0:
448,192,200686,1,0,0:0:0:0:
64,192,200736,1,0,0:0:0:0:
192,192,200781,1,0,0:0:0:0:
320,192,200825,1,0,0:0:0:0:
64,192,200869,1,0,0:0:0:0:
448,192,200913,1,0,0:0:0:0:
192,192,200957,1,0,0:0:0:0:
320,192,201001,1,0,0:0:0:0:
64,192,201045,1,0,0:0:0:0:
448,192,201045,1,0,0:0:0:0:
192,192,201104,1,0,0:0:0:0:
320,192,201133,1,0,0:0:0:0:
192,192,201222,1,0,0:0:0:0:
320,192,201251,1,0,0:0:0:0:
64,192,201281,1,0,0:0:0:0:
448,192,201310,1,0,0:0:0:0:
64,192,201398,1,0,0:0:0:0:
448,192,201428,1,0,0:0:0:0:
192,192,201457,1,0,0:0:0:0:
320,192,201486,1,0,0:0:0:0:
192,192,201575,1,0,0:0:0:0:
320,192,201604,1,0,0:0:0:0:
64,192,201633,1,0,0:0:0:0:
448,192,201663,1,0,0:0:0:0:
64,192,201751,1,0,0:0:0:0:
448,192,201781,1,0,0:0:0:0:
192,192,201810,1,0,0:0:0:0:
320,192,201839,1,0,0:0:0:0:
64,192,201928,1,0,0:0:0:0:
192,192,201928,1,0,0:0:0:0:
320,192,201957,1,0,0:0:0:0:
448,192,202016,1,0,0:0:0:0:
64,192,202104,1,0,0:0:0:0:
192,192,202104,1,0,0:0:0:0:
320,192,202281,1,0,0:0:0:0:
192,192,202369,1,0,0:0:0:0:
64,192,202457,1,0,0:0:0:0:
448,192,202457,1,0,0:0:0:0:
320,192,202633,1,0,0:0:0:0:
448,192,202810,1,0,0:0:0:0:
192,192,202832,1,0,0:0:0:0:
320,192,202876,1,0,0:0:0:0:
64,192,202986,1,0,0:0:0:0:
320,192,203075,1,0,0:0:0:0:
64,192,203163,1,0,0:0:0:0:
192,192,203163,1,0,0:0:0:0:
448,192,203222,1,0,0:0:0:0:
64,192,203281,1,0,0:0:0:0:
192,192,203339,1,0,0:0:0:0:
320,192,203398,1,0,0:0:0:0:
448,192,203457,1,0,0:0:0:0:
192,192,203510,1,0,0:0:0:0:
320,192,203560,1,0,0:0:0:0:
64,192,203604,1,0,0:0:0:0:
192,192,203648,1,0,0:0:0:0:
448,192,203692,1,0,0:0:0:0:
320,192,203736,1,0,0:0:0:0:
64,192,203781,1,0,0:0:0:0:
192,192,203825,1,0,0:0:0:0:
320,192,203869,1,0,0:0:0:0:
448,192,203869,1,0,0:0:0:0:
64,192,203928,1,0,0:0:0:0:
192,192,203957,1,0,0:0:0:0:
64,192,204045,1,0,0:0:0:0:
192,192,204075,1,0,0:0:0:0:
320,192,204104,1,0,0:0:0:0:
448,192,204133,1,0,0:0:0:0:
448,192,204222,1,0,0:0:0:0:
320,192,204251,1,0,0:0:0:0:
64,192,204281,1,0,0:0:0:0:
192,192,204310,1,0,0:0:0:0:
192,192,204398,1,0,0:0:0:0:
64,192,204428,1,0,0:0:0:0:
320,192,204457,1,0,0:0:0:0:
448,192,204486,1,0,0:0:0:0:
448,192,204575,1,0,0:0:0:0:
320,192,204604,1,0,0:0:0:0:
64,192,204633,1,0,0:0:0:0:
192,192,204663,1,0,0:0:0:0:
192,192,204751,1,0,0:0:0:0:
64,192,204781,1,0,0:0:0:0:
320,192,204810,1,0,0:0:0:0:
448,192,204839,1,0,0:0:0:0:
64,192,204928,1,0,0:0:0:0:
192,192,204928,1,0,0:0:0:0:
192,192,205104,1,0,0:0:0:0:
320,192,205192,1,0,0:0:0:0:
64,192,205281,1,0,0:0:0:0:
448,192,205281,1,0,0:0:0:0:
192,192,205331,1,0,0:0:0:0:
320,192,205381,1,0,0:0:0:0:
448,192,205432,1,0,0:0:0:0:
64,192,205482,1,0,0:0:0:0:
192,192,205533,1,0,0:0:0:0:
320,192,205583,1,0,0:0:0:0:
192,192,205633,1,0,0:0:0:0:
320,192,205684,1,0,0:0:0:0:
448,192,205734,1,0,0:0:0:0:
64,192,205785,1,0,0:0:0:0:
192,192,205835,1,0,0:0:0:0:
320,192,205886,1,0,0:0:0:0:
448,192,205936,1,0,0:0:0:0:
192,192,205986,1,0,0:0:0:0:
64,192,205986,1,0,0:0:0:0:
448,192,206045,1,0,0:0:0:0:
320,192,206104,1,0,0:0:0:0:
64,192,206163,1,0,0:0:0:0:
448,192,206222,1,0,0:0:0:0:
192,192,206281,1,0,0:0:0:0:
320,192,206333,1,0,0:0:0:0:
448,192,206383,1,0,0:0:0:0:
192,192,206428,1,0,0:0:0:0:
64,192,206472,1,0,0:0:0:0:
320,192,206516,1,0,0:0:0:0:
448,192,206560,1,0,0:0:0:0:
192,192,206604,1,0,0:0:0:0:
64,192,206648,1,0,0:0:0:0:
320,192,206692,1,0,0:0:0:0:
448,192,206692,1,0,0:0:0:0:
192,192,206751,1,0,0:0:0:0:
64,192,206781,1,0,0:0:0:0:
192,192,206869,1,0,0:0:0:0:
64,192,206898,1,0,0:0:0:0:
448,192,206928,1,0,0:0:0:0:
320,192,206957,1,0,0:0:0:0:
320,192,207045,1,0,0:0:0:0:
448,192,207075,1,0,0:0:0:0:
192,192,207104,1,0,0:0:0:0:
64,192,207133,1,0,0:0:0:0:
64,192,207222,1,0,0:0:0:0:
192,192,207222,1,0,0:0:0:0:
64,192,207398,1,0,0:0:0:0:
192,192,207398,1,0,0:0:0:0:
320,192,207469,1,0,0:0:0:0:
448,192,207539,1,0,0:0:0:0:
192,192,207610,1,0,0:0:0:0:
64,192,207681,1,0,0:0:0:0:
192,192,207751,1,0,0:0:0:0:
320,192,207751,1,0,0:0:0:0:
448,192,207804,1,0,0:0:0:0:
320,192,207855,1,0,0:0:0:0:
64,192,207907,1,0,0:0:0:0:
448,192,207958,1,0,0:0:0:0:
192,192,208016,1,0,0:0:0:0:
192,192,208104,1,0,0:0:0:0:
448,192,208104,1,0,0:0:0:0:
320,192,208148,1,0,0:0:0:0:
64,192,208192,1,0,0:0:0:0:
448,192,208236,1,0,0:0:0:0:
192,192,208281,1,0,0:0:0:0:
64,192,208325,1,0,0:0:0:0:
320,192,208369,1,0,0:0:0:0:
192,192,208413,1,0,0:0:0:0:
448,192,208457,1,0,0:0:0:0:
320,192,208501,1,0,0:0:0:0:
192,192,208554,1,0,0:0:0:0:
64,192,208605,1,0,0:0:0:0:
448,192,208657,1,0,0:0:0:0:
320,192,208708,1,0,0:0:0:0:
192,192,208760,1,0,0:0:0:0:
64,192,208810,128,0,208986:0:0:0:0:
320,192,208810,1,0,0:0:0:0:
448,192,208810,1,0,0:0:0:0:
192,192,208986,128,0,209162:0:0:0:0:
448,192,209162,128,0,209339:0:0:0:0:
64,192,209339,128,0,209515:0:0:0:0:
192,192,209515,128,0,209692:0:0:0:0:
448,192,209692,128,0,209868:0:0:0:0:
64,192,209868,128,0,210045:0:0:0:0:
192,192,210045,128,0,210221:0:0:0:0:
448,192,210221,128,0,210398:0:0:0:0:
64,192,210398,128,0,210574:0:0:0:0:
192,192,210574,128,0,210751:0:0:0:0:
448,192,210751,128,0,210927:0:0:0:0:
64,192,210927,128,0,211104:0:0:0:0:
192,192,211104,128,0,211280:0:0:0:0:
448,192,211280,128,0,211457:0:0:0:0:
192,192,211457,128,0,211633:0:0:0:0:
64,192,211633,128,0,211810:0:0:0:0:
320,192,211810,128,0,211986:0:0:0:0:
448,192,211986,128,0,212162:0:0:0:0:
64,192,212162,128,0,212339:0:0:0:0:
320,192,212339,128,0,212515:0:0:0:0:
448,192,212515,128,0,212692:0:0:0:0:
64,192,212692,128,0,212868:0:0:0:0:
320,192,212868,128,0,213045:0:0:0:0:
448,192,213045,128,0,213221:0:0:0:0:
64,192,213221,128,0,213398:0:0:0:0:
320,192,213398,128,0,213574:0:0:0:0:
448,192,213574,128,0,213751:0:0:0:0:
64,192,213751,128,0,213927:0:0:0:0:
192,192,213927,128,0,214104:0:0:0:0:
320,192,214104,128,0,214280:0:0:0:0:
448,192,214280,128,0,214457:0:0:0:0:
64,192,214457,128,0,214633:0:0:0:0:
192,192,214633,128,0,214810:0:0:0:0:
320,192,214810,128,0,214986:0:0:0:0:
64,192,214986,128,0,215162:0:0:0:0:
192,192,215162,128,0,215339:0:0:0:0:
320,192,215339,128,0,215515:0:0:0:0:
64,192,215515,128,0,215692:0:0:0:0:
192,192,215692,128,0,215868:0:0:0:0:
320,192,215868,128,0,216045:0:0:0:0:
64,192,216045,128,0,216221:0:0:0:0:
192,192,216221,128,0,216398:0:0:0:0:
320,192,216398,128,0,216574:0:0:0:0:
64,192,216574,128,0,216751:0:0:0:0:
192,192,216751,128,0,216927:0:0:0:0:
320,192,216927,128,0,217104:0:0:0:0:
192,192,217104,128,0,217280:0:0:0:0:
64,192,217280,128,0,217457:0:0:0:0:
448,192,217457,128,0,217633:0:0:0:0:
192,192,217633,128,0,217810:0:0:0:0:
64,192,217810,128,0,217986:0:0:0:0:
448,192,217986,128,0,218162:0:0:0:0:
192,192,218162,128,0,218339:0:0:0:0:
64,192,218339,128,0,218515:0:0:0:0:
320,192,218515,128,0,218692:0:0:0:0:
448,192,218692,128,0,218868:0:0:0:0:
192,192,218868,128,0,219045:0:0:0:0:
320,192,219045,128,0,219221:0:0:0:0:
448,192,219221,128,0,219398:0:0:0:0:
192,192,219398,128,0,219574:0:0:0:0:
320,192,219574,128,0,219751:0:0:0:0:
64,192,219751,128,0,219927:0:0:0:0:
448,192,219927,128,0,220104:0:0:0:0:
64,192,220104,128,0,220280:0:0:0:0:
192,192,220280,128,0,220457:0:0:0:0:
448,192,220457,128,0,220633:0:0:0:0:
64,192,220633,128,0,220810:0:0:0:0:
192,192,220810,128,0,220986:0:0:0:0:
448,192,220986,128,0,221162:0:0:0:0:
64,192,221162,128,0,221339:0:0:0:0:
192,192,221339,128,0,221515:0:0:0:0:
448,192,221515,128,0,221692:0:0:0:0:
64,192,221692,128,0,221868:0:0:0:0:
192,192,221868,128,0,222045:0:0:0:0:
448,192,222045,128,0,222221:0:0:0:0:
64,192,222221,128,0,222398:0:0:0:0:
192,192,222398,128,0,222574:0:0:0:0:
448,192,222574,128,0,222751:0:0:0:0:
192,192,222751,128,0,222927:0:0:0:0:
64,192,222927,128,0,223104:0:0:0:0:
320,192,223104,128,0,223280:0:0:0:0:
448,192,223280,128,0,223457:0:0:0:0:
64,192,223457,128,0,223633:0:0:0:0:
320,192,223633,128,0,223810:0:0:0:0:
448,192,223810,128,0,223986:0:0:0:0:
64,192,223986,128,0,224162:0:0:0:0:
320,192,224162,128,0,224339:0:0:0:0:
448,192,224339,128,0,224515:0:0:0:0:
64,192,224515,128,0,224692:0:0:0:0:
320,192,224692,128,0,224868:0:0:0:0:
448,192,224868,128,0,225045:0:0:0:0:
64,192,225045,128,0,225221:0:0:0:0:
192,192,225221,128,0,225398:0:0:0:0:
320,192,225398,128,0,225574:0:0:0:0:
448,192,225574,128,0,225751:0:0:0:0:
64,192,225751,128,0,225927:0:0:0:0:
192,192,225927,128,0,226104:0:0:0:0:
320,192,226104,128,0,226280:0:0:0:0:
64,192,226280,128,0,226457:0:0:0:0:
192,192,226457,128,0,226633:0:0:0:0:
320,192,226633,128,0,226810:0:0:0:0:
64,192,226810,128,0,226986:0:0:0:0:
192,192,226986,128,0,227162:0:0:0:0:
320,192,227162,128,0,227339:0:0:0:0:
64,192,227339,128,0,227515:0:0:0:0:
192,192,227515,128,0,227692:0:0:0:0:
320,192,227692,128,0,227868:0:0:0:0:
64,192,227868,128,0,228045:0:0:0:0:
192,192,228045,128,0,228221:0:0:0:0:
320,192,228221,128,0,228398:0:0:0:0:
192,192,228398,128,0,228574:0:0:0:0:
64,192,228574,128,0,228751:0:0:0:0:
448,192,228751,128,0,228927:0:0:0:0:
192,192,228927,128,0,229104:0:0:0:0:
64,192,229104,128,0,229280:0:0:0:0:
448,192,229280,128,0,229457:0:0:0:0:
192,192,229457,128,0,229633:0:0:0:0:
64,192,229633,128,0,229810:0:0:0:0:
320,192,229810,128,0,229986:0:0:0:0:
448,192,229986,128,0,230162:0:0:0:0:
192,192,230162,128,0,230339:0:0:0:0:
320,192,230339,128,0,230515:0:0:0:0:
448,192,230515,128,0,230692:0:0:0:0:
192,192,230692,128,0,230868:0:0:0:0:
320,192,230868,128,0,231045:0:0:0:0:
64,192,231045,128,0,231221:0:0:0:0:
448,192,231221,128,0,231398:0:0:0:0:
320,192,231398,1,0,0:0:0:0:
64,192,231398,1,0,0:0:0:0:
192,192,231574,128,0,231780:0:0:0:0:
448,192,231751,128,0,231957:0:0:0:0:
64,192,231927,128,0,232133:0:0:0:0:
192,192,232104,128,0,232310:0:0:0:0:
448,192,232280,128,0,232486:0:0:0:0:
64,192,232457,128,0,232662:0:0:0:0:
192,192,232633,128,0,232839:0:0:0:0:
448,192,232810,128,0,233015:0:0:0:0:
64,192,232986,128,0,233192:0:0:0:0:
192,192,233162,128,0,233368:0:0:0:0:
448,192,233339,128,0,233545:0:0:0:0:
64,192,233515,128,0,233721:0:0:0:0:
192,192,233692,128,0,233898:0:0:0:0:
448,192,233868,128,0,234074:0:0:0:0:
192,192,234045,128,0,234251:0:0:0:0:
64,192,234221,128,0,234457:0:0:0:0:
320,192,234398,128,0,234633:0:0:0:0:
448,192,234574,128,0,234809:0:0:0:0:
64,192,234751,128,0,234986:0:0:0:0:
320,192,234927,128,0,235162:0:0:0:0:
448,192,235104,128,0,235339:0:0:0:0:
192,192,235280,1,0,0:0:0:0:
320,192,235457,1,0,0:0:0:0:
448,192,235633,1,0,0:0:0:0:
64,192,235809,128,0,236045:0:0:0:0:
448,192,235986,128,0,236221:0:0:0:0:
320,192,236162,1,0,0:0:0:0:
64,192,236339,128,0,236574:0:0:0:0:
320,192,236515,128,0,236751:0:0:0:0:
192,192,236692,1,0,0:0:0:0:
448,192,236868,128,0,237104:0:0:0:0:
64,192,237045,1,0,0:0:0:0:
192,192,237221,128,0,237486:0:0:0:0:
320,192,237398,128,0,237662:0:0:0:0:
64,192,237574,128,0,237839:0:0:0:0:
192,192,237751,128,0,238015:0:0:0:0:
320,192,237927,128,0,238192:0:0:0:0:
64,192,238104,128,0,238368:0:0:0:0:
192,192,238280,128,0,238545:0:0:0:0:
320,192,238457,128,0,238721:0:0:0:0:
64,192,238633,128,0,238898:0:0:0:0:
192,192,238809,128,0,239074:0:0:0:0:
320,192,238986,128,0,239251:0:0:0:0:
64,192,239162,128,0,239427:0:0:0:0:
192,192,239339,128,0,239604:0:0:0:0:
320,192,239515,128,0,239780:0:0:0:0:
192,192,239692,128,0,239957:0:0:0:0:
64,192,239868,128,0,240162:0:0:0:0:
448,192,240045,128,0,240339:0:0:0:0:
192,192,240221,128,0,240515:0:0:0:0:
64,192,240398,128,0,240692:0:0:0:0:
448,192,240574,1,0,0:0:0:0:
192,192,240751,128,0,241045:0:0:0:0:
64,192,240927,128,0,241221:0:0:0:0:
448,192,241104,128,0,241398:0:0:0:0:
320,192,241280,1,0,0:0:0:0:
192,192,241457,128,0,241751:0:0:0:0:
320,192,241633,128,0,241927:0:0:0:0:
448,192,241809,128,0,242104:0:0:0:0:
192,192,241986,1,0,0:0:0:0:
320,192,242162,128,0,242457:0:0:0:0:
64,192,242339,128,0,242604:0:0:0:0:
448,192,242515,128,0,242839:0:0:0:0:
64,192,242692,1,0,0:0:0:0:
192,192,242868,128,0,243192:0:0:0:0:
448,192,243045,128,0,243368:0:0:0:0:
64,192,243221,128,0,243545:0:0:0:0:
192,192,243398,128,0,243721:0:0:0:0:
448,192,243574,128,0,243898:0:0:0:0:
64,192,243751,128,0,244074:0:0:0:0:
192,192,243927,128,0,244251:0:0:0:0:
448,192,244104,128,0,244427:0:0:0:0:
64,192,244280,128,0,244604:0:0:0:0:
192,192,244457,128,0,244780:0:0:0:0:
448,192,244633,128,0,244957:0:0:0:0:
64,192,244809,128,0,245133:0:0:0:0:
192,192,244986,128,0,245251:0:0:0:0:
448,192,245162,128,0,245486:0:0:0:0:
192,192,245339,128,0,245692:0:0:0:0:
64,192,245515,128,0,245868:0:0:0:0:
320,192,245692,128,0,246045:0:0:0:0:
448,192,245868,128,0,246221:0:0:0:0:
64,192,246045,128,0,246398:0:0:0:0:
320,192,246221,128,0,246574:0:0:0:0:
448,192,246398,128,0,246751:0:0:0:0:
192,192,246574,1,0,0:0:0:0:
320,192,246751,1,0,0:0:0:0:
448,192,246927,1,0,0:0:0:0:
64,192,247104,128,0,247457:0:0:0:0:
448,192,247280,128,0,247633:0:0:0:0:
320,192,247457,1,0,0:0:0:0:
64,192,247633,128,0,247986:0:0:0:0:
320,192,247809,128,0,248162:0:0:0:0:
192,192,247986,1,0,0:0:0:0:
448,192,248162,128,0,248545:0:0:0:0:
64,192,248339,1,0,0:0:0:0:
192,192,248515,128,0,248898:0:0:0:0:
320,192,248692,128,0,249074:0:0:0:0:
64,192,248868,128,0,249251:0:0:0:0:
192,192,249045,128,0,249427:0:0:0:0:
320,192,249221,128,0,249604:0:0:0:0:
64,192,249398,128,0,249780:0:0:0:0:
192,192,249574,128,0,249957:0:0:0:0:
320,192,249751,128,0,250133:0:0:0:0:
64,192,249927,128,0,250309:0:0:0:0:
192,192,250104,128,0,250486:0:0:0:0:
320,192,250280,128,0,250662:0:0:0:0:
64,192,250457,128,0,250839:0:0:0:0:
192,192,250633,128,0,250898:0:0:0:0:
320,192,250809,128,0,251192:0:0:0:0:
192,192,250986,128,0,251398:0:0:0:0:
64,192,251162,128,0,251582:0:0:0:0:
448,192,251339,128,0,251766:0:0:0:0:
192,192,251515,128,0,251950:0:0:0:0:
64,192,251692,128,0,252133:0:0:0:0:
448,192,251868,128,0,252317:0:0:0:0:
192,192,252045,128,0,252501:0:0:0:0:
64,192,252221,128,0,252685:0:0:0:0:
320,192,252398,128,0,252868:0:0:0:0:
448,192,252574,128,0,253986:0:0:0:0:
64,192,253986,128,0,254191:0:0:0:0:
320,192,253986,128,0,254074:0:0:0:0:
192,192,254044,128,0,254133:0:0:0:0:
448,192,254103,128,0,254309:0:0:0:0:
320,192,254162,128,0,254250:0:0:0:0:
192,192,254221,128,0,254574:0:0:0:0:
64,192,254280,128,0,254633:0:0:0:0:
320,192,254338,128,0,254515:0:0:0:0:
448,192,254397,128,0,254456:0:0:0:0:
192,192,254691,128,0,254780:0:0:0:0:
320,192,254691,1,0,0:0:0:0:
448,192,254691,128,0,254868:0:0:0:0:
64,192,254780,1,0,0:0:0:0:
320,192,254868,128,0,254956:0:0:0:0:
192,192,254956,128,0,255044:0:0:0:0:
448,192,255044,128,0,255221:0:0:0:0:
320,192,255133,128,0,255397:0:0:0:0:
192,192,255221,128,0,255309:0:0:0:0:
64,192,255309,1,0,0:0:0:0:
448,192,255397,128,0,255468:0:0:0:0:
192,192,255468,128,0,255538:0:0:0:0:
320,192,255538,128,0,255680:0:0:0:0:
448,192,255609,128,0,255750:0:0:0:0:
192,192,255680,128,0,255821:0:0:0:0:
64,192,255750,1,0,0:0:0:0:
320,192,255821,128,0,255891:0:0:0:0:
448,192,255891,128,0,255962:0:0:0:0:
192,192,255962,128,0,256033:0:0:0:0:
320,192,256033,128,0,256103:0:0:0:0:
448,192,256103,128,0,256221:0:0:0:0:
64,192,256103,1,0,0:0:0:0:
192,192,256162,128,0,256456:0:0:0:0:
320,192,256221,128,0,256280:0:0:0:0:
64,192,256280,1,0,0:0:0:0:
448,192,256338,128,0,256456:0:0:0:0:
320,192,256397,128,0,256456:0:0:0:0:
64,192,256456,1,0,0:0:0:0:
64,192,256633,128,0,256677:0:0:0:0:
320,192,256809,128,0,257162:0:0:0:0:
448,192,256809,128,0,257074:0:0:0:0:
448,192,257162,128,0,257206:0:0:0:0:
64,192,257338,1,0,0:0:0:0:
192,192,257427,128,0,257471:0:0:0:0:
64,192,257515,1,0,0:0:0:0:
320,192,257515,128,0,257559:0:0:0:0:
448,192,257515,1,0,0:0:0:0:
192,192,257780,128,0,257824:0:0:0:0:
320,192,257956,128,0,258000:0:0:0:0:
64,192,258044,128,0,258088:0:0:0:0:
192,192,258044,1,0,0:0:0:0:
320,192,258221,1,0,0:0:0:0:
448,192,258397,128,0,258441:0:0:0:0:
64,192,258574,1,0,0:0:0:0:
192,192,258574,128,0,258750:0:0:0:0:
320,192,258662,128,0,258838:0:0:0:0:
64,192,258927,1,0,0:0:0:0:
320,192,258927,1,0,0:0:0:0:
448,192,258927,1,0,0:0:0:0:
192,192,259103,1,0,0:0:0:0:
320,192,259280,1,0,0:0:0:0:
448,192,259456,1,0,0:0:0:0:
64,192,259633,128,0,259868:0:0:0:0:
192,192,259633,128,0,259750:0:0:0:0:
320,192,259691,128,0,259809:0:0:0:0:
448,192,259750,128,0,259986:0:0:0:0:
192,192,259809,128,0,259927:0:0:0:0:
320,192,259868,128,0,260162:0:0:0:0:
64,192,259927,128,0,260044:0:0:0:0:
192,192,259986,128,0,260103:0:0:0:0:
448,192,260044,128,0,260221:0:0:0:0:
64,192,260338,128,0,260515:0:0:0:0:
192,192,260338,1,0,0:0:0:0:
320,192,260338,128,0,260427:0:0:0:0:
448,192,260427,1,0,0:0:0:0:
192,192,260515,128,0,260691:0:0:0:0:
320,192,260603,128,0,260780:0:0:0:0:
64,192,260691,128,0,261044:0:0:0:0:
448,192,260780,1,0,0:0:0:0:
192,192,260868,128,0,260956:0:0:0:0:
320,192,260956,128,0,261186:0:0:0:0:
448,192,261044,1,0,0:0:0:0:
192,192,261115,128,0,261256:0:0:0:0:
64,192,261186,128,0,261397:0:0:0:0:
448,192,261256,1,0,0:0:0:0:
320,192,261327,128,0,261468:0:0:0:0:
192,192,261397,128,0,261538:0:0:0:0:
448,192,261468,1,0,0:0:0:0:
64,192,261538,128,0,261609:0:0:0:0:
320,192,261609,128,0,261680:0:0:0:0:
192,192,261680,128,0,261750:0:0:0:0:
448,192,261750,1,0,0:0:0:0:
64,192,261750,128,0,261868:0:0:0:0:
320,192,261809,128,0,261986:0:0:0:0:
192,192,261868,128,0,261927:0:0:0:0:
448,192,261927,1,0,0:0:0:0:
64,192,261986,128,0,262044:0:0:0:0:
192,192,262044,128,0,262244:0:0:0:0:
320,192,262103,128,0,262174:0:0:0:0:
64,192,262174,128,0,262456:0:0:0:0:
448,192,262244,1,0,0:0:0:0:
320,192,262315,1,0,0:0:0:0:
192,192,262386,128,0,262456:0:0:0:0:
320,192,262456,1,0,0:0:0:0:
448,192,262456,1,0,0:0:0:0:
64,192,263162,128,0,263427:0:0:0:0:
192,192,263162,128,0,263515:0:0:0:0:
320,192,263162,1,0,0:0:0:0:
448,192,263515,1,0,0:0:0:0:
192,192,263691,128,0,263736:0:0:0:0:
320,192,263868,1,0,0:0:0:0:
448,192,263868,1,0,0:0:0:0:
64,192,264044,128,0,264088:0:0:0:0:
192,192,264221,1,0,0:0:0:0:
320,192,264397,128,0,264441:0:0:0:0:
448,192,264486,1,0,0:0:0:0:
64,192,264574,128,0,264927:0:0:0:0:
192,192,264574,128,0,264838:0:0:0:0:
320,192,264574,1,0,0:0:0:0:
320,192,264927,1,0,0:0:0:0:
448,192,265015,1,0,0:0:0:0:
192,192,265103,1,0,0:0:0:0:
320,192,265280,1,0,0:0:0:0:
448,192,265280,1,0,0:0:0:0:
64,192,265456,128,0,265927:0:0:0:0:
64,192,265986,128,0,266074:0:0:0:0:
320,192,265986,1,0,0:0:0:0:
448,192,265986,128,0,266250:0:0:0:0:
192,192,266074,1,0,0:0:0:0:
320,192,266162,128,0,266338:0:0:0:0:
64,192,266250,128,0,266427:0:0:0:0:
192,192,266338,1,0,0:0:0:0:
448,192,266427,128,0,266515:0:0:0:0:
320,192,266515,128,0,266603:0:0:0:0:
64,192,266603,128,0,266762:0:0:0:0:
448,192,266691,128,0,266974:0:0:0:0:
320,192,266762,128,0,266833:0:0:0:0:
192,192,266833,1,0,0:0:0:0:
64,192,266903,128,0,267044:0:0:0:0:
320,192,266974,128,0,267186:0:0:0:0:
192,192,267044,1,0,0:0:0:0:
448,192,267115,128,0,267256:0:0:0:0:
64,192,267186,128,0,267256:0:0:0:0:
192,192,267256,1,0,0:0:0:0:
320,192,267327,128,0,267397:0:0:0:0:
448,192,267397,128,0,267574:0:0:0:0:
64,192,267397,128,0,267456:0:0:0:0:
192,192,267456,1,0,0:0:0:0:
320,192,267515,128,0,267750:0:0:0:0:
64,192,267574,128,0,267633:0:0:0:0:
192,192,267633,1,0,0:0:0:0:
448,192,267691,128,0,267868:0:0:0:0:
64,192,267750,128,0,268103:0:0:0:0:
192,192,267838,1,0,0:0:0:0:
320,192,267927,1,0,0:0:0:0:
192,192,268015,1,0,0:0:0:0:
448,192,268103,128,0,268456:0:0:0:0:
320,192,268103,128,0,268368:0:0:0:0:
320,192,268456,128,0,268500:0:0:0:0:
192,192,268633,1,0,0:0:0:0:
64,192,268721,128,0,268765:0:0:0:0:
192,192,268809,1,0,0:0:0:0:
448,192,268809,128,0,268853:0:0:0:0:
320,192,268809,1,0,0:0:0:0:
192,192,268986,128,0,269030:0:0:0:0:
448,192,269162,1,0,0:0:0:0:
320,192,269250,128,0,269294:0:0:0:0:
64,192,269338,1,0,0:0:0:0:
192,192,269338,128,0,269383:0:0:0:0:
320,192,269515,128,0,269691:0:0:0:0:
448,192,269691,128,0,269736:0:0:0:0:
64,192,269868,1,0,0:0:0:0:
192,192,269868,128,0,269986:0:0:0:0:
320,192,269927,128,0,270044:0:0:0:0:
192,192,270044,1,0,0:0:0:0:
64,192,270221,1,0,0:0:0:0:
320,192,270221,1,0,0:0:0:0:
448,192,270221,1,0,0:0:0:0:
192,192,270397,1,0,0:0:0:0:
320,192,270574,1,0,0:0:0:0:
448,192,270750,1,0,0:0:0:0:
64,192,270927,128,0,271162:0:0:0:0:
192,192,270927,128,0,271044:0:0:0:0:
320,192,270986,128,0,271103:0:0:0:0:
448,192,271044,128,0,271280:0:0:0:0:
192,192,271103,128,0,271221:0:0:0:0:
320,192,271162,128,0,271456:0:0:0:0:
64,192,271221,128,0,271338:0:0:0:0:
192,192,271280,128,0,271397:0:0:0:0:
448,192,271338,128,0,271515:0:0:0:0:
448,192,271633,128,0,271809:0:0:0:0:
192,192,271633,1,0,0:0:0:0:
64,192,271633,128,0,271721:0:0:0:0:
320,192,271721,1,0,0:0:0:0:
192,192,271809,128,0,271897:0:0:0:0:
64,192,271897,128,0,272074:0:0:0:0:
448,192,271986,128,0,272162:0:0:0:0:
192,192,272074,128,0,272250:0:0:0:0:
320,192,272162,1,0,0:0:0:0:
64,192,272250,128,0,272338:0:0:0:0:
448,192,272338,128,0,272550:0:0:0:0:
192,192,272409,128,0,272480:0:0:0:0:
64,192,272480,128,0,272691:0:0:0:0:
320,192,272550,1,0,0:0:0:0:
192,192,272621,128,0,272762:0:0:0:0:
448,192,272691,128,0,272903:0:0:0:0:
320,192,272762,1,0,0:0:0:0:
64,192,272833,128,0,272903:0:0:0:0:
192,192,272903,128,0,272974:0:0:0:0:
320,192,272974,1,0,0:0:0:0:
448,192,273044,128,0,273162:0:0:0:0:
64,192,273044,128,0,273103:0:0:0:0:
192,192,273103,128,0,273280:0:0:0:0:
320,192,273162,1,0,0:0:0:0:
64,192,273221,128,0,273397:0:0:0:0:
448,192,273280,128,0,273338:0:0:0:0:
320,192,273338,1,0,0:0:0:0:
192,192,273397,128,0,273468:0:0:0:0:
448,192,273468,128,0,273750:0:0:0:0:
64,192,273538,128,0,273609:0:0:0:0:
192,192,273609,1,0,0:0:0:0:
320,192,273680,1,0,0:0:0:0:
192,192,273750,1,0,0:0:0:0:
64,192,273750,1,0,0:0:0:0:
320,192,274103,128,0,274397:0:0:0:0:
64,192,274456,1,0,0:0:0:0:
192,192,274456,1,0,0:0:0:0:
448,192,274456,1,0,0:0:0:0:
320,192,274515,128,0,275044:0:0:0:0:
448,192,274809,1,0,0:0:0:0:
64,192,274986,1,0,0:0:0:0:
192,192,274986,1,0,0:0:0:0:
320,192,275162,128,0,275662:0:0:0:0:
448,192,275338,1,0,0:0:0:0:
64,192,275515,1,0,0:0:0:0:
192,192,275515,1,0,0:0:0:0:
448,192,275691,1,0,0:0:0:0:
320,192,275780,128,0,275868:0:0:0:0:
64,192,275868,1,0,0:0:0:0:
192,192,275868,1,0,0:0:0:0:
448,192,275868,1,0,0:0:0:0:
64,192,276574,128,0,276780:0:0:0:0:
320,192,276574,128,0,276662:0:0:0:0:
192,192,276633,128,0,276721:0:0:0:0:
448,192,276691,128,0,276897:0:0:0:0:
320,192,276750,128,0,276838:0:0:0:0:
192,192,276809,128,0,277162:0:0:0:0:
64,192,276868,128,0,277221:0:0:0:0:
320,192,276927,128,0,277103:0:0:0:0:
448,192,276986,128,0,277044:0:0:0:0:
192,192,277280,128,0,277486:0:0:0:0:
320,192,277280,128,0,277368:0:0:0:0:
448,192,277280,1,0,0:0:0:0:
64,192,277338,128,0,277427:0:0:0:0:
448,192,277397,128,0,277603:0:0:0:0:
320,192,277456,128,0,277544:0:0:0:0:
64,192,277515,128,0,277750:0:0:0:0:
192,192,277574,128,0,277809:0:0:0:0:
320,192,277633,128,0,277868:0:0:0:0:
448,192,277691,128,0,277927:0:0:0:0:
64,192,277986,128,0,278191:0:0:0:0:
320,192,277986,128,0,278074:0:0:0:0:
192,192,278044,128,0,278133:0:0:0:0:
448,192,278103,128,0,278309:0:0:0:0:
320,192,278162,128,0,278250:0:0:0:0:
192,192,278221,128,0,278574:0:0:0:0:
64,192,278280,128,0,278633:0:0:0:0:
320,192,278338,128,0,278515:0:0:0:0:
448,192,278397,128,0,278456:0:0:0:0:
192,192,278691,128,0,278897:0:0:0:0:
320,192,278691,128,0,278780:0:0:0:0:
448,192,278691,1,0,0:0:0:0:
64,192,278750,128,0,278838:0:0:0:0:
448,192,278809,128,0,279015:0:0:0:0:
320,192,278868,128,0,278956:0:0:0:0:
64,192,278927,128,0,279162:0:0:0:0:
192,192,278986,128,0,279221:0:0:0:0:
320,192,279044,128,0,279280:0:0:0:0:
448,192,279103,128,0,279338:0:0:0:0:
192,192,279397,128,0,279515:0:0:0:0:
64,192,279397,128,0,279633:0:0:0:0:
320,192,279456,128,0,279574:0:0:0:0:
448,192,279515,128,0,279750:0:0:0:0:
192,192,279574,128,0,279691:0:0:0:0:
320,192,279633,128,0,279868:0:0:0:0:
64,192,279691,128,0,279986:0:0:0:0:
192,192,279750,128,0,279927:0:0:0:0:
448,192,279809,1,0,0:0:0:0:
320,192,280103,1,0,0:0:0:0:
192,192,280103,128,0,280191:0:0:0:0:
448,192,280103,128,0,280280:0:0:0:0:
64,192,280191,1,0,0:0:0:0:
320,192,280280,128,0,280368:0:0:0:0:
192,192,280368,128,0,280544:0:0:0:0:
448,192,280456,128,0,280633:0:0:0:0:
320,192,280544,128,0,280633:0:0:0:0:
64,192,280633,1,0,0:0:0:0:
192,192,280721,128,0,280809:0:0:0:0:
320,192,280809,128,0,280880:0:0:0:0:
448,192,280809,128,0,280950:0:0:0:0:
64,192,280880,1,0,0:0:0:0:
192,192,280950,128,0,281021:0:0:0:0:
320,192,281021,128,0,281303:0:0:0:0:
448,192,281091,128,0,281162:0:0:0:0:
192,192,281162,128,0,281233:0:0:0:0:
64,192,281233,1,0,0:0:0:0:
448,192,281303,128,0,281374:0:0:0:0:
192,192,281374,128,0,281515:0:0:0:0:
320,192,281444,128,0,281515:0:0:0:0:
448,192,281515,1,0,0:0:0:0:
64,192,281515,1,0,0:0:0:0:
64,192,281868,1,0,0:0:0:0:
64,192,281956,1,0,0:0:0:0:
64,192,282044,128,0,282397:0:0:0:0:
192,192,282221,1,0,0:0:0:0:
320,192,282927,128,0,283133:0:0:0:0:
192,192,282927,128,0,283015:0:0:0:0:
64,192,282927,1,0,0:0:0:0:
448,192,282986,128,0,283074:0:0:0:0:
64,192,283044,128,0,283250:0:0:0:0:
192,192,283103,128,0,283191:0:0:0:0:
448,192,283162,128,0,283397:0:0:0:0:
320,192,283221,128,0,283456:0:0:0:0:
192,192,283280,128,0,283515:0:0:0:0:
64,192,283338,128,0,283574:0:0:0:0:
448,192,283633,128,0,283838:0:0:0:0:
192,192,283633,128,0,283721:0:0:0:0:
320,192,283691,128,0,283780:0:0:0:0:
64,192,283750,128,0,283956:0:0:0:0:
192,192,283809,128,0,283897:0:0:0:0:
320,192,283868,128,0,284221:0:0:0:0:
448,192,283927,128,0,284280:0:0:0:0:
192,192,283986,128,0,284162:0:0:0:0:
64,192,284044,128,0,284103:0:0:0:0:
320,192,284338,128,0,284544:0:0:0:0:
192,192,284338,128,0,284427:0:0:0:0:
64,192,284338,1,0,0:0:0:0:
448,192,284397,128,0,284486:0:0:0:0:
64,192,284456,128,0,284662:0:0:0:0:
192,192,284515,128,0,284603:0:0:0:0:
448,192,284574,128,0,284809:0:0:0:0:
320,192,284633,128,0,284868:0:0:0:0:
192,192,284691,128,0,284927:0:0:0:0:
64,192,284750,128,0,284986:0:0:0:0:
448,192,285044,128,0,285103:0:0:0:0:
192,192,285044,128,0,285221:0:0:0:0:
320,192,285103,128,0,285162:0:0:0:0:
64,192,285162,128,0,285280:0:0:0:0:
448,192,285221,128,0,285574:0:0:0:0:
320,192,285280,128,0,285515:0:0:0:0:
192,192,285338,128,0,285456:0:0:0:0:
64,192,285397,1,0,0:0:0:0:
320,192,285750,128,0,285838:0:0:0:0:
192,192,285750,1,0,0:0:0:0:
64,192,285750,128,0,286015:0:0:0:0:
448,192,285838,1,0,0:0:0:0:
192,192,285927,128,0,286368:0:0:0:0:
320,192,286015,128,0,286103:0:0:0:0:
448,192,286103,1,0,0:0:0:0:
64,192,286191,128,0,286280:0:0:0:0:
320,192,286280,128,0,286668:0:0:0:0:
448,192,286368,1,0,0:0:0:0:
64,192,286456,128,0,286527:0:0:0:0:
192,192,286527,128,0,286597:0:0:0:0:
448,192,286597,1,0,0:0:0:0:
64,192,286668,128,0,286809:0:0:0:0:
192,192,286738,128,0,286950:0:0:0:0:
320,192,286809,128,0,286880:0:0:0:0:
448,192,286880,1,0,0:0:0:0:
64,192,286950,128,0,287021:0:0:0:0:
320,192,287021,128,0,287162:0:0:0:0:
192,192,287091,128,0,287221:0:0:0:0:
64,192,287162,128,0,287338:0:0:0:0:
448,192,287221,1,0,0:0:0:0:
320,192,287280,128,0,287456:0:0:0:0:
192,192,287338,128,0,287397:0:0:0:0:
448,192,287397,1,0,0:0:0:0:
64,192,287456,128,0,287515:0:0:0:0:
192,192,287515,128,0,287586:0:0:0:0:
320,192,287586,128,0,287727:0:0:0:0:
64,192,287656,128,0,287727:0:0:0:0:
192,192,287727,128,0,287797:0:0:0:0:
448,192,287797,1,0,0:0:0:0:
64,192,287868,128,0,288074:0:0:0:0:
320,192,287868,128,0,287956:0:0:0:0:
192,192,287927,128,0,288015:0:0:0:0:
448,192,287986,128,0,288191:0:0:0:0:
320,192,288044,128,0,288133:0:0:0:0:
192,192,288103,128,0,288309:0:0:0:0:
64,192,288162,128,0,288309:0:0:0:0:
320,192,288221,128,0,288456:0:0:0:0:
448,192,288280,128,0,288515:0:0:0:0:
64,192,288397,1,0,0:0:0:0:
192,192,288397,1,0,0:0:0:0:
64,192,288574,128,0,288780:0:0:0:0:
192,192,288633,128,0,288721:0:0:0:0:
448,192,288691,128,0,288897:0:0:0:0:
320,192,288750,128,0,288838:0:0:0:0:
192,192,288809,128,0,289103:0:0:0:0:
64,192,288868,128,0,289044:0:0:0:0:
320,192,288927,128,0,289162:0:0:0:0:
448,192,288986,128,0,289221:0:0:0:0:
320,192,289280,128,0,289486:0:0:0:0:
64,192,289280,128,0,289368:0:0:0:0:
192,192,289280,1,0,0:0:0:0:
448,192,289338,128,0,289427:0:0:0:0:
192,192,289397,128,0,289603:0:0:0:0:
64,192,289456,128,0,289544:0:0:0:0:
448,192,289515,128,0,289927:0:0:0:0:
320,192,289574,128,0,289868:0:0:0:0:
64,192,289633,128,0,289750:0:0:0:0:
192,192,289691,128,0,289809:0:0:0:0:
192,192,289986,128,0,290191:0:0:0:0:
64,192,290044,128,0,290133:0:0:0:0:
320,192,290103,128,0,290309:0:0:0:0:
448,192,290162,128,0,290250:0:0:0:0:
64,192,290221,128,0,290456:0:0:0:0:
192,192,290280,128,0,290515:0:0:0:0:
448,192,290338,128,0,290633:0:0:0:0:
320,192,290397,128,0,290574:0:0:0:0:
192,192,290691,128,0,290809:0:0:0:0:
64,192,290691,128,0,290927:0:0:0:0:
320,192,290750,128,0,290868:0:0:0:0:
448,192,290809,128,0,291044:0:0:0:0:
192,192,290868,128,0,290986:0:0:0:0:
320,192,290927,128,0,291103:0:0:0:0:
64,192,290986,1,0,0:0:0:0:
192,192,291044,1,0,0:0:0:0:
448,192,291103,1,0,0:0:0:0:
448,192,291221,128,0,291456:0:0:0:0:
320,192,291221,128,0,291338:0:0:0:0:
192,192,291280,128,0,291397:0:0:0:0:
64,192,291338,128,0,291574:0:0:0:0:
320,192,291397,128,0,291515:0:0:0:0:
192,192,291456,128,0,291633:0:0:0:0:
448,192,291515,1,0,0:0:0:0:
320,192,291574,1,0,0:0:0:0:
64,192,291633,1,0,0:0:0:0:
320,192,291750,1,0,0:0:0:0:
448,192,291750,128,0,291927:0:0:0:0:
64,192,291838,1,0,0:0:0:0:
320,192,291927,128,0,292015:0:0:0:0:
192,192,292015,128,0,292103:0:0:0:0:
64,192,292103,1,0,0:0:0:0:
448,192,292103,128,0,292174:0:0:0:0:
320,192,292174,128,0,292244:0:0:0:0:
192,192,292244,128,0,292386:0:0:0:0:
448,192,292315,128,0,292456:0:0:0:0:
320,192,292386,128,0,292668:0:0:0:0:
64,192,292456,1,0,0:0:0:0:
192,192,292527,128,0,292597:0:0:0:0:
448,192,292597,128,0,292738:0:0:0:0:
64,192,292668,1,0,0:0:0:0:
192,192,292738,128,0,292809:0:0:0:0:
320,192,292809,128,0,292868:0:0:0:0:
448,192,292868,128,0,293044:0:0:0:0:
192,192,292927,128,0,292986:0:0:0:0:
320,192,292986,128,0,293103:0:0:0:0:
64,192,293044,1,0,0:0:0:0:
192,192,293103,128,0,293162:0:0:0:0:
448,192,293162,128,0,293515:0:0:0:0:
320,192,293250,1,0,0:0:0:0:
192,192,293338,1,0,0:0:0:0:
320,192,293427,1,0,0:0:0:0:
192,192,293515,128,0,293868:0:0:0:0:
64,192,293868,128,0,293912:0:0:0:0:
64,192,294044,1,0,0:0:0:0:
192,192,294044,1,0,0:0:0:0:
448,192,294221,128,0,294427:0:0:0:0:
320,192,294280,128,0,294368:0:0:0:0:
64,192,294338,128,0,294544:0:0:0:0:
192,192,294397,128,0,294486:0:0:0:0:
320,192,294456,128,0,294750:0:0:0:0:
448,192,294515,128,0,294691:0:0:0:0:
192,192,294574,128,0,294809:0:0:0:0:
64,192,294633,128,0,294868:0:0:0:0:
192,192,294927,128,0,295133:0:0:0:0:
448,192,294927,128,0,295015:0:0:0:0:
320,192,294927,1,0,0:0:0:0:
64,192,294986,128,0,295074:0:0:0:0:
320,192,295044,128,0,295250:0:0:0:0:
448,192,295103,128,0,295191:0:0:0:0:
64,192,295162,128,0,295574:0:0:0:0:
192,192,295221,128,0,295515:0:0:0:0:
448,192,295280,128,0,295397:0:0:0:0:
320,192,295338,128,0,295456:0:0:0:0:
320,192,295633,128,0,295838:0:0:0:0:
448,192,295691,128,0,295780:0:0:0:0:
192,192,295750,128,0,295956:0:0:0:0:
64,192,295809,128,0,295897:0:0:0:0:
448,192,295868,128,0,296103:0:0:0:0:
320,192,295927,128,0,296162:0:0:0:0:
64,192,295986,128,0,296280:0:0:0:0:
192,192,296044,128,0,296221:0:0:0:0:
448,192,296338,128,0,296397:0:0:0:0:
192,192,296338,128,0,296515:0:0:0:0:
320,192,296397,128,0,296456:0:0:0:0:
64,192,296456,128,0,296574:0:0:0:0:
448,192,296515,128,0,296868:0:0:0:0:
320,192,296574,128,0,296809:0:0:0:0:
192,192,296633,128,0,296750:0:0:0:0:
64,192,296691,1,0,0:0:0:0:
64,192,297044,128,0,297221:0:0:0:0:
192,192,297044,1,0,0:0:0:0:
448,192,297133,1,0,0:0:0:0:
192,192,297221,128,0,297397:0:0:0:0:
320,192,297309,128,0,297486:0:0:0:0:
64,192,297397,128,0,297574:0:0:0:0:
448,192,297486,1,0,0:0:0:0:
192,192,297574,128,0,297662:0:0:0:0:
320,192,297662,128,0,297750:0:0:0:0:
448,192,297750,1,0,0:0:0:0:
64,192,297750,128,0,297821:0:0:0:0:
192,192,297821,128,0,297891:0:0:0:0:
320,192,297891,128,0,298103:0:0:0:0:
64,192,297962,128,0,298033:0:0:0:0:
192,192,298033,128,0,298174:0:0:0:0:
448,192,298103,1,0,0:0:0:0:
64,192,298174,128,0,298244:0:0:0:0:
320,192,298244,128,0,298386:0:0:0:0:
192,192,298315,128,0,298456:0:0:0:0:
64,192,298386,128,0,298574:0:0:0:0:
448,192,298456,1,0,0:0:0:0:
320,192,298515,128,0,298691:0:0:0:0:
192,192,298574,128,0,298633:0:0:0:0:
448,192,298633,1,0,0:0:0:0:
64,192,298691,128,0,298750:0:0:0:0:
192,192,298750,128,0,298880:0:0:0:0:
320,192,298809,128,0,299021:0:0:0:0:
64,192,298880,128,0,298950:0:0:0:0:
448,192,298950,1,0,0:0:0:0:
192,192,299021,128,0,299164:0:0:0:0:
64,192,299091,128,0,299164:0:0:0:0:
320,192,299164,128,0,299430:0:0:0:0:
448,192,299164,128,0,299252:0:0:0:0:
192,192,299252,128,0,299341:0:0:0:0:
64,192,299341,128,0,299590:0:0:0:0:
448,192,299430,128,0,299519:0:0:0:0:
192,192,299519,128,0,299732:0:0:0:0:
320,192,299590,128,0,299661:0:0:0:0:
448,192,299661,128,0,299874:0:0:0:0:
64,192,299732,128,0,299874:0:0:0:0:
320,192,299803,128,0,299874:0:0:0:0:
192,192,299874,1,0,0:0:0:0:
64,192,300226,1,0,0:0:0:0:
320,192,300226,1,0,0:0:0:0:
192,192,301991,1,0,0:0:0:0:
448,192,301991,1,0,0:0:0:0:
192,192,303049,1,0,0:0:0:0:
320,192,303226,1,0,0:0:0:0:
448,192,303402,1,0,0:0:0:0:
320,192,303932,1,0,0:0:0:0:
192,192,304461,1,0,0:0:0:0:
192,192,304814,1,0,0:0:0:0:
320,192,304814,1,0,0:0:0:0:
320,192,305167,1,0,0:0:0:0:
64,192,305520,1,0,0:0:0:0:
448,192,307638,1,0,0:0:0:0:
320,192,308343,1,0,0:0:0:0:
192,192,309049,1,0,0:0:0:0:
64,192,309755,1,0,0:0:0:0:
64,192,310461,1,0,0:0:0:0:
448,192,310461,1,0,0:0:0:0:
192,192,313285,1,0,0:0:0:0:
320,192,314520,1,0,0:0:0:0:
448,192,314696,1,0,0:0:0:0:
320,192,315226,1,0,0:0:0:0:
64,192,316108,1,0,0:0:0:0:
320,192,316108,1,0,0:0:0:0:
192,192,317876,1,0,0:0:0:0:
192,192,318936,1,0,0:0:0:0:
448,192,318936,1,0,0:0:0:0:
64,192,319687,1,0,0:0:0:0:
192,192,320087,1,0,0:0:0:0:
320,192,320487,1,0,0:0:0:0:
448,192,320487,1,0,0:0:0:0:
64,192,321129,1,0,0:0:0:0:
192,192,321810,1,0,0:0:0:0:
320,192,321810,1,0,0:0:0:0:
64,192,327611,5,0,0:0:0:0:
