osu file format v14

[General]
AudioFilename: audio.mp3
AudioLeadIn: 0
PreviewTime: 141014
Countdown: 0
SampleSet: Normal
StackLeniency: 0.7
Mode: 1
LetterboxInBreaks: 0
WidescreenStoryboard: 0

[Editor]
Bookmarks: 50661,118436,163612,208789,253965,299142
DistanceSpacing: 1.1
BeatDivisor: 16
GridSize: 32
TimelineZoom: 4.799999

[Metadata]
Title:Impulse
TitleUnicode:Impulse
Artist:Culprate & Au5
ArtistUnicode:Culprate & Au5
Creator:Megafan
Version:Creativity
Source:
Tags:electronic instrumental drum & and bass dnb drumstep dubstep electronica experimental idm trip-hop unity project, pt. 2 osu!taiko featured artist cup o!tfac#1 12th twelfth place real gasoline mpg mappers' guild
BeatmapID:3527450
BeatmapSetID:1726063

[Difficulty]
HPDrainRate:4
CircleSize:2
OverallDifficulty:7
ApproachRate:10
SliderMultiplier:1.4
SliderTickRate:1

[Events]
//Background and Video events
0,0,"interplanetary_port_by_antifan_real_dccqpw1.jpg",0,0
//Break Periods
2,5695,10436
2,11342,16083
2,17342,21730
2,322029,326626
//Storyboard Layer 0 (Background)
//Storyboard Layer 1 (Fail)
//Storyboard Layer 2 (Pass)
//Storyboard Layer 3 (Foreground)
//Storyboard Layer 4 (Overlay)
//Storyboard Sound Samples

[TimingPoints]
5495,352.941176470588,16,1,0,30,1,0
5495,-1000,16,1,0,30,0,0
5539,-1000,16,1,0,5,0,0
11135,-496.063734268579,16,1,0,30,0,0
11186,-496.063734268579,16,1,0,5,0,0
16782,-329.842500206152,16,1,0,31,0,0
17135,-323.076724260477,16,1,0,31,0,0
17186,-323.076724260477,16,1,0,5,0,0
22429,-247.058765397938,16,1,0,31,0,0
22480,-247.058765397938,16,1,0,5,0,0
24193,-229.0908757686,16,1,0,31,0,0
24244,-229.0908757686,16,1,0,5,0,0
25252,-219.511980963921,16,1,0,32,0,0
25303,-219.511980963921,16,1,0,5,0,0
25958,-213.559307555301,16,1,0,32,0,0
26311,-210.702418653064,16,1,0,32,0,0
26664,-207.920956769075,16,1,0,32,0,0
27017,-205.211552589565,16,1,0,33,0,0
27370,-202.572262590373,16,1,0,33,0,0
27723,-200,16,1,0,33,0,0
28083,352.941176470588,8,1,0,34,1,0
28083,-197.492243492137,16,1,0,34,0,0
28429,-195.046596631935,16,1,0,34,0,0
28782,-192.66040905658,16,1,0,34,0,0
29135,-190.332263031574,16,1,0,34,0,0
30899,-179.487133464837,16,1,0,35,0,0
31958,-173.553862441209,16,1,0,35,0,0
32135,-172.602763370241,16,1,0,35,0,0
32311,-171.662031791808,16,1,0,35,0,0
32840,-168.900944662983,16,1,0,36,0,0
33370,-166.226996261555,16,1,0,36,0,0
33723,-164.490728480089,16,1,0,36,0,0
34429,-161.125299088836,16,1,0,37,0,0
35311,-157.107216248657,16,1,0,37,0,0
35840,-154.791093939619,16,1,0,37,0,0
36017,-154.034312683493,16,1,0,37,0,0
36193,-153.284660344185,16,1,0,38,0,0
36370,-152.542269462868,16,1,0,38,0,0
36546,-151.807265495727,16,1,0,38,0,0
37252,-148.936075147186,16,1,0,38,0,0
37958,-146.171690344044,16,1,0,39,0,0
38664,-143.508054389553,16,1,0,39,0,0
39370,-140.939559479313,16,1,0,39,0,0
40958,-135.48391467223,16,1,0,40,0,0
41487,-133.757970303055,16,1,0,40,0,0
41664,-133.192327056423,16,1,0,40,0,0
41840,-132.631623623284,16,1,0,40,0,0
42017,-132.075446778217,16,1,0,41,0,0
42193,-131.524087979093,16,1,0,41,0,0
42899,-129.363428441326,16,1,0,41,0,0
43252,-128.309585367575,16,1,0,41,0,0
43429,-127.788994811767,16,1,0,42,0,0
43605,-127.272773553736,16,1,0,42,0,0
44135,-125.748518053715,16,1,0,42,0,0
44664,-124.26034032422,16,1,0,43,0,0
45017,-123.287688121601,16,1,0,43,0,0
47135,-117.757057769257,16,1,0,43,0,0
47311,-117.318429200088,16,1,0,43,0,0
47487,-116.883056164646,16,1,0,44,0,0
47664,-116.451038161005,16,1,0,44,0,0
47840,-116.022067397219,16,1,0,44,0,0
48546,-114.337590884092,16,1,0,44,0,0
49252,-112.701199816973,16,1,0,45,0,0
49958,-111.111111111111,16,1,0,45,0,0
50671,352.941176470588,4,1,0,90,1,0
50671,-66.6666666666667,4,1,0,90,0,0
50928,-71.4285714285714,4,1,0,90,0,0
51193,-76.9230769230769,4,1,0,90,0,0
51899,-86.9565217391304,4,1,0,70,0,0
51987,-87.591215301835,4,1,0,70,0,0
52075,-88.2353200692118,4,1,0,70,0,0
52119,-88.2378893496868,4,1,0,70,0,0
52164,-88.8888888888889,4,1,0,70,0,0
52252,-89.5522120739665,4,1,0,70,0,0
52340,-90.2255910452905,4,1,0,70,0,0
52428,-90.9090909090909,4,1,0,70,0,0
52869,-90.4007101879792,4,1,0,70,0,0
52958,-89.8980645845676,4,1,0,70,0,0
53046,-89.4008977638153,4,1,0,70,0,0
53222,-88.422958844418,4,1,0,70,0,0
53311,-87.9420075225593,4,1,0,70,0,0
53399,-87.4661833868481,4,1,0,70,0,0
53487,-66.6666666666667,4,1,0,90,0,0
53752,-71.4285714285714,4,1,0,90,0,0
54016,-76.9230769230769,4,1,0,90,0,0
54193,-86.9565217391304,4,1,0,70,0,0
54281,-87.5156324798517,4,1,0,70,0,0
54458,-88.6557046843015,4,1,0,71,0,0
54546,-89.2857142857143,4,1,0,71,0,0
54722,-90.0735360348188,4,1,0,72,0,0
54811,-90.4726835826459,4,1,0,72,0,0
54899,-90.875384402876,4,1,0,73,0,0
55075,-90.9090909090909,4,1,0,73,0,0
55134,-90.2394322856836,4,1,0,73,0,0
55193,-89.5794870141097,4,1,0,74,0,0
55252,-88.9292034611246,4,1,0,74,0,0
55340,-87.9712509951748,4,1,0,75,0,0
55428,-86.9565217391304,4,1,0,75,0,0
55516,-85.1433388108881,4,1,0,76,0,0
55605,-83.4042269262206,4,1,0,76,0,0
55649,-82.5611117349062,4,1,0,77,0,0
55693,-81.7348048867605,4,1,0,77,0,0
55781,-80,4,1,0,77,0,0
55869,-79.4774200675717,4,1,0,78,0,0
55958,-78.9616230719546,4,1,0,78,0,0
56046,-78.4524162559683,4,1,0,79,0,0
56090,-78.2003289105834,4,1,0,79,0,0
56134,-77.9497956546107,4,1,0,80,0,0
56222,-77.4535743275481,4,1,0,80,0,0
56311,-66.6666666666667,4,1,0,90,0,0
56575,-71.4285714285714,4,1,0,90,0,0
56840,-76.9230769230769,4,1,0,90,0,0
57016,-90.9090909090909,4,1,0,70,0,0
57105,-88.9024810904423,4,1,0,70,0,0
57193,-86.9826165240877,4,1,0,70,0,0
57281,-85.1438462710827,4,1,0,70,0,0
57369,-83.3812775679349,4,1,0,70,0,0
57458,-81.6901362428092,4,1,0,70,0,0
57502,-80.8700321539248,4,1,0,70,0,0
57546,-80.0662307861063,4,1,0,70,0,0
57634,-78.5056912700886,4,1,0,70,0,0
57722,-77.0047612043853,4,1,0,70,0,0
57766,-76.2756724844665,4,1,0,70,0,0
57811,-75.5602033476193,4,1,0,70,0,0
57899,-74.1687903663641,4,1,0,70,0,0
57987,-72.8277485374367,4,1,0,70,0,0
58075,-45.4545454545455,4,1,0,100,0,0
58428,-90.9090909090909,4,1,0,70,0,0
58516,-89.8980645845676,4,1,0,70,0,0
58605,-88.9092787501489,4,1,0,70,0,0
58693,-87.9420075225593,4,1,0,70,0,0
58869,-86.0691858543572,4,1,0,70,0,0
58958,-85.1624089720301,4,1,0,70,0,0
59046,-84.274539481779,4,1,0,70,0,0
59141,-76.9230769230769,4,1,0,90,0,1
59399,-72.7546284675765,4,1,0,90,0,1
59575,-70.2179142751615,4,1,0,90,0,1
59663,-69.0147318846681,4,1,0,90,0,1
59928,-65.6405732259979,4,1,0,90,0,1
60105,-63.5686283733487,4,1,0,90,0,1
60193,-62.5,4,1,0,90,0,1
60369,-61.8600577030618,4,1,0,90,0,1
60458,-61.5449758374425,4,1,0,90,0,1
60722,-60.6187354325601,4,1,0,90,0,1
60899,-60.0165525651975,4,1,0,90,0,1
60987,-59.719925493421,4,1,0,90,0,1
61252,-58.8474145388422,4,1,0,90,0,1
61428,-60.6060606060606,4,1,0,90,0,1
61516,-61.5255127843863,4,1,0,90,0,1
61781,-64.4591554561452,4,1,0,90,0,1
61869,-65.5002384208678,4,1,0,90,0,1
61965,-66.6666666666667,4,1,0,90,0,0
62222,-71.4285714285714,4,1,0,90,0,0
62487,-76.9230769230769,4,1,0,90,0,0
62752,-86.9565217391304,4,1,0,70,0,0
62840,-87.301552658114,4,1,0,70,0,0
63016,-87.999971840009,4,1,0,70,0,0
63105,-88.3534278479402,4,1,0,70,0,0
63193,-88.7096559573413,4,1,0,70,0,0
63281,-89.0688475470885,4,1,0,70,0,0
63369,-89.4308797673366,4,1,0,70,0,0
63413,-89.6130419236694,4,1,0,70,0,0
63458,-89.7959476884727,4,1,0,70,0,0
63546,-90.1639270357437,4,1,0,70,0,0
63634,-90.5350166810768,4,1,0,70,0,0
63722,-90.9090909090909,4,1,0,70,0,0
64163,-88.9092787501489,4,1,0,70,0,0
64252,-86.9954805847836,4,1,0,70,0,0
64340,-85.1624089720301,4,1,0,70,0,0
64428,-83.4049921223985,4,1,0,70,0,0
64516,-81.7186410843737,4,1,0,70,0,0
64605,-80.0990665254787,4,1,0,70,0,0
64693,-78.5425024897973,4,1,0,70,0,0
64781,-66.6666666666667,4,1,0,90,0,0
65046,-71.4285714285714,4,1,0,90,0,0
65311,-76.9230769230769,4,1,0,90,0,0
65487,-86.9565217391304,4,1,0,70,0,0
65575,-87.5156324798517,4,1,0,70,0,0
65663,-88.0819796601093,4,1,0,71,0,0
65752,-88.6557046843015,4,1,0,71,0,0
65840,-89.2857142857143,4,1,0,72,0,0
65928,-89.6778949369654,4,1,0,72,0,0
66016,-90.0735360348188,4,1,0,73,0,0
66105,-90.4726835826459,4,1,0,73,0,0
66149,-90.4977375565611,4,1,0,74,0,0
66193,-90.875384402876,4,1,0,74,0,0
66546,-90.9090909090909,4,1,0,75,0,0
66722,-88.9292034611246,4,1,0,75,0,0
66811,-87.9712509951748,4,1,0,75,0,0
66899,-86.9565217391304,4,1,0,76,0,0
66958,-85.7392480839422,4,1,0,76,0,0
67016,-84.555655800983,4,1,0,77,0,0
67075,-83.4042269262206,4,1,0,77,0,0
67163,-81.7348048867605,4,1,0,78,0,0
67252,-80,4,1,0,78,0,0
67340,-79.2239224556247,4,1,0,79,0,0
67384,-78.841534035496,4,1,0,79,0,0
67428,-78.4627576520804,4,1,0,80,0,0
67516,-77.7160798455004,4,1,0,80,0,0
67605,-66.6666666666667,4,1,0,90,0,0
67869,-71.4285714285714,4,1,0,90,0,0
68134,-76.9230769230769,4,1,0,90,0,0
68311,-90.9090909090909,4,1,0,70,0,0
68399,-89.5522120739665,4,1,0,70,0,0
68487,-88.2353200692118,4,1,0,70,0,0
68575,-86.9565217391304,4,1,0,70,0,0
68663,-85.7142612244968,4,1,0,70,0,0
68752,-84.5070660583285,4,1,0,70,0,0
68840,-83.3333333333333,4,1,0,70,0,0
68928,-82.1917583036279,4,1,0,70,0,0
69016,-81.0811029948927,4,1,0,70,0,0
69061,-80.5368911310359,4,1,0,70,0,0
69105,-80,4,1,0,70,0,0
69193,-78.9473476454348,4,1,0,70,0,0
69281,-77.9220981615839,4,1,0,70,0,0
69369,-76.9230769230769,4,1,0,70,0,0
69840,-48.780487804878,4,1,0,55,0,0
69958,-55.5555555555556,4,1,0,62,0,0
70075,-62.5,4,1,0,69,0,0
70193,-68.9655172413793,4,1,0,76,0,0
70311,-74.0740740740741,4,1,0,83,0,0
70435,-76.9230769230769,4,1,0,90,0,1
70693,-72.7546284675765,4,1,0,90,0,1
70958,-69.0147318846681,4,1,0,90,0,1
71134,-66.7280119523215,4,1,0,90,0,1
71222,-65.6405732259979,4,1,0,90,0,1
71399,-63.5686283733487,4,1,0,90,0,1
71487,-62.5,4,1,0,90,0,1
71663,-62.0915154427808,4,1,0,90,0,1
71752,-61.8892689577661,4,1,0,90,0,1
72016,-61.290320603538,4,1,0,90,0,1
72193,-60.8974456566419,4,1,0,90,0,1
72281,-60.7028909144769,4,1,0,90,0,1
72546,-60.1265784730014,4,1,0,90,0,1
72722,-59.7484351884824,4,1,0,90,0,1
72811,-59.5611415964888,4,1,0,90,0,1
73075,-59.0062056826516,4,1,0,90,0,1
73163,-58.8235294117647,4,1,0,90,0,1
73259,-58.8235294117647,4,1,0,90,0,0
73958,-71.4285714285714,4,1,0,60,0,0
74487,-71.4285714285714,4,1,0,70,0,0
74575,-72.2891740455841,4,1,0,70,0,0
74663,-73.1707138608015,4,1,0,70,0,0
74708,-73.6196499680123,4,1,0,70,0,0
74752,-74.0740740740741,4,1,0,70,0,0
74840,-75.0000187500047,4,1,0,70,0,0
74928,-75.9493478609246,4,1,0,70,0,0
74972,-76.4331404925199,4,1,0,70,0,0
75016,-76.9230769230769,4,1,0,70,0,0
75369,-90.9090909090909,4,1,0,70,0,0
75458,-90.4007101879792,4,1,0,70,0,0
75546,-89.8980645845676,4,1,0,70,0,0
75590,-89.6487918928805,4,1,0,70,0,0
75634,-89.4008977638153,4,1,0,70,0,0
75722,-88.9092787501489,4,1,0,70,0,0
75811,-88.422958844418,4,1,0,70,0,0
75855,-88.1817885206711,4,1,0,70,0,0
75899,-87.9420075225593,4,1,0,70,0,0
75943,-87.7034500783192,4,1,0,70,0,0
75987,-87.4661833868481,4,1,0,70,0,0
76075,-66.6666666666667,4,1,0,90,0,0
76340,-71.4285714285714,4,1,0,90,0,0
76605,-76.9230769230769,4,1,0,90,0,0
76958,-88.495575221239,4,1,0,70,0,0
77134,-89.2857142857143,4,1,0,71,0,0
77222,-89.6860986547085,4,1,0,71,0,0
77311,-90.0900900900901,4,1,0,72,0,0
77399,-90.4977375565611,4,1,0,72,0,0
77487,-90.9090909090909,4,1,0,73,0,0
78016,-88.9292034611246,4,1,0,74,0,0
78105,-87.9712509951748,4,1,0,74,0,0
78193,-86.9565217391304,4,1,0,75,0,0
78252,-85.7392480839422,4,1,0,76,0,0
78311,-84.555655800983,4,1,0,76,0,0
78369,-83.4042269262206,4,1,0,77,0,0
78458,-81.7348048867605,4,1,0,77,0,0
78546,-80,4,1,0,78,0,0
78590,-79.6101015665676,4,1,0,78,0,0
78634,-79.2239224556247,4,1,0,79,0,0
78722,-78.4627576520804,4,1,0,79,0,0
78811,-77.7160798455004,4,1,0,80,0,0
78899,-66.6666666666667,4,1,0,90,0,0
79163,-71.4285714285714,4,1,0,90,0,0
79428,-76.9230769230769,4,1,0,90,0,0
79605,-86.9565217391304,4,1,0,70,0,0
79663,-87.4635823508986,4,1,0,70,0,0
79722,-87.9765137898787,4,1,0,70,0,0
79781,-88.495575221239,4,1,0,70,0,0
79869,-89.2857142857143,4,1,0,70,0,0
79958,-90.0900900900901,4,1,0,70,0,0
80046,-90.9090909090909,4,1,0,70,0,0
80311,-89.2857142857143,4,1,0,70,0,0
80357,-88.4955752212389,4,1,0,70,0,0
80399,-87.719298245614,4,1,0,70,0,0
80487,-86.2068965517241,4,1,0,70,0,0
80575,-84.7457627118644,4,1,0,70,0,0
80663,-55.5555555555556,4,1,0,100,0,0
81016,-86.9565217391304,4,1,0,70,0,0
81105,-86.0310520479262,4,1,0,70,0,0
81193,-85.1250742716273,4,1,0,70,0,0
81281,-84.2379790297975,4,1,0,70,0,0
81458,-82.5180549504231,4,1,0,70,0,0
81546,-81.6841974568442,4,1,0,70,0,0
81634,-80.8670238832668,4,1,0,70,0,0
81729,-76.9230769230769,4,1,0,90,0,1
81987,-72.7546284675765,4,1,0,90,0,1
82163,-70.2179142751615,4,1,0,90,0,1
82252,-69.0147318846681,4,1,0,90,0,1
82516,-65.6405732259979,4,1,0,90,0,1
82693,-63.5686283733487,4,1,0,90,0,1
82781,-62.5,4,1,0,90,0,1
82958,-61.8600577030618,4,1,0,90,0,1
83046,-61.5449758374425,4,1,0,90,0,1
83311,-60.6187354325601,4,1,0,90,0,1
83575,-59.719925493421,4,1,0,90,0,1
83840,-58.8474145388422,4,1,0,90,0,1
84016,-60.5871500713414,4,1,0,90,0,1
84105,-61.5092020841778,4,1,0,90,0,1
84281,-63.4401432732196,4,1,0,90,0,1
84369,-64.4518435160801,4,1,0,90,0,1
84458,-65.4962915999696,4,1,0,90,0,1
84553,-66.6666666666667,4,1,0,90,0,0
84811,-71.4285714285714,4,1,0,90,0,0
85075,-76.9230769230769,4,1,0,90,0,0
85340,-86.9565217391304,4,1,0,70,0,0
85428,-87.2989614042562,4,1,0,70,0,0
85605,-87.9920736740035,4,1,0,70,0,0
85693,-88.3427344726601,4,1,0,70,0,0
85781,-88.6962013190899,4,1,0,70,0,0
85869,-89.0525873338724,4,1,0,70,0,0
85958,-89.411768913495,4,1,0,70,0,0
86002,-89.5924885657586,4,1,0,70,0,0
86046,-89.7738596475478,4,1,0,70,0,0
86134,-90.1389762736187,4,1,0,70,0,0
86222,-90.5069930228159,4,1,0,70,0,0
86311,-90.8780271470843,4,1,0,70,0,0
86663,-90.9090909090909,4,1,0,70,0,0
86752,-89.8980645845676,4,1,0,70,0,0
86840,-88.9092787501489,4,1,0,70,0,0
86928,-87.9420075225593,4,1,0,70,0,0
87016,-86.9954805847836,4,1,0,70,0,0
87105,-86.0691858543572,4,1,0,70,0,0
87193,-85.1624089720301,4,1,0,70,0,0
87281,-84.274539481779,4,1,0,70,0,0
87369,-66.6666666666667,4,1,0,90,0,0
87634,-71.4285714285714,4,1,0,90,0,0
87899,-76.9230769230769,4,1,0,90,0,0
88075,-86.9565217391304,4,1,0,70,0,0
88163,-87.5156324798517,4,1,0,70,0,0
88252,-88.0819796601093,4,1,0,71,0,0
88340,-88.6557046843015,4,1,0,71,0,0
88428,-89.2857142857143,4,1,0,72,0,0
88516,-89.6778949369654,4,1,0,72,0,0
88605,-90.0735360348188,4,1,0,73,0,0
88693,-90.4726835826459,4,1,0,73,0,0
88781,-90.875384402876,4,1,0,74,0,0
89134,-90.9090909090909,4,1,0,74,0,0
89311,-88.9292034611246,4,1,0,75,0,0
89399,-87.9712509951748,4,1,0,75,0,0
89443,-87.5000109375014,4,1,0,76,0,0
89487,-86.9565217391304,4,1,0,76,0,0
89575,-85.1433388108881,4,1,0,77,0,0
89663,-83.4042269262206,4,1,0,77,0,0
89752,-81.7348048867605,4,1,0,78,0,0
89840,-80.130837631685,4,1,0,78,0,0
89899,-79.4809575547842,4,1,0,79,0,0
89958,-78.9685444596854,4,1,0,79,0,0
90016,-78.4627576520804,4,1,0,80,0,0
90105,-77.7160798455004,4,1,0,80,0,0
90193,-66.6666666666667,4,1,0,90,0,0
90458,-71.4285714285714,4,1,0,90,0,0
90722,-76.9230769230769,4,1,0,90,0,0
90899,-90.9090909090909,4,1,0,70,0,0
90987,-89.5614355623383,4,1,0,70,0,0
91075,-88.2532302888616,4,1,0,70,0,0
91163,-86.9826165240877,4,1,0,70,0,0
91252,-85.7480704540446,4,1,0,70,0,0
91340,-84.5480778417243,4,1,0,70,0,0
91428,-83.3812775679349,4,1,0,70,0,0
91516,-82.2461759640485,4,1,0,70,0,0
91605,-81.1415644418191,4,1,0,70,0,0
91649,-80.6003111172009,4,1,0,70,0,0
91693,-80.0662307861063,4,1,0,70,0,0
91781,-79.0190886412431,4,1,0,70,0,0
91869,-77.9989220548972,4,1,0,70,0,0
91958,-77.0047612043853,4,1,0,70,0,0
92311,-90.9090909090909,4,1,0,70,0,0
92399,-89.8876404494382,4,1,0,70,0,0
92487,-88.8888888888889,4,1,0,70,0,0
92575,-87.9120879120879,4,1,0,70,0,0
92663,-86.9565217391304,4,1,0,70,0,0
92752,-86.0215053763441,4,1,0,70,0,0
92840,-85.1063829787234,4,1,0,70,0,0
92928,-84.2105263157895,4,1,0,70,0,0
93023,-76.9230769230769,4,1,0,90,0,1
93281,-72.7546284675765,4,1,0,90,0,1
93546,-69.0147318846681,4,1,0,90,0,1
93811,-65.6405732259979,4,1,0,90,0,1
93987,-63.5686283733487,4,1,0,90,0,1
94075,-62.5809249585871,4,1,0,90,0,1
94252,-62.06896979786,4,1,0,90,0,1
94340,-61.855657349349,4,1,0,90,0,1
94605,-61.2245022907148,4,1,0,90,0,1
94781,-60.8108272461695,4,1,0,90,0,1
94869,-60.6060606060606,4,1,0,90,0,1
95134,-59.9999880000024,4,1,0,90,0,1
95399,-59.4059523576143,4,1,0,90,0,1
95663,-58.8235294117647,4,1,0,90,0,1
95847,-58.8235294117647,4,1,0,90,0,0
96546,-83.3333333333333,4,1,0,60,0,0
97075,-71.4285714285714,4,1,0,70,0,0
97134,-71.9921154235188,4,1,0,70,0,0
97193,-72.5646224245001,4,1,0,70,0,0
97252,-73.146307976678,4,1,0,70,0,0
97340,-74.0365074017998,4,1,0,70,0,0
97428,-74.9486414434509,4,1,0,70,0,0
97605,-76.8420971745161,4,1,0,30,0,0
97958,-86.9565217391304,4,1,0,70,0,0
98046,-88.2353200692118,4,1,0,70,0,0
98134,-89.5522120739665,4,1,0,70,0,0
98222,-90.9090909090909,4,1,0,70,0,0
98399,-86.9565217391304,4,1,0,70,0,0
98487,-88.2353200692118,4,1,0,70,0,0
98575,-89.5522120739665,4,1,0,70,0,0
98663,-83.3333333333333,4,1,0,70,0,0
98722,-83.8414825857049,4,1,0,70,0,0
98781,-84.3557958758451,4,1,0,70,0,0
98840,-84.8765301116466,4,1,0,70,0,0
98928,-85.6697619151647,4,1,0,70,0,0
99061,-86.8878425661803,4,1,0,70,0,0
99193,-80,4,1,0,80,0,0
99237,-80.5368911310359,4,1,0,80,0,0
99281,-81.0811029948927,4,1,0,80,0,0
99325,-81.6326530612245,4,1,0,80,0,0
99369,-82.1917583036279,4,1,0,80,0,0
99487,-83.3333333333333,4,1,0,80,0,0
99546,-84.5070660583285,4,1,0,80,0,0
99634,-85.7142612244968,4,1,0,80,0,0
99722,-86.9565217391304,4,1,0,80,0,0
99811,-87.8923845643394,4,1,0,80,0,0
99899,-88.8486108519693,4,1,0,80,0,0
99987,-89.8258725460694,4,1,0,80,0,0
100075,-90.8248714828068,4,1,0,80,0,0
100428,-90.9090909090909,4,1,0,80,0,0
100516,-89.9082486322708,4,1,0,80,0,0
100605,-88.9292034611246,4,1,0,80,0,0
100693,-87.9712509951748,4,1,0,80,0,0
100737,-87.5000109375014,4,1,0,80,0,0
100781,-86.9565217391304,4,1,0,80,0,0
100869,-85.1433388108881,4,1,0,80,0,0
100958,-83.4042269262206,4,1,0,80,0,0
101016,-82.2838034207023,4,1,0,80,0,0
101075,-81.1930177252477,4,1,0,80,0,0
101134,-80,4,1,0,80,0,0
101222,-79.2239224556247,4,1,0,80,0,0
101311,-78.4627576520804,4,1,0,80,0,0
101399,-77.7160798455004,4,1,0,80,0,0
101487,-76.9834793453325,4,1,0,80,0,0
102193,-83.3333333333333,4,1,0,70,0,0
102281,-82.7625476298462,4,1,0,70,0,0
102369,-82.199527845912,4,1,0,70,0,0
102458,-81.6441165616723,4,1,0,70,0,0
102546,-81.0962263492993,4,1,0,70,0,0
102634,-80.5555756944495,4,1,0,70,0,0
102722,-80.0220860957624,4,1,0,70,0,0
102811,-79.4956162142439,4,1,0,70,0,0
102899,-78.9760284060979,4,1,0,70,0,0
102987,-78.4631886027511,4,1,0,70,0,0
103075,-77.9569661955207,4,1,0,70,0,0
103163,-77.4572939209967,4,1,0,70,0,0
103252,-50,4,1,0,100,0,0
103605,-86.9565217391304,4,1,0,70,0,0
103693,-85.5756287455383,4,1,0,70,0,0
103781,-84.2379790297975,4,1,0,70,0,0
103869,-82.9414350527093,4,1,0,70,0,0
104046,-80.464505497335,4,1,0,70,0,0
104134,-79.2807649008198,4,1,0,70,0,0
104222,-78.131287127011,4,1,0,70,0,0
104311,-71.4285714285714,4,1,0,70,0,0
104369,-71.9999942400005,4,1,0,70,0,0
104428,-72.5806334547365,4,1,0,70,0,0
104487,-73.1707138608015,4,1,0,70,0,0
104546,-73.7704676162401,4,1,0,70,0,0
104605,-74.3801898777487,4,1,0,70,0,0
104663,-75.0000187500047,4,1,0,70,0,0
104752,-75.9493478609246,4,1,0,70,0,0
104840,-76.9230769230769,4,1,0,70,0,0
105016,-76.9230769230769,4,1,0,80,0,0
105105,-77.6545227935438,4,1,0,80,0,0
105281,-79.1599545621861,4,1,0,80,0,0
105369,-79.9347732250484,4,1,0,80,0,0
105546,-80.6362522850298,4,1,0,80,0,0
105634,-80.9582215097899,4,1,0,80,0,0
105722,-81.2827061288786,4,1,0,80,0,0
105811,-81.6098689182285,4,1,0,80,0,0
105899,-81.939608869471,4,1,0,80,0,0
106428,-74.0740740740741,4,1,0,80,0,0
106487,-74.5293656880216,4,1,0,80,0,0
106546,-74.9903449930821,4,1,0,80,0,0
106605,-75.45700535292,4,1,0,80,0,0
106693,-76.1680175064571,4,1,0,80,0,0
106781,-76.8926156176591,4,1,0,80,0,0
106869,-77.6310723024755,4,1,0,80,0,0
106958,-78.3838504185306,4,1,0,80,0,0
107046,-79.1513706642858,4,1,0,80,0,0
107134,-79.9340703787516,4,1,0,70,0,0
107399,-76.9230769230769,4,1,0,70,0,0
107575,-78.9330150754165,4,1,0,70,0,0
107663,-79.9779260923985,4,1,0,70,0,0
107752,-81.0508732015824,4,1,0,70,0,0
107840,-82.1530001043343,4,1,0,70,0,0
107928,-83.2854442029167,4,1,0,70,0,0
108105,-85.646796039007,4,1,0,70,0,0
108193,-86.8784067195235,4,1,0,70,0,0
108281,-88.1458779020928,4,1,0,70,0,0
108369,-89.4509589590055,4,1,0,70,0,0
108458,-90.7952666611584,4,1,0,70,0,0
109252,-86.9565217391304,4,1,0,70,0,0
109428,-89.5522120739665,4,1,0,70,0,0
109516,-90.9090909090909,4,1,0,70,0,0
109693,-86.9565217391304,4,1,0,70,0,0
109781,-88.2002215589566,4,1,0,70,0,0
109869,-89.4800137441301,4,1,0,70,0,0
109958,-76.9230769230769,4,1,0,80,0,0
110046,-77.6699029126214,4,1,0,80,0,0
110134,-78.4313725490196,4,1,0,80,0,0
110222,-79.2079207920792,4,1,0,80,0,0
110311,-80,4,1,0,80,0,0
110399,-80.8080808080808,4,1,0,80,0,0
110487,-81.6326530612245,4,1,0,80,0,0
110575,-82.4742268041237,4,1,0,80,0,0
110663,-83.3333333333333,4,1,0,80,0,0
110752,-83.7651426436614,4,1,0,80,0,0
110840,-84.2013793869971,4,1,0,80,0,0
110884,-84.4212417351604,4,1,0,80,0,0
110928,-84.6422552759634,4,1,0,80,0,0
111016,-85.087699892279,4,1,0,80,0,0
111105,-85.5379309400961,4,1,0,80,0,0
111193,-85.9928780698383,4,1,0,80,0,0
111281,-86.4527652349224,4,1,0,80,0,0
111369,-86.9175977714328,4,1,0,80,0,0
111722,-86.9565217391304,4,1,0,80,0,0
111899,-85.1433388108881,4,1,0,80,0,0
111943,-84.7018326088503,4,1,0,80,0,0
111987,-84.264810593772,4,1,0,80,0,0
112075,-83.4042269262206,4,1,0,80,0,0
112163,-81.6666530555578,4,1,0,80,0,0
112252,-80.0653333119826,4,1,0,80,0,0
112340,-78.5256649356993,4,1,0,80,0,0
112428,-77.0440360596906,4,1,0,80,0,0
112487,-76.4430732255843,4,1,0,80,0,0
112546,-75.9689651583535,4,1,0,80,0,0
112605,-75.5007587826258,4,1,0,80,0,0
112693,-74.8091431734787,4,1,0,80,0,0
112781,-74.130083470474,4,1,0,70,0,0
113663,-90.9090909090909,4,1,0,70,0,0
113752,-89.2988699228011,4,1,0,70,0,0
113840,-87.7447750180096,4,1,0,70,0,0
113928,-86.243773199575,4,1,0,70,0,0
114016,-84.7932613099372,4,1,0,70,0,0
114105,-83.3907339552058,4,1,0,70,0,0
114193,-82.0339161022733,4,1,0,70,0,0
114281,-80.7204787047269,4,1,0,70,0,0
114325,-80.0794388032929,4,1,0,70,0,0
114369,-79.4484371697924,4,1,0,70,0,0
114458,-78.2159260139913,4,1,0,70,0,0
114546,-77.0210121023116,4,1,0,70,0,0
115075,-76.9230769230769,4,1,0,70,0,0
115163,-78.4103401283734,4,1,0,70,0,0
115252,-79.9561840111619,4,1,0,70,0,0
115340,-81.5642722387027,4,1,0,70,0,0
115428,-83.2383029374797,4,1,0,70,0,0
115516,-84.9825615783641,4,1,0,70,0,0
115605,-80,4,1,0,80,0,0
115693,-81.2055450394375,4,1,0,80,0,0
115781,-82.4479114707306,4,1,0,80,0,0
115869,-83.7289526345315,4,1,0,80,0,0
115958,-85.0504306528556,4,1,0,80,0,0
116046,-86.4142908497636,4,1,0,80,0,0
116134,-87.8225282349428,4,1,0,80,0,0
116222,-89.2775039438337,4,1,0,80,0,0
116311,-83.3333333333333,4,1,0,80,0,0
116369,-83.7403813704448,4,1,0,80,0,0
116428,-84.1514962556792,4,1,0,80,0,0
116487,-84.5665961945032,4,1,0,80,0,0
116575,-85.1970181043663,4,1,0,80,0,0
116663,-85.8369098712446,4,1,0,80,0,0
116840,-87.1459694989107,4,1,0,80,0,0
116928,-87.8155872667399,4,1,0,80,0,0
117016,-88.495575221239,4,1,0,80,0,0
117105,-89.0747185461581,4,1,0,80,0,0
117193,-89.6614920030915,4,1,0,80,0,0
117281,-90.2560473808146,4,1,0,80,0,0
117369,-90.8585405210919,4,1,0,80,0,0
117722,-71.4285714285714,4,1,0,90,0,0
117781,-71.851830030185,4,1,0,90,0,0
117840,-72.2801869165634,4,1,0,90,0,0
117899,-72.7136290063392,4,1,0,90,0,0
117987,-73.3736546023258,4,1,0,90,0,0
118075,-74.045826962307,4,1,0,90,0,0
118163,-74.7303728148839,4,1,0,90,0,0
118252,-75.42769388123,4,1,0,90,0,0
118296,-75.7812286865294,4,1,0,90,0,0
118340,-76.1381511525032,4,1,0,90,0,0
118435,352.941176470588,16,1,0,90,1,0
118435,-76.8621193499617,4,1,0,90,0,0
118479,-76.8621193499617,4,1,0,5,0,0
122317,-333.333333333333,4,1,0,15,0,0
122493,-341.844112247933,4,1,0,15,0,0
122670,-350.8008784054,4,1,0,15,0,0
123199,-380.7261208577,4,1,0,15,0,0
123729,-416.234823037765,4,1,0,15,0,0
124082,-443.830971412847,4,1,0,15,0,0
124126,-500,16,1,0,5,0,0
127611,-333.333333333333,16,1,0,15,0,0
128317,-368.306489928659,16,1,0,15,0,0
129023,-411.476914087735,16,1,0,15,0,0
129729,-466.113545259625,16,1,0,15,0,0
130082,-499.258600977548,16,1,0,15,0,0
130126,-500,16,1,0,5,0,0
133611,-363.636363636364,16,1,0,15,0,0
133787,-373.788458159989,16,1,0,15,0,0
133964,-384.523690504572,16,1,0,15,0,0
134493,-420.776248022352,16,1,0,15,0,0
135023,-464.578232651487,16,1,0,15,0,0
135376,-499.223707135404,16,1,0,15,0,0
135420,-500,16,1,0,5,0,0
138199,-363.636363636364,16,1,0,15,0,0
138905,-399.860848424748,16,1,0,15,0,0
139611,-444.102978598677,16,1,0,15,0,0
140317,-499.350843902926,16,1,0,15,0,0
141023,352.941176470588,8,1,0,45,1,0
141023,-200,8,1,0,45,0,0
141192,-198.230200767547,8,1,0,45,0,0
141368,-196.491062604017,8,1,0,45,0,0
141545,-194.782554495289,8,1,0,45,0,0
141898,-191.453148542754,8,1,0,45,0,0
142074,-189.830405515712,8,1,0,45,0,0
142251,-188.235294117647,8,1,0,45,0,0
142604,-185.123820067052,8,1,0,45,0,0
142780,-183.606509217965,8,1,0,45,0,0
142957,-182.113868517429,8,1,0,45,0,0
143133,-180.645301144749,8,1,0,45,0,0
143310,-179.199908249647,8,1,0,45,0,0
143486,-177.777777777778,8,1,0,45,0,0
143663,-176.378041639328,8,1,0,45,0,0
143839,-174.999868750098,8,1,0,45,0,0
144016,-173.643367778389,8,1,0,45,0,0
144192,-172.307734721904,8,1,0,45,0,0
144368,-170.992491719689,8,1,0,45,0,0
144721,-168.421052631579,8,1,0,45,0,0
144898,-167.164258944124,8,1,0,45,0,0
145074,-165.92580793424,8,1,0,45,0,0
145251,-164.705843598625,8,1,0,45,0,0
145780,-161.151004937667,8,1,0,45,0,0
146310,-157.746372227805,8,1,0,45,0,0
146663,-155.555590123464,8,1,0,45,0,0
146839,-154.482860898998,8,1,0,45,0,0
147016,-153.424590279632,8,1,0,45,0,0
147192,-152.380952380952,8,1,0,45,0,0
147545,-150.335473609359,8,1,0,45,0,0
147721,-149.333301475562,8,1,0,45,0,0
147898,-148.344402298151,8,1,0,45,0,0
148251,-146.405167516793,8,1,0,45,0,0
148427,-145.454545454545,8,1,0,45,0,0
148604,-144.516188703459,8,1,0,45,0,0
148780,-143.589655226879,8,1,0,45,0,0
148957,-142.675130155387,8,1,0,45,0,0
149133,-141.772180612087,8,1,0,45,0,0
149310,-140.880588204632,8,1,0,45,0,0
149486,-139.999944000022,8,1,0,45,0,0
149663,-139.130434782609,8,1,0,45,0,0
149839,-138.271659564112,8,1,0,45,0,0
150016,-137.423231947054,8,1,0,45,0,0
150192,-136.585339202861,8,1,0,45,0,0
150898,-133.333333333333,8,1,0,45,0,0
151604,-130.232582368853,8,1,0,45,0,0
152310,-127.272773553736,8,1,0,45,0,0
152486,-126.553603677142,8,1,0,45,0,0
152663,-125.842674005811,8,1,0,45,0,0
152839,-125.13968717581,8,1,0,45,0,0
153192,-123.756862318016,8,1,0,45,0,0
153368,-123.076923076923,8,1,0,45,0,0
153545,-122.404414392801,8,1,0,45,0,0
153898,-121.08106013733,8,1,0,45,0,0
154074,-120.430128246044,8,1,0,45,0,0
154251,-119.786157751183,8,1,0,45,0,0
154427,-119.148895608887,8,1,0,45,0,0
154604,-118.518518518519,8,1,0,45,0,0
154780,-117.89477655403,8,1,0,45,0,0
154957,-117.277427965272,8,1,0,45,0,0
155133,-116.666647222225,8,1,0,45,0,0
155310,-116.062195409276,8,1,0,45,0,0
155486,-115.463974662585,8,1,0,45,0,0
155663,-114.871757170295,8,1,0,45,0,0
156016,-113.705620696242,8,1,0,45,0,0
156192,-113.131258279794,8,1,0,45,0,0
156368,-112.562795969802,8,1,0,45,0,0
156545,-112.000017920003,8,1,0,45,0,0
157074,-110.344827586207,8,1,0,45,0,0
157604,-108.737847186354,8,1,0,45,0,0
157957,-107.692357396473,8,1,0,45,0,0
158133,-107.177000673072,8,1,0,45,0,0
158310,-106.666666666667,8,1,0,45,0,0
158486,-106.161169641303,8,1,0,45,0,0
158839,-105.164303449494,8,1,0,45,0,0
159016,-104.672912848286,8,1,0,45,0,0
159192,-104.18609303193,8,1,0,45,0,0
159545,-103.225806451613,8,1,0,45,0,0
159721,-102.752323743801,8,1,0,45,0,0
159898,-102.283060186421,8,1,0,45,0,0
160074,-101.818167008267,8,1,0,45,0,0
160251,-101.357480739545,8,1,0,45,0,0
160427,-100.900944533742,8,1,0,45,0,0
160604,-100.448401665033,8,1,0,45,0,0
160780,-100,8,1,0,45,0,0
161310,-80,8,1,0,45,0,0
161839,-66.6666666666667,8,1,0,45,0,0
162368,-57.1428571428571,8,1,0,45,0,0
162898,-50,8,1,0,45,0,0
162957,-454.545454545455,8,1,0,15,0,0
163611,352.941176470588,4,1,0,80,1,1
163611,-55.5555555555556,4,1,0,80,0,1
163662,-56.3380281690141,4,1,0,80,0,1
163721,-57.1428571428571,4,1,0,80,0,1
163780,-57.9710144927536,4,1,0,80,0,1
163956,-60.6060606060606,4,1,0,80,0,1
164015,-61.5384615384615,4,1,0,80,0,1
164074,-62.5,4,1,0,80,0,1
164133,-63.4920634920635,4,1,0,80,0,1
164192,-64.5161290322581,4,1,0,80,0,1
164251,-65.5737704918033,4,1,0,80,0,1
164309,-66.6666666666667,4,1,0,80,0,1
164669,-40,4,1,0,100,0,0
165015,-71.4285714285714,4,1,0,80,0,0
165192,-76.9230769230769,4,1,0,80,0,0
165375,-58.8235294117647,4,1,0,80,0,1
165427,-59.9520383693046,4,1,0,80,0,1
165486,-61.1246943765281,4,1,0,80,0,1
165545,-62.3441396508728,4,1,0,80,0,1
165721,-52.6315789473684,4,1,0,80,0,1
165780,-53.5583354712036,4,1,0,80,0,1
165839,-54.5182846148856,4,1,0,80,0,1
165898,-55.5133037632469,4,1,0,80,0,1
165986,-57.0758338065871,4,1,0,80,0,1
166074,-58.7288722881943,4,1,0,80,0,1
166133,-59.8851522550053,4,1,0,80,0,1
166192,-61.0878773550904,4,1,0,80,0,1
166251,-62.3398644731346,4,1,0,80,0,1
166427,-55.5555555555556,4,1,0,80,0,1
166486,-56.3298405076896,4,1,0,80,0,1
166545,-57.1260457636753,4,1,0,80,0,1
166604,-57.9450483928072,4,1,0,80,0,1
166780,-60.5493277208143,4,1,0,80,0,1
166839,-61.4702201371524,4,1,0,80,0,1
166898,-62.4195567961789,4,1,0,80,0,1
166956,-63.3986762356402,4,1,0,80,0,1
167015,-64.4090438026584,4,1,0,80,0,1
167074,-65.4520939761165,4,1,0,80,0,1
167133,-66.5294828729826,4,1,0,80,0,1
167493,-40,4,1,0,100,0,0
167839,-71.4285714285714,4,1,0,80,0,0
168022,-76.9230769230769,4,1,0,80,0,1
168192,-58.8235294117647,4,1,0,80,0,1
168251,-59.9520383693046,4,1,0,80,0,1
168310,-61.1246943765281,4,1,0,80,0,1
168369,-62.3441396508728,4,1,0,80,0,1
168545,-52.6315789473684,4,1,0,80,0,1
168604,-53.5583354712036,4,1,0,80,0,1
168663,-54.5182846148856,4,1,0,80,0,1
168722,-55.5133037632469,4,1,0,80,0,1
168810,-57.0758338065871,4,1,0,80,0,1
168898,-58.7288722881943,4,1,0,80,0,1
168957,-59.8851522550053,4,1,0,80,0,1
169016,-61.0878773550904,4,1,0,80,0,1
169075,-62.3398644731346,4,1,0,80,0,1
169251,-55.5555555555556,4,1,0,80,0,1
169309,-56.3380281690141,4,1,0,80,0,1
169368,-57.1428571428571,4,1,0,80,0,1
169427,-57.9710144927536,4,1,0,80,0,1
169603,-60.6060606060606,4,1,0,80,0,1
169662,-61.5384615384615,4,1,0,80,0,1
169721,-62.5,4,1,0,80,0,1
169780,-63.4920634920635,4,1,0,80,0,1
169839,-64.5161290322581,4,1,0,80,0,1
169898,-65.5737704918033,4,1,0,80,0,1
169956,-66.6666666666667,4,1,0,80,0,1
170316,-40,4,1,0,100,0,0
170662,-71.4285714285714,4,1,0,80,0,0
170839,-76.9230769230769,4,1,0,80,0,0
171022,-58.8235294117647,4,1,0,80,0,1
171074,-59.9520383693046,4,1,0,80,0,1
171133,-61.1246943765281,4,1,0,80,0,1
171192,-62.3441396508728,4,1,0,80,0,1
171368,-52.6315789473684,4,1,0,80,0,1
171427,-53.5583354712036,4,1,0,80,0,1
171486,-54.5182846148856,4,1,0,80,0,1
171545,-55.5133037632469,4,1,0,80,0,1
171633,-57.0758338065871,4,1,0,80,0,1
171721,-58.7288722881943,4,1,0,80,0,1
171780,-59.8851522550053,4,1,0,80,0,1
171839,-61.0878773550904,4,1,0,80,0,1
171898,-62.3398644731346,4,1,0,80,0,1
172074,-55.5555555555556,4,1,0,80,0,1
172133,-56.3298405076896,4,1,0,80,0,1
172192,-57.1260457636753,4,1,0,80,0,1
172251,-57.9450483928072,4,1,0,80,0,1
172427,-60.5493277208143,4,1,0,80,0,1
172486,-61.4702201371524,4,1,0,80,0,1
172545,-62.4195567961789,4,1,0,80,0,1
172603,-63.3986762356402,4,1,0,80,0,1
172662,-64.4090438026584,4,1,0,80,0,1
172721,-65.4520939761165,4,1,0,80,0,1
172780,-66.5294828729826,4,1,0,80,0,1
173140,-40,4,1,0,100,0,0
173309,-68.9655172413793,4,1,0,80,0,0
173486,-71.4285714285714,4,1,0,80,0,0
173669,-76.9230769230769,4,1,0,80,0,1
173839,-58.8235294117647,4,1,0,80,0,1
173898,-59.9520383693046,4,1,0,80,0,1
173957,-61.1246943765281,4,1,0,80,0,1
174016,-62.3441396508728,4,1,0,80,0,1
174192,-52.6315789473684,4,1,0,80,0,1
174251,-53.5583354712036,4,1,0,80,0,1
174310,-54.5182846148856,4,1,0,80,0,1
174369,-55.5133037632469,4,1,0,80,0,1
174457,-57.0758338065871,4,1,0,80,0,1
174545,-58.7288722881943,4,1,0,80,0,1
174604,-59.8851522550053,4,1,0,80,0,1
174663,-61.0878773550904,4,1,0,80,0,1
174722,-62.3398644731346,4,1,0,80,0,1
174898,-55.5555555555556,4,1,0,80,0,1
174956,-56.3380281690141,4,1,0,80,0,1
175015,-57.1428571428571,4,1,0,80,0,1
175074,-57.9710144927536,4,1,0,80,0,1
175250,-60.6060606060606,4,1,0,80,0,1
175309,-61.5384615384615,4,1,0,80,0,1
175368,-62.5,4,1,0,80,0,1
175427,-63.4920634920635,4,1,0,80,0,1
175486,-64.5161290322581,4,1,0,80,0,1
175545,-65.5737704918033,4,1,0,80,0,1
175603,-66.6666666666667,4,1,0,80,0,1
175963,-40,4,1,0,100,0,0
176309,-71.4285714285714,4,1,0,80,0,0
176486,-76.9230769230769,4,1,0,80,0,0
176669,-58.8235294117647,4,1,0,80,0,1
176721,-59.9520383693046,4,1,0,80,0,1
176780,-61.1246943765281,4,1,0,80,0,1
176839,-62.3441396508728,4,1,0,80,0,1
177015,-52.6315789473684,4,1,0,80,0,1
177074,-53.5583354712036,4,1,0,80,0,1
177133,-54.5182846148856,4,1,0,80,0,1
177192,-55.5133037632469,4,1,0,80,0,1
177280,-57.0758338065871,4,1,0,80,0,1
177368,-58.7288722881943,4,1,0,80,0,1
177427,-59.8851522550053,4,1,0,80,0,1
177486,-61.0878773550904,4,1,0,80,0,1
177545,-62.3398644731346,4,1,0,80,0,1
177721,-55.5555555555556,4,1,0,80,0,1
177780,-56.3298405076896,4,1,0,80,0,1
177839,-57.1260457636753,4,1,0,80,0,1
177898,-57.9450483928072,4,1,0,80,0,1
178074,-60.5493277208143,4,1,0,80,0,1
178133,-61.4702201371524,4,1,0,80,0,1
178192,-62.4195567961789,4,1,0,80,0,1
178250,-63.3986762356402,4,1,0,80,0,1
178309,-64.4090438026584,4,1,0,80,0,1
178368,-65.4520939761165,4,1,0,80,0,1
178427,-66.5294828729826,4,1,0,80,0,1
178787,-40,4,1,0,100,0,0
179133,-71.4285714285714,4,1,0,80,0,0
179316,-76.9230769230769,4,1,0,80,0,1
179486,-58.8235294117647,4,1,0,80,0,1
179545,-59.9520383693046,4,1,0,80,0,1
179604,-61.1246943765281,4,1,0,80,0,1
179663,-62.3441396508728,4,1,0,80,0,1
179839,-52.6315789473684,4,1,0,80,0,1
179898,-53.5583354712036,4,1,0,80,0,1
179957,-54.5182846148856,4,1,0,80,0,1
180016,-55.5133037632469,4,1,0,80,0,1
180104,-57.0758338065871,4,1,0,80,0,1
180192,-58.7288722881943,4,1,0,80,0,1
180251,-59.8851522550053,4,1,0,80,0,1
180310,-61.0878773550904,4,1,0,80,0,1
180369,-62.3398644731346,4,1,0,80,0,1
180545,-55.5555555555556,4,1,0,80,0,1
180603,-56.3380281690141,4,1,0,80,0,1
180662,-57.1428571428571,4,1,0,80,0,1
180721,-57.9710144927536,4,1,0,80,0,1
180897,-60.6060606060606,4,1,0,80,0,1
180956,-61.5384615384615,4,1,0,80,0,1
181015,-62.5,4,1,0,80,0,1
181074,-63.4920634920635,4,1,0,80,0,1
181133,-64.5161290322581,4,1,0,80,0,1
181192,-65.5737704918033,4,1,0,80,0,1
181250,-66.6666666666667,4,1,0,80,0,1
181611,-40,4,1,0,100,0,0
181956,-71.4285714285714,4,1,0,80,0,0
182133,-76.9230769230769,4,1,0,80,0,0
182316,-58.8235294117647,4,1,0,80,0,1
182368,-59.9520383693046,4,1,0,80,0,1
182427,-61.1246943765281,4,1,0,80,0,1
182486,-62.3441396508728,4,1,0,80,0,1
182662,-52.6315789473684,4,1,0,80,0,1
182721,-53.5583354712036,4,1,0,80,0,1
182780,-54.5182846148856,4,1,0,80,0,1
182839,-55.5133037632469,4,1,0,80,0,1
182927,-57.0758338065871,4,1,0,80,0,1
183015,-58.7288722881943,4,1,0,80,0,1
183074,-59.8851522550053,4,1,0,80,0,1
183133,-61.0878773550904,4,1,0,80,0,1
183192,-62.3398644731346,4,1,0,80,0,1
183375,-66.6666666666667,4,1,0,60,0,0
184427,-66.6666666666667,4,1,0,100,0,0
184692,-76.9230769230769,4,1,0,80,0,0
184780,-73.7704676162401,4,1,0,80,0,0
184956,-68.1818026859539,4,1,0,80,0,0
185045,-65.6934402472176,4,1,0,80,0,0
185133,-63.3802727633419,4,1,0,80,0,0
185192,-61.926598402913,4,1,0,80,0,0
185251,-60.5381111625012,4,1,0,80,0,0
185309,-59.2105224203604,4,1,0,80,0,0
185398,-57.3248553693899,4,1,0,80,0,0
185486,-50,4,1,0,90,0,0
186199,-83.3333333333333,4,1,0,80,0,1
186368,-80.0329735851171,4,1,0,80,0,1
186545,-76.9841312610232,4,1,0,80,0,1
186604,-76.0188040113602,4,1,0,80,0,1
186662,-75.0773860156356,4,1,0,80,0,1
186721,-74.1589998620643,4,1,0,80,0,1
186809,-72.8228162622087,4,1,0,80,0,1
186898,-71.5339306893439,4,1,0,80,0,1
187074,-66.7584372650937,4,1,0,80,0,1
187162,-74.0740740740741,4,1,0,80,0,1
187251,-62.5806508137362,4,1,0,80,0,1
187339,-76.9230769230769,4,1,0,80,0,1
187427,-58.8949655405557,4,1,0,80,0,1
187515,-80,4,1,0,80,0,1
187604,-81.6326530612245,4,1,0,80,0,1
187612,-55.5555555555556,4,1,0,80,0,1
187692,-83.3333333333333,4,1,0,80,0,1
187780,-52.6887601175592,4,1,0,80,0,1
187956,-76.9230769230769,4,1,0,80,0,1
188133,-74.130083470474,4,1,0,80,0,1
188221,-72.8083415060697,4,1,0,80,0,1
188309,-71.5328561138059,4,1,0,80,0,1
188368,-71.0145061331678,4,1,0,80,0,1
188427,-70.6051639204788,4,1,0,80,0,1
188486,-70.2005630085153,4,1,0,80,0,1
188574,-69.6022578972462,4,1,0,80,0,1
188662,-69.0140650664605,4,1,0,80,0,1
189015,-83.3333333333333,4,1,0,80,0,1
189191,-80.0329735851171,4,1,0,80,0,1
189368,-76.9841312610232,4,1,0,80,0,1
189427,-76.0188040113602,4,1,0,80,0,1
189485,-75.0773860156356,4,1,0,80,0,1
189544,-74.1589998620643,4,1,0,80,0,1
189632,-72.8228162622087,4,1,0,80,0,1
189721,-71.5339306893439,4,1,0,80,0,1
189897,-66.7584372650937,4,1,0,80,0,1
189985,-74.0740740740741,4,1,0,80,0,1
190074,-62.5806508137362,4,1,0,80,0,1
190162,-76.9230769230769,4,1,0,80,0,1
190250,-58.8949655405557,4,1,0,80,0,1
190338,-80,4,1,0,80,0,1
190427,-81.6326530612245,4,1,0,80,0,1
190435,-55.6192705198956,4,1,0,80,0,1
190603,-80,4,1,0,80,0,1
190780,-76.9230769230769,4,1,0,80,0,1
190956,-74.130083470474,4,1,0,80,0,1
191045,-72.8083415060697,4,1,0,80,0,1
191133,-71.4285714285714,4,1,0,80,0,1
191309,-70.2005630085153,4,1,0,80,0,1
191486,-69.0140650664605,4,1,0,80,0,1
191839,-83.3333333333333,4,1,0,80,0,1
192015,-80.0329735851171,4,1,0,80,0,1
192192,-76.9841312610232,4,1,0,80,0,1
192251,-76.0188040113602,4,1,0,80,0,1
192309,-75.0773860156356,4,1,0,80,0,1
192368,-74.1589998620643,4,1,0,80,0,1
192456,-72.8228162622087,4,1,0,80,0,1
192545,-71.4285714285714,4,1,0,80,0,1
192633,-70.588218685125,4,1,0,80,0,1
192721,-69.7674580854554,4,1,0,80,0,1
192809,-68.9655172413793,4,1,0,80,0,1
192942,-71.4285714285714,4,1,0,80,0,1
193074,-64.5161290322581,4,1,0,80,0,1
193251,-74.0740740740741,4,1,0,80,0,1
193427,-60.6060606060606,4,1,0,80,0,1
193603,-76.9230769230769,4,1,0,80,0,1
193780,-74.130083470474,4,1,0,80,0,1
193868,-72.8083415060697,4,1,0,80,0,1
193956,-71.5328561138059,4,1,0,80,0,1
194015,-71.0145061331678,4,1,0,80,0,1
194074,-70.6051639204788,4,1,0,80,0,1
194133,-70.2005630085153,4,1,0,80,0,1
194221,-69.6022578972462,4,1,0,80,0,1
194309,-69.0140650664605,4,1,0,80,0,1
194662,-83.3333333333333,4,1,0,80,0,1
194838,-80.0329735851171,4,1,0,80,0,1
195015,-76.9841312610232,4,1,0,80,0,1
195074,-76.0188040113602,4,1,0,80,0,1
195132,-75.0773860156356,4,1,0,80,0,1
195191,-74.1589998620643,4,1,0,80,0,1
195279,-72.8228162622087,4,1,0,80,0,1
195368,-71.4285714285714,4,1,0,80,0,1
195456,-70.8092434386385,4,1,0,80,0,1
195545,-70.2005630085153,4,1,0,80,0,1
195633,-69.6022578972462,4,1,0,80,0,1
195721,-69.0140650664605,4,1,0,80,0,1
196074,-68.9655172413793,4,1,0,80,0,1
196162,-69.9638287005618,4,1,0,80,0,1
196251,-70.9914164278397,4,1,0,80,0,1
196280,-71.3407204271312,4,1,0,80,0,1
196427,-64.5161290322581,4,1,0,80,0,1
196486,-65.0759077926447,4,1,0,80,0,1
196545,-65.645528587643,4,1,0,80,0,1
196603,-66.2251655629139,4,1,0,80,0,1
196692,-67.1140939597315,4,1,0,80,0,1
196780,-68.0272108843538,4,1,0,80,0,1
196839,-68.6498698741717,4,1,0,80,0,1
196898,-69.2840806660694,4,1,0,80,0,1
196956,-69.9300699300699,4,1,0,80,0,1
197045,-70.9219858156028,4,1,0,80,0,1
197133,-71.9424460431655,4,1,0,80,0,1
197309,-76.9230769230769,4,1,0,80,0,1
197486,-83.3333333333333,4,1,0,80,0,1
197662,-80.0329735851171,4,1,0,80,0,1
197839,-76.9841312610232,4,1,0,80,0,1
197898,-76.0188040113602,4,1,0,80,0,1
197956,-75.0773860156356,4,1,0,80,0,1
198015,-74.1589998620643,4,1,0,80,0,1
198103,-72.8228162622087,4,1,0,80,0,1
198192,-71.5339306893439,4,1,0,80,0,1
198368,-66.7584372650937,4,1,0,80,0,1
198456,-74.0740740740741,4,1,0,80,0,1
198545,-62.5806508137362,4,1,0,80,0,1
198633,-76.9230769230769,4,1,0,80,0,1
198721,-58.8949655405557,4,1,0,80,0,1
198809,-80,4,1,0,80,0,1
198898,-81.6326530612245,4,1,0,80,0,1
198906,-55.6192705198956,4,1,0,80,0,1
198986,-83.3333333333333,4,1,0,80,0,1
199074,-52.6887601175592,4,1,0,80,0,1
199250,-76.9230769230769,4,1,0,80,0,1
199427,-74.130083470474,4,1,0,80,0,1
199515,-72.8083415060697,4,1,0,80,0,1
199603,-71.4285714285714,4,1,0,80,0,1
199662,-71.0145061331678,4,1,0,80,0,1
199721,-70.6051639204788,4,1,0,80,0,1
199780,-70.2005630085153,4,1,0,80,0,1
199868,-69.6022578972462,4,1,0,80,0,1
199956,-69.0140650664605,4,1,0,80,0,1
200309,-83.3333333333333,4,1,0,80,0,1
200485,-80.0329735851171,4,1,0,80,0,1
200662,-76.9841312610232,4,1,0,80,0,1
200721,-76.0188040113602,4,1,0,80,0,1
200779,-75.0773860156356,4,1,0,80,0,1
200838,-74.1589998620643,4,1,0,80,0,1
200926,-72.8228162622087,4,1,0,80,0,1
201015,-71.5339306893439,4,1,0,80,0,1
201191,-66.7584372650937,4,1,0,80,0,1
201279,-74.0740740740741,4,1,0,80,0,1
201368,-62.5806508137362,4,1,0,80,0,1
201456,-76.9230769230769,4,1,0,80,0,1
201544,-58.8949655405557,4,1,0,80,0,1
201632,-80,4,1,0,80,0,1
201721,-81.6326530612245,4,1,0,80,0,1
201729,-55.6192705198956,4,1,0,80,0,1
201897,-80,4,1,0,80,0,1
201986,-78.4313725490196,4,1,0,80,0,1
202074,-76.9230769230769,4,1,0,80,0,1
202250,-74.130083470474,4,1,0,80,0,1
202339,-72.8083415060697,4,1,0,80,0,1
202427,-71.4285714285714,4,1,0,80,0,1
202603,-70.2005630085153,4,1,0,80,0,1
202780,-69.0140650664605,4,1,0,80,0,1
203133,-83.3333333333333,4,1,0,80,0,1
203309,-80.0329735851171,4,1,0,80,0,1
203486,-76.9841312610232,4,1,0,80,0,1
203545,-76.0188040113602,4,1,0,80,0,1
203603,-75.0773860156356,4,1,0,80,0,1
203662,-74.1589998620643,4,1,0,80,0,1
203750,-72.8228162622087,4,1,0,80,0,1
203839,-71.5339306893439,4,1,0,80,0,1
203971,-71.9424460431655,4,1,0,80,0,1
204103,-68.0272108843537,4,1,0,80,0,1
204236,-74.0740740740741,4,1,0,80,0,1
204368,-64.5161290322581,4,1,0,80,0,1
204545,-78.7401574803149,4,1,0,80,0,1
204721,-58.8235294117647,4,1,0,80,0,1
204897,-76.9230769230769,4,1,0,80,0,1
205074,-74.130083470474,4,1,0,80,0,1
205162,-72.8083415060697,4,1,0,80,0,1
205250,-71.4285714285714,4,1,0,80,0,1
205309,-71.0145061331678,4,1,0,80,0,1
205368,-70.6051639204788,4,1,0,80,0,1
205427,-70.2005630085153,4,1,0,80,0,1
205515,-69.6022578972462,4,1,0,80,0,1
205603,-69.0140650664605,4,1,0,80,0,1
205956,-83.3333333333333,4,1,0,80,0,1
206132,-80.0329735851171,4,1,0,80,0,1
206309,-76.9841312610232,4,1,0,80,0,1
206368,-76.0188040113602,4,1,0,80,0,1
206426,-75.0773860156356,4,1,0,80,0,1
206485,-74.1589998620643,4,1,0,80,0,1
206573,-72.8228162622087,4,1,0,80,0,1
206662,-71.4285714285714,4,1,0,80,0,1
206750,-70.8092434386385,4,1,0,80,0,1
206839,-70.2005630085153,4,1,0,80,0,1
206927,-69.6022578972462,4,1,0,80,0,1
207015,-69.0140650664605,4,1,0,80,0,1
207368,-68.9655172413793,4,1,0,80,0,1
207456,-69.5528793153215,4,1,0,80,0,1
207545,-70.1503321618228,4,1,0,80,0,1
207633,-70.7581380703548,4,1,0,80,0,1
207721,-71.3765685000928,4,1,0,80,0,1
207780,-72.2714109475288,4,1,0,80,0,1
207839,-73.1343250835377,4,1,0,80,0,1
207898,-74.0181492501961,4,1,0,80,0,1
208074,-68.9655172413793,4,1,0,80,0,1
208162,-71.4285714285714,4,1,0,80,0,1
208251,-74.0740740740741,4,1,0,80,0,1
208427,-66.6666666666667,4,1,0,80,0,1
208486,-69.7674580854554,4,1,0,80,0,1
208545,-73.1707138608015,4,1,0,80,0,1
208603,-76.9230769230769,4,1,0,80,0,1
208787,352.941176470588,8,1,0,80,1,0
208787,-52.6315789473684,8,1,0,80,0,0
209132,-133.333333333333,8,1,0,30,0,0
209485,-153.522575494727,8,1,0,30,0,0
209662,-166.097781764125,8,1,0,30,0,0
210015,-187.500117187573,8,1,0,31,0,0
210191,-200,8,1,0,31,0,0
210544,-205.846450898417,8,1,0,31,0,0
210721,-208.899974514203,8,1,0,31,0,0
211074,-215.286643401357,8,1,0,31,0,0
211250,-218.628934227671,8,1,0,32,0,0
211427,-222.076145468758,8,1,0,32,0,0
214603,-222.222222222222,8,1,0,32,0,0
214780,-221.445686016591,8,1,0,32,0,0
215132,-219.908298239634,8,1,0,33,0,0
215309,-219.147821780225,8,1,0,33,0,0
215662,-217.642065858489,8,1,0,33,0,0
215838,-216.89715604449,8,1,0,33,0,0
216191,-215.422529749851,8,1,0,33,0,0
216368,-214.692249395105,8,1,0,34,0,0
216721,-213.247352001007,8,1,0,34,0,0
216897,-212.532172057545,8,1,0,34,0,0
217074,-211.821324476378,8,1,0,34,0,0
217427,-210.414685261714,8,1,0,34,0,0
217603,-209.718348258289,8,1,0,35,0,0
217956,-208.338975847263,8,1,0,35,0,0
218132,-207.656287313239,8,1,0,35,0,0
218485,-206.303819508914,8,1,0,35,0,0
218662,-205.634382068682,8,1,0,36,0,0
219015,-204.308456735641,8,1,0,36,0,0
219191,-203.651470872748,8,1,0,36,0,0
219544,-202.350912906144,8,1,0,36,0,0
219721,-201.706843308073,8,1,0,36,0,0
219897,-201.066456485197,8,1,0,37,0,0
220250,-199.798603008168,8,1,0,37,0,0
220427,-199.170653399246,8,1,0,37,0,0
220780,-197.926130009758,8,1,0,37,0,0
220956,-197.30987713514,8,1,0,37,0,0
221309,-196.088428037508,8,1,0,38,0,0
221485,-195.483548104592,8,1,0,38,0,0
221838,-194.284914942064,8,1,0,38,0,0
222015,-193.690718534459,8,1,0,38,0,0
222368,-192.513904316739,8,1,0,39,0,0
222544,-191.930843478478,8,1,0,39,0,0
222721,-191.350937619594,8,1,0,39,0,0
223074,-190.202299165392,8,1,0,39,0,0
223250,-189.632776129026,8,1,0,39,0,0
223603,-188.504611765327,8,1,0,40,0,0
223780,-187.945548415713,8,1,0,40,0,0
224132,-186.836962329932,8,1,0,40,0,0
224309,-186.287732580234,8,1,0,40,0,0
224662,-185.198560636787,8,1,0,40,0,0
224838,-184.658907299382,8,1,0,41,0,0
225191,-183.588980989361,8,1,0,41,0,0
225368,-183.058318719178,8,1,0,41,0,0
225544,-182.531048531355,8,1,0,41,0,0
225897,-181.485568267611,8,1,0,41,0,0
226074,-180.96697895535,8,1,0,42,0,0
226427,-179.939288484065,8,1,0,42,0,0
226603,-179.429807956277,8,1,0,42,0,0
226956,-178.419135095401,8,1,0,42,0,0
227132,-177.918214555133,8,1,0,43,0,0
227485,-176.924451489969,8,1,0,43,0,0
227662,-176.43187700581,8,1,0,43,0,0
228015,-175.454910719769,8,1,0,43,0,0
228191,-174.970167586427,8,1,0,43,0,0
228368,-174.488400011167,8,1,0,44,0,0
228721,-173.532780342207,8,1,0,44,0,0
228897,-173.058585522957,8,1,0,44,0,0
229250,-172.118520813432,8,1,0,44,0,0
229427,-171.652307951107,8,1,0,44,0,0
229780,-170.727126833183,8,1,0,45,0,0
229956,-170.268411123295,8,1,0,45,0,0
230309,-169.358048317851,8,1,0,45,0,0
230485,-168.906650361545,8,1,0,45,0,0
230838,-168.011034964776,8,1,0,46,0,0
231015,-167.566498765035,8,1,0,46,0,0
231191,-167.12458803789,8,1,0,46,0,0
231368,-142.857142857143,8,1,0,46,0,0
231544,-142.307632100617,8,1,0,46,0,0
231721,-141.76253358,8,1,0,47,0,0
231897,-141.22139560632,8,1,0,47,0,0
232074,-140.684373201878,8,1,0,47,0,0
232250,-140.151419593729,8,1,0,47,0,0
232427,-139.622683659678,8,1,0,47,0,0
232603,-139.097728673188,8,1,0,48,0,0
232780,-138.576706364274,8,1,0,48,0,0
232956,-138.059763310342,8,1,0,48,0,0
233132,-137.546473514739,8,1,0,48,0,0
233309,-137.036986282598,8,1,0,49,0,0
233485,-136.531445922625,8,1,0,49,0,0
233662,-136.029436770117,8,1,0,49,0,0
233838,-135.531105744079,8,1,0,49,0,0
234015,-135.036412568649,8,1,0,49,0,0
234191,-134.545498578527,8,1,0,50,0,0
234368,-134.057961300148,8,1,0,50,0,0
234544,-133.573944532084,8,1,0,50,0,0
234721,-133.093587417865,8,1,0,50,0,0
234897,-132.616496961756,8,1,0,50,0,0
235074,-132.142814668381,8,1,0,51,0,0
235250,-131.672677524396,8,1,0,51,0,0
235427,-131.205701674972,8,1,0,51,0,0
235603,-130.742026370667,8,1,0,51,0,0
235779,-130.281616742751,8,1,0,51,0,0
235956,-129.824606956002,8,1,0,52,0,0
236132,-129.370624847181,8,1,0,52,0,0
236309,-128.919806723426,8,1,0,52,0,0
236485,-128.472284674027,8,1,0,52,0,0
236662,-128.027694950972,8,1,0,53,0,0
236838,-127.586171700366,8,1,0,53,0,0
237015,-127.147844971176,8,1,0,53,0,0
237191,-126.712359143374,8,1,0,53,0,0
237368,-126.279846241659,8,1,0,53,0,0
237544,-125.85027592673,8,1,0,54,0,0
237721,-125.423775581747,8,1,0,54,0,0
237897,-125,8,1,0,54,0,0
238074,-124.579078438725,8,1,0,54,0,0
238250,-124.16113632272,8,1,0,54,0,0
238427,-123.74583595262,8,1,0,55,0,0
238603,-123.333304555562,8,1,0,55,0,0
238779,-122.923514530789,8,1,0,55,0,0
238956,-122.516588746116,8,1,0,55,0,0
239132,-122.112199130805,8,1,0,56,0,0
239309,-121.710470264915,8,1,0,56,0,0
239485,-121.31152313896,8,1,0,56,0,0
239662,-120.91503663121,8,1,0,56,0,0
239838,-120.521133380738,8,1,0,56,0,0
240015,-120.12993253503,8,1,0,57,0,0
240191,-119.74111969921,8,1,0,57,0,0
240368,-119.354815608745,8,1,0,57,0,0
240544,-118.97099606087,8,1,0,57,0,0
240721,-118.589777798333,8,1,0,57,0,0
240897,-118.210855066399,8,1,0,58,0,0
241074,-117.834346119538,8,1,0,58,0,0
241250,-117.460365936024,8,1,0,58,0,0
241427,-117.088615005609,8,1,0,58,0,0
241603,-116.719209764262,8,1,0,59,0,0
241779,-116.352263458757,8,1,0,59,0,0
241956,-115.987482630874,8,1,0,59,0,0
242132,-115.624981933597,8,1,0,59,0,0
242309,-115.264740054958,8,1,0,59,0,0
242485,-114.906867983499,8,1,0,60,0,0
242662,-114.551080044858,8,1,0,60,0,0
242838,-114.197488568831,8,1,0,60,0,0
243015,-113.846202887595,8,1,0,60,0,0
243191,-113.496942959841,8,1,0,60,0,0
243368,-113.149819412888,8,1,0,61,0,0
243544,-112.80493995393,8,1,0,61,0,0
243721,-112.462030007119,8,1,0,61,0,0
243897,-112.121198530764,8,1,0,61,0,0
244074,-111.782426684701,8,1,0,61,0,0
244250,-111.44582005735,8,1,0,62,0,0
244427,-111.111111111111,8,1,0,62,0,0
244603,-110.778406629866,8,1,0,62,0,0
244779,-110.447810648273,8,1,0,62,0,0
244956,-110.11906072846,8,1,0,63,0,0
245132,-109.792262060954,8,1,0,63,0,0
245309,-109.467397325055,8,1,0,63,0,0
245485,-109.144568529692,8,1,0,63,0,0
245662,-108.823519809689,8,1,0,63,0,0
245838,-108.504354279737,8,1,0,64,0,0
246015,-108.187172463335,8,1,0,64,0,0
246191,-107.871723261566,8,1,0,64,0,0
246368,-107.558108267992,8,1,0,64,0,0
246544,-107.246426549067,8,1,0,64,0,0
246721,-106.936431638213,8,1,0,65,0,0
246897,-106.628223637771,8,1,0,65,0,0
247074,-106.321787141656,8,1,0,65,0,0
247250,-106.017219316761,8,1,0,65,0,0
247427,-105.71427967347,8,1,0,66,0,0
247603,-105.413066371229,8,1,0,66,0,0
247779,-105.113675184028,8,1,0,66,0,0
247956,-104.815869961239,8,1,0,66,0,0
248132,-104.519747438482,8,1,0,66,0,0
248309,-104.225402023432,8,1,0,67,0,0
248485,-103.932601786394,8,1,0,67,0,0
248662,-103.641442067025,8,1,0,67,0,0
248838,-103.351909116465,8,1,0,67,0,0
249015,-103.064095561029,8,1,0,67,0,0
249191,-102.77777492284,8,1,0,68,0,0
249368,-102.493040722535,8,1,0,68,0,0
249544,-102.209984280104,8,1,0,68,0,0
249721,-101.928383079481,8,1,0,68,0,0
249897,-101.648329308059,8,1,0,69,0,0
250074,-101.369913004341,8,1,0,69,0,0
250250,-101.092915509574,8,1,0,69,0,0
250427,-100.817427703823,8,1,0,69,0,0
250603,-100.54343727849,8,1,0,69,0,0
250779,-100.271032601121,8,1,0,70,0,0
250956,-100,8,1,0,70,0,0
251132,-100,8,1,0,40,0,0
251140,-1000,8,1,0,40,0,0
251492,-454.545454545455,8,1,0,50,0,0
251845,-454.545454545455,8,1,0,60,0,0
252198,-454.545454545455,8,1,0,70,0,0
252551,-454.545454545455,8,1,0,80,0,0
252904,-454.545454545455,8,1,0,90,0,0
253257,-454.545454545455,8,1,0,100,0,0
253963,352.941176470588,4,1,0,80,1,0
253963,-50,4,1,0,80,0,0
254044,-51.2820512820513,4,1,0,80,0,0
254132,-52.6315789473684,4,1,0,80,0,0
254176,-53.3333333333333,4,1,0,80,0,0
254220,-54.054054054054,4,1,0,80,0,0
254264,-54.7945205479452,4,1,0,80,0,0
254308,-55.5555555555556,4,1,0,80,0,0
254668,-100,4,1,0,80,0,1
254750,-97.5609756097561,4,1,0,77,0,1
254838,-95.2380952380952,4,1,0,73,0,1
254926,-90.9090909090909,4,1,0,70,0,1
255014,-83.3333333333333,4,1,0,67,0,1
255102,-71.4285714285714,4,1,0,63,0,1
255190,-55.5555555555556,4,1,0,60,0,1
255279,-38.4615384615385,4,1,0,57,0,1
255367,-86.9565217391304,4,1,0,53,0,1
255375,-23.8095238095238,4,1,0,53,0,1
255456,-13.5135135135135,4,1,0,50,0,1
255544,-10,4,1,0,47,0,1
255632,-10,4,1,0,43,0,1
255720,-10,4,1,0,40,0,1
255808,-10,4,1,0,37,0,1
255897,-10,4,1,0,33,0,1
255985,-10,4,1,0,30,0,1
256073,-58.8235294117647,4,1,0,80,0,1
256161,-60.5686181875447,4,1,0,80,0,1
256250,-62.420375009129,4,1,0,80,0,1
256338,-64.3889711994571,4,1,0,80,0,1
256426,-66.4857368148811,4,1,0,80,0,1
256485,-67.773176732113,4,1,0,80,0,1
256544,-68.9170376700528,4,1,0,80,0,1
256603,-70.1001240071194,4,1,0,80,0,1
256691,-71.9530060526869,4,1,0,80,0,1
256779,-73.9064979332048,4,1,0,80,0,1
257132,-55.5555555555556,4,1,0,80,0,1
257191,-56.3909880434188,4,1,0,80,0,1
257250,-57.2518974710119,4,1,0,80,0,1
257308,-58.1395348837209,4,1,0,80,0,1
257397,-59.5238095238095,4,1,0,80,0,1
257485,-60.9756097560976,4,1,0,80,0,1
257529,-61.7283950617284,4,1,0,80,0,1
257573,-62.5,4,1,0,80,0,1
257750,-58.8235294117647,4,1,0,80,0,1
257794,-59.5238095238095,4,1,0,80,0,1
257838,-60.2409638554217,4,1,0,80,0,1
257926,-61.7283950617284,4,1,0,80,0,1
258014,-63.2911392405063,4,1,0,80,0,1
258103,-64.9350649350649,4,1,0,80,0,1
258191,-66.6666666666667,4,1,0,80,0,1
258367,-67.5675675675676,4,1,0,80,0,1
258544,-62.5,4,1,0,80,0,1
258603,-63.8020808410646,4,1,0,80,0,1
258661,-65.1595692691833,4,1,0,80,0,1
258720,-66.5760788154251,4,1,0,80,0,1
258808,-68.8202353514409,4,1,0,80,0,1
258897,-71.2209115991801,4,1,0,80,0,1
259073,-76.9230769230769,4,1,0,80,0,1
259132,-75.6476574189927,4,1,0,80,0,1
259191,-74.4138421652642,4,1,0,80,0,1
259250,-73.2196817433313,4,1,0,80,0,1
259338,-71.4985378549009,4,1,0,80,0,1
259426,-69.8564519768328,4,1,0,80,0,1
259514,-68.2880992963594,4,1,0,80,0,1
259610,-50,4,1,0,80,0,0
259691,-51.2820512820513,4,1,0,80,0,0
259779,-52.6315789473684,4,1,0,80,0,0
259823,-53.3333333333333,4,1,0,80,0,0
259867,-54.054054054054,4,1,0,80,0,0
259911,-54.7945205479452,4,1,0,80,0,0
259955,-55.5555555555556,4,1,0,80,0,0
260315,-100,4,1,0,80,0,1
260397,-97.5609756097561,4,1,0,77,0,1
260485,-95.2380952380952,4,1,0,73,0,1
260573,-90.9090909090909,4,1,0,70,0,1
260661,-83.3333333333333,4,1,0,67,0,1
260749,-71.4285714285714,4,1,0,63,0,1
260837,-55.5555555555556,4,1,0,60,0,1
260926,-38.4615384615385,4,1,0,57,0,1
261014,-86.9565217391304,4,1,0,53,0,1
261022,-23.8095238095238,4,1,0,53,0,1
261103,-13.5135135135135,4,1,0,50,0,1
261191,-10,4,1,0,47,0,1
261279,-10,4,1,0,43,0,1
261367,-10,4,1,0,40,0,1
261456,-10,4,1,0,37,0,1
261544,-10,4,1,0,33,0,1
261632,-10,4,1,0,30,0,1
261720,-58.8235294117647,4,1,0,80,0,1
261808,-59.69229814154,4,1,0,80,0,1
261897,-60.5871500713414,4,1,0,80,0,1
261985,-61.5092020841778,4,1,0,80,0,1
262073,-62.4597524969847,4,1,0,80,0,1
262132,-63.1099577415723,4,1,0,80,0,1
262191,-63.7738426482471,4,1,0,80,0,1
262250,-64.4518435160801,4,1,0,80,0,1
262433,-66.5751480298416,4,1,0,60,0,0
263139,-66.6666666666667,4,1,0,80,0,1
263191,-67.4079291947112,4,1,0,80,0,1
263250,-68.1658611734071,4,1,0,80,0,1
263308,-68.941031288887,4,1,0,80,0,1
263397,-70.1373921374581,4,1,0,80,0,1
263485,-71.3760080968944,4,1,0,80,0,1
263661,-73.9893425750955,4,1,0,80,0,1
263750,-75.3690823964956,4,1,0,80,0,1
263838,-58.8235294117647,4,1,0,80,0,1
263926,-59.69229814154,4,1,0,80,0,1
264014,-60.5871500713414,4,1,0,80,0,1
264073,-61.1987238842096,4,1,0,80,0,1
264132,-61.8228084123532,4,1,0,80,0,1
264191,-62.4597524969847,4,1,0,80,0,1
264279,-63.4401432732196,4,1,0,80,0,1
264367,-64.4518435160801,4,1,0,80,0,1
264456,-65.4962915999696,4,1,0,80,0,1
264544,-52.6315789473684,4,1,0,80,0,1
264632,-53.3259956763283,4,1,0,80,0,1
264676,-53.6801212311858,4,1,0,80,0,1
264720,-54.039010761869,4,1,0,80,0,1
264808,-54.7713215169684,4,1,0,80,0,1
264897,-55.5237527838222,4,1,0,80,0,1
264985,-56.2971453406512,4,1,0,80,0,1
265080,-57.0924200677573,4,1,0,80,0,1
265257,-58.7522663686752,4,1,0,60,0,0
265963,-100,4,1,0,80,0,1
266045,-97.5609756097561,4,1,0,77,0,1
266133,-95.2380952380952,4,1,0,73,0,1
266221,-90.9090909090909,4,1,0,70,0,1
266309,-83.3333333333333,4,1,0,67,0,1
266397,-71.4285714285714,4,1,0,63,0,1
266485,-55.5555555555556,4,1,0,60,0,1
266574,-38.4615384615385,4,1,0,57,0,1
266662,-86.9565217391304,4,1,0,53,0,1
266669,-23.8095238095238,4,1,0,53,0,1
266751,-13.5135135135135,4,1,0,50,0,1
266839,-10,4,1,0,47,0,1
266926,-10,4,1,0,43,0,1
267014,-10,4,1,0,40,0,1
267103,-10,4,1,0,37,0,1
267191,-10,4,1,0,33,0,1
267279,-10,4,1,0,30,0,1
267367,-58.8235294117647,4,1,0,80,0,1
267456,-60.5686181875447,4,1,0,80,0,1
267544,-62.420375009129,4,1,0,80,0,1
267632,-64.3889711994571,4,1,0,80,0,1
267720,-66.4857368148811,4,1,0,80,0,1
267808,-68.340321131169,4,1,0,80,0,1
267897,-70.1001240071194,4,1,0,80,0,1
267985,-71.9530060526869,4,1,0,80,0,1
268073,-73.9064979332048,4,1,0,80,0,1
268426,-55.5555555555556,4,1,0,80,0,1
268485,-56.5819841830721,4,1,0,80,0,1
268544,-57.6470547543255,4,1,0,80,0,1
268603,-58.7529912616676,4,1,0,80,0,1
268691,-60.493835375706,4,1,0,80,0,1
268779,-62.3409526445656,4,1,0,80,0,1
268956,-58.8235294117647,4,1,0,80,0,1
269000,-59.7014925373134,4,1,0,80,0,1
269044,-60.6060606060606,4,1,0,80,0,1
269220,-64.5161290322581,4,1,0,80,0,1
269264,-65.5737704918033,4,1,0,80,0,1
269308,-66.6666666666667,4,1,0,80,0,1
269485,-62.5,4,1,0,80,0,1
269573,-63.8297736532396,4,1,0,80,0,1
269661,-65.2174054820447,4,1,0,80,0,1
269750,-66.6666666666667,4,1,0,80,0,1
269838,-68.1818026859539,4,1,0,80,0,1
269897,-69.2307905325509,4,1,0,80,0,1
269956,-70.3125109863298,4,1,0,80,0,1
270014,-71.4285714285714,4,1,0,80,0,1
270191,-76.9230769230769,4,1,0,80,0,1
270279,-75.4863965964693,4,1,0,80,0,1
270367,-74.1023427455659,4,1,0,80,0,1
270456,-72.7681816759531,4,1,0,80,0,1
270544,-71.4812122355821,4,1,0,80,0,1
270603,-70.6482114698784,4,1,0,80,0,1
270661,-69.8344016832884,4,1,0,80,0,1
270727,-69.0391272349692,4,1,0,80,0,1
270904,-50,4,1,0,80,0,0
270985,-51.2820512820513,4,1,0,80,0,0
271073,-52.6315789473684,4,1,0,80,0,0
271117,-53.3333333333333,4,1,0,80,0,0
271161,-54.054054054054,4,1,0,80,0,0
271205,-54.7945205479452,4,1,0,80,0,0
271249,-55.5555555555556,4,1,0,80,0,0
271610,-100,4,1,0,80,0,1
271691,-97.5609756097561,4,1,0,77,0,1
271779,-95.2380952380952,4,1,0,73,0,1
271867,-90.9090909090909,4,1,0,70,0,1
271955,-83.3333333333333,4,1,0,67,0,1
272043,-71.4285714285714,4,1,0,63,0,1
272131,-55.5555555555556,4,1,0,60,0,1
272220,-38.4615384615385,4,1,0,57,0,1
272308,-86.9565217391304,4,1,0,53,0,1
272316,-23.8095238095238,4,1,0,53,0,1
272397,-13.5135135135135,4,1,0,50,0,1
272485,-10,4,1,0,47,0,1
272573,-10,4,1,0,43,0,1
272661,-10,4,1,0,40,0,1
272750,-10,4,1,0,37,0,1
272838,-10,4,1,0,33,0,1
272926,-10,4,1,0,30,0,1
273014,-58.8235294117647,4,1,0,80,0,1
273102,-59.69229814154,4,1,0,80,0,1
273191,-60.5871500713414,4,1,0,80,0,1
273279,-61.5092020841778,4,1,0,80,0,1
273367,-62.4597524969847,4,1,0,80,0,1
273456,-63.4920634920635,4,1,0,80,0,1
273544,-64.4518435160801,4,1,0,80,0,1
273632,-65.5737704918033,4,1,0,80,0,1
273727,-66.6666666666667,4,1,0,80,0,0
274603,-66.12134191941,4,1,0,80,0,0
274779,-65.5848661609636,4,1,0,80,0,0
274956,-65.0570257359088,4,1,0,80,0,0
275044,-64.7962578865145,4,1,0,80,0,0
275132,-64.5161290322581,4,1,0,80,0,0
275308,-63.2911392405063,4,1,0,80,0,0
275485,-62.111801242236,4,1,0,80,0,0
275661,-60.9756097560976,4,1,0,80,0,0
275750,-60.4229607250755,4,1,0,80,0,0
275845,-59.8802395209581,4,1,0,80,0,0
276021,-58.8235294117647,4,1,0,80,0,0
276551,-55.5555555555556,4,1,0,80,0,1
276588,-57.1428571428571,4,1,0,80,0,1
276632,-58.8235294117647,4,1,0,80,0,1
276676,-60.6060606060606,4,1,0,80,0,1
276720,-62.5,4,1,0,80,0,1
276897,-60.6060606060606,4,1,0,80,0,1
276985,-62.5,4,1,0,80,0,1
277073,-64.5161290322581,4,1,0,80,0,1
277250,-55.5555555555556,4,1,0,80,0,1
277294,-57.1428571428571,4,1,0,80,0,1
277338,-58.8235294117647,4,1,0,80,0,1
277382,-60.6060606060606,4,1,0,80,0,1
277426,-62.5,4,1,0,80,0,1
277603,-60.6060606060606,4,1,0,80,0,1
277691,-62.5,4,1,0,80,0,1
277779,-64.5161290322581,4,1,0,80,0,1
277956,-55.5555555555556,4,1,0,80,0,1
278000,-57.1428571428571,4,1,0,80,0,1
278044,-58.8235294117647,4,1,0,80,0,1
278088,-60.6060606060606,4,1,0,80,0,1
278132,-62.5,4,1,0,80,0,1
278308,-60.6060606060606,4,1,0,80,0,1
278396,-62.5,4,1,0,80,0,1
278484,-64.5161290322581,4,1,0,80,0,1
278661,-55.5555555555556,4,1,0,80,0,1
278705,-57.1428571428571,4,1,0,80,0,1
278749,-58.8235294117647,4,1,0,80,0,1
278793,-60.6060606060606,4,1,0,80,0,1
278837,-62.5,4,1,0,80,0,1
279014,-60.6060606060606,4,1,0,80,0,1
279102,-62.5,4,1,0,80,0,1
279190,-64.5161290322581,4,1,0,80,0,1
279367,-50,4,1,0,80,0,1
279455,-51.2820512820513,4,1,0,80,0,1
279543,-52.6315789473684,4,1,0,80,0,1
279587,-53.3333333333333,4,1,0,80,0,1
279631,-54.054054054054,4,1,0,80,0,1
279675,-54.7945205479452,4,1,0,80,0,1
279719,-55.5555555555556,4,1,0,80,0,1
280073,-100,4,1,0,80,0,1
280161,-97.5609756097561,4,1,0,77,0,1
280249,-95.2380952380952,4,1,0,73,0,1
280337,-90.9090909090909,4,1,0,70,0,1
280425,-83.3333333333333,4,1,0,67,0,1
280513,-71.4285714285714,4,1,0,63,0,1
280601,-55.5555555555556,4,1,0,60,0,1
280690,-38.4615384615385,4,1,0,57,0,1
280779,-74.0740740740741,4,1,0,80,0,1
280867,-23.8095238095238,4,1,0,50,0,1
280956,-13.5135135135135,4,1,0,47,0,1
281044,-10,4,1,0,43,0,1
281132,-10,4,1,0,40,0,1
281220,-10,4,1,0,37,0,1
281308,-10,4,1,0,33,0,1
281397,-10,4,1,0,30,0,1
281492,-55.5555555555556,4,1,0,80,0,0
281838,-66.6666666666667,4,1,0,60,0,0
281926,-67.773176732113,4,1,0,60,0,0
282014,-68.9170376700528,4,1,0,60,0,0
282073,-69.7012742786964,4,1,0,60,0,0
282132,-70.5036143677906,4,1,0,60,0,0
282191,-71.3245903650464,4,1,0,60,0,0
282904,-55.5555555555556,4,1,0,80,0,1
282941,-57.1428571428571,4,1,0,80,0,1
282985,-58.8235294117647,4,1,0,80,0,1
283029,-60.6060606060606,4,1,0,80,0,1
283073,-62.5,4,1,0,80,0,1
283250,-60.6060606060606,4,1,0,80,0,1
283338,-62.5,4,1,0,80,0,1
283426,-64.5161290322581,4,1,0,80,0,1
283603,-55.5555555555556,4,1,0,80,0,1
283647,-57.1428571428571,4,1,0,80,0,1
283691,-58.8235294117647,4,1,0,80,0,1
283735,-60.6060606060606,4,1,0,80,0,1
283779,-62.5,4,1,0,80,0,1
283956,-60.6060606060606,4,1,0,80,0,1
284044,-62.5,4,1,0,80,0,1
284132,-64.5161290322581,4,1,0,80,0,1
284308,-55.5555555555556,4,1,0,80,0,1
284352,-57.1428571428571,4,1,0,80,0,1
284396,-58.8235294117647,4,1,0,80,0,1
284440,-60.6060606060606,4,1,0,80,0,1
284484,-62.5,4,1,0,80,0,1
284661,-60.6060606060606,4,1,0,80,0,1
284749,-62.5,4,1,0,80,0,1
284837,-64.5161290322581,4,1,0,80,0,1
285014,-50,4,1,0,80,0,1
285102,-51.2820512820513,4,1,0,80,0,1
285190,-52.6315789473684,4,1,0,80,0,1
285234,-53.3333333333333,4,1,0,80,0,1
285278,-54.054054054054,4,1,0,80,0,1
285322,-54.7945205479452,4,1,0,80,0,1
285366,-55.5555555555556,4,1,0,80,0,1
285720,-100,4,1,0,80,0,1
285808,-99.009900990099,4,1,0,77,0,1
285897,-98.0392156862745,4,1,0,74,0,1
285985,-96.1538461538461,4,1,0,71,0,1
286073,-92.5925925925926,4,1,0,68,0,1
286161,-86.2068965517241,4,1,0,64,0,1
286250,-75.7575757575758,4,1,0,61,0,1
286338,-60.9756097560976,4,1,0,58,0,1
286426,-86.9565217391304,4,1,0,55,0,1
286434,-43.859649122807,4,1,0,55,0,1
286514,-28.0898876404494,4,1,0,52,0,1
286603,-16.3398692810458,4,1,0,49,0,1
286691,-10,4,1,0,46,0,1
286779,-10,4,1,0,42,0,1
286867,-10,4,1,0,39,0,1
286956,-10,4,1,0,36,0,1
287044,-10,4,1,0,33,0,1
287139,-11.1111111111111,4,1,0,30,0,0
287220,-12.331554054504,4,1,0,36,0,0
287308,-13.8531842305879,4,1,0,42,0,0
287397,-15.8031933512805,4,1,0,49,0,0
287485,-18.3921136088214,4,1,0,55,0,0
287573,-21.9954636555757,4,1,0,61,0,0
287661,-27.3547667048722,4,1,0,68,0,0
287750,-36.1670454561894,4,1,0,74,0,0
287845,-55.5555555555556,4,1,0,80,0,1
287882,-57.1428571428571,4,1,0,80,0,1
287926,-58.8235294117647,4,1,0,80,0,1
287970,-60.6060606060606,4,1,0,80,0,1
288014,-62.5,4,1,0,80,0,1
288191,-60.6060606060606,4,1,0,80,0,1
288279,-59.7014925373134,4,1,0,80,0,1
288367,-58.8235294117647,4,1,0,80,0,1
288544,-55.5555555555556,4,1,0,80,0,1
288588,-57.1428571428571,4,1,0,80,0,1
288632,-58.8235294117647,4,1,0,80,0,1
288720,-62.5,4,1,0,80,0,1
288897,-64.5161290322581,4,1,0,80,0,1
289250,-55.5555555555556,4,1,0,80,0,1
289294,-57.1428571428571,4,1,0,80,0,1
289338,-58.8235294117647,4,1,0,80,0,1
289382,-60.6060606060606,4,1,0,80,0,1
289426,-62.5,4,1,0,80,0,1
289603,-60.6060606060606,4,1,0,80,0,1
289691,-62.5,4,1,0,80,0,1
289779,-64.5161290322581,4,1,0,80,0,1
289956,-55.5555555555556,4,1,0,80,0,1
290000,-57.1428571428571,4,1,0,80,0,1
290044,-58.8235294117647,4,1,0,80,0,1
290132,-62.5,4,1,0,80,0,1
290308,-64.5161290322581,4,1,0,80,0,1
290661,-50,4,1,0,80,0,1
290749,-51.2820512820513,4,1,0,80,0,1
290837,-52.6315789473684,4,1,0,80,0,1
290881,-53.3333333333333,4,1,0,80,0,1
290925,-54.054054054054,4,1,0,80,0,1
290969,-54.7945205479452,4,1,0,80,0,1
291013,-55.5555555555556,4,1,0,80,0,1
291191,-50,4,1,0,80,0,1
291279,-51.2820512820513,4,1,0,80,0,1
291367,-52.6315789473684,4,1,0,80,0,1
291411,-53.3333333333333,4,1,0,80,0,1
291455,-54.054054054054,4,1,0,80,0,1
291499,-54.7945205479452,4,1,0,80,0,1
291543,-55.5555555555556,4,1,0,80,0,1
291720,-100,4,1,0,80,0,1
291809,-97.5609756097561,4,1,0,80,0,1
291897,-95.2380952380952,4,1,0,80,0,1
291985,-90.9090909090909,4,1,0,80,0,1
292073,-86.9565217391304,4,1,0,80,0,1
292081,-58.8235294117647,4,1,0,80,0,1
292161,-52.6315789473684,4,1,0,75,0,1
292249,-43.4782608695652,4,1,0,71,0,1
292338,-32.258064516129,4,1,0,66,0,1
292426,-21.2765957446809,4,1,0,62,0,1
292515,-12.6582278481012,4,1,0,57,0,1
292603,-10,4,1,0,53,0,1
292691,-10,4,1,0,48,0,1
292779,-10,4,1,0,44,0,1
292867,-10,4,1,0,39,0,1
292956,-10,4,1,0,35,0,1
293044,-10,4,1,0,30,0,1
293132,-58.8235294117647,4,1,0,80,0,1
293220,-59.8802395209581,4,1,0,80,0,1
293308,-60.9756097560976,4,1,0,80,0,1
293397,-62.111801242236,4,1,0,80,0,1
293492,-63.2911392405063,4,1,0,80,0,0
293573,-64.5161290322581,4,1,0,80,0,0
293661,-65.7894736842105,4,1,0,80,0,0
293750,-67.1140939597315,4,1,0,80,0,0
293838,-68.4931506849315,4,1,0,80,0,0
294014,-71.4285714285714,4,1,0,80,0,0
294198,-55.5555555555556,4,1,0,80,0,1
294235,-57.1428571428571,4,1,0,80,0,1
294279,-58.8235294117647,4,1,0,80,0,1
294367,-62.5,4,1,0,80,0,1
294544,-64.5161290322581,4,1,0,80,0,1
294897,-55.5555555555556,4,1,0,80,0,1
294941,-57.1428571428571,4,1,0,80,0,1
294985,-58.8235294117647,4,1,0,80,0,1
295029,-60.6060606060606,4,1,0,80,0,1
295073,-62.5,4,1,0,80,0,1
295250,-60.6060606060606,4,1,0,80,0,1
295338,-62.5,4,1,0,80,0,1
295426,-64.5161290322581,4,1,0,80,0,1
295603,-55.5555555555556,4,1,0,80,0,1
295647,-57.1428571428571,4,1,0,80,0,1
295691,-58.8235294117647,4,1,0,80,0,1
295779,-62.5,4,1,0,80,0,1
295956,-64.5161290322581,4,1,0,80,0,1
296308,-55.5555555555556,4,1,0,80,0,1
296397,-57.1095704218113,4,1,0,80,0,1
296485,-58.7529912616676,4,1,0,80,0,1
296544,-59.90219170139,4,1,0,80,0,1
296603,-61.0972454306898,4,1,0,80,0,1
296661,-62.3409526445656,4,1,0,80,0,1
297014,-58.8235294117647,4,1,0,80,0,1
297103,-59.9835764967552,4,1,0,80,0,1
297191,-61.1902607133438,4,1,0,80,0,1
297279,-62.4465301585517,4,1,0,80,0,1
297367,-63.755464640263,4,1,0,80,0,1
297426,-64.6590045746246,4,1,0,80,0,1
297485,-65.5884795147502,4,1,0,80,0,1
297544,-66.5451109306999,4,1,0,80,0,1
297720,-47.6190476190476,4,1,0,80,0,1
297808,-51.2820512820513,4,1,0,80,0,1
297897,-55.5555555555556,4,1,0,80,0,1
297985,-60.6060606060606,4,1,0,80,0,1
298073,-57.1428571428571,4,1,0,80,0,1
298161,-60.6060606060606,4,1,0,80,0,1
298250,-64.5161290322581,4,1,0,80,0,1
298338,-68.9655172413793,4,1,0,80,0,1
298426,-64.5161290322581,4,1,0,80,0,1
298514,-67.7231477719084,4,1,0,80,0,1
298603,-70.7714083510262,4,1,0,80,0,1
298691,-74.0740740740741,4,1,0,80,0,1
298779,-68.9655172413793,4,1,0,80,0,1
298867,-71.4285714285714,4,1,0,80,0,1
298956,-74.0740740740741,4,1,0,80,0,1
299044,-76.9230769230769,4,1,0,80,0,1
299139,352.941176470588,16,1,0,60,1,0
299139,-66.6666666666667,16,1,0,60,0,0
299308,-76.9230769230769,16,1,0,60,0,0
299396,-77.9220981615839,16,1,0,60,0,0
299484,-78.9473476454348,16,1,0,60,0,0
299573,-80,16,1,0,60,0,0
299661,-81.0811029948927,16,1,0,60,0,0
299749,-82.1917583036279,16,1,0,60,0,0
299837,-83.3333333333333,16,1,0,60,0,0
300190,-100,16,1,0,30,0,0
300241,-100,16,1,0,5,0,0
301955,-107.443122297134,16,1,0,29,0,0
302006,-107.443122297134,16,1,0,19,0,0
303014,-112.465697962122,16,1,0,29,0,0
303190,-113.348869685071,16,1,0,28,0,0
303367,-114.245891432129,16,1,0,28,0,0
303418,-114.245891432129,16,1,0,5,0,0
303896,-117.024488544473,16,1,0,27,0,0
303947,-117.024488544473,16,1,0,5,0,0
304426,-119.941468563341,16,1,0,27,0,0
304477,-119.941468563341,16,1,0,5,0,0
305132,-124.064861109388,16,1,0,26,0,0
305183,-124.064861109388,16,1,0,5,0,0
305484,-126.234892839199,16,1,0,26,0,0
305536,-126.234892839199,16,1,0,5,0,0
307602,-141.034971031417,16,1,0,25,0,0
307653,-141.034971031417,16,1,0,5,0,0
308308,-146.770893570554,16,1,0,24,0,0
308359,-146.770893570554,16,1,0,5,0,0
309014,-152.993158145968,16,1,0,24,0,0
309065,-152.993158145968,16,1,0,5,0,0
309720,-159.766357678531,16,1,0,23,0,0
309771,-159.766357678531,16,1,0,5,0,0
310426,-167.167053379784,16,1,0,23,0,0
310477,-167.167053379784,16,1,0,5,0,0
313249,-205.185446606643,16,1,0,22,0,0
313300,-205.185446606643,16,1,0,5,0,0
314484,-227.857388617612,16,1,0,22,0,0
314661,-231.511492230474,16,1,0,21,0,0
314712,-231.511492230474,16,1,0,5,0,0
315190,-243.213728928571,16,1,0,21,0,0
315241,-243.213728928571,16,1,0,5,0,0
316073,-265.588025167121,16,1,0,20,0,0
316124,-265.588025167121,16,1,0,5,0,0
317837,-325.469978649169,16,1,0,19,0,0
317889,-325.469978649169,16,1,0,5,0,0
318906,769.230769230769,16,1,0,19,1,8
318906,-185.185185185185,16,1,0,19,0,0
318954,-185.185185185185,16,1,0,5,0,0
319676,821.917808219178,16,1,0,18,1,8
319676,-196.078431372549,16,1,0,18,0,0
319727,-196.078431372549,16,1,0,5,0,0
320079,-208.333333333333,16,1,0,18,0,0
320138,-208.333333333333,16,1,0,5,0,0
320475,875.912408759124,4,1,0,17,1,8
320475,-208.333333333333,16,1,0,17,0,0
320529,-208.333333333333,16,1,0,5,0,0
321124,-227.272727272727,16,1,0,17,0,0
321186,-227.272727272727,16,1,0,5,0,0
321788,967.741935483871,6,1,0,16,1,8
321788,-222.222222222222,16,1,0,16,0,0
321841,-10000,6,1,0,5,0,8
327587,-370.37037037037,16,1,0,15,0,0

[HitObjects]
256,192,5495,5,0,0:0:0:0:
256,192,11142,5,8,0:0:0:0:
256,192,16789,5,8,0:0:0:0:
256,192,17142,1,0,0:0:0:0:
256,192,22436,5,8,0:0:0:0:
256,192,24200,1,0,0:0:0:0:
256,192,25259,1,8,0:0:0:0:
256,192,25965,1,0,0:0:0:0:
256,192,26318,1,0,0:0:0:0:
256,192,26671,1,8,0:0:0:0:
256,192,27024,1,0,0:0:0:0:
256,192,27377,1,8,0:0:0:0:
256,192,27730,1,0,0:0:0:0:
256,192,28083,1,8,0:0:0:0:
256,192,28435,1,0,0:0:0:0:
256,192,28788,1,0,0:0:0:0:
256,192,29141,1,8,0:0:0:0:
256,192,30906,1,8,0:0:0:0:
256,192,31965,1,0,0:0:0:0:
256,192,32141,1,0,0:0:0:0:
256,192,32318,1,8,0:0:0:0:
256,192,32847,1,8,0:0:0:0:
256,192,33377,1,8,0:0:0:0:
256,192,33730,1,0,0:0:0:0:
256,192,34435,1,8,0:0:0:0:
256,192,35318,1,8,0:0:0:0:
256,192,35847,1,0,0:0:0:0:
256,192,36024,1,8,0:0:0:0:
256,192,36200,1,8,0:0:0:0:
256,192,36377,1,0,0:0:0:0:
256,192,36553,1,8,0:0:0:0:
256,192,37259,1,8,0:0:0:0:
256,192,37965,1,8,0:0:0:0:
256,192,38671,1,0,0:0:0:0:
256,192,39377,1,0,0:0:0:0:
256,192,40965,1,8,0:0:0:0:
256,192,41494,1,0,0:0:0:0:
256,192,41671,1,8,0:0:0:0:
256,192,41847,1,8,0:0:0:0:
256,192,42024,1,0,0:0:0:0:
256,192,42200,1,8,0:0:0:0:
256,192,42906,1,0,0:0:0:0:
256,192,43259,1,8,0:0:0:0:
256,192,43435,1,8,0:0:0:0:
256,192,43612,1,8,0:0:0:0:
256,192,44141,1,0,0:0:0:0:
256,192,44671,1,8,0:0:0:0:
256,192,45024,1,0,0:0:0:0:
256,192,47141,1,8,0:0:0:0:
256,192,47318,1,8,0:0:0:0:
256,192,47494,1,8,0:0:0:0:
256,192,47671,1,8,0:0:0:0:
256,192,47847,1,0,0:0:0:0:
256,192,48553,1,8,0:0:0:0:
256,192,49259,1,0,0:0:0:0:
256,192,49965,1,0,0:0:0:0:
256,96,50671,5,4,0:0:0:0:
256,96,50935,5,12,0:0:0:0:
256,96,51200,5,4,0:0:0:0:
256,192,51906,1,8,0:0:0:0:
256,192,51994,1,8,0:0:0:0:
256,192,52082,1,0,0:0:0:0:
256,192,52126,1,0,0:0:0:0:
256,192,52171,1,8,0:0:0:0:
256,192,52259,1,8,0:0:0:0:
256,192,52347,1,0,0:0:0:0:
256,192,52435,1,8,0:0:0:0:
256,192,52788,1,8,0:0:0:0:
256,192,52876,1,8,0:0:0:0:
256,192,52965,1,0,0:0:0:0:
256,192,53053,1,0,0:0:0:0:
256,192,53229,1,8,0:0:0:0:
256,192,53318,1,0,0:0:0:0:
256,192,53406,1,8,0:0:0:0:
256,96,53494,5,4,0:0:0:0:
256,96,53759,5,12,0:0:0:0:
256,96,54023,5,12,0:0:0:0:
256,192,54200,1,0,0:0:0:0:
256,192,54288,1,0,0:0:0:0:
256,192,54465,1,8,0:0:0:0:
256,192,54553,1,8,0:0:0:0:
256,192,54729,1,8,0:0:0:0:
256,192,54818,1,8,0:0:0:0:
256,192,54906,1,0,0:0:0:0:
256,192,54994,1,8,0:0:0:0:
256,192,55082,1,0,0:0:0:0:
256,192,55141,1,0,0:0:0:0:
256,192,55200,1,0,0:0:0:0:
256,192,55259,1,8,0:0:0:0:
256,192,55347,1,8,0:0:0:0:
256,192,55435,1,0,0:0:0:0:
256,192,55523,1,0,0:0:0:0:
256,192,55612,1,8,0:0:0:0:
256,192,55656,1,8,0:0:0:0:
256,192,55700,1,0,0:0:0:0:
256,192,55788,1,8,0:0:0:0:
256,192,55876,1,0,0:0:0:0:
256,192,55965,1,8,0:0:0:0:
256,192,56053,1,8,0:0:0:0:
256,192,56097,1,8,0:0:0:0:
256,192,56141,1,0,0:0:0:0:
256,192,56229,1,8,0:0:0:0:
256,96,56318,5,4,0:0:0:0:
256,96,56582,5,4,0:0:0:0:
256,96,56847,5,12,0:0:0:0:
256,192,57023,1,8,0:0:0:0:
256,192,57112,1,0,0:0:0:0:
256,192,57200,1,0,0:0:0:0:
256,192,57288,1,8,0:0:0:0:
256,192,57376,1,8,0:0:0:0:
256,192,57465,1,0,0:0:0:0:
256,192,57509,1,0,0:0:0:0:
256,192,57553,1,8,0:0:0:0:
256,192,57641,1,8,0:0:0:0:
256,192,57729,1,0,0:0:0:0:
256,192,57773,1,0,0:0:0:0:
256,192,57818,1,8,0:0:0:0:
256,192,57906,1,0,0:0:0:0:
256,192,57994,1,0,0:0:0:0:
256,96,58082,5,12,0:0:0:0:
256,192,58435,1,8,0:0:0:0:
256,192,58523,1,8,0:0:0:0:
256,192,58612,1,0,0:0:0:0:
256,192,58700,1,0,0:0:0:0:
256,192,58876,1,0,0:0:0:0:
256,192,58965,1,8,0:0:0:0:
256,192,59053,1,8,0:0:0:0:
256,96,59141,5,4,0:0:0:0:
256,96,59406,5,4,0:0:0:0:
256,192,59582,1,8,0:0:0:0:
256,96,59670,5,4,0:0:0:0:
256,96,59935,5,4,0:0:0:0:
256,192,60112,1,8,0:0:0:0:
256,96,60200,5,4,0:0:0:0:
256,192,60376,1,8,0:0:0:0:
256,96,60465,5,4,0:0:0:0:
256,96,60729,5,12,0:0:0:0:
256,192,60906,1,0,0:0:0:0:
256,96,60994,5,12,0:0:0:0:
256,96,61259,5,12,0:0:0:0:
256,192,61435,1,0,0:0:0:0:
256,96,61523,5,12,0:0:0:0:
256,192,61788,1,0,0:0:0:0:
256,192,61876,1,8,0:0:0:0:
256,96,61965,5,4,0:0:0:0:
256,96,62229,5,12,0:0:0:0:
256,96,62494,5,4,0:0:0:0:
256,192,62759,1,8,0:0:0:0:
256,192,62847,1,0,0:0:0:0:
256,192,63023,1,8,0:0:0:0:
256,192,63112,1,0,0:0:0:0:
256,192,63200,1,8,0:0:0:0:
256,192,63288,1,8,0:0:0:0:
256,192,63376,1,0,0:0:0:0:
256,192,63420,1,0,0:0:0:0:
256,192,63465,1,8,0:0:0:0:
256,192,63553,1,0,0:0:0:0:
256,192,63641,1,8,0:0:0:0:
256,192,63729,1,8,0:0:0:0:
256,192,64082,1,0,0:0:0:0:
256,192,64170,1,0,0:0:0:0:
256,192,64259,1,8,0:0:0:0:
256,192,64347,1,8,0:0:0:0:
256,192,64435,1,0,0:0:0:0:
256,192,64523,1,8,0:0:0:0:
256,192,64612,1,0,0:0:0:0:
256,192,64700,1,8,0:0:0:0:
256,96,64788,5,4,0:0:0:0:
256,96,65053,5,12,0:0:0:0:
256,96,65318,5,12,0:0:0:0:
256,192,65494,1,8,0:0:0:0:
256,192,65582,1,8,0:0:0:0:
256,192,65670,1,0,0:0:0:0:
256,192,65759,1,0,0:0:0:0:
256,192,65847,1,8,0:0:0:0:
256,192,65935,1,0,0:0:0:0:
256,192,66023,1,8,0:0:0:0:
256,192,66112,1,8,0:0:0:0:
256,192,66156,1,8,0:0:0:0:
256,192,66200,1,0,0:0:0:0:
256,192,66288,1,8,0:0:0:0:
256,192,66465,1,8,0:0:0:0:
256,192,66553,1,8,0:0:0:0:
256,192,66729,1,8,0:0:0:0:
256,192,66818,1,0,0:0:0:0:
256,192,66906,1,8,0:0:0:0:
256,192,66965,1,0,0:0:0:0:
256,192,67023,1,0,0:0:0:0:
256,192,67082,1,8,0:0:0:0:
256,192,67170,1,0,0:0:0:0:
256,192,67259,1,8,0:0:0:0:
256,192,67347,1,8,0:0:0:0:
256,192,67391,1,8,0:0:0:0:
256,192,67435,1,0,0:0:0:0:
256,192,67523,1,8,0:0:0:0:
256,96,67612,5,4,0:0:0:0:
256,96,67876,5,4,0:0:0:0:
256,96,68141,5,12,0:0:0:0:
256,192,68318,1,8,0:0:0:0:
256,192,68406,1,0,0:0:0:0:
256,192,68494,1,8,0:0:0:0:
256,192,68582,1,8,0:0:0:0:
256,192,68670,1,0,0:0:0:0:
256,192,68759,1,8,0:0:0:0:
256,192,68847,1,8,0:0:0:0:
256,192,68935,1,8,0:0:0:0:
256,192,69023,1,0,0:0:0:0:
256,192,69068,1,0,0:0:0:0:
256,192,69112,1,8,0:0:0:0:
256,192,69200,1,0,0:0:0:0:
256,192,69288,1,8,0:0:0:0:
256,192,69376,1,8,0:0:0:0:
256,96,69847,5,12,0:0:0:0:
256,96,69965,5,4,0:0:0:0:
256,96,70082,5,12,0:0:0:0:
256,96,70200,5,4,0:0:0:0:
256,96,70318,5,12,0:0:0:0:
256,96,70435,5,4,0:0:0:0:
256,96,70700,5,4,0:0:0:0:
256,96,70965,5,4,0:0:0:0:
256,192,71141,1,8,0:0:0:0:
256,96,71229,5,4,0:0:0:0:
256,192,71406,1,8,0:0:0:0:
256,96,71494,5,4,0:0:0:0:
256,192,71670,1,8,0:0:0:0:
256,96,71759,5,4,0:0:0:0:
256,96,72023,5,12,0:0:0:0:
256,192,72200,1,0,0:0:0:0:
256,96,72288,5,12,0:0:0:0:
256,96,72553,5,12,0:0:0:0:
256,192,72729,1,0,0:0:0:0:
256,96,72818,5,12,0:0:0:0:
256,192,73082,1,0,0:0:0:0:
256,192,73170,1,8,0:0:0:0:
256,192,73965,1,8,0:0:0:0:
256,192,74009,1,8,0:0:0:0:
256,192,74229,1,8,0:0:0:0:
256,192,74273,1,8,0:0:0:0:
256,192,74494,1,8,0:0:0:0:
256,192,74582,1,0,0:0:0:0:
256,192,74670,1,8,0:0:0:0:
256,192,74715,1,0,0:0:0:0:
256,192,74759,1,8,0:0:0:0:
256,192,74847,1,8,0:0:0:0:
256,192,74935,1,0,0:0:0:0:
256,192,74979,1,0,0:0:0:0:
256,192,75023,1,8,0:0:0:0:
256,192,75376,1,0,0:0:0:0:
256,192,75465,1,0,0:0:0:0:
256,192,75553,1,8,0:0:0:0:
256,192,75597,1,8,0:0:0:0:
256,192,75641,1,0,0:0:0:0:
256,192,75729,1,0,0:0:0:0:
256,192,75818,1,8,0:0:0:0:
256,192,75862,1,8,0:0:0:0:
256,192,75906,1,0,0:0:0:0:
256,192,75950,1,0,0:0:0:0:
256,192,75994,1,8,0:0:0:0:
256,96,76082,5,4,0:0:0:0:
256,96,76347,5,12,0:0:0:0:
256,96,76612,5,12,0:0:0:0:
256,192,76965,1,0,0:0:0:0:
256,192,77141,1,8,0:0:0:0:
256,192,77229,1,0,0:0:0:0:
256,192,77318,1,8,0:0:0:0:
256,192,77406,1,8,0:0:0:0:
256,192,77494,1,0,0:0:0:0:
256,192,77670,1,8,0:0:0:0:
256,192,77729,1,8,0:0:0:0:
256,192,77788,1,8,0:0:0:0:
256,192,77847,1,8,0:0:0:0:
256,192,78023,1,8,0:0:0:0:
256,192,78112,1,0,0:0:0:0:
256,192,78200,1,8,0:0:0:0:
256,192,78259,1,8,0:0:0:0:
256,192,78318,1,8,0:0:0:0:
256,192,78376,1,0,0:0:0:0:
256,192,78465,1,0,0:0:0:0:
256,192,78553,1,8,0:0:0:0:
256,192,78597,1,8,0:0:0:0:
256,192,78641,1,0,0:0:0:0:
256,192,78729,1,0,0:0:0:0:
256,192,78818,1,8,0:0:0:0:
256,96,78906,5,4,0:0:0:0:
256,96,79170,5,4,0:0:0:0:
256,96,79435,5,12,0:0:0:0:
256,192,79612,1,0,0:0:0:0:
256,192,79670,1,8,0:0:0:0:
256,192,79729,1,8,0:0:0:0:
256,192,79788,1,0,0:0:0:0:
256,192,79876,1,0,0:0:0:0:
256,192,79965,1,8,0:0:0:0:
256,192,80053,1,0,0:0:0:0:
256,192,80229,1,8,0:0:0:0:
256,192,80318,1,0,0:0:0:0:
256,192,80362,1,0,0:0:0:0:
256,192,80406,1,8,0:0:0:0:
256,192,80494,1,0,0:0:0:0:
256,192,80582,1,0,0:0:0:0:
256,96,80670,5,12,0:0:0:0:
256,192,81023,1,0,0:0:0:0:
256,192,81112,1,8,0:0:0:0:
256,192,81200,1,8,0:0:0:0:
256,192,81288,1,0,0:0:0:0:
256,192,81465,1,8,0:0:0:0:
256,192,81553,1,0,0:0:0:0:
256,192,81641,1,8,0:0:0:0:
256,96,81729,5,4,0:0:0:0:
256,96,81994,5,4,0:0:0:0:
256,192,82170,1,8,0:0:0:0:
256,96,82259,5,4,0:0:0:0:
256,96,82523,5,4,0:0:0:0:
256,192,82700,1,8,0:0:0:0:
256,96,82788,5,4,0:0:0:0:
256,192,82965,1,8,0:0:0:0:
256,96,83053,5,4,0:0:0:0:
256,96,83318,5,12,0:0:0:0:
256,96,83582,5,12,0:0:0:0:
256,96,83847,5,12,0:0:0:0:
256,192,84023,1,0,0:0:0:0:
256,96,84112,5,12,0:0:0:0:
256,192,84288,1,8,0:0:0:0:
256,192,84376,1,0,0:0:0:0:
256,192,84465,1,8,0:0:0:0:
256,96,84553,5,4,0:0:0:0:
256,96,84818,5,12,0:0:0:0:
256,96,85082,5,4,0:0:0:0:
256,192,85347,1,8,0:0:0:0:
256,192,85435,1,0,0:0:0:0:
256,192,85612,1,8,0:0:0:0:
256,192,85700,1,0,0:0:0:0:
256,192,85788,1,0,0:0:0:0:
256,192,85876,1,8,0:0:0:0:
256,192,85965,1,0,0:0:0:0:
256,192,86009,1,0,0:0:0:0:
256,192,86053,1,8,0:0:0:0:
256,192,86141,1,0,0:0:0:0:
256,192,86229,1,8,0:0:0:0:
256,192,86318,1,8,0:0:0:0:
256,192,86670,1,0,0:0:0:0:
256,192,86759,1,0,0:0:0:0:
256,192,86847,1,8,0:0:0:0:
256,192,86935,1,8,0:0:0:0:
256,192,87023,1,0,0:0:0:0:
256,192,87112,1,8,0:0:0:0:
256,192,87200,1,0,0:0:0:0:
256,192,87288,1,8,0:0:0:0:
256,96,87376,5,4,0:0:0:0:
256,96,87641,5,12,0:0:0:0:
256,96,87906,5,12,0:0:0:0:
256,192,88082,1,0,0:0:0:0:
256,192,88170,1,8,0:0:0:0:
256,192,88259,1,0,0:0:0:0:
256,192,88347,1,0,0:0:0:0:
256,192,88435,1,8,0:0:0:0:
256,192,88523,1,0,0:0:0:0:
256,192,88612,1,8,0:0:0:0:
256,192,88700,1,8,0:0:0:0:
256,192,88788,1,0,0:0:0:0:
256,192,88876,1,8,0:0:0:0:
256,192,89053,1,8,0:0:0:0:
256,192,89141,1,8,0:0:0:0:
256,192,89318,1,0,0:0:0:0:
256,192,89406,1,0,0:0:0:0:
256,192,89450,1,0,0:0:0:0:
256,192,89494,1,8,0:0:0:0:
256,192,89582,1,0,0:0:0:0:
256,192,89670,1,8,0:0:0:0:
256,192,89759,1,0,0:0:0:0:
256,192,89847,1,8,0:0:0:0:
256,192,89906,1,8,0:0:0:0:
256,192,89965,1,8,0:0:0:0:
256,192,90023,1,0,0:0:0:0:
256,192,90112,1,8,0:0:0:0:
256,96,90200,5,4,0:0:0:0:
256,96,90465,5,4,0:0:0:0:
256,96,90729,5,12,0:0:0:0:
256,192,90906,1,8,0:0:0:0:
256,192,90994,1,0,0:0:0:0:
256,192,91082,1,8,0:0:0:0:
256,192,91170,1,8,0:0:0:0:
256,192,91259,1,0,0:0:0:0:
256,192,91347,1,8,0:0:0:0:
256,192,91435,1,8,0:0:0:0:
256,192,91523,1,8,0:0:0:0:
256,192,91612,1,0,0:0:0:0:
256,192,91656,1,0,0:0:0:0:
256,192,91700,1,8,0:0:0:0:
256,192,91788,1,0,0:0:0:0:
256,192,91876,1,8,0:0:0:0:
256,192,91965,1,8,0:0:0:0:
256,192,92318,1,0,0:0:0:0:
256,192,92406,1,0,0:0:0:0:
256,192,92494,1,8,0:0:0:0:
256,192,92582,1,8,0:0:0:0:
256,192,92670,1,0,0:0:0:0:
256,192,92759,1,8,0:0:0:0:
256,192,92847,1,0,0:0:0:0:
256,192,92935,1,8,0:0:0:0:
256,96,93023,5,4,0:0:0:0:
256,96,93288,5,4,0:0:0:0:
256,96,93553,5,4,0:0:0:0:
256,96,93818,5,4,0:0:0:0:
256,192,93994,1,8,0:0:0:0:
256,96,94082,5,4,0:0:0:0:
256,192,94259,1,8,0:0:0:0:
256,96,94347,5,4,0:0:0:0:
256,96,94612,5,12,0:0:0:0:
256,192,94788,1,0,0:0:0:0:
256,96,94876,5,12,0:0:0:0:
256,96,95141,5,12,0:0:0:0:
256,96,95406,5,12,0:0:0:0:
256,96,95670,5,12,0:0:0:0:
256,192,96553,1,8,0:0:0:0:
256,192,96597,1,8,0:0:0:0:
256,192,96818,1,8,0:0:0:0:
256,192,96862,1,8,0:0:0:0:
256,192,97082,1,0,0:0:0:0:
256,192,97141,1,0,0:0:0:0:
256,192,97200,1,0,0:0:0:0:
256,192,97259,1,8,0:0:0:0:
256,192,97347,1,0,0:0:0:0:
256,192,97435,1,8,0:0:0:0:
256,192,97612,1,0,0:0:0:0:
256,192,97965,1,0,0:0:0:0:
256,192,98053,1,0,0:0:0:0:
256,192,98141,1,8,0:0:0:0:
256,192,98229,1,0,0:0:0:0:
256,192,98406,1,8,0:0:0:0:
256,192,98494,1,0,0:0:0:0:
256,192,98582,1,8,0:0:0:0:
256,192,98670,1,0,0:0:0:0:
256,192,98729,1,8,0:0:0:0:
256,192,98788,1,8,0:0:0:0:
256,192,98847,1,0,0:0:0:0:
256,192,98935,1,8,0:0:0:0:
256,192,99068,1,0,0:0:0:0:
256,192,99200,1,8,0:0:0:0:
256,192,99244,1,0,0:0:0:0:
256,192,99288,1,8,0:0:0:0:
256,192,99332,1,8,0:0:0:0:
256,192,99376,1,0,0:0:0:0:
256,192,99494,1,8,0:0:0:0:
256,192,99553,1,0,0:0:0:0:
256,192,99641,1,8,0:0:0:0:
256,192,99729,1,8,0:0:0:0:
256,192,99818,1,0,0:0:0:0:
256,192,99906,1,8,0:0:0:0:
256,192,99994,1,8,0:0:0:0:
256,192,100082,1,0,0:0:0:0:
256,192,100170,1,0,0:0:0:0:
256,192,100259,1,8,0:0:0:0:
256,192,100347,1,0,0:0:0:0:
256,192,100435,1,0,0:0:0:0:
256,192,100523,1,0,0:0:0:0:
256,192,100612,1,8,0:0:0:0:
256,192,100700,1,8,0:0:0:0:
256,192,100744,1,8,0:0:0:0:
256,192,100788,1,0,0:0:0:0:
256,192,100876,1,8,0:0:0:0:
256,192,100965,1,8,0:0:0:0:
256,192,101023,1,8,0:0:0:0:
256,192,101082,1,8,0:0:0:0:
256,192,101141,1,0,0:0:0:0:
256,192,101229,1,0,0:0:0:0:
256,192,101318,1,8,0:0:0:0:
256,192,101406,1,8,0:0:0:0:
256,192,101494,1,0,0:0:0:0:
256,192,101553,1,0,0:0:0:0:
256,192,101612,1,0,0:0:0:0:
256,192,101670,1,0,0:0:0:0:
256,192,101759,1,8,0:0:0:0:
256,192,101847,1,0,0:0:0:0:
256,192,101935,1,8,0:0:0:0:
256,192,102023,1,0,0:0:0:0:
256,192,102200,1,0,0:0:0:0:
256,192,102288,1,8,0:0:0:0:
256,192,102376,1,0,0:0:0:0:
256,192,102465,1,0,0:0:0:0:
256,192,102553,1,8,0:0:0:0:
256,192,102641,1,0,0:0:0:0:
256,192,102729,1,8,0:0:0:0:
256,192,102818,1,8,0:0:0:0:
256,192,102906,1,0,0:0:0:0:
256,192,102994,1,8,0:0:0:0:
256,192,103082,1,0,0:0:0:0:
256,192,103170,1,0,0:0:0:0:
256,96,103259,5,12,0:0:0:0:
256,192,103612,1,0,0:0:0:0:
256,192,103700,1,8,0:0:0:0:
256,192,103788,1,0,0:0:0:0:
256,192,103876,1,0,0:0:0:0:
256,192,104053,1,8,0:0:0:0:
256,192,104141,1,0,0:0:0:0:
256,192,104229,1,8,0:0:0:0:
256,192,104318,1,0,0:0:0:0:
256,192,104376,1,8,0:0:0:0:
256,192,104435,1,8,0:0:0:0:
256,192,104494,1,0,0:0:0:0:
256,192,104553,1,0,0:0:0:0:
256,192,104612,1,8,0:0:0:0:
256,192,104670,1,0,0:0:0:0:
256,192,104759,1,8,0:0:0:0:
256,192,104847,1,8,0:0:0:0:
256,192,105023,1,8,0:0:0:0:
256,192,105112,1,0,0:0:0:0:
256,192,105288,1,8,0:0:0:0:
256,192,105376,1,0,0:0:0:0:
256,192,105553,1,8,0:0:0:0:
256,192,105641,1,0,0:0:0:0:
256,192,105818,1,8,0:0:0:0:
256,192,105906,1,8,0:0:0:0:
256,192,106082,1,8,0:0:0:0:
256,192,106170,1,0,0:0:0:0:
256,192,106259,1,8,0:0:0:0:
256,192,106347,1,8,0:0:0:0:
256,192,106435,1,0,0:0:0:0:
256,192,106494,1,0,0:0:0:0:
256,192,106553,1,0,0:0:0:0:
256,192,106612,1,8,0:0:0:0:
256,192,106700,1,0,0:0:0:0:
256,192,106788,1,8,0:0:0:0:
256,192,106876,1,8,0:0:0:0:
256,192,106965,1,0,0:0:0:0:
256,192,107053,1,8,0:0:0:0:
256,192,107141,1,0,0:0:0:0:
256,192,107406,1,8,0:0:0:0:
256,192,107582,1,8,0:0:0:0:
256,192,107670,1,0,0:0:0:0:
256,192,107759,1,8,0:0:0:0:
256,192,107847,1,0,0:0:0:0:
256,192,107935,1,8,0:0:0:0:
256,192,108112,1,0,0:0:0:0:
256,192,108200,1,8,0:0:0:0:
256,192,108288,1,0,0:0:0:0:
256,192,108376,1,8,0:0:0:0:
256,192,108465,1,8,0:0:0:0:
256,192,108729,1,0,0:0:0:0:
256,192,108818,1,8,0:0:0:0:
256,192,108906,1,8,0:0:0:0:
256,192,109259,1,0,0:0:0:0:
256,192,109435,1,8,0:0:0:0:
256,192,109523,1,8,0:0:0:0:
256,192,109700,1,8,0:0:0:0:
256,192,109788,1,0,0:0:0:0:
256,192,109876,1,8,0:0:0:0:
256,192,109965,1,0,0:0:0:0:
256,192,110053,1,8,0:0:0:0:
256,192,110141,1,8,0:0:0:0:
256,192,110229,1,8,0:0:0:0:
256,192,110318,1,0,0:0:0:0:
256,192,110406,1,8,0:0:0:0:
256,192,110494,1,0,0:0:0:0:
256,192,110582,1,0,0:0:0:0:
256,192,110670,1,8,0:0:0:0:
256,192,110759,1,8,0:0:0:0:
256,192,110847,1,0,0:0:0:0:
256,192,110891,1,0,0:0:0:0:
256,192,110935,1,8,0:0:0:0:
256,192,111023,1,8,0:0:0:0:
256,192,111112,1,0,0:0:0:0:
256,192,111200,1,8,0:0:0:0:
256,192,111288,1,8,0:0:0:0:
256,192,111376,1,0,0:0:0:0:
256,192,111465,1,8,0:0:0:0:
256,192,111641,1,8,0:0:0:0:
256,192,111729,1,8,0:0:0:0:
256,192,111906,1,8,0:0:0:0:
256,192,111950,1,8,0:0:0:0:
256,192,111994,1,0,0:0:0:0:
256,192,112082,1,8,0:0:0:0:
256,192,112170,1,8,0:0:0:0:
256,192,112259,1,0,0:0:0:0:
256,192,112347,1,0,0:0:0:0:
256,192,112435,1,8,0:0:0:0:
256,192,112494,1,8,0:0:0:0:
256,192,112553,1,8,0:0:0:0:
256,192,112612,1,0,0:0:0:0:
256,192,112700,1,8,0:0:0:0:
256,192,112788,1,0,0:0:0:0:
256,192,112876,1,0,0:0:0:0:
256,192,112965,1,0,0:0:0:0:
256,192,113053,1,8,0:0:0:0:
256,192,113141,1,8,0:0:0:0:
256,192,113229,1,8,0:0:0:0:
256,192,113318,1,0,0:0:0:0:
256,192,113670,1,0,0:0:0:0:
256,192,113759,1,8,0:0:0:0:
256,192,113847,1,0,0:0:0:0:
256,192,113935,1,8,0:0:0:0:
256,192,114023,1,8,0:0:0:0:
256,192,114112,1,8,0:0:0:0:
256,192,114200,1,0,0:0:0:0:
256,192,114288,1,8,0:0:0:0:
256,192,114332,1,8,0:0:0:0:
256,192,114376,1,0,0:0:0:0:
256,192,114465,1,0,0:0:0:0:
256,192,114553,1,8,0:0:0:0:
256,192,114685,1,8,0:0:0:0:
256,192,114773,1,8,0:0:0:0:
256,192,114906,1,0,0:0:0:0:
256,192,115082,1,8,0:0:0:0:
256,192,115170,1,8,0:0:0:0:
256,192,115259,1,0,0:0:0:0:
256,192,115347,1,8,0:0:0:0:
256,192,115435,1,0,0:0:0:0:
256,192,115523,1,8,0:0:0:0:
256,192,115612,1,0,0:0:0:0:
256,192,115700,1,0,0:0:0:0:
256,192,115788,1,0,0:0:0:0:
256,192,115876,1,8,0:0:0:0:
256,192,115965,1,8,0:0:0:0:
256,192,116053,1,8,0:0:0:0:
256,192,116141,1,0,0:0:0:0:
256,192,116229,1,0,0:0:0:0:
256,192,116318,1,8,0:0:0:0:
256,192,116376,1,8,0:0:0:0:
256,192,116435,1,8,0:0:0:0:
256,192,116494,1,8,0:0:0:0:
256,192,116582,1,0,0:0:0:0:
256,192,116670,1,8,0:0:0:0:
256,192,116847,1,8,0:0:0:0:
256,192,116935,1,8,0:0:0:0:
256,192,117023,1,8,0:0:0:0:
256,192,117112,1,8,0:0:0:0:
256,192,117200,1,0,0:0:0:0:
256,192,117288,1,0,0:0:0:0:
256,192,117376,1,8,0:0:0:0:
256,192,117465,1,0,0:0:0:0:
256,192,117553,1,0,0:0:0:0:
256,192,117641,1,0,0:0:0:0:
256,192,117729,1,8,0:0:0:0:
256,192,117788,1,8,0:0:0:0:
256,192,117847,1,8,0:0:0:0:
256,192,117906,1,8,0:0:0:0:
256,192,117994,1,0,0:0:0:0:
256,192,118082,1,8,0:0:0:0:
256,192,118170,1,8,0:0:0:0:
256,192,118259,1,0,0:0:0:0:
256,192,118303,1,0,0:0:0:0:
256,192,118347,1,8,0:0:0:0:
256,192,118435,1,0,0:0:0:0:
256,192,122317,5,8,0:0:0:0:
256,192,122493,1,0,0:0:0:0:
256,192,122670,1,8,0:0:0:0:
256,192,123199,1,8,0:0:0:0:
256,192,123729,1,8,0:0:0:0:
256,192,124082,5,0,0:0:0:0:
256,192,127611,5,8,0:0:0:0:
256,192,128317,1,8,0:0:0:0:
256,192,129023,1,0,0:0:0:0:
256,192,129729,5,0,0:0:0:0:
256,192,130082,1,8,0:0:0:0:
256,192,133611,5,8,0:0:0:0:
256,192,133787,1,0,0:0:0:0:
256,192,133964,1,8,0:0:0:0:
256,192,134493,1,8,0:0:0:0:
256,192,135023,1,8,0:0:0:0:
256,192,135376,5,0,0:0:0:0:
256,192,138199,1,0,0:0:0:0:
256,192,138905,1,8,0:0:0:0:
256,192,139611,1,8,0:0:0:0:
256,192,140317,1,0,0:0:0:0:
256,192,141023,1,0,0:0:0:0:
256,192,141199,1,0,0:0:0:0:
256,192,141375,1,8,0:0:0:0:
256,192,141552,1,0,0:0:0:0:
256,192,141905,1,0,0:0:0:0:
256,192,142081,1,8,0:0:0:0:
256,192,142258,1,0,0:0:0:0:
256,192,142611,1,0,0:0:0:0:
256,192,142787,1,8,0:0:0:0:
256,192,142964,1,8,0:0:0:0:
256,192,143140,1,0,0:0:0:0:
256,192,143317,1,0,0:0:0:0:
256,192,143493,1,8,0:0:0:0:
256,192,143670,1,0,0:0:0:0:
256,192,143846,1,0,0:0:0:0:
256,192,144023,1,8,0:0:0:0:
256,192,144199,1,8,0:0:0:0:
256,192,144375,1,0,0:0:0:0:
256,192,144728,1,0,0:0:0:0:
256,192,144905,1,8,0:0:0:0:
256,192,145081,1,0,0:0:0:0:
256,192,145258,1,8,0:0:0:0:
256,192,145787,1,8,0:0:0:0:
256,192,146317,1,8,0:0:0:0:
256,192,146670,1,0,0:0:0:0:
256,192,146846,1,8,0:0:0:0:
256,192,147023,1,8,0:0:0:0:
256,192,147199,1,0,0:0:0:0:
256,192,147552,1,0,0:0:0:0:
256,192,147728,1,8,0:0:0:0:
256,192,147905,1,0,0:0:0:0:
256,192,148258,1,0,0:0:0:0:
256,192,148434,1,8,0:0:0:0:
256,192,148611,1,8,0:0:0:0:
256,192,148787,1,0,0:0:0:0:
256,192,148964,1,8,0:0:0:0:
256,192,149140,1,8,0:0:0:0:
256,192,149317,1,8,0:0:0:0:
256,192,149493,1,0,0:0:0:0:
256,192,149670,1,8,0:0:0:0:
256,192,149846,1,8,0:0:0:0:
256,192,150023,1,0,0:0:0:0:
256,192,150199,1,8,0:0:0:0:
256,192,150905,1,8,0:0:0:0:
256,192,151611,1,0,0:0:0:0:
256,192,152317,1,8,0:0:0:0:
256,192,152493,1,0,0:0:0:0:
256,192,152670,1,8,0:0:0:0:
256,192,152846,1,0,0:0:0:0:
256,192,153199,1,0,0:0:0:0:
256,192,153375,1,8,0:0:0:0:
256,192,153552,1,0,0:0:0:0:
256,192,153905,1,0,0:0:0:0:
256,192,154081,1,8,0:0:0:0:
256,192,154258,1,8,0:0:0:0:
256,192,154434,1,0,0:0:0:0:
256,192,154611,1,0,0:0:0:0:
256,192,154787,1,8,0:0:0:0:
256,192,154964,1,0,0:0:0:0:
256,192,155140,1,0,0:0:0:0:
256,192,155317,1,8,0:0:0:0:
256,192,155493,1,8,0:0:0:0:
256,192,155670,1,0,0:0:0:0:
256,192,156023,1,0,0:0:0:0:
256,192,156199,1,8,0:0:0:0:
256,192,156375,1,0,0:0:0:0:
256,192,156552,1,8,0:0:0:0:
256,192,157081,1,8,0:0:0:0:
256,192,157611,1,8,0:0:0:0:
256,192,157964,1,0,0:0:0:0:
256,192,158140,1,8,0:0:0:0:
256,192,158317,1,8,0:0:0:0:
256,192,158493,1,0,0:0:0:0:
256,192,158846,1,0,0:0:0:0:
256,192,159023,1,8,0:0:0:0:
256,192,159199,1,0,0:0:0:0:
256,192,159552,1,0,0:0:0:0:
256,192,159728,1,8,0:0:0:0:
256,192,159905,1,8,0:0:0:0:
256,192,160081,1,0,0:0:0:0:
256,192,160258,1,8,0:0:0:0:
256,192,160434,1,8,0:0:0:0:
256,192,160611,1,0,0:0:0:0:
256,192,160787,1,0,0:0:0:0:
256,192,161317,1,0,0:0:0:0:
256,192,161346,1,8,0:0:0:0:
256,192,161846,1,0,0:0:0:0:
256,192,161875,1,8,0:0:0:0:
256,192,162375,1,0,0:0:0:0:
256,192,162405,1,8,0:0:0:0:
256,192,162905,1,0,0:0:0:0:
256,192,162934,1,8,0:0:0:0:
256,192,162964,12,0,163434,0:0:0:0:
256,192,163611,5,0,0:0:0:0:
256,192,163669,1,0,0:0:0:0:
256,192,163728,1,0,0:0:0:0:
256,192,163787,1,0,0:0:0:0:
256,192,163963,1,8,0:0:0:0:
256,192,164022,1,0,0:0:0:0:
256,192,164081,1,0,0:0:0:0:
256,192,164140,1,8,0:0:0:0:
256,192,164199,1,0,0:0:0:0:
256,192,164258,1,0,0:0:0:0:
256,192,164316,1,8,0:0:0:0:
256,192,164669,1,0,0:0:0:0:
256,192,164699,1,8,0:0:0:0:
256,192,165199,1,8,0:0:0:0:
256,192,165375,1,0,0:0:0:0:
256,192,165434,1,0,0:0:0:0:
256,192,165493,1,0,0:0:0:0:
256,192,165552,1,0,0:0:0:0:
256,192,165728,1,8,0:0:0:0:
256,192,165787,1,0,0:0:0:0:
256,192,165846,1,0,0:0:0:0:
256,192,165905,1,0,0:0:0:0:
256,192,165993,1,0,0:0:0:0:
256,192,166081,1,8,0:0:0:0:
256,192,166140,1,8,0:0:0:0:
256,192,166199,1,8,0:0:0:0:
256,192,166258,1,0,0:0:0:0:
256,192,166434,1,0,0:0:0:0:
256,192,166493,1,0,0:0:0:0:
256,192,166552,1,0,0:0:0:0:
256,192,166611,1,0,0:0:0:0:
256,192,166787,1,8,0:0:0:0:
256,192,166846,1,0,0:0:0:0:
256,192,166905,1,0,0:0:0:0:
256,192,166963,1,8,0:0:0:0:
256,192,167022,1,0,0:0:0:0:
256,192,167081,1,0,0:0:0:0:
256,192,167140,1,8,0:0:0:0:
256,192,167493,1,0,0:0:0:0:
256,192,167522,1,8,0:0:0:0:
256,192,168022,1,0,0:0:0:0:
256,192,168199,1,0,0:0:0:0:
256,192,168258,1,0,0:0:0:0:
256,192,168316,1,0,0:0:0:0:
256,192,168375,1,0,0:0:0:0:
256,192,168552,1,8,0:0:0:0:
256,192,168611,1,0,0:0:0:0:
256,192,168669,1,0,0:0:0:0:
256,192,168728,1,0,0:0:0:0:
256,192,168816,1,0,0:0:0:0:
256,192,168905,1,8,0:0:0:0:
256,192,168963,1,0,0:0:0:0:
256,192,169022,1,0,0:0:0:0:
256,192,169081,1,8,0:0:0:0:
256,192,169258,1,0,0:0:0:0:
256,192,169316,1,0,0:0:0:0:
256,192,169375,1,0,0:0:0:0:
256,192,169434,1,0,0:0:0:0:
256,192,169611,1,0,0:0:0:0:
256,192,169669,1,0,0:0:0:0:
256,192,169728,1,0,0:0:0:0:
256,192,169787,1,8,0:0:0:0:
256,192,169846,1,0,0:0:0:0:
256,192,169905,1,0,0:0:0:0:
256,192,169963,1,8,0:0:0:0:
256,192,170316,1,0,0:0:0:0:
256,192,170346,1,8,0:0:0:0:
256,192,170846,1,8,0:0:0:0:
256,192,171022,1,0,0:0:0:0:
256,192,171081,1,0,0:0:0:0:
256,192,171140,1,0,0:0:0:0:
256,192,171199,1,0,0:0:0:0:
256,192,171375,1,8,0:0:0:0:
256,192,171434,1,8,0:0:0:0:
256,192,171493,1,0,0:0:0:0:
256,192,171552,1,0,0:0:0:0:
256,192,171640,1,0,0:0:0:0:
256,192,171728,1,8,0:0:0:0:
256,192,171787,1,8,0:0:0:0:
256,192,171846,1,8,0:0:0:0:
256,192,171905,1,0,0:0:0:0:
256,192,172081,1,0,0:0:0:0:
256,192,172140,1,0,0:0:0:0:
256,192,172199,1,0,0:0:0:0:
256,192,172258,1,0,0:0:0:0:
256,192,172434,1,0,0:0:0:0:
256,192,172493,1,0,0:0:0:0:
256,192,172552,1,0,0:0:0:0:
256,192,172611,1,8,0:0:0:0:
256,192,172669,1,0,0:0:0:0:
256,192,172728,1,0,0:0:0:0:
256,192,172787,1,8,0:0:0:0:
256,192,173140,1,0,0:0:0:0:
256,192,173169,1,8,0:0:0:0:
256,192,173316,1,0,0:0:0:0:
256,192,173669,1,0,0:0:0:0:
256,192,173713,1,0,0:0:0:0:
256,192,173846,1,0,0:0:0:0:
256,192,173905,1,8,0:0:0:0:
256,192,173963,1,0,0:0:0:0:
256,192,174022,1,0,0:0:0:0:
256,192,174199,1,8,0:0:0:0:
256,192,174258,1,0,0:0:0:0:
256,192,174316,1,0,0:0:0:0:
256,192,174375,1,8,0:0:0:0:
256,192,174463,1,0,0:0:0:0:
256,192,174552,1,8,0:0:0:0:
256,192,174611,1,8,0:0:0:0:
256,192,174669,1,8,0:0:0:0:
256,192,174728,1,8,0:0:0:0:
256,192,174905,1,0,0:0:0:0:
256,192,174963,1,0,0:0:0:0:
256,192,175022,1,0,0:0:0:0:
256,192,175081,1,0,0:0:0:0:
256,192,175258,1,8,0:0:0:0:
256,192,175316,1,0,0:0:0:0:
256,192,175375,1,0,0:0:0:0:
256,192,175434,1,8,0:0:0:0:
256,192,175493,1,0,0:0:0:0:
256,192,175552,1,0,0:0:0:0:
256,192,175611,1,8,0:0:0:0:
256,192,175963,1,0,0:0:0:0:
256,192,175993,1,8,0:0:0:0:
256,192,176493,1,8,0:0:0:0:
256,192,176669,1,0,0:0:0:0:
256,192,176728,1,0,0:0:0:0:
256,192,176787,1,0,0:0:0:0:
256,192,176846,1,0,0:0:0:0:
256,192,177022,1,8,0:0:0:0:
256,192,177081,1,0,0:0:0:0:
256,192,177140,1,0,0:0:0:0:
256,192,177199,1,0,0:0:0:0:
256,192,177287,1,0,0:0:0:0:
256,192,177375,1,8,0:0:0:0:
256,192,177434,1,8,0:0:0:0:
256,192,177493,1,8,0:0:0:0:
256,192,177552,1,0,0:0:0:0:
256,192,177728,1,0,0:0:0:0:
256,192,177787,1,0,0:0:0:0:
256,192,177846,1,0,0:0:0:0:
256,192,177905,1,0,0:0:0:0:
256,192,178081,1,8,0:0:0:0:
256,192,178140,1,0,0:0:0:0:
256,192,178199,1,0,0:0:0:0:
256,192,178258,1,8,0:0:0:0:
256,192,178316,1,0,0:0:0:0:
256,192,178375,1,0,0:0:0:0:
256,192,178434,1,8,0:0:0:0:
256,192,178787,1,0,0:0:0:0:
256,192,178816,1,8,0:0:0:0:
256,192,179316,1,0,0:0:0:0:
256,192,179493,1,0,0:0:0:0:
256,192,179552,1,0,0:0:0:0:
256,192,179611,1,0,0:0:0:0:
256,192,179669,1,0,0:0:0:0:
256,192,179846,1,8,0:0:0:0:
256,192,179905,1,0,0:0:0:0:
256,192,179963,1,0,0:0:0:0:
256,192,180022,1,0,0:0:0:0:
256,192,180111,1,0,0:0:0:0:
256,192,180199,1,8,0:0:0:0:
256,192,180258,1,0,0:0:0:0:
256,192,180316,1,0,0:0:0:0:
256,192,180375,1,8,0:0:0:0:
256,192,180552,1,0,0:0:0:0:
256,192,180611,1,0,0:0:0:0:
256,192,180669,1,0,0:0:0:0:
256,192,180728,1,0,0:0:0:0:
256,192,180905,1,8,0:0:0:0:
256,192,180963,1,8,0:0:0:0:
256,192,181022,1,8,0:0:0:0:
256,192,181081,1,0,0:0:0:0:
256,192,181140,1,0,0:0:0:0:
256,192,181199,1,0,0:0:0:0:
256,192,181258,1,8,0:0:0:0:
256,192,181611,1,0,0:0:0:0:
256,192,181640,1,8,0:0:0:0:
256,192,182140,1,8,0:0:0:0:
256,192,182316,1,0,0:0:0:0:
256,192,182375,1,0,0:0:0:0:
256,192,182434,1,0,0:0:0:0:
256,192,182493,1,0,0:0:0:0:
256,192,182669,1,8,0:0:0:0:
256,192,182728,1,8,0:0:0:0:
256,192,182787,1,0,0:0:0:0:
256,192,182846,1,0,0:0:0:0:
256,192,182934,1,0,0:0:0:0:
256,192,183022,1,8,0:0:0:0:
256,192,183081,1,8,0:0:0:0:
256,192,183140,1,8,0:0:0:0:
256,192,183199,1,0,0:0:0:0:
256,192,183375,1,0,0:0:0:0:
256,192,184081,1,0,0:0:0:0:
256,192,184169,1,0,0:0:0:0:
256,192,184258,1,8,0:0:0:0:
256,192,184434,1,0,0:0:0:0:
256,192,184463,1,8,0:0:0:0:
256,192,184699,1,8,0:0:0:0:
256,192,184787,1,0,0:0:0:0:
256,192,184963,1,8,0:0:0:0:
256,192,185052,1,0,0:0:0:0:
256,192,185140,1,8,0:0:0:0:
256,192,185199,1,8,0:0:0:0:
256,192,185258,1,8,0:0:0:0:
256,192,185316,1,0,0:0:0:0:
256,192,185405,1,0,0:0:0:0:
256,96,185493,5,12,0:0:0:0:
256,96,185758,5,12,0:0:0:0:
256,96,186022,5,12,0:0:0:0:
256,192,186199,1,0,0:0:0:0:
256,192,186375,1,0,0:0:0:0:
256,192,186552,1,8,0:0:0:0:
256,192,186611,1,8,0:0:0:0:
256,192,186669,1,8,0:0:0:0:
256,192,186728,1,0,0:0:0:0:
256,192,186816,1,0,0:0:0:0:
256,192,186905,1,8,0:0:0:0:
256,192,186993,1,0,0:0:0:0:
256,192,187081,1,8,0:0:0:0:
256,192,187169,1,0,0:0:0:0:
256,192,187258,1,8,0:0:0:0:
256,192,187346,1,0,0:0:0:0:
256,192,187434,1,8,0:0:0:0:
256,192,187522,1,0,0:0:0:0:
256,192,187612,1,8,0:0:0:0:
256,192,187699,1,0,0:0:0:0:
256,192,187787,1,8,0:0:0:0:
256,192,187963,1,0,0:0:0:0:
256,192,188140,1,0,0:0:0:0:
256,192,188228,1,0,0:0:0:0:
256,192,188316,1,8,0:0:0:0:
256,192,188375,1,8,0:0:0:0:
256,192,188434,1,8,0:0:0:0:
256,192,188493,1,0,0:0:0:0:
256,192,188581,1,8,0:0:0:0:
256,192,188669,1,0,0:0:0:0:
256,192,188728,1,0,0:0:0:0:
256,192,188787,1,0,0:0:0:0:
256,192,188846,1,8,0:0:0:0:
256,192,189022,1,0,0:0:0:0:
256,192,189199,1,0,0:0:0:0:
256,192,189375,1,8,0:0:0:0:
256,192,189434,1,8,0:0:0:0:
256,192,189493,1,8,0:0:0:0:
256,192,189552,1,0,0:0:0:0:
256,192,189640,1,0,0:0:0:0:
256,192,189728,1,8,0:0:0:0:
256,192,189816,1,0,0:0:0:0:
256,192,189905,1,8,0:0:0:0:
256,192,189993,1,0,0:0:0:0:
256,192,190081,1,8,0:0:0:0:
256,192,190169,1,0,0:0:0:0:
256,192,190258,1,8,0:0:0:0:
256,192,190346,1,0,0:0:0:0:
256,192,190435,1,8,0:0:0:0:
256,192,190610,1,0,0:0:0:0:
256,192,190787,1,0,0:0:0:0:
256,192,190963,1,0,0:0:0:0:
256,192,191052,1,0,0:0:0:0:
256,192,191140,1,8,0:0:0:0:
256,192,191316,1,0,0:0:0:0:
256,192,191493,1,8,0:0:0:0:
256,192,191552,1,8,0:0:0:0:
256,192,191610,1,0,0:0:0:0:
256,192,191669,1,0,0:0:0:0:
256,192,191846,1,0,0:0:0:0:
256,192,192022,1,0,0:0:0:0:
256,192,192199,1,8,0:0:0:0:
256,192,192258,1,8,0:0:0:0:
256,192,192316,1,8,0:0:0:0:
256,192,192375,1,0,0:0:0:0:
256,192,192463,1,0,0:0:0:0:
256,192,192552,1,8,0:0:0:0:
256,192,192640,1,0,0:0:0:0:
256,192,192728,1,0,0:0:0:0:
256,192,192816,1,8,0:0:0:0:
256,192,192949,1,0,0:0:0:0:
256,192,193081,1,8,0:0:0:0:
256,192,193258,1,0,0:0:0:0:
256,192,193434,1,8,0:0:0:0:
256,192,193610,1,0,0:0:0:0:
256,192,193787,1,0,0:0:0:0:
256,192,193875,1,0,0:0:0:0:
256,192,193963,1,8,0:0:0:0:
256,192,194022,1,8,0:0:0:0:
256,192,194081,1,0,0:0:0:0:
256,192,194140,1,0,0:0:0:0:
256,192,194228,1,0,0:0:0:0:
256,192,194316,1,8,0:0:0:0:
256,192,194375,1,8,0:0:0:0:
256,192,194434,1,8,0:0:0:0:
256,192,194493,1,0,0:0:0:0:
256,192,194669,1,0,0:0:0:0:
256,192,194846,1,0,0:0:0:0:
256,192,195022,1,8,0:0:0:0:
256,192,195081,1,8,0:0:0:0:
256,192,195140,1,8,0:0:0:0:
256,192,195199,1,0,0:0:0:0:
256,192,195287,1,0,0:0:0:0:
256,192,195375,1,8,0:0:0:0:
256,192,195463,1,8,0:0:0:0:
256,192,195552,1,0,0:0:0:0:
256,192,195640,1,0,0:0:0:0:
256,192,195728,1,8,0:0:0:0:
256,192,195905,1,0,0:0:0:0:
256,192,196081,1,0,0:0:0:0:
256,192,196169,1,0,0:0:0:0:
256,192,196258,1,8,0:0:0:0:
256,192,196287,1,8,0:0:0:0:
256,192,196434,1,8,0:0:0:0:
256,192,196493,1,0,0:0:0:0:
256,192,196552,1,0,0:0:0:0:
256,192,196610,1,0,0:0:0:0:
256,192,196699,1,0,0:0:0:0:
256,192,196787,1,8,0:0:0:0:
256,192,196846,1,8,0:0:0:0:
256,192,196905,1,8,0:0:0:0:
256,192,196963,1,8,0:0:0:0:
256,192,197052,1,8,0:0:0:0:
256,192,197140,1,0,0:0:0:0:
256,192,197316,1,0,0:0:0:0:
256,192,197493,1,0,0:0:0:0:
256,192,197669,1,0,0:0:0:0:
256,192,197846,1,8,0:0:0:0:
256,192,197905,1,8,0:0:0:0:
256,192,197963,1,8,0:0:0:0:
256,192,198022,1,0,0:0:0:0:
256,192,198110,1,0,0:0:0:0:
256,192,198199,1,8,0:0:0:0:
256,192,198287,1,0,0:0:0:0:
256,192,198375,1,8,0:0:0:0:
256,192,198463,1,0,0:0:0:0:
256,192,198552,1,8,0:0:0:0:
256,192,198640,1,0,0:0:0:0:
256,192,198728,1,8,0:0:0:0:
256,192,198816,1,0,0:0:0:0:
256,192,198906,1,8,0:0:0:0:
256,192,198993,1,0,0:0:0:0:
256,192,199081,1,8,0:0:0:0:
256,192,199258,1,0,0:0:0:0:
256,192,199434,1,0,0:0:0:0:
256,192,199522,1,0,0:0:0:0:
256,192,199610,1,8,0:0:0:0:
256,192,199669,1,8,0:0:0:0:
256,192,199728,1,8,0:0:0:0:
256,192,199787,1,0,0:0:0:0:
256,192,199875,1,0,0:0:0:0:
256,192,199963,1,8,0:0:0:0:
256,192,200022,1,0,0:0:0:0:
256,192,200081,1,0,0:0:0:0:
256,192,200140,1,8,0:0:0:0:
256,192,200316,1,0,0:0:0:0:
256,192,200493,1,0,0:0:0:0:
256,192,200669,1,8,0:0:0:0:
256,192,200728,1,8,0:0:0:0:
256,192,200787,1,8,0:0:0:0:
256,192,200846,1,0,0:0:0:0:
256,192,200934,1,0,0:0:0:0:
256,192,201022,1,8,0:0:0:0:
256,192,201110,1,0,0:0:0:0:
256,192,201199,1,8,0:0:0:0:
256,192,201287,1,0,0:0:0:0:
256,192,201375,1,8,0:0:0:0:
256,192,201463,1,0,0:0:0:0:
256,192,201552,1,8,0:0:0:0:
256,192,201640,1,0,0:0:0:0:
256,192,201729,1,8,0:0:0:0:
256,192,201905,1,0,0:0:0:0:
256,192,201993,1,8,0:0:0:0:
256,192,202081,1,0,0:0:0:0:
256,192,202258,1,0,0:0:0:0:
256,192,202346,1,0,0:0:0:0:
256,192,202434,1,8,0:0:0:0:
256,192,202610,1,0,0:0:0:0:
256,192,202787,1,8,0:0:0:0:
256,192,202846,1,8,0:0:0:0:
256,192,202905,1,0,0:0:0:0:
256,192,202963,1,0,0:0:0:0:
256,192,203140,1,0,0:0:0:0:
256,192,203316,1,0,0:0:0:0:
256,192,203493,1,8,0:0:0:0:
256,192,203552,1,8,0:0:0:0:
256,192,203610,1,8,0:0:0:0:
256,192,203669,1,0,0:0:0:0:
256,192,203758,1,0,0:0:0:0:
256,192,203846,1,8,0:0:0:0:
256,192,203978,1,0,0:0:0:0:
256,192,204110,1,8,0:0:0:0:
256,192,204243,1,0,0:0:0:0:
256,192,204375,1,8,0:0:0:0:
256,192,204552,1,0,0:0:0:0:
256,192,204728,1,8,0:0:0:0:
256,192,204905,1,0,0:0:0:0:
256,192,205081,1,0,0:0:0:0:
256,192,205169,1,0,0:0:0:0:
256,192,205258,1,8,0:0:0:0:
256,192,205316,1,8,0:0:0:0:
256,192,205375,1,0,0:0:0:0:
256,192,205434,1,0,0:0:0:0:
256,192,205522,1,0,0:0:0:0:
256,192,205610,1,8,0:0:0:0:
256,192,205669,1,8,0:0:0:0:
256,192,205728,1,8,0:0:0:0:
256,192,205787,1,0,0:0:0:0:
256,192,205963,1,0,0:0:0:0:
256,192,206140,1,0,0:0:0:0:
256,192,206316,1,8,0:0:0:0:
256,192,206375,1,8,0:0:0:0:
256,192,206434,1,8,0:0:0:0:
256,192,206493,1,0,0:0:0:0:
256,192,206581,1,0,0:0:0:0:
256,192,206669,1,8,0:0:0:0:
256,192,206758,1,8,0:0:0:0:
256,192,206846,1,0,0:0:0:0:
256,192,206934,1,8,0:0:0:0:
256,192,207022,1,0,0:0:0:0:
256,192,207199,1,8,0:0:0:0:
256,192,207375,1,0,0:0:0:0:
256,192,207463,1,8,0:0:0:0:
256,192,207552,1,8,0:0:0:0:
256,192,207640,1,8,0:0:0:0:
256,192,207728,1,0,0:0:0:0:
256,192,207787,1,8,0:0:0:0:
256,192,207846,1,8,0:0:0:0:
256,192,207905,1,0,0:0:0:0:
256,192,208081,1,8,0:0:0:0:
256,192,208169,1,8,0:0:0:0:
256,192,208258,1,0,0:0:0:0:
256,192,208434,1,0,0:0:0:0:
256,192,208493,1,0,0:0:0:0:
256,192,208552,1,0,0:0:0:0:
256,192,208610,1,8,0:0:0:0:
256,96,208787,5,4,0:0:0:0:
256,192,209139,1,8,0:0:0:0:
256,192,209492,1,0,0:0:0:0:
256,192,209669,1,8,0:0:0:0:
256,192,210022,1,0,0:0:0:0:
256,192,210198,1,8,0:0:0:0:
256,192,210551,1,0,0:0:0:0:
256,192,210728,1,8,0:0:0:0:
256,192,211081,1,0,0:0:0:0:
256,192,211257,1,8,0:0:0:0:
256,192,211434,1,0,0:0:0:0:
256,192,211787,1,0,0:0:0:0:
256,192,211963,1,8,0:0:0:0:
256,192,212316,1,0,0:0:0:0:
256,192,212492,1,8,0:0:0:0:
256,192,212845,1,0,0:0:0:0:
256,192,213022,1,8,0:0:0:0:
256,192,213375,1,0,0:0:0:0:
256,192,213551,1,8,0:0:0:0:
256,192,213904,1,0,0:0:0:0:
256,192,214081,1,8,0:0:0:0:
256,192,214257,1,8,0:0:0:0:
256,192,214610,1,0,0:0:0:0:
256,192,214787,1,0,0:0:0:0:
256,192,215139,1,0,0:0:0:0:
256,192,215316,1,0,0:0:0:0:
256,192,215669,1,0,0:0:0:0:
256,192,215845,1,0,0:0:0:0:
256,192,216198,1,0,0:0:0:0:
256,192,216375,1,0,0:0:0:0:
256,192,216728,1,0,0:0:0:0:
256,192,216904,1,8,0:0:0:0:
256,192,217081,1,0,0:0:0:0:
256,192,217434,1,0,0:0:0:0:
256,192,217610,1,8,0:0:0:0:
256,192,217963,1,0,0:0:0:0:
256,192,218139,1,8,0:0:0:0:
256,192,218492,1,8,0:0:0:0:
256,192,218669,1,8,0:0:0:0:
256,192,219022,1,8,0:0:0:0:
256,192,219198,1,8,0:0:0:0:
256,192,219551,1,0,0:0:0:0:
256,192,219728,1,8,0:0:0:0:
256,192,219904,1,8,0:0:0:0:
256,192,220257,1,0,0:0:0:0:
256,192,220434,1,8,0:0:0:0:
256,192,220787,1,0,0:0:0:0:
256,192,220963,1,8,0:0:0:0:
256,192,221316,1,0,0:0:0:0:
256,192,221492,1,8,0:0:0:0:
256,192,221845,1,0,0:0:0:0:
256,192,222022,1,8,0:0:0:0:
256,192,222375,1,0,0:0:0:0:
256,192,222551,1,8,0:0:0:0:
256,192,222728,1,0,0:0:0:0:
256,192,223081,1,0,0:0:0:0:
256,192,223257,1,8,0:0:0:0:
256,192,223610,1,0,0:0:0:0:
256,192,223787,1,8,0:0:0:0:
256,192,224139,1,0,0:0:0:0:
256,192,224316,1,8,0:0:0:0:
256,192,224669,1,0,0:0:0:0:
256,192,224845,1,8,0:0:0:0:
256,192,225198,1,0,0:0:0:0:
256,192,225375,1,8,0:0:0:0:
256,192,225551,1,8,0:0:0:0:
256,192,225904,1,0,0:0:0:0:
256,192,226081,1,0,0:0:0:0:
256,192,226434,1,0,0:0:0:0:
256,192,226610,1,0,0:0:0:0:
256,192,226963,1,0,0:0:0:0:
256,192,227139,1,0,0:0:0:0:
256,192,227492,1,0,0:0:0:0:
256,192,227669,1,0,0:0:0:0:
256,192,228022,1,0,0:0:0:0:
256,192,228198,1,8,0:0:0:0:
256,192,228375,1,0,0:0:0:0:
256,192,228728,1,0,0:0:0:0:
256,192,228904,1,8,0:0:0:0:
256,192,229257,1,0,0:0:0:0:
256,192,229434,1,8,0:0:0:0:
256,192,229787,1,8,0:0:0:0:
256,192,229963,1,8,0:0:0:0:
256,192,230316,1,8,0:0:0:0:
256,192,230492,1,8,0:0:0:0:
256,192,230845,1,0,0:0:0:0:
256,192,231022,1,8,0:0:0:0:
256,192,231198,1,8,0:0:0:0:
256,192,231375,1,0,0:0:0:0:
256,192,231551,1,0,0:0:0:0:
256,192,231728,1,8,0:0:0:0:
256,192,231904,1,0,0:0:0:0:
256,192,232081,1,0,0:0:0:0:
256,192,232257,1,8,0:0:0:0:
256,192,232434,1,0,0:0:0:0:
256,192,232610,1,0,0:0:0:0:
256,192,232787,1,8,0:0:0:0:
256,192,232963,1,0,0:0:0:0:
256,192,233139,1,0,0:0:0:0:
256,192,233316,1,8,0:0:0:0:
256,192,233492,1,0,0:0:0:0:
256,192,233669,1,0,0:0:0:0:
256,192,233845,1,8,0:0:0:0:
256,192,234022,1,0,0:0:0:0:
256,192,234198,1,0,0:0:0:0:
256,192,234375,1,0,0:0:0:0:
256,192,234551,1,8,0:0:0:0:
256,192,234728,1,0,0:0:0:0:
256,192,234904,1,0,0:0:0:0:
256,192,235081,1,8,0:0:0:0:
256,192,235257,1,0,0:0:0:0:
256,192,235434,1,0,0:0:0:0:
256,192,235610,1,8,0:0:0:0:
256,192,235786,1,0,0:0:0:0:
256,192,235963,1,0,0:0:0:0:
256,192,236139,1,8,0:0:0:0:
256,192,236316,1,0,0:0:0:0:
256,192,236492,1,0,0:0:0:0:
256,192,236669,1,8,0:0:0:0:
256,192,236845,1,8,0:0:0:0:
256,192,237022,1,0,0:0:0:0:
256,192,237198,1,0,0:0:0:0:
256,192,237375,1,0,0:0:0:0:
256,192,237551,1,8,0:0:0:0:
256,192,237728,1,0,0:0:0:0:
256,192,237904,1,0,0:0:0:0:
256,192,238081,1,8,0:0:0:0:
256,192,238257,1,0,0:0:0:0:
256,192,238434,1,0,0:0:0:0:
256,192,238610,1,8,0:0:0:0:
256,192,238786,1,0,0:0:0:0:
256,192,238963,1,0,0:0:0:0:
256,192,239139,1,8,0:0:0:0:
256,192,239316,1,0,0:0:0:0:
256,192,239492,1,8,0:0:0:0:
256,192,239669,1,0,0:0:0:0:
256,192,239845,1,0,0:0:0:0:
256,192,240022,1,8,0:0:0:0:
256,192,240198,1,8,0:0:0:0:
256,192,240375,1,0,0:0:0:0:
256,192,240551,1,8,0:0:0:0:
256,192,240728,1,8,0:0:0:0:
256,192,240904,1,0,0:0:0:0:
256,192,241081,1,8,0:0:0:0:
256,192,241257,1,8,0:0:0:0:
256,192,241434,1,8,0:0:0:0:
256,192,241610,1,0,0:0:0:0:
256,192,241786,1,8,0:0:0:0:
256,192,241963,1,0,0:0:0:0:
256,192,242139,1,8,0:0:0:0:
256,192,242316,1,8,0:0:0:0:
256,192,242492,1,0,0:0:0:0:
256,192,242669,1,0,0:0:0:0:
256,192,242845,1,0,0:0:0:0:
256,192,243022,1,8,0:0:0:0:
256,192,243198,1,0,0:0:0:0:
256,192,243375,1,0,0:0:0:0:
256,192,243551,1,8,0:0:0:0:
256,192,243728,1,0,0:0:0:0:
256,192,243904,1,0,0:0:0:0:
256,192,244081,1,8,0:0:0:0:
256,192,244257,1,0,0:0:0:0:
256,192,244434,1,0,0:0:0:0:
256,192,244610,1,8,0:0:0:0:
256,192,244786,1,0,0:0:0:0:
256,192,244963,1,0,0:0:0:0:
256,192,245139,1,8,0:0:0:0:
256,192,245316,1,0,0:0:0:0:
256,192,245492,1,0,0:0:0:0:
256,192,245669,1,0,0:0:0:0:
256,192,245845,1,8,0:0:0:0:
256,192,246022,1,0,0:0:0:0:
256,192,246198,1,0,0:0:0:0:
256,192,246375,1,8,0:0:0:0:
256,192,246551,1,0,0:0:0:0:
256,192,246728,1,0,0:0:0:0:
256,192,246904,1,8,0:0:0:0:
256,192,247081,1,0,0:0:0:0:
256,192,247257,1,0,0:0:0:0:
256,192,247434,1,8,0:0:0:0:
256,192,247610,1,0,0:0:0:0:
256,192,247786,1,0,0:0:0:0:
256,192,247963,1,8,0:0:0:0:
256,192,248139,1,8,0:0:0:0:
256,192,248316,1,0,0:0:0:0:
256,192,248492,1,0,0:0:0:0:
256,192,248669,1,0,0:0:0:0:
256,192,248845,1,8,0:0:0:0:
256,192,249022,1,0,0:0:0:0:
256,192,249198,1,0,0:0:0:0:
256,192,249375,1,8,0:0:0:0:
256,192,249551,1,0,0:0:0:0:
256,192,249728,1,0,0:0:0:0:
256,192,249904,1,8,0:0:0:0:
256,192,250081,1,0,0:0:0:0:
256,192,250257,1,0,0:0:0:0:
256,192,250434,1,8,0:0:0:0:
256,192,250610,1,0,0:0:0:0:
256,192,250786,1,8,0:0:0:0:
256,192,250963,1,0,0:0:0:0:
256,192,251140,12,0,253610,0:0:0:0:
256,192,253963,5,0,0:0:0:0:
256,192,254051,1,0,0:0:0:0:
256,192,254139,1,8,0:0:0:0:
256,192,254183,1,8,0:0:0:0:
256,192,254227,1,8,0:0:0:0:
256,192,254271,1,8,0:0:0:0:
256,192,254315,1,0,0:0:0:0:
256,192,254668,1,8,0:0:0:0:
256,192,254757,1,8,0:0:0:0:
256,192,254845,1,8,0:0:0:0:
256,192,254933,1,8,0:0:0:0:
256,192,255021,1,8,0:0:0:0:
256,192,255110,1,8,0:0:0:0:
256,192,255198,1,8,0:0:0:0:
256,192,255286,1,8,0:0:0:0:
256,192,255375,1,8,0:0:0:0:
256,192,255463,1,8,0:0:0:0:
256,192,255551,1,8,0:0:0:0:
256,192,255639,1,8,0:0:0:0:
256,192,255727,1,8,0:0:0:0:
256,192,255815,1,8,0:0:0:0:
256,192,255904,1,8,0:0:0:0:
256,192,255992,1,8,0:0:0:0:
256,192,256080,1,8,0:0:0:0:
256,192,256168,1,8,0:0:0:0:
256,192,256257,1,8,0:0:0:0:
256,192,256345,1,8,0:0:0:0:
256,192,256433,1,0,0:0:0:0:
256,192,256492,1,0,0:0:0:0:
256,192,256551,1,0,0:0:0:0:
256,192,256610,1,8,0:0:0:0:
256,192,256698,1,8,0:0:0:0:
256,192,256786,1,0,0:0:0:0:
256,192,256845,1,0,0:0:0:0:
256,192,256904,1,0,0:0:0:0:
256,192,256963,1,0,0:0:0:0:
256,192,257139,1,8,0:0:0:0:
256,192,257198,1,8,0:0:0:0:
256,192,257257,1,8,0:0:0:0:
256,192,257315,1,0,0:0:0:0:
256,192,257404,1,0,0:0:0:0:
256,192,257492,1,8,0:0:0:0:
256,192,257536,1,8,0:0:0:0:
256,192,257580,1,8,0:0:0:0:
256,192,257757,1,0,0:0:0:0:
256,192,257801,1,0,0:0:0:0:
256,192,257845,1,0,0:0:0:0:
256,192,257933,1,8,0:0:0:0:
256,192,258021,1,0,0:0:0:0:
256,192,258110,1,0,0:0:0:0:
256,192,258198,1,0,0:0:0:0:
256,192,258374,1,8,0:0:0:0:
256,192,258551,1,0,0:0:0:0:
256,192,258610,1,0,0:0:0:0:
256,192,258668,1,0,0:0:0:0:
256,192,258727,1,8,0:0:0:0:
256,192,258815,1,0,0:0:0:0:
256,192,258904,1,8,0:0:0:0:
256,192,259080,1,8,0:0:0:0:
256,192,259139,1,0,0:0:0:0:
256,192,259198,1,0,0:0:0:0:
256,192,259257,1,8,0:0:0:0:
256,192,259345,1,0,0:0:0:0:
256,192,259433,1,8,0:0:0:0:
256,192,259521,1,8,0:0:0:0:
256,192,259610,1,0,0:0:0:0:
256,192,259698,1,0,0:0:0:0:
256,192,259786,1,8,0:0:0:0:
256,192,259830,1,8,0:0:0:0:
256,192,259874,1,8,0:0:0:0:
256,192,259918,1,8,0:0:0:0:
256,192,259963,1,0,0:0:0:0:
256,192,260315,1,8,0:0:0:0:
256,192,260404,1,8,0:0:0:0:
256,192,260492,1,8,0:0:0:0:
256,192,260580,1,8,0:0:0:0:
256,192,260668,1,8,0:0:0:0:
256,192,260757,1,8,0:0:0:0:
256,192,260845,1,8,0:0:0:0:
256,192,260933,1,8,0:0:0:0:
256,192,261022,1,8,0:0:0:0:
256,192,261110,1,8,0:0:0:0:
256,192,261198,1,8,0:0:0:0:
256,192,261286,1,8,0:0:0:0:
256,192,261374,1,8,0:0:0:0:
256,192,261463,1,8,0:0:0:0:
256,192,261551,1,8,0:0:0:0:
256,192,261639,1,8,0:0:0:0:
256,192,261727,1,8,0:0:0:0:
256,192,261815,1,8,0:0:0:0:
256,192,261904,1,8,0:0:0:0:
256,192,261992,1,8,0:0:0:0:
256,192,262080,1,0,0:0:0:0:
256,192,262139,1,0,0:0:0:0:
256,192,262198,1,0,0:0:0:0:
256,192,262257,1,0,0:0:0:0:
256,192,262433,1,0,0:0:0:0:
256,192,263139,1,8,0:0:0:0:
256,192,263198,1,0,0:0:0:0:
256,192,263257,1,0,0:0:0:0:
256,192,263315,1,0,0:0:0:0:
256,192,263404,1,0,0:0:0:0:
256,192,263492,1,8,0:0:0:0:
256,192,263668,1,8,0:0:0:0:
256,192,263757,1,8,0:0:0:0:
256,192,263845,1,0,0:0:0:0:
256,192,263933,1,0,0:0:0:0:
256,192,264021,1,8,0:0:0:0:
256,192,264080,1,8,0:0:0:0:
256,192,264139,1,8,0:0:0:0:
256,192,264198,1,0,0:0:0:0:
256,192,264286,1,0,0:0:0:0:
256,192,264374,1,8,0:0:0:0:
256,192,264463,1,0,0:0:0:0:
256,192,264551,1,8,0:0:0:0:
256,192,264639,1,8,0:0:0:0:
256,192,264683,1,8,0:0:0:0:
256,192,264727,1,0,0:0:0:0:
256,192,264815,1,8,0:0:0:0:
256,192,264904,1,0,0:0:0:0:
256,192,264992,1,8,0:0:0:0:
256,192,265080,1,0,0:0:0:0:
256,192,265257,1,0,0:0:0:0:
256,192,265963,1,8,0:0:0:0:
256,192,266051,1,8,0:0:0:0:
256,192,266139,1,8,0:0:0:0:
256,192,266227,1,8,0:0:0:0:
256,192,266315,1,8,0:0:0:0:
256,192,266404,1,8,0:0:0:0:
256,192,266492,1,8,0:0:0:0:
256,192,266580,1,8,0:0:0:0:
256,192,266669,1,8,0:0:0:0:
256,192,266757,1,8,0:0:0:0:
256,192,266845,1,8,0:0:0:0:
256,192,266933,1,8,0:0:0:0:
256,192,267021,1,8,0:0:0:0:
256,192,267110,1,8,0:0:0:0:
256,192,267198,1,8,0:0:0:0:
256,192,267286,1,8,0:0:0:0:
256,192,267374,1,8,0:0:0:0:
256,192,267463,1,8,0:0:0:0:
256,192,267551,1,8,0:0:0:0:
256,192,267639,1,8,0:0:0:0:
256,192,267727,1,0,0:0:0:0:
256,192,267815,1,0,0:0:0:0:
256,192,267904,1,8,0:0:0:0:
256,192,267992,1,8,0:0:0:0:
256,192,268080,1,0,0:0:0:0:
256,192,268168,1,0,0:0:0:0:
256,192,268257,1,8,0:0:0:0:
256,192,268301,1,8,0:0:0:0:
256,192,268345,1,0,0:0:0:0:
256,192,268433,1,8,0:0:0:0:
256,192,268492,1,8,0:0:0:0:
256,192,268551,1,8,0:0:0:0:
256,192,268610,1,0,0:0:0:0:
256,192,268698,1,0,0:0:0:0:
256,192,268786,1,8,0:0:0:0:
256,192,268963,1,0,0:0:0:0:
256,192,269007,1,8,0:0:0:0:
256,192,269051,1,0,0:0:0:0:
256,192,269227,1,0,0:0:0:0:
256,192,269271,1,8,0:0:0:0:
256,192,269315,1,0,0:0:0:0:
256,192,269492,1,0,0:0:0:0:
256,192,269580,1,0,0:0:0:0:
256,192,269668,1,8,0:0:0:0:
256,192,269757,1,8,0:0:0:0:
256,192,269845,1,0,0:0:0:0:
256,192,269904,1,8,0:0:0:0:
256,192,269963,1,8,0:0:0:0:
256,192,270021,1,0,0:0:0:0:
256,192,270198,1,8,0:0:0:0:
256,192,270286,1,8,0:0:0:0:
256,192,270374,1,0,0:0:0:0:
256,192,270463,1,0,0:0:0:0:
256,192,270551,1,8,0:0:0:0:
256,192,270610,1,0,0:0:0:0:
256,192,270668,1,0,0:0:0:0:
256,192,270727,1,8,0:0:0:0:
256,192,270904,1,0,0:0:0:0:
256,192,270992,1,0,0:0:0:0:
256,192,271080,1,8,0:0:0:0:
256,192,271124,1,8,0:0:0:0:
256,192,271168,1,8,0:0:0:0:
256,192,271213,1,8,0:0:0:0:
256,192,271257,1,0,0:0:0:0:
256,192,271610,1,8,0:0:0:0:
256,192,271698,1,8,0:0:0:0:
256,192,271786,1,8,0:0:0:0:
256,192,271874,1,8,0:0:0:0:
256,192,271963,1,8,0:0:0:0:
256,192,272051,1,8,0:0:0:0:
256,192,272139,1,8,0:0:0:0:
256,192,272227,1,8,0:0:0:0:
256,192,272316,1,8,0:0:0:0:
256,192,272404,1,8,0:0:0:0:
256,192,272492,1,8,0:0:0:0:
256,192,272580,1,8,0:0:0:0:
256,192,272668,1,8,0:0:0:0:
256,192,272757,1,8,0:0:0:0:
256,192,272845,1,8,0:0:0:0:
256,192,272933,1,8,0:0:0:0:
256,192,273021,1,8,0:0:0:0:
256,192,273110,1,8,0:0:0:0:
256,192,273198,1,8,0:0:0:0:
256,192,273286,1,8,0:0:0:0:
256,192,273374,1,0,0:0:0:0:
256,192,273463,1,8,0:0:0:0:
256,192,273551,1,0,0:0:0:0:
256,192,273639,1,8,0:0:0:0:
256,192,273727,1,0,0:0:0:0:
256,192,273904,1,0,0:0:0:0:
256,192,274080,1,0,0:0:0:0:
256,192,274257,1,0,0:0:0:0:
256,192,274433,1,8,0:0:0:0:
256,192,274610,1,0,0:0:0:0:
256,192,274786,1,8,0:0:0:0:
256,192,274963,1,0,0:0:0:0:
256,192,275051,1,0,0:0:0:0:
256,192,275139,1,0,0:0:0:0:
256,192,275315,1,8,0:0:0:0:
256,192,275492,1,0,0:0:0:0:
256,192,275668,1,8,0:0:0:0:
256,192,275757,1,0,0:0:0:0:
256,192,275845,1,8,0:0:0:0:
256,192,276021,1,0,0:0:0:0:
256,192,276551,1,0,0:0:0:0:
256,192,276595,1,0,0:0:0:0:
256,192,276639,1,8,0:0:0:0:
256,192,276683,1,8,0:0:0:0:
256,192,276727,1,0,0:0:0:0:
256,192,276904,1,0,0:0:0:0:
256,192,276992,1,8,0:0:0:0:
256,192,277080,1,0,0:0:0:0:
256,192,277257,1,8,0:0:0:0:
256,192,277301,1,8,0:0:0:0:
256,192,277345,1,0,0:0:0:0:
256,192,277389,1,0,0:0:0:0:
256,192,277433,1,8,0:0:0:0:
256,192,277610,1,8,0:0:0:0:
256,192,277698,1,8,0:0:0:0:
256,192,277786,1,0,0:0:0:0:
256,192,277963,1,0,0:0:0:0:
256,192,278007,1,0,0:0:0:0:
256,192,278051,1,8,0:0:0:0:
256,192,278095,1,8,0:0:0:0:
256,192,278139,1,0,0:0:0:0:
256,192,278315,1,0,0:0:0:0:
256,192,278404,1,8,0:0:0:0:
256,192,278492,1,0,0:0:0:0:
256,192,278668,1,8,0:0:0:0:
256,192,278713,1,8,0:0:0:0:
256,192,278757,1,0,0:0:0:0:
256,192,278801,1,0,0:0:0:0:
256,192,278845,1,8,0:0:0:0:
256,192,279021,1,8,0:0:0:0:
256,192,279110,1,8,0:0:0:0:
256,192,279198,1,0,0:0:0:0:
256,192,279374,1,0,0:0:0:0:
256,192,279463,1,0,0:0:0:0:
256,192,279551,1,8,0:0:0:0:
256,192,279595,1,8,0:0:0:0:
256,192,279639,1,8,0:0:0:0:
256,192,279683,1,8,0:0:0:0:
256,192,279727,1,0,0:0:0:0:
256,192,280080,1,8,0:0:0:0:
256,192,280168,1,8,0:0:0:0:
256,192,280257,1,8,0:0:0:0:
256,192,280345,1,8,0:0:0:0:
256,192,280433,1,8,0:0:0:0:
256,192,280521,1,8,0:0:0:0:
256,192,280610,1,8,0:0:0:0:
256,192,280698,1,8,0:0:0:0:
256,192,280786,1,0,0:0:0:0:
256,192,280874,1,8,0:0:0:0:
256,192,280963,1,8,0:0:0:0:
256,192,281051,1,8,0:0:0:0:
256,192,281139,1,8,0:0:0:0:
256,192,281227,1,8,0:0:0:0:
256,192,281315,1,8,0:0:0:0:
256,192,281404,1,8,0:0:0:0:
256,192,281492,1,8,0:0:0:0:
256,192,281845,1,8,0:0:0:0:
256,192,281933,1,8,0:0:0:0:
256,192,282021,1,0,0:0:0:0:
256,192,282080,1,0,0:0:0:0:
256,192,282139,1,0,0:0:0:0:
256,192,282198,1,0,0:0:0:0:
256,192,282904,1,8,0:0:0:0:
256,192,282948,1,8,0:0:0:0:
256,192,282992,1,0,0:0:0:0:
256,192,283036,1,0,0:0:0:0:
256,192,283080,1,8,0:0:0:0:
256,192,283257,1,8,0:0:0:0:
256,192,283345,1,8,0:0:0:0:
256,192,283433,1,0,0:0:0:0:
256,192,283610,1,0,0:0:0:0:
256,192,283654,1,0,0:0:0:0:
256,192,283698,1,8,0:0:0:0:
256,192,283742,1,8,0:0:0:0:
256,192,283786,1,0,0:0:0:0:
256,192,283963,1,0,0:0:0:0:
256,192,284051,1,8,0:0:0:0:
256,192,284139,1,0,0:0:0:0:
256,192,284315,1,8,0:0:0:0:
256,192,284360,1,8,0:0:0:0:
256,192,284404,1,0,0:0:0:0:
256,192,284448,1,0,0:0:0:0:
256,192,284492,1,8,0:0:0:0:
256,192,284668,1,8,0:0:0:0:
256,192,284757,1,8,0:0:0:0:
256,192,284845,1,0,0:0:0:0:
256,192,285021,1,0,0:0:0:0:
256,192,285110,1,0,0:0:0:0:
256,192,285198,1,8,0:0:0:0:
256,192,285242,1,8,0:0:0:0:
256,192,285286,1,8,0:0:0:0:
256,192,285330,1,8,0:0:0:0:
256,192,285374,1,0,0:0:0:0:
256,192,285727,1,8,0:0:0:0:
256,192,285815,1,8,0:0:0:0:
256,192,285904,1,8,0:0:0:0:
256,192,285992,1,8,0:0:0:0:
256,192,286080,1,8,0:0:0:0:
256,192,286168,1,8,0:0:0:0:
256,192,286257,1,8,0:0:0:0:
256,192,286345,1,8,0:0:0:0:
256,192,286434,1,8,0:0:0:0:
256,192,286521,1,8,0:0:0:0:
256,192,286610,1,8,0:0:0:0:
256,192,286698,1,8,0:0:0:0:
256,192,286786,1,8,0:0:0:0:
256,192,286874,1,8,0:0:0:0:
256,192,286963,1,8,0:0:0:0:
256,192,287051,1,8,0:0:0:0:
256,192,287139,1,8,0:0:0:0:
256,192,287227,1,8,0:0:0:0:
256,192,287315,1,8,0:0:0:0:
256,192,287404,1,8,0:0:0:0:
256,192,287492,1,8,0:0:0:0:
256,192,287580,1,8,0:0:0:0:
256,192,287668,1,8,0:0:0:0:
256,192,287757,1,8,0:0:0:0:
256,192,287845,1,0,0:0:0:0:
256,192,287889,1,0,0:0:0:0:
256,192,287933,1,8,0:0:0:0:
256,192,287977,1,8,0:0:0:0:
256,192,288021,1,0,0:0:0:0:
256,192,288198,1,0,0:0:0:0:
256,192,288286,1,8,0:0:0:0:
256,192,288374,1,0,0:0:0:0:
256,192,288551,1,0,0:0:0:0:
256,192,288595,1,0,0:0:0:0:
256,192,288639,1,8,0:0:0:0:
256,192,288727,1,0,0:0:0:0:
256,192,288904,1,0,0:0:0:0:
256,192,289257,1,8,0:0:0:0:
256,192,289301,1,8,0:0:0:0:
256,192,289345,1,0,0:0:0:0:
256,192,289389,1,0,0:0:0:0:
256,192,289433,1,8,0:0:0:0:
256,192,289610,1,8,0:0:0:0:
256,192,289698,1,8,0:0:0:0:
256,192,289786,1,0,0:0:0:0:
256,192,289963,1,8,0:0:0:0:
256,192,290007,1,8,0:0:0:0:
256,192,290051,1,0,0:0:0:0:
256,192,290139,1,8,0:0:0:0:
256,192,290315,1,0,0:0:0:0:
256,192,290668,1,0,0:0:0:0:
256,192,290757,1,0,0:0:0:0:
256,192,290845,1,8,0:0:0:0:
256,192,290889,1,8,0:0:0:0:
256,192,290933,1,8,0:0:0:0:
256,192,290977,1,8,0:0:0:0:
256,192,291021,1,0,0:0:0:0:
256,192,291198,1,0,0:0:0:0:
256,192,291286,1,0,0:0:0:0:
256,192,291374,1,8,0:0:0:0:
256,192,291418,1,8,0:0:0:0:
256,192,291463,1,8,0:0:0:0:
256,192,291507,1,8,0:0:0:0:
256,192,291551,1,0,0:0:0:0:
256,192,291727,1,0,0:0:0:0:
256,192,291815,1,0,0:0:0:0:
256,192,291904,1,8,0:0:0:0:
256,192,291992,1,8,0:0:0:0:
256,192,292081,1,8,0:0:0:0:
256,192,292168,1,8,0:0:0:0:
256,192,292257,1,8,0:0:0:0:
256,192,292345,1,8,0:0:0:0:
256,192,292433,1,8,0:0:0:0:
256,192,292521,1,8,0:0:0:0:
256,192,292610,1,8,0:0:0:0:
256,192,292698,1,8,0:0:0:0:
256,192,292786,1,8,0:0:0:0:
256,192,292874,1,8,0:0:0:0:
256,192,292963,1,8,0:0:0:0:
256,192,293051,1,8,0:0:0:0:
256,192,293139,1,8,0:0:0:0:
256,192,293227,1,8,0:0:0:0:
256,192,293315,1,8,0:0:0:0:
256,192,293404,1,8,0:0:0:0:
256,192,293492,1,0,0:0:0:0:
256,192,293580,1,0,0:0:0:0:
256,192,293668,1,8,0:0:0:0:
256,192,293757,1,8,0:0:0:0:
256,192,293845,1,0,0:0:0:0:
256,192,294021,1,0,0:0:0:0:
256,192,294198,1,0,0:0:0:0:
256,192,294242,1,0,0:0:0:0:
256,192,294286,1,8,0:0:0:0:
256,192,294374,1,0,0:0:0:0:
256,192,294551,1,0,0:0:0:0:
256,192,294904,1,8,0:0:0:0:
256,192,294948,1,8,0:0:0:0:
256,192,294992,1,0,0:0:0:0:
256,192,295036,1,0,0:0:0:0:
256,192,295080,1,8,0:0:0:0:
256,192,295257,1,8,0:0:0:0:
256,192,295345,1,8,0:0:0:0:
256,192,295433,1,0,0:0:0:0:
256,192,295610,1,8,0:0:0:0:
256,192,295654,1,8,0:0:0:0:
256,192,295698,1,0,0:0:0:0:
256,192,295786,1,8,0:0:0:0:
256,192,295963,1,0,0:0:0:0:
256,192,296315,1,0,0:0:0:0:
256,192,296404,1,0,0:0:0:0:
256,192,296492,1,8,0:0:0:0:
256,192,296551,1,8,0:0:0:0:
256,192,296610,1,8,0:0:0:0:
256,192,296668,1,0,0:0:0:0:
256,192,297021,1,0,0:0:0:0:
256,192,297110,1,0,0:0:0:0:
256,192,297198,1,0,0:0:0:0:
256,192,297286,1,0,0:0:0:0:
256,192,297374,1,8,0:0:0:0:
256,192,297433,1,0,0:0:0:0:
256,192,297492,1,0,0:0:0:0:
256,192,297551,1,8,0:0:0:0:
256,192,297727,1,8,0:0:0:0:
256,192,297815,1,8,0:0:0:0:
256,192,297904,1,8,0:0:0:0:
256,192,297992,1,8,0:0:0:0:
256,192,298080,1,0,0:0:0:0:
256,192,298168,1,0,0:0:0:0:
256,192,298257,1,0,0:0:0:0:
256,192,298345,1,0,0:0:0:0:
256,192,298433,1,8,0:0:0:0:
256,192,298521,1,8,0:0:0:0:
256,192,298610,1,8,0:0:0:0:
256,192,298698,1,8,0:0:0:0:
256,192,298786,1,0,0:0:0:0:
256,192,298874,1,0,0:0:0:0:
256,192,298963,1,0,0:0:0:0:
256,192,299051,1,0,0:0:0:0:
256,96,299139,5,12,0:0:0:0:
256,192,299315,1,0,0:0:0:0:
256,192,299403,1,0,0:0:0:0:
256,192,299491,1,8,0:0:0:0:
256,192,299580,1,8,0:0:0:0:
256,192,299668,1,8,0:0:0:0:
256,192,299756,1,8,0:0:0:0:
256,192,299844,1,0,0:0:0:0:
256,192,300197,1,8,0:0:0:0:
256,192,301962,1,0,0:0:0:0:
256,192,303021,1,0,0:0:0:0:
256,192,303197,1,8,0:0:0:0:
256,192,303374,1,8,0:0:0:0:
256,192,303903,1,0,0:0:0:0:
256,192,304433,1,8,0:0:0:0:
256,192,305139,1,8,0:0:0:0:
256,192,305491,1,0,0:0:0:0:
256,192,307609,1,8,0:0:0:0:
256,192,308315,1,8,0:0:0:0:
256,192,309021,1,8,0:0:0:0:
256,192,309727,1,0,0:0:0:0:
256,192,310433,1,0,0:0:0:0:
256,192,313256,1,0,0:0:0:0:
256,192,314491,1,0,0:0:0:0:
256,192,314668,1,8,0:0:0:0:
256,192,315197,1,0,0:0:0:0:
256,192,316080,1,8,0:0:0:0:
256,192,317844,1,0,0:0:0:0:
256,192,318906,1,8,0:0:0:0:
256,192,319676,1,0,0:0:0:0:
256,192,320086,1,0,0:0:0:0:
256,192,320475,1,8,0:0:0:0:
256,192,321131,1,0,0:0:0:0:
256,192,321788,1,8,0:0:0:0:
256,192,327594,5,8,0:0:0:0:
