osu file format v14

[General]
AudioFilename: audio.mp3
AudioLeadIn: 0
PreviewTime: 208770
Countdown: 0
SampleSet: Soft
StackLeniency: 0.7
Mode: 2
LetterboxInBreaks: 0
WidescreenStoryboard: 0

[Editor]
Bookmarks: 28086,50674,73262,95850,98233,118439,141027,163615,186203,208792,231292,231380,253968,276556,299145
DistanceSpacing: 1.1
BeatDivisor: 4
GridSize: 32
TimelineZoom: 2

[Metadata]
Title:Impulse
TitleUnicode:Impulse
Artist:Culprate & Au5
ArtistUnicode:Culprate & Au5
Creator:Ascendance
Version:Impetus
Source:
Tags:electronic dubstep unity project part 2 drumstep electro edm Spectator collab collaboration
BeatmapID:1532039
BeatmapSetID:725601

[Difficulty]
HPDrainRate:6
CircleSize:4.2
OverallDifficulty:9.6
ApproachRate:9.6
SliderMultiplier:1.96
SliderTickRate:2

[Events]
//Background and Video events
0,0,"impulse.jpg",0,0
//Break Periods
//Storyboard Layer 0 (Background)
//Storyboard Layer 1 (Fail)
//Storyboard Layer 2 (Pass)
//Storyboard Layer 3 (Foreground)
//Storyboard Sound Samples

[TimingPoints]
5498,352.941176470588,4,2,1,20,1,0
5498,-200,4,2,1,20,0,0
5586,-100,4,2,99,5,0,0
11145,-200,4,2,1,20,0,0
11233,-100,4,2,99,5,0,0
16792,-100,4,2,1,20,0,0
16880,-100,4,2,99,5,0,0
17145,-200,4,2,1,25,0,0
17233,-100,4,2,99,5,0,0
22439,-200,4,2,1,30,0,0
22527,-200,4,2,1,5,0,0
25262,-200,4,2,1,30,0,0
25350,-200,4,2,1,5,0,0
25968,-200,4,2,1,30,0,0
26762,-200,4,2,1,20,0,0
27380,-200,4,2,1,30,0,0
28086,-200,4,2,1,35,0,0
32321,-133.333333333333,4,2,1,35,0,0
34439,-133.333333333333,4,2,1,30,0,0
39380,-133.333333333333,4,2,1,35,0,0
43262,-133.333333333333,4,2,1,40,0,0
48556,-133.333333333333,4,2,1,45,0,0
50674,-100,4,2,13,70,0,1
50939,-100,4,2,11,70,0,1
51203,-100,4,2,12,70,0,1
51247,-100,4,2,11,70,0,1
51380,-100,4,2,11,60,0,0
51909,-100,4,2,2,60,0,0
53497,-100,4,2,14,70,0,1
53762,-100,4,2,15,70,0,1
54027,-100,4,2,16,70,0,1
54203,-100,4,2,2,60,0,0
55439,-100,4,2,2,80,0,0
56277,-100,4,2,2,30,0,0
56321,-100,4,2,13,70,0,0
56586,-100,4,2,17,70,0,0
56850,-100,4,2,12,70,0,0
57115,-100,4,2,2,50,0,0
57380,-100,4,2,2,60,0,0
57645,-100,4,2,2,70,0,0
57909,-100,4,2,2,60,0,0
57953,-100,4,2,2,10,0,0
57997,-100,4,2,2,60,0,0
58042,-100,4,2,2,10,0,0
58086,-100,4,2,2,60,0,0
58130,-100,4,2,2,30,0,0
58439,-100,4,2,2,60,0,0
59145,-100,4,2,16,60,0,1
59409,-100,4,2,16,70,0,1
59674,-100,4,2,16,80,0,1
59939,-100,4,2,15,90,0,1
60733,-100,4,2,14,80,0,1
60997,-100,4,2,14,70,0,1
61262,-100,4,2,14,60,0,1
61527,-100,4,2,2,50,0,0
61968,-100,4,2,18,70,0,1
62233,-100,4,2,21,70,0,1
62497,-100,4,2,12,70,0,1
62674,-100,4,2,2,60,0,0
63556,-100,4,2,2,80,0,0
64086,-100,4,2,2,60,0,0
64792,-100,4,2,14,70,0,1
65057,-100,4,2,15,70,0,1
65322,-100,4,2,22,70,0,1
65586,-100,4,2,2,50,0,0
65851,-100,4,2,2,60,0,0
66116,-100,4,2,2,70,0,0
66468,-100,4,2,2,60,0,0
66909,-100,4,2,2,80,0,0
67571,-100,4,2,2,30,0,0
67615,-100,4,2,13,70,0,1
67880,-100,4,2,17,70,0,1
68145,-100,4,2,11,70,0,1
68321,-100,4,2,2,60,0,0
69203,-100,4,2,2,70,0,0
69247,-100,4,2,2,10,0,0
69292,-100,4,2,2,70,0,0
69336,-100,4,2,2,10,0,0
69381,-100,4,2,2,70,0,0
69424,-100,4,2,2,10,0,0
69850,-100,4,2,1,40,0,0
69909,-100,4,2,1,30,0,0
69967,-100,4,2,1,45,0,0
70027,-100,4,2,1,30,0,0
70086,-100,4,2,1,50,0,0
70145,-100,4,2,1,30,0,0
70203,-100,4,2,1,55,0,0
70262,-100,4,2,1,30,0,0
70321,-100,4,2,1,60,0,0
70380,-100,4,2,1,30,0,0
70439,-100,4,2,16,60,0,1
70703,-100,4,2,16,70,0,1
70968,-100,4,2,16,80,0,1
71233,-100,4,2,15,90,0,1
72027,-100,4,2,14,80,0,1
72291,-100,4,2,14,70,0,1
72556,-100,4,2,14,60,0,1
72821,-100,4,2,2,50,0,0
73968,-100,4,2,1,70,0,0
74439,-100,4,2,1,10,0,0
74497,-100,4,2,2,30,0,0
74586,-100,4,2,3,50,0,0
74674,-100,4,2,2,80,0,0
74762,-100,4,2,3,50,0,0
74850,-100,4,2,2,30,0,0
74939,-100,4,2,1,5,0,0
75027,-100,4,2,2,60,0,0
75997,-100,4,2,2,70,0,0
76086,-100,4,2,14,70,0,1
76351,-100,4,2,15,70,0,1
76615,-100,4,2,22,70,0,1
76792,-100,4,2,2,60,0,0
77939,-76.9230769230769,4,2,2,60,0,0
78027,-76.9230769230769,4,2,2,80,0,0
78865,-76.9230769230769,4,2,2,30,0,0
78909,-100,4,2,13,70,0,1
79174,-100,4,2,17,70,0,1
79439,-100,4,2,11,70,0,1
79703,-100,4,2,2,50,0,0
79968,-100,4,2,2,60,0,0
80233,-100,4,2,2,70,0,0
80321,-76.9230769230769,4,2,2,70,0,0
80497,-76.9230769230769,4,2,2,60,0,0
80542,-76.9230769230769,4,2,2,10,0,0
80585,-76.9230769230769,4,2,2,60,0,0
80630,-76.9230769230769,4,2,2,10,0,0
80674,-76.9230769230769,4,2,2,60,0,0
80718,-76.9230769230769,4,2,2,30,0,0
81027,-76.9230769230769,4,2,2,60,0,0
81733,-100,4,2,16,60,0,1
81997,-100,4,2,16,70,0,1
82262,-100,4,2,16,80,0,1
82527,-100,4,2,15,90,0,1
83321,-100,4,2,14,80,0,1
83585,-100,4,2,14,70,0,1
83850,-100,4,2,14,60,0,1
84115,-100,4,2,2,50,0,0
84556,-100,4,2,13,70,0,1
84821,-100,4,2,11,70,0,1
85086,-100,4,2,12,70,0,1
85262,-100,4,2,2,60,0,0
86145,-100,4,2,2,80,0,0
86674,-100,4,2,2,60,0,0
87380,-100,4,2,14,70,0,1
87645,-100,4,2,15,70,0,1
87909,-100,4,2,22,70,0,1
88174,-100,4,2,2,50,0,0
88439,-100,4,2,2,60,0,0
88703,-100,4,2,2,70,0,0
89056,-100,4,2,2,60,0,0
89497,-100,4,2,2,80,0,0
90159,-100,4,2,2,30,0,0
90203,-100,4,2,13,70,0,1
90468,-100,4,2,17,70,0,1
90733,-100,4,2,11,70,0,1
90909,-100,4,2,2,60,0,0
91792,-100,4,2,2,70,0,0
91836,-100,4,2,2,10,0,0
91880,-100,4,2,2,70,0,0
91924,-100,4,2,2,10,0,0
91968,-100,4,2,14,80,0,0
92012,-100,4,2,2,50,0,0
92321,-100,4,2,2,60,0,0
93027,-100,4,2,16,60,0,1
93291,-100,4,2,16,70,0,1
93556,-100,4,2,16,80,0,1
93821,-100,4,2,15,90,0,1
94615,-100,4,2,14,80,0,1
94879,-100,4,2,14,70,0,1
95144,-100,4,2,14,60,0,1
95409,-100,4,2,2,50,0,0
96556,-100,4,2,2,70,0,0
97027,-100,4,2,2,10,0,0
97086,-100,4,2,2,30,0,0
97174,-100,4,2,2,50,0,0
97262,-100,4,2,2,80,0,0
97350,-100,4,2,2,30,0,0
97439,-100,4,2,3,70,0,0
97968,-100,4,2,3,60,0,0
98674,-100,4,2,3,70,0,0
100615,-100,4,2,3,80,0,0
101497,-100,4,2,3,60,0,0
102292,-100,4,2,3,80,0,0
102468,-100,4,2,3,70,0,0
102645,-100,4,2,3,60,0,0
102821,-100,4,2,3,50,0,0
103615,-100,4,2,3,60,0,0
104762,-100,4,2,3,50,0,0
105027,-100,4,2,3,60,0,0
105292,-100,4,2,3,70,0,0
105556,-100,4,2,3,80,0,0
105821,-100,4,2,3,90,0,0
106086,-100,4,2,3,60,0,0
106439,-100,4,2,3,70,0,0
106615,-100,4,2,3,75,0,0
106792,-100,4,2,3,80,0,0
106968,-100,4,2,3,85,0,0
107145,-100,4,2,3,90,0,0
107409,-100,4,2,3,60,0,0
108733,-100,4,2,3,80,0,0
109262,-100,4,2,3,60,0,0
109968,-100,4,2,3,70,0,0
111997,-100,4,2,3,80,0,0
112792,-100,4,2,3,60,0,0
113850,-100,4,2,3,70,0,0
114027,-100,4,2,3,80,0,0
114203,-100,4,2,3,90,0,0
114645,-100,4,2,3,60,0,0
115615,-100,4,2,3,70,0,0
116321,-100,4,2,3,80,0,0
116850,-100,4,2,3,60,0,0
117734,-100,4,2,3,90,0,0
117997,-100,4,2,1,70,0,0
118527,-100,4,1,2,20,0,0
121968,-100,4,2,1,20,0,0
122762,-100,4,1,2,20,0,0
123203,-100,4,2,1,20,0,0
123292,-100,4,1,2,20,0,0
123733,-100,4,2,1,20,0,0
124174,-100,4,1,2,20,0,0
126909,-100,4,2,1,20,0,0
127615,-100,4,2,1,20,0,0
127703,-100,4,1,2,20,0,0
128321,-100,4,2,1,20,0,0
128409,-100,4,1,2,20,0,0
129027,-100,4,2,1,20,0,0
129821,-100,4,1,2,20,0,0
132556,-100,4,2,1,20,0,0
133615,-100,4,2,1,20,0,0
134056,-100,4,1,2,20,0,0
134497,-100,4,2,1,20,0,0
134586,-100,4,1,2,20,0,0
135027,-100,4,2,1,20,0,0
135468,-100,4,1,2,20,0,0
137145,-100,4,2,1,20,0,0
138997,-100,4,1,2,20,0,0
139615,-100,4,2,1,20,0,0
145262,-100,4,2,1,30,0,0
146850,-100,4,2,1,20,0,0
150203,-100,4,2,1,30,0,0
151792,-100,4,2,1,20,0,0
156556,-100,4,2,1,30,0,0
158145,-100,4,2,1,20,0,0
160880,-100,4,2,1,5,0,0
161321,-100,4,2,1,30,0,0
161409,-100,4,2,1,5,0,0
161850,-100,4,2,1,50,0,0
161939,-100,4,2,1,5,0,0
162380,-100,4,2,1,70,0,0
162468,-100,4,2,1,5,0,0
162909,-100,4,2,1,90,0,0
163527,-100,4,2,1,10,0,0
163615,-100,4,2,1,80,0,0
163703,-100,4,2,1,60,0,0
163968,-100,4,2,3,80,0,0
164321,-100,4,2,3,100,0,1
164674,-100,4,2,3,80,0,0
165733,-100,4,2,3,100,0,0
165821,-100,4,2,3,80,0,0
166527,-100,4,2,1,60,0,0
166792,-100,4,2,3,80,0,0
167145,-100,4,2,3,100,0,0
167497,-100,4,2,3,80,0,0
168556,-100,4,2,3,100,0,0
168644,-100,4,2,3,80,0,0
169350,-100,4,2,1,60,0,0
169615,-100,4,2,3,80,0,0
169968,-100,4,2,3,100,0,1
170321,-100,4,2,3,80,0,0
171380,-100,4,2,3,100,0,0
171468,-100,4,2,3,80,0,0
172174,-100,4,2,1,60,0,0
172439,-100,4,2,3,80,0,0
172792,-100,4,2,3,100,0,1
173145,-100,4,2,3,80,0,0
174203,-100,4,2,3,100,0,0
174247,-100,4,2,3,60,0,0
174380,-100,4,2,3,80,0,0
174424,-100,4,2,3,60,0,0
174556,-100,4,2,3,80,0,0
174600,-100,4,2,3,60,0,0
174733,-100,4,2,3,80,0,0
174777,-100,4,2,3,60,0,0
174909,-100,4,2,3,80,0,0
174997,-100,4,2,1,60,0,0
175262,-100,4,2,3,80,0,0
175615,-100,4,2,3,100,0,1
175968,-100,4,2,3,80,0,0
177027,-100,4,2,3,100,0,0
177115,-100,4,2,3,80,0,0
177821,-100,4,2,1,60,0,0
178086,-100,4,2,3,80,0,0
178439,-100,4,2,3,100,0,0
178792,-100,4,2,3,80,0,0
179850,-100,4,2,3,100,0,0
179939,-100,4,2,3,80,0,0
180645,-100,4,2,1,60,0,0
180909,-100,4,2,3,80,0,0
181262,-100,4,2,3,100,0,1
181615,-100,4,2,3,80,0,0
182674,-100,4,2,3,100,0,0
182718,-100,4,2,3,60,0,0
182850,-100,4,2,3,80,0,0
182895,-100,4,2,3,60,0,0
183027,-100,4,2,3,80,0,0
183071,-100,4,2,3,60,0,0
183203,-100,4,2,3,80,0,0
183247,-100,4,2,3,60,0,0
183380,-100,4,2,1,40,0,0
183556,-100,4,2,1,50,0,0
183733,-100,4,2,1,60,0,0
183909,-100,4,2,1,70,0,0
184086,-100,4,2,1,80,0,0
184439,-100,4,2,3,100,0,0
184703,-100,4,2,3,60,0,0
184968,-100,4,2,3,70,0,0
185233,-100,4,2,3,80,0,0
186203,-100,4,2,3,90,0,1
186909,-100,4,2,3,80,0,1
186953,-100,4,2,3,60,0,1
187086,-100,4,2,3,80,0,1
187130,-100,4,2,3,60,0,1
187262,-100,4,2,3,80,0,1
187306,-100,4,2,3,60,0,1
187439,-100,4,2,3,80,0,1
187483,-100,4,2,3,60,0,1
187615,-100,4,2,3,80,0,1
187659,-100,4,2,3,60,0,1
187792,-100,4,2,3,80,0,1
187836,-100,4,2,3,60,0,1
187968,-100,4,2,3,80,0,1
188321,-100,4,2,3,100,0,1
189027,-100,4,2,3,90,0,1
189733,-100,4,2,3,80,0,1
189777,-100,4,2,3,60,0,1
189909,-100,4,2,3,80,0,1
189953,-100,4,2,3,60,0,1
190086,-100,4,2,3,80,0,1
190130,-100,4,2,3,60,0,1
190262,-100,4,2,3,80,0,1
190306,-100,4,2,3,60,0,1
190439,-100,4,2,3,80,0,1
190483,-100,4,2,3,60,0,1
190792,-100,4,2,3,80,0,1
191850,-100,4,2,3,90,0,1
192556,-100,4,2,3,80,0,1
192600,-100,4,2,3,60,0,1
192733,-100,4,2,3,80,0,1
192777,-100,4,2,3,60,0,1
192909,-100,4,2,3,80,0,1
192953,-100,4,2,3,60,0,1
193086,-100,4,2,3,80,0,1
193130,-100,4,2,3,60,0,1
193262,-100,4,2,3,80,0,1
193306,-100,4,2,3,60,0,1
193439,-100,4,2,3,80,0,1
193483,-100,4,2,3,60,0,1
193615,-100,4,2,3,80,0,1
193968,-100,4,2,3,100,0,1
194674,-100,4,2,3,90,0,1
195380,-100,4,2,3,80,0,1
195424,-100,4,2,3,60,0,1
195556,-100,4,2,3,80,0,1
195600,-100,4,2,3,60,0,1
195733,-100,4,2,3,80,0,1
195777,-100,4,2,3,60,0,1
195909,-83.3333333333333,4,2,3,80,0,1
196792,-83.3333333333333,4,2,3,100,0,1
197497,-83.3333333333333,4,2,3,90,0,1
198203,-83.3333333333333,4,2,3,80,0,1
198247,-83.3333333333333,4,2,3,60,0,1
198380,-83.3333333333333,4,2,3,80,0,1
198424,-83.3333333333333,4,2,3,60,0,1
198556,-83.3333333333333,4,2,3,80,0,1
198600,-83.3333333333333,4,2,3,60,0,1
198733,-83.3333333333333,4,2,3,80,0,1
198777,-83.3333333333333,4,2,3,60,0,1
198909,-83.3333333333333,4,2,3,80,0,1
198953,-83.3333333333333,4,2,3,60,0,1
199086,-83.3333333333333,4,2,3,80,0,1
199130,-83.3333333333333,4,2,3,60,0,1
199262,-83.3333333333333,4,2,3,80,0,1
199615,-83.3333333333333,4,2,3,100,0,1
200321,-83.3333333333333,4,2,3,90,0,1
201027,-83.3333333333333,4,2,3,80,0,1
201071,-83.3333333333333,4,2,3,60,0,1
201203,-83.3333333333333,4,2,3,80,0,1
201247,-83.3333333333333,4,2,3,60,0,1
201380,-83.3333333333333,4,2,3,80,0,1
201424,-83.3333333333333,4,2,3,60,0,1
201556,-83.3333333333333,4,2,3,80,0,1
201600,-83.3333333333333,4,2,3,60,0,1
201733,-83.3333333333333,4,2,3,80,0,1
201777,-83.3333333333333,4,2,3,60,0,1
202086,-83.3333333333333,4,2,3,80,0,1
203144,-83.3333333333333,4,2,3,90,0,1
203850,-83.3333333333333,4,2,3,80,0,1
203895,-83.3333333333333,4,2,3,60,0,1
204028,-83.3333333333333,4,2,3,80,0,1
204072,-83.3333333333333,4,2,3,60,0,1
204204,-83.3333333333333,4,2,3,80,0,1
204248,-83.3333333333333,4,2,3,60,0,1
204381,-83.3333333333333,4,2,3,80,0,1
204425,-83.3333333333333,4,2,3,60,0,1
204557,-83.3333333333333,4,2,3,80,0,1
204601,-83.3333333333333,4,2,3,60,0,1
204734,-83.3333333333333,4,2,3,80,0,1
204778,-83.3333333333333,4,2,3,60,0,1
204909,-83.3333333333333,4,2,3,80,0,1
205262,-83.3333333333333,4,2,3,100,0,1
205968,-83.3333333333333,4,2,3,90,0,1
206674,-83.3333333333333,4,2,3,80,0,1
206718,-83.3333333333333,4,2,3,60,0,1
206850,-83.3333333333333,4,2,3,80,0,1
206894,-83.3333333333333,4,2,3,60,0,1
207027,-83.3333333333333,4,2,3,80,0,1
207071,-83.3333333333333,4,2,3,60,0,1
207203,-83.3333333333333,4,2,3,80,0,1
208130,-83.3333333333333,4,2,0,80,0,1
208792,-100,4,2,0,80,0,0
208880,-100,4,2,0,30,0,0
220086,-100,4,2,0,35,0,0
231380,-100,4,2,3,40,0,0
231556,-100,4,2,3,40,0,0
231909,-100,4,2,0,40,0,0
237027,-100,4,2,0,45,0,0
240556,-100,4,2,1,50,0,0
242674,-100,4,2,0,50,0,0
251850,-100,4,2,0,55,0,0
252556,-100,4,2,0,60,0,0
253968,-100,4,2,3,80,0,0
254100,-100,4,2,3,60,0,0
254674,-66.6666666666667,4,2,3,100,0,1
256086,-100,4,2,3,100,0,0
256439,-100,4,2,3,80,0,0
259747,-100,4,2,3,60,0,0
260321,-55.5555555555556,4,2,3,100,0,1
261733,-100,4,2,3,100,0,0
262086,-100,4,2,3,80,0,0
262439,-100,4,2,0,25,0,0
263145,-100,4,2,3,80,0,0
265262,-100,4,2,2,80,0,0
265968,-100,4,2,3,100,0,1
267380,-100,4,2,3,100,0,0
267468,-100,4,2,3,80,0,0
267777,-100,4,2,3,30,0,0
267821,-100,4,2,3,80,0,0
267865,-100,4,2,3,30,0,0
267909,-100,4,2,3,80,0,0
267953,-100,4,2,3,30,0,0
267997,-100,4,2,3,80,0,0
268042,-100,4,2,3,30,0,0
268086,-100,4,2,3,80,0,0
271042,-100,4,2,3,60,0,0
271615,-50,4,2,3,100,0,1
273027,-100,4,2,3,100,0,0
273380,-100,4,2,3,80,0,0
273777,-100,4,2,0,80,0,0
274439,-100,4,2,3,80,0,0
275895,-100,4,2,0,40,0,0
276556,-83.3333333333333,4,2,3,90,0,0
276689,-83.3333333333333,4,2,3,60,0,0
277262,-83.3333333333333,4,2,3,100,0,0
277395,-83.3333333333333,4,2,3,60,0,0
277968,-83.3333333333333,4,2,3,90,0,0
278100,-83.3333333333333,4,2,3,60,0,0
278674,-83.3333333333333,4,2,3,100,0,0
278806,-83.3333333333333,4,2,3,60,0,0
279380,-83.3333333333333,4,2,3,90,0,0
279512,-83.3333333333333,4,2,3,60,0,0
279556,-83.3333333333333,4,2,3,60,0,0
279733,-83.3333333333333,4,2,3,60,0,0
280086,-66.6666666666667,4,2,3,90,0,0
280174,-83.3333333333333,4,2,3,100,0,0
280792,-66.6666666666667,4,2,3,90,0,1
280880,-83.3333333333333,4,2,3,90,0,0
282027,-83.3333333333333,4,2,0,90,0,0
282909,-83.3333333333333,4,2,3,100,0,1
283042,-83.3333333333333,4,2,3,60,0,0
283615,-83.3333333333333,4,2,3,90,0,1
283747,-83.3333333333333,4,2,3,60,0,0
284321,-83.3333333333333,4,2,3,100,0,1
284453,-83.3333333333333,4,2,3,60,0,0
285027,-83.3333333333333,4,2,3,90,0,1
285159,-83.3333333333333,4,2,3,60,0,0
285733,-66.6666666666667,4,2,3,90,0,1
285821,-83.3333333333333,4,2,3,100,0,0
286439,-83.3333333333333,4,2,0,90,0,0
287850,-83.3333333333333,4,2,3,90,0,1
287983,-83.3333333333333,4,2,3,60,0,0
288380,-83.3333333333333,4,2,3,90,0,0
288556,-83.3333333333333,4,2,3,90,0,1
288689,-83.3333333333333,4,2,3,60,0,0
289262,-83.3333333333333,4,2,3,100,0,1
289395,-83.3333333333333,4,2,3,60,0,0
289968,-83.3333333333333,4,2,3,90,0,1
290100,-83.3333333333333,4,2,3,60,0,0
290674,-83.3333333333333,4,2,3,90,0,1
290806,-83.3333333333333,4,2,3,60,0,0
291203,-83.3333333333333,4,2,3,90,0,1
291336,-83.3333333333333,4,2,3,60,0,0
291733,-83.3333333333333,4,2,3,100,0,0
292086,-83.3333333333333,4,2,3,100,0,1
292174,-83.3333333333333,4,2,3,90,0,0
294027,-83.3333333333333,4,2,3,90,0,1
294159,-83.3333333333333,4,2,3,60,0,0
294909,-83.3333333333333,4,2,3,100,0,1
295042,-83.3333333333333,4,2,3,60,0,0
295615,-83.3333333333333,4,2,3,90,0,1
295747,-83.3333333333333,4,2,3,60,0,0
296321,-83.3333333333333,4,2,3,90,0,1
296453,-83.3333333333333,4,2,3,60,0,0
297027,-83.3333333333333,4,2,3,90,0,1
297071,-83.3333333333333,4,2,3,60,0,0
297380,-83.3333333333333,4,2,3,90,0,0
297424,-83.3333333333333,4,2,3,60,0,0
297733,-83.3333333333333,4,2,3,100,0,1
297865,-83.3333333333333,4,2,3,60,0,0
298086,-83.3333333333333,4,2,3,90,0,0
298792,-83.3333333333333,4,2,0,90,0,0
299145,-83.3333333333333,4,2,3,90,0,1
299189,-83.3333333333333,4,2,3,50,0,1
299409,-100,4,2,3,80,0,1
299850,-100,4,2,3,60,0,0
300203,-100,4,2,1,30,0,0
305850,-100,4,2,1,20,0,0
318909,375,4,2,1,10,1,0
319659,400,4,2,1,10,1,0
320459,428.571428571429,4,2,1,10,1,0
321101,451.127819548872,4,2,1,10,1,0
321777,728.685936361428,4,2,1,10,1,0
321777,-133.333333333333,4,2,1,10,0,0
324691,-100,4,2,69,5,0,0
327606,-100,4,2,1,5,0,0

[Colours]
Combo1 : 234,141,2
Combo2 : 0,64,128
Combo3 : 166,0,29
Combo4 : 0,128,255
Combo5 : 59,59,59

[HitObjects]
252,317,5498,6,0,B|174:299|174:299|100:321|100:321|55:296|55:296|50:223|50:223|107:245|107:245|180:223|180:223|300:253|300:253|320:182|320:182|180:146|180:146|110:167|110:167|42:142|42:142|41:68|41:68|112:93|112:93|179:70|179:70|219:78|315:103|315:103|181:66|181:66|115:88,1,1470,4|0,0:0|0:0,0:0:0:0:
446,335,11145,6,0,B|454:268|454:268|425:219|425:219|455:128|455:128|425:102|442:61|442:61|388:67|388:67|318:54|318:54|276:70|218:52|218:52|136:61|136:61|149:108|124:170|124:170|178:163|178:163|212:138|212:138|280:160|280:160|353:134|353:134|334:183|346:222|346:222|371:265|371:265|342:318|342:318|266:265|214:305|214:305|146:286|146:286|89:308|89:308|41:284|41:284,1,1470,4|0,0:0|0:0,0:0:0:0:
302,288,16792,1,4,0:0:0:0:
45,313,17145,6,0,B|28:259|28:259|42:206|42:206|22:144|22:144|40:112|22:68|22:68|68:57|68:57|130:64|130:64|185:40|185:40|213:82|202:96|192:80|192:80|251:74|251:74|236:152|236:152|251:188|251:188|234:227|234:227|266:251|262:307|262:307|317:270|364:312|364:312|390:293|426:306|426:306|447:232|447:232|425:171|425:171|386:185|351:164|351:164|298:198|298:198|213:236|174:191,1,1372,4|0,0:0|0:0,0:0:0:0:
448,320,22439,6,0,P|317:258|463:30,1,490,4|2,0:0|0:0,0:0:0:0:
131,318,25262,2,0,P|81:232|142:146,1,196,4|2,0:0|0:0,0:0:0:0:
384,160,26321,1,2,0:0:0:0:
127,244,26674,2,0,L|111:132,1,98,2|2,0:0|0:0,0:0:0:0:
385,244,27380,2,0,L|401:132,1,98,2|2,0:0|0:0,0:0:0:0:
106,57,28086,6,0,P|51:124|111:203,1,196,4|2,0:0|0:0,0:0:0:0:
295,338,29145,2,0,P|418:221|283:102,1,392,2|2,0:0|0:0,0:0:0:0:
129,103,30909,6,0,P|190:118|319:78,1,196,4|0,0:0|0:0,0:0:0:0:
133,54,31968,2,0,L|127:119,1,49,2|2,0:0|0:0,0:0:0:0:
324,177,32321,2,0,P|218:156|105:217,2,220.500008411408,4|4|4,0:0|0:0|0:0,0:0:0:0:
109,343,33733,6,0,P|42:272|140:129,1,294.00001121521,2|2,0:0|0:0,0:0:0:0:
326,175,35321,1,6,0:0:0:0:
152,269,35850,2,0,L|137:188,1,73.5000028038026,2|0,0:0|0:0,0:0:0:0:
278,181,36203,2,0,L|299:106,1,73.5000028038026,2|0,0:0|0:0,0:0:0:0:
149,83,36556,5,4,0:0:0:0:
233,41,37262,2,0,P|382:96|503:35,2,294.00001121521,2|2|2,0:0|0:0|0:0,0:0:0:0:
103,41,39380,6,0,P|-6:195|161:331,1,441.000016822816,4|0,0:0|0:0,0:0:0:0:
413,253,40968,1,0,0:0:0:0:
264,349,41497,2,0,L|242:276,1,73.5000028038026,0|0,0:0|0:0,0:0:0:0:
379,251,41850,2,0,L|396:169,1,73.5000028038026,0|0,0:0|0:0,0:0:0:0:
179,213,42203,6,0,P|125:139|243:6,1,294.00001121521,4|4,0:0|0:0,0:0:0:0:
384,109,43262,2,0,L|396:34,1,73.5000028038026,2|2,0:0|0:0,0:0:0:0:
198,99,43615,2,0,P|108:77|-12:166,2,220.500008411408,4|4|4,0:0|0:0|0:0,0:0:0:0:
49,274,45027,6,0,P|14:125|242:3,1,441.000016822816,2|0,0:0|0:0,0:0:0:0:
365,140,46703,1,0,0:0:0:0:
177,273,47233,2,0,L|164:192,1,73.5000028038026,0|0,0:0|0:0,0:0:0:0:
281,198,47586,2,0,L|311:124,1,73.5000028038026,0|0,0:0|0:0,0:0:0:0:
156,90,47939,5,0,0:0:0:0:
383,37,48556,2,0,L|67:45,2,294.00001121521,2|2|2,0:0|0:0|0:0,0:0:0:0:
251,91,50321,1,0,0:0:0:0:
371,128,50497,1,0,0:0:0:0:
133,312,50674,6,0,P|104:262|148:202,1,98,2|0,3:2|0:0,0:0:0:0:
267,310,50939,2,0,P|296:260|252:200,1,98,10|0,1:2|0:0,0:0:0:0:
107,219,51203,1,10,3:2:0:0:
230,215,51909,2,0,L|152:216,1,49,8|8,0:0|1:2,0:0:0:0:
393,211,52085,5,0,3:0:0:0:
311,210,52173,1,0,0:0:0:0:
311,210,52262,1,8,0:0:0:0:
393,211,52350,1,8,0:0:0:0:
126,207,52438,1,8,1:2:0:0:
302,328,52792,2,0,L|312:204,1,98,0|0,0:0|3:0,0:0:0:0:
122,223,53056,1,8,1:2:0:0:
289,222,53233,1,8,3:2:0:0:
205,220,53321,1,8,0:0:0:0:
121,218,53409,1,8,1:2:0:0:
298,261,53497,6,0,L|438:262,1,98,2|0,3:2|0:0,0:0:0:0:
223,342,53762,2,0,L|83:343,1,98,2|0,1:2|0:0,0:0:0:0:
299,261,54027,1,10,3:2:0:0:
176,258,54203,2,0,L|176:179,1,49,0|0,0:0|0:0,0:0:0:0:
307,211,54468,1,8,0:0:0:0:
147,206,54556,2,0,L|146:68,1,98,8|8,1:2|1:2,0:0:0:0:
214,104,54821,1,8,1:2:0:0:
365,244,54909,5,0,3:0:0:0:
459,245,54997,1,8,0:0:0:0:
284,158,55086,1,8,0:0:0:0:
369,158,55174,1,0,0:0:0:0:
392,159,55218,1,0,0:0:0:0:
242,309,55262,2,0,L|127:310,1,98,8|0,1:2|0:0,0:0:0:0:
216,309,55527,1,0,3:0:0:0:
380,313,55615,2,0,L|380:209,1,98,0|0,0:0|0:0,0:0:0:0:
314,212,55880,1,0,0:0:0:0:
160,215,55968,2,0,L|142:148,1,49,0|0,0:0|0:0,0:0:0:0:
312,160,56145,1,0,0:0:0:0:
392,159,56233,1,0,0:0:0:0:
213,331,56321,6,0,P|161:300|156:226,1,98,2|0,3:2|0:0,0:0:0:0:
299,331,56586,2,0,P|351:300|356:226,1,98,10|0,1:2|0:0,0:0:0:0:
147,267,56850,1,10,3:2:0:0:
327,300,57027,2,0,L|347:219,1,49,0|0,0:0|0:0,0:0:0:0:
261,210,57203,1,0,3:0:0:0:
345,207,57292,1,8,0:0:0:0:
174,210,57380,1,8,0:0:0:0:
261,210,57468,1,0,3:0:0:0:
348,210,57556,1,8,0:0:0:0:
261,210,57644,1,8,0:0:0:0:
412,213,57733,5,0,3:0:0:0:
326,213,57821,1,8,1:2:0:0:
412,213,57909,1,0,3:0:0:0:
326,213,57997,1,0,3:0:0:0:
124,207,58086,1,8,1:2:0:0:
68,207,58130,1,0,0:0:0:0:
261,210,58615,2,0,L|263:144,1,49,0|8,3:0|0:0,0:0:0:0:
77,109,58880,1,0,3:0:0:0:
160,108,58968,1,8,0:0:0:0:
243,108,59056,1,8,1:2:0:0:
455,293,59145,6,0,P|481:246|444:186,1,98,2|0,3:2|0:0,0:0:0:0:
353,223,59409,2,0,P|367:163|408:128,1,98,10|0,0:0|0:0,0:0:0:0:
232,308,59674,2,0,P|267:268|333:257,1,98,10|0,1:2|0:0,0:0:0:0:
159,188,59939,2,0,P|202:176|293:187,1,98,10|0,3:2|0:0,0:0:0:0:
106,210,60203,2,0,L|-24:193,1,98,10|0,3:2|0:0,0:0:0:0:
256,288,60468,2,0,P|210:303|179:340,1,98,10|0,3:2|0:0,0:0:0:0:
368,292,60733,2,0,P|413:257|416:185,1,98,10|0,1:2|0:0,0:0:0:0:
221,172,60997,1,10,3:2:0:0:
137,167,61086,1,0,0:0:0:0:
271,329,61262,6,0,L|396:323,1,98,10|0,3:2|0:0,0:0:0:0:
155,338,61527,1,0,0:0:0:0:
89,318,61615,1,10,1:2:0:0:
155,338,61703,1,0,0:0:0:0:
243,333,61792,1,0,3:0:0:0:
326,324,61880,1,8,1:2:0:0:
145,231,61968,6,0,P|81:199|101:142,1,98,2|0,3:2|0:0,0:0:0:0:
367,231,62233,2,0,P|431:199|411:142,1,98,10|0,1:2|0:0,0:0:0:0:
215,155,62497,2,0,L|190:83,1,49,10|8,3:2|0:0,0:0:0:0:
374,97,62674,1,2,0:0:0:0:
313,97,62762,1,8,0:0:0:0:
465,99,62939,1,0,0:0:0:0:
285,234,63027,1,8,3:2:0:0:
216,236,63115,1,2,0:0:0:0:
284,234,63203,1,8,0:0:0:0:
356,235,63292,1,8,0:0:0:0:
208,313,63380,6,0,L|202:278,1,24.5,2|0,0:0|0:0,0:0:0:0:
352,267,63556,1,0,3:0:0:0:
267,267,63645,1,8,0:0:0:0:
474,275,63733,1,8,1:2:0:0:
277,340,64086,1,0,3:0:0:0:
208,313,64174,1,0,0:0:0:0:
276,338,64262,1,8,1:2:0:0:
440,338,64350,2,0,L|439:204,1,98,8|8,0:0|1:2,0:0:0:0:
355,238,64615,1,0,3:0:0:0:
271,236,64703,1,8,1:2:0:0:
63,285,64792,6,0,L|183:273,1,98,2|8,3:2|0:0,0:0:0:0:
321,287,65056,2,0,L|201:275,1,98,10|0,1:2|0:0,0:0:0:0:
62,287,65321,1,10,3:2:0:0:
296,204,65497,5,0,0:0:0:0:
219,203,65585,1,0,0:0:0:0:
219,203,65674,1,0,3:0:0:0:
296,204,65762,1,8,0:0:0:0:
449,206,65850,1,8,0:0:0:0:
390,205,65939,1,0,3:0:0:0:
216,119,66027,1,8,0:0:0:0:
128,119,66115,1,8,0:0:0:0:
305,319,66203,6,0,L|381:317,1,49,0|8,3:0|0:0,0:0:0:0:
238,222,66468,1,8,0:0:0:0:
395,221,66556,1,8,1:2:0:0:
224,320,66733,2,0,L|214:257,1,49,0|0,0:0|3:0,0:0:0:0:
380,164,66909,2,0,L|241:140,1,98,0|0,2:0|3:0,0:0:0:0:
201,166,67174,1,0,0:0:0:0:
418,320,67262,2,0,P|446:276|402:225,1,98
360,237,67527,1,0,0:0:0:0:
180,245,67615,6,0,L|176:131,1,98,2|0,3:2|0:0,0:0:0:0:
332,245,67880,2,0,L|336:131,1,98,10|0,1:2|0:0,0:0:0:0:
180,243,68145,1,2,3:2:0:0:
352,332,68497,2,0,L|435:331,1,49,8|8,0:0|0:0,0:0:0:0:
256,260,68674,1,8,3:2:0:0:
180,243,68762,1,8,0:0:0:0:
256,260,68850,1,8,1:2:0:0:
180,243,68938,1,8,1:2:0:0:
142,233,69203,1,0,3:0:0:0:
366,228,69292,1,8,0:0:0:0:
276,228,69380,1,8,1:2:0:0:
147,227,69850,5,2,0:0:0:0:
34,227,69968,1,2,0:0:0:0:
147,227,70086,1,2,0:0:0:0:
34,227,70204,1,2,0:0:0:0:
147,227,70321,1,2,0:0:0:0:
454,294,70439,6,0,P|480:247|443:187,1,98,2|0,3:2|0:0,0:0:0:0:
343,222,70703,2,0,P|357:162|398:127,1,98,10|0,0:0|0:0,0:0:0:0:
227,311,70968,2,0,P|262:271|328:260,1,98,2|0,0:0|0:0,0:0:0:0:
156,190,71233,2,0,L|290:189,1,98,2|0,3:2|0:0,0:0:0:0:
109,191,71497,2,0,L|-25:190,1,98,10|0,0:0|0:0,0:0:0:0:
256,288,71762,2,0,P|210:303|179:340,1,98,2|0,3:2|0:0,0:0:0:0:
368,292,72027,2,0,P|413:257|416:185,1,98,2|0,3:2|0:0,0:0:0:0:
275,216,72292,1,2,3:2:0:0:
361,216,72380,1,0,0:0:0:0:
89,270,72556,6,0,L|187:270,1,98,2|0,3:2|0:0,0:0:0:0:
358,269,72821,2,0,L|456:269,1,98,8|0,3:2|0:0,0:0:0:0:
210,133,73086,2,0,L|197:63,1,49,0|8,3:0|0:0,0:0:0:0:
425,49,73262,6,0,L|213:36,1,196,0|0,0:0|0:0,0:0:0:0:
51,133,73968,2,0,L|221:121,1,147,0|0,0:0|0:0,0:0:0:0:
357,263,74497,2,0,L|347:209,1,49,0|0,0:0|0:0,0:0:0:0:
441,194,74674,2,0,L|450:142,1,49,0|0,0:0|0:0,0:0:0:0:
365,104,74850,1,0,0:0:0:0:
99,276,75027,5,4,1:2:0:0:
338,348,75380,2,0,L|348:278,1,49,0|0,0:0|0:0,0:0:0:0:
287,264,75556,1,0,3:0:0:0:
77,199,75645,2,0,L|187:193,1,98,0|0,0:0|3:0,0:0:0:0:
369,212,75909,2,0,L|376:156,1,49,0|8,0:0|0:0,0:0:0:0:
187,61,76086,6,0,L|56:76,1,98,2|0,3:2|0:0,0:0:0:0:
308,193,76350,2,0,L|321:82,1,98,10|0,1:2|0:0,0:0:0:0:
102,259,76615,2,0,L|157:263,1,49,2|0,3:2|0:0,0:0:0:0:
370,352,76792,6,0,L|380:284,1,49,0|0,0:0|0:0,0:0:0:0:
303,264,76968,1,0,3:0:0:0:
136,234,77056,1,0,0:0:0:0:
303,264,77145,1,8,0:0:0:0:
358,232,77233,1,0,3:0:0:0:
357,184,77321,1,8,0:0:0:0:
301,151,77409,1,8,0:0:0:0:
99,120,77497,6,0,L|241:119,1,98,0|8,3:0|0:0,0:0:0:0:
45,51,77762,2,0,L|8:50,1,24.5,0|0,0:0|0:0,0:0:0:0:
202,40,77850,2,0,L|287:41,1,49,8|0,1:2|0:0,0:0:0:0:
451,100,78027,2,0,L|185:100,1,254.799988336182,0|0,0:0|0:0,0:0:0:0:
464,230,78556,2,0,L|477:99,1,127.399994168091,0|0,0:0|0:0,0:0:0:0:
401,93,78821,1,0,0:0:0:0:
216,56,78909,6,0,P|150:48|91:74,1,98,2|0,3:2|0:0,0:0:0:0:
296,189,79174,2,0,P|367:196|421:167,1,98,10|0,1:2|0:0,0:0:0:0:
179,334,79439,5,14,1:2:0:0:
154,312,79483,1,0,0:0:0:0:
144,288,79527,1,0,0:0:0:0:
156,265,79571,1,0,0:0:0:0:
182,246,79615,1,0,0:0:0:0:
338,223,79703,5,8,0:0:0:0:
268,188,79792,2,0,L|201:187,1,49,0|0,3:0|0:0,0:0:0:0:
397,116,79968,1,8,0:0:0:0:
490,117,80056,1,0,3:0:0:0:
397,116,80145,1,0,0:0:0:0:
490,117,80233,1,8,0:0:0:0:
290,43,80321,6,0,L|226:43,1,63.6999970840455,0|0,3:0|0:0,0:0:0:0:
446,148,80498,2,0,L|382:148,1,63.6999970840455,0|0,3:0|3:0,0:0:0:0:
170,245,80674,2,0,B|292:299|292:299|415:236,1,254.799988336182,8|0,1:2|0:0,0:0:0:0:
255,293,81203,1,4,3:0:0:0:
466,290,81292,1,8,0:0:0:0:
466,290,81468,1,0,3:0:0:0:
255,287,81556,1,8,0:0:0:0:
335,287,81645,1,8,1:2:0:0:
101,354,81733,6,0,P|67:273|82:237,1,98,2|0,3:2|0:0,0:0:0:0:
261,187,81997,2,0,L|147:193,1,98,10|0,0:0|0:0,0:0:0:0:
374,228,82262,2,0,L|484:224,1,98,10|0,1:2|0:0,0:0:0:0:
272,163,82527,2,0,L|171:164,1,98,2|0,3:2|0:0,0:0:0:0:
377,77,82792,2,0,L|247:77,1,98,10|0,3:2|0:0,0:0:0:0:
456,29,83056,6,0,P|482:89|456:137,1,98,2|0,3:2|0:0,0:0:0:0:
298,231,83321,2,0,L|405:238,1,98,10|0,1:2|0:0,0:0:0:0:
174,313,83586,2,0,L|290:323,1,98,2|0,3:2|0:0,0:0:0:0:
107,208,83850,2,0,L|225:216,1,98,2|0,3:2|0:0,0:0:0:0:
430,128,84115,2,0,L|316:145,1,98,0|8,3:0|1:2,0:0:0:0:
148,143,84380,2,0,L|162:84,1,49,0|8,3:0|0:0,0:0:0:0:
372,57,84556,6,0,P|305:38|248:50,1,98,2|0,3:2|0:0,0:0:0:0:
41,149,84821,2,0,P|111:163|141:153,1,98,10|0,1:2|0:0,0:0:0:0:
347,220,85086,2,0,P|303:214|274:219,1,49,10|8,3:2|0:0,0:0:0:0:
62,304,85262,5,0,0:0:0:0:
135,315,85350,1,8,0:0:0:0:
45,303,85438,1,0,0:0:0:0:
193,273,85615,1,8,3:2:0:0:
121,244,85703,1,0,0:0:0:0:
202,229,85791,1,8,0:0:0:0:
28,156,85879,1,8,0:0:0:0:
198,153,86145,5,0,3:0:0:0:
113,154,86233,1,8,0:0:0:0:
447,123,86321,2,0,L|238:122,1,196,8|0,1:2|3:0,0:0:0:0:
401,235,86850,2,0,L|410:175,1,49,8|8,1:2|0:0,0:0:0:0:
228,266,87115,2,0,L|243:320,1,49,8|0,0:0|3:0,0:0:0:0:
319,324,87291,1,0,3:0:0:0:
145,192,87380,6,0,P|64:184|37:191,1,98,10|8,3:2|0:0,0:0:0:0:
295,224,87645,2,0,P|304:167|248:124,1,98,10|0,1:2|0:0,0:0:0:0:
106,52,87909,2,0,P|164:56|186:49,1,49,10|0,3:2|0:0,0:0:0:0:
391,39,88086,5,0,0:0:0:0:
474,39,88174,1,8,0:0:0:0:
391,39,88262,1,0,3:0:0:0:
199,33,88350,1,8,0:0:0:0:
447,108,88439,1,8,0:0:0:0:
383,108,88527,1,0,3:0:0:0:
321,108,88615,1,8,0:0:0:0:
383,108,88703,1,8,0:0:0:0:
198,236,88792,6,0,L|136:235,1,49,0|8,3:0|0:0,0:0:0:0:
223,249,88968,2,0,L|275:248,1,49,0|8,0:0|0:0,0:0:0:0:
47,236,89145,1,8,1:2:0:0:
360,347,89321,2,0,P|421:286|341:243,1,196,0|0,0:0|0:0,0:0:0:0:
231,188,89850,2,0,L|353:188,1,98,0|0,0:0|0:0,0:0:0:0:
281,162,90115,1,0,0:0:0:0:
55,132,90203,6,0,L|160:130,1,98,10|0,3:2|0:0,0:0:0:0:
330,160,90468,2,0,L|445:159,1,98,10|0,1:2|0:0,0:0:0:0:
187,236,90733,2,0,L|126:236,1,49,2|0,3:2|0:0,0:0:0:0:
350,293,90909,5,0,0:0:0:0:
214,351,91086,2,0,L|200:282,1,49,8|8,0:0|0:0,0:0:0:0:
372,232,91262,2,0,L|433:232,1,49,0|8,3:0|0:0,0:0:0:0:
324,232,91439,1,8,0:0:0:0:
118,232,91527,1,8,1:2:0:0:
198,233,91615,6,0,L|229:234,1,24.5,0|0,0:0|0:0,0:0:0:0:
198,233,91703,1,0,0:0:0:0:
118,232,91792,2,0,L|52:232,1,49,0|8,3:0|0:0,0:0:0:0:
316,100,91968,2,0,P|388:121|462:96,1,147,14|0,1:2|0:0,0:0:0:0:
221,150,92321,6,0,L|208:175,1,24.5,0|0,3:0|0:0,0:0:0:0:
313,207,92497,2,0,L|326:280,1,49,8|8,1:2|0:0,0:0:0:0:
177,289,92762,2,0,L|112:296,2,49,8|0|8,0:0|3:0|0:0,0:0:0:0:
417,334,93027,6,0,P|402:273|339:242,1,98,2|0,3:2|0:0,0:0:0:0:
230,237,93292,2,0,L|350:235,1,98,2|0,1:2|0:0,0:0:0:0:
100,132,93556,2,0,L|208:128,1,98,10|0,0:0|0:0,0:0:0:0:
349,102,93821,2,0,L|236:103,1,98,2|0,3:2|0:0,0:0:0:0:
39,48,94086,2,0,L|146:44,1,98,10|0,0:0|0:0,0:0:0:0:
364,208,94350,6,0,P|363:133|320:101,1,98,2|0,3:2|0:0,0:0:0:0:
30,221,94615,2,0,P|112:234|148:221,1,98,10|0,3:2|0:0,0:0:0:0:
296,287,94880,2,0,P|232:277|189:293,1,98,10|0,3:2|0:0,0:0:0:0:
386,347,95145,2,0,P|458:356|497:346,1,98,2|0,3:2|0:0,0:0:0:0:
255,200,95409,2,0,L|194:207,2,49,0|8|0,3:0|1:2|0:0,0:0:0:0:
454,246,95674,2,0,L|459:190,1,49,0|8,3:0|0:0,0:0:0:0:
261,328,95850,5,0,0:0:0:0:
192,297,95939,1,0,0:0:0:0:
261,328,96027,1,0,0:0:0:0:
192,297,96115,1,0,0:0:0:0:
261,328,96203,1,0,0:0:0:0:
192,297,96292,1,0,0:0:0:0:
261,328,96380,1,0,0:0:0:0:
192,297,96468,1,0,0:0:0:0:
365,321,96556,6,0,L|371:195,1,98,0|0,0:0|0:0,0:0:0:0:
277,220,96821,2,0,L|273:318,1,98
381,209,97086,2,0,B|271:207|271:207|230:207,1,147
145,205,97439,1,4,1:2:0:0:
455,209,97615,1,0,0:0:0:0:
212,330,97968,6,0,P|160:295|159:222,1,98,0|0,0:0|3:0,0:0:0:0:
300,330,98233,2,0,P|352:295|353:222,1,98,8|0,0:0|3:0,0:0:0:0:
196,159,98497,2,0,L|109:161,1,49,8|8,0:0|1:2,0:0:0:0:
325,269,98674,6,0,L|334:209,1,49,2|2,3:2|0:0,0:0:0:0:
236,215,98850,1,2,0:0:0:0:
434,273,98939,2,0,L|443:213,1,49,8|2,1:2|0:0,0:0:0:0:
345,219,99115,1,2,0:0:0:0:
173,292,99203,6,0,L|164:250,1,32.6666666666667,6|0,3:2|0:0,0:0:0:0:
318,167,99321,2,0,L|327:125,1,32.6666666666667,0|2,0:0|0:0,0:0:0:0:
173,292,99439,2,0,L|164:250,1,32.6666666666667,0|0,0:0|0:0,0:0:0:0:
333,261,99556,1,8,3:2:0:0:
416,264,99645,1,10,0:0:0:0:
251,189,99733,1,10,1:2:0:0:
167,189,99821,1,10,3:2:0:0:
167,189,99909,1,10,0:0:0:0:
250,189,99997,1,10,1:2:0:0:
426,189,100086,6,0,P|368:165|296:163,1,98,6|10,3:2|1:2,0:0:0:0:
183,299,100350,2,0,P|241:275|313:273,1,98,6|0,3:2|0:0,0:0:0:0:
127,226,100615,1,12,1:2:0:0:
43,226,100703,1,0,0:0:0:0:
299,314,100792,2,0,L|312:228,1,49,0|0,0:0|0:0,0:0:0:0:
223,264,100968,1,0,0:0:0:0:
306,264,101056,1,0,0:0:0:0:
117,137,101145,1,0,0:0:0:0:
187,137,101233,1,0,0:0:0:0:
37,139,101321,2,0,L|13:55,1,49,0|0,0:0|0:0,0:0:0:0:
192,177,101497,6,0,L|213:141,3,32.6666666666667,0|0|0|0,3:0|0:0|0:0|0:0,0:0:0:0:
109,144,101762,1,0,0:0:0:0:
349,147,101850,2,0,L|411:148,1,49,0|0,0:0|0:0,0:0:0:0:
168,257,102027,2,0,P|130:216|201:177,1,147,4|2,3:2|0:3,0:0:0:0:
271,174,102380,1,2,3:3:0:0:
354,176,102468,1,2,0:3:0:0:
105,88,102556,1,2,1:3:0:0:
182,59,102644,1,2,3:3:0:0:
182,59,102733,1,2,0:3:0:0:
105,88,102821,1,2,0:3:0:0:
256,96,102909,5,0,3:0:0:0:
339,95,102997,1,8,0:0:0:0:
256,96,103086,1,0,3:0:0:0:
339,94,103174,1,0,3:0:0:0:
101,311,103262,2,0,P|39:251|113:119,1,245,12|0,1:2|0:0,0:0:0:0:
171,125,103792,1,10,1:2:0:0:
317,124,103880,2,0,L|203:123,1,98,8|8,0:0|3:2,0:0:0:0:
388,200,104145,1,8,0:0:0:0:
471,202,104233,1,8,1:2:0:0:
162,249,104321,6,0,L|153:214,6,32.6666666666667,0|0|0|0|0|0|0,3:0|0:0|0:0|0:0|0:0|0:0|0:0,0:0:0:0:
72,167,104762,1,0,0:0:0:0:
291,308,104850,6,0,L|413:309,1,98,12|0,1:2|0:0,0:0:0:0:
299,235,105115,2,0,L|421:236,1,98,4|2,3:2|0:0,0:0:0:0:
216,147,105380,2,0,L|336:148,1,98,4|8,3:2|0:0,0:0:0:0:
49,248,105645,2,0,L|163:248,1,98,12|8,3:2|0:0,0:0:0:0:
324,329,105909,6,0,L|332:213,1,98,12|8,1:2|0:0,0:0:0:0:
246,229,106174,1,0,3:0:0:0:
433,234,106262,2,0,L|367:229,1,49,8|8,1:2|0:0,0:0:0:0:
206,140,106615,1,8,0:0:0:0:
289,138,106703,1,0,3:0:0:0:
373,136,106792,1,8,0:0:0:0:
191,270,106880,1,8,1:2:0:0:
261,226,106968,1,0,3:0:0:0:
191,270,107056,1,0,0:0:0:0:
349,299,107145,6,0,L|211:282,1,98,4|0,3:2|0:0,0:0:0:0:
183,334,107409,1,8,1:2:0:0:
252,289,107497,1,0,0:0:0:0:
257,205,107586,1,0,0:0:0:0:
83,200,107674,2,0,L|75:118,1,49,2|8,3:0|0:0,0:0:0:0:
166,150,107850,1,2,0:0:0:0:
83,200,107939,2,0,L|75:118,1,49,10|2,0:0|0:0,0:0:0:0:
166,150,108115,1,0,0:0:0:0:
336,151,108203,2,0,L|222:150,1,98,8|8,3:2|0:0,0:0:0:0:
417,148,108468,1,8,1:2:0:0:
220,237,108733,5,0,3:0:0:0:
299,238,108821,1,8,0:0:0:0:
97,240,108909,1,8,1:2:0:0:
261,315,109262,2,0,L|395:314,1,98,0|8,3:0|1:2,0:0:0:0:
160,256,109527,2,0,L|140:137,1,98,8|8,0:0|1:2,0:0:0:0:
227,161,109792,1,0,3:0:0:0:
143,160,109880,1,8,1:2:0:0:
320,224,109968,5,10,3:2:0:0:
402,220,110056,1,2,0:0:0:0:
485,216,110145,1,10,0:0:0:0:
284,326,110233,1,10,1:2:0:0:
366,322,110321,1,2,0:0:0:0:
284,326,110410,1,2,0:0:0:0:
476,314,110497,2,0,L|488:230,1,49,6|2,3:2|0:0,0:0:0:0:
244,167,110674,1,2,0:0:0:0:
160,169,110762,1,2,0:0:0:0:
329,108,110850,2,0,L|369:105,2,32.6666666666667,0|0|0,3:0|0:0|0:0,0:0:0:0:
156,280,111027,2,0,L|139:206,1,49,8|0,1:2|3:0,0:0:0:0:
356,280,111203,2,0,L|373:206,1,49,8|8,0:0|0:0,0:0:0:0:
135,81,111380,5,0,3:0:0:0:
218,78,111468,1,8,0:0:0:0:
238,209,111645,1,8,0:0:0:0:
45,209,111733,1,8,1:2:0:0:
196,359,111909,2,0,L|203:289,1,49,0|0,0:0|3:0,0:0:0:0:
110,360,112086,2,0,L|103:290,1,49,0|0,0:0|0:0,0:0:0:0:
294,359,112262,2,0,L|301:289,1,49,0|0,0:0|0:0,0:0:0:0:
115,306,112439,1,0,0:0:0:0:
244,308,112615,1,0,0:0:0:0:
327,305,112703,1,0,0:0:0:0:
89,175,112792,6,0,P|146:165|227:181,1,98,0|0,3:0|0:0,0:0:0:0:
423,175,113056,2,0,P|366:165|285:181,1,98,8|0,1:2|0:0,0:0:0:0:
165,162,113321,1,4,3:2:0:0:
401,335,113674,2,0,L|472:336,1,49,2|2,0:3|0:3,0:0:0:0:
279,223,113850,1,2,0:3:0:0:
339,222,113939,1,2,0:3:0:0:
279,223,114027,1,2,0:3:0:0:
339,222,114115,1,2,0:3:0:0:
151,256,114203,5,2,0:3:0:0:
233,255,114292,1,8,0:0:0:0:
314,256,114380,1,0,3:0:0:0:
232,256,114468,1,8,0:0:0:0:
57,188,114556,2,0,L|48:138,3,49,8|0|0|0,1:2|0:0|0:0|0:0,0:0:0:0:
254,136,114909,2,0,L|387:136,1,98,0|8,3:0|1:2,0:0:0:0:
150,238,115174,2,0,L|283:238,1,98,8|8,0:0|1:2,0:0:0:0:
60,163,115439,1,0,3:0:0:0:
143,161,115527,1,8,1:2:0:0:
421,283,115615,5,0,0:0:0:0:
480,236,115703,1,0,0:0:0:0:
421,283,115792,1,0,0:0:0:0:
250,237,115880,1,0,0:0:0:0:
169,237,115968,1,0,0:0:0:0:
250,237,116056,1,0,0:0:0:0:
416,192,116145,1,0,0:0:0:0:
497,191,116233,1,0,0:0:0:0:
267,331,116321,5,4,0:0:0:0:
186,330,116409,1,0,0:0:0:0:
372,240,116497,1,8,0:0:0:0:
454,239,116585,1,0,0:0:0:0:
293,180,116674,2,0,L|156:181,1,98,8|8,0:0|1:2,0:0:0:0:
418,334,116939,5,0,3:0:0:0:
342,309,117027,1,0,0:0:0:0:
417,333,117115,1,8,0:0:0:0:
255,339,117203,1,0,3:0:0:0:
178,314,117291,1,0,0:0:0:0:
254,338,117379,1,8,0:0:0:0:
100,344,117468,1,0,3:0:0:0:
24,319,117556,1,0,0:0:0:0:
99,343,117644,1,8,0:0:0:0:
303,313,117733,6,0,P|338:283|360:206,1,98,12|0,1:2|0:0,0:0:0:0:
177,143,117997,2,0,L|290:143,1,98,0|0,0:0|0:0,0:0:0:0:
107,245,118262,1,0,0:0:0:0:
23,247,118350,1,0,0:0:0:0:
356,336,118439,6,0,B|426:304|453:228|439:157|378:80|292:24|212:-9|123:-15|44:0|4:28|-21:64|-25:123|-10:187|29:232|73:249|136:264|214:271|311:239|379:203|415:160|492:146|449:77|450:61|448:44|433:19|413:7|383:-21|320:-4|278:5|258:17|236:33|223:56|193:81|112:114|59:201|81:249|118:299|158:336|200:358|230:388|282:402|382:385|519:291,1,1960,4|0,0:1|0:0,0:0:0:0:
345,306,122321,2,0,L|320:205,1,98,0|0,0:0|0:0,0:0:0:0:
444,128,122674,6,0,P|344:184|180:93,2,294,0|0|0,0:0|0:0|0:0,0:0:0:0:
174,16,124086,6,0,B|78:86|38:142|-30:245|75:346|258:316|441:258|370:76|290:44|241:33|178:18|17:-44|45:27|-9:82|-35:168|-1:274|17:331|104:391|191:351|246:356|316:335|361:313|406:275|446:265|467:217|462:156|451:91|421:17|365:0|271:1,1,1568,4|0,0:0|0:0,0:0:0:0:
274,264,127615,2,0,P|371:194|240:20,2,392,2|2|2,0:0|0:0|0:0,0:0:0:0:
108,353,129733,6,0,B|61:323|48:295|32:260|28:215|39:182|59:157|112:153|182:190|238:276|262:297|310:300|345:295|382:284|418:264|446:232|456:187|459:154|447:107|416:68|391:50|347:29|277:22|226:31|184:50|146:81|129:120|126:170|140:219|153:259|202:302|247:317|285:327|327:332|369:332|405:323|430:311|452:289|476:266|486:245|442:165|409:151|369:138|337:136|300:136|269:147|250:158|211:177|184:188|150:188|122:179|96:163|82:147|73:132|68:117|67:106|61:83|64:44,1,1568,4|0,0:0|0:0,0:0:0:0:
249,212,133615,2,0,P|261:151|242:108,1,98,0|0,0:0|0:0,0:0:0:0:
114,88,133968,6,0,P|255:127|369:40,2,294,0|0|0,0:0|0:0|0:0,0:0:0:0:
278,326,135380,6,0,B|345:321|402:292|443:243|454:184|437:115|377:63|284:61|218:108|216:175|267:213|330:239|401:251|462:229|490:203|517:167|517:134|498:82|443:45|373:14|325:8|260:20|215:43|180:86|169:144|180:172|198:202|214:221,1,980,0|0,0:0|0:0,0:0:0:0:
382,314,137497,2,0,P|408:239|350:139,1,196,0|0,0:0|0:0,0:0:0:0:
81,103,138203,5,0,0:0:0:0:
277,38,138909,2,0,P|399:170|241:304,1,392,2|2,0:0|0:0,0:0:0:0:
37,283,140321,1,2,0:0:0:0:
343,321,141027,6,0,L|356:106,1,196,4|0,0:0|0:0,0:0:0:0:
245,125,141556,1,2,0:0:0:0:
380,212,141909,1,0,0:0:0:0:
274,212,142086,1,0,0:0:0:0:
380,212,142262,1,2,0:0:0:0:
176,305,142615,1,0,0:0:0:0:
281,305,142792,1,0,0:0:0:0:
106,304,143145,2,0,P|56:256|117:155,1,196,0|0,0:0|0:0,0:0:0:0:
215,158,143674,1,2,0:0:0:0:
365,222,144027,5,2,0:0:0:0:
259,222,144204,1,0,0:0:0:0:
365,222,144380,1,2,0:0:0:0:
145,222,144733,1,0,0:0:0:0:
260,308,144909,2,0,L|387:308,1,98,2|2,0:0|0:0,0:0:0:0:
215,254,145262,2,0,P|103:217|46:55,2,294,4|4|4,0:0|0:0|0:0,0:0:0:0:
324,252,146497,1,0,0:0:0:0:
79,282,146674,5,2,0:0:0:0:
68,186,146850,1,0,0:0:0:0:
181,187,147027,1,0,0:0:0:0:
68,186,147203,1,2,0:0:0:0:
236,313,147556,1,0,0:0:0:0:
123,312,147732,1,0,0:0:0:0:
279,187,148086,5,0,0:0:0:0:
384,192,148262,1,0,0:0:0:0:
384,192,148439,1,0,0:0:0:0:
279,187,148615,1,2,0:0:0:0:
384,192,148792,1,0,0:0:0:0:
280,295,148968,1,0,0:0:0:0:
280,295,149145,1,0,0:0:0:0:
384,192,149321,1,2,0:0:0:0:
147,182,149674,1,2,0:0:0:0:
250,179,149850,1,0,0:0:0:0:
147,182,150027,1,2,0:0:0:0:
259,292,150203,6,0,P|323:275|382:157,1,196,4|0,0:0|0:0,0:0:0:0:
253,292,150909,2,0,P|189:275|130:157,1,196,4|0,0:0|0:0,0:0:0:0:
236,166,151439,1,0,0:0:0:0:
357,166,151615,2,0,L|153:164,1,196,4|0,0:0|0:0,0:0:0:0:
265,166,152145,1,2,0:0:0:0:
400,331,152321,6,0,L|413:116,1,196,6|0,0:0|0:0,0:0:0:0:
260,135,152850,1,2,0:0:0:0:
416,221,153203,1,0,0:0:0:0:
310,221,153380,1,0,0:0:0:0:
416,221,153556,1,2,0:0:0:0:
212,314,153909,1,0,0:0:0:0:
317,314,154086,1,0,0:0:0:0:
142,313,154439,2,0,P|92:265|153:164,1,196,0|0,0:0|0:0,0:0:0:0:
251,167,154968,1,2,0:0:0:0:
401,231,155321,5,2,0:0:0:0:
295,231,155498,1,0,0:0:0:0:
401,231,155674,1,2,0:0:0:0:
192,224,156027,1,0,0:0:0:0:
311,223,156203,2,0,L|183:222,1,98,2|2,0:0|0:0,0:0:0:0:
85,222,156556,2,0,L|404:222,1,294,4|4,0:0|0:0,0:0:0:0:
281,324,157262,2,0,P|249:276|256:222,1,98,0|0,0:0|0:0,0:0:0:0:
375,324,157615,2,0,P|407:276|400:222,1,98,4|0,0:0|0:0,0:0:0:0:
155,190,157968,6,0,P|102:146|175:47,1,196,2|0,0:0|0:0,0:0:0:0:
358,190,158674,2,0,P|411:146|338:47,1,196,0|0,0:0|0:0,0:0:0:0:
265,48,159203,1,2,0:0:0:0:
167,187,159556,1,0,0:0:0:0:
278,191,159733,1,0,0:0:0:0:
143,340,160086,2,0,P|97:308|86:243,1,98,0|0,0:0|0:0,0:0:0:0:
211,259,160439,2,0,P|257:227|268:162,1,98,0|2,0:0|0:0,0:0:0:0:
152,277,160792,6,0,P|134:204|232:137,1,196,2|0,0:1|0:0,0:0:0:0:
328,249,161321,2,0,L|129:248,1,196,2|0,0:1|0:0,0:0:0:0:
477,277,161850,6,0,P|495:204|397:137,1,196,2|0,0:1|0:0,0:0:0:0:
140,75,162380,2,0,L|339:74,1,196,2|0,0:1|0:0,0:0:0:0:
68,280,162909,2,0,P|165:197|47:108,1,294,2|0,0:1|0:0,0:0:0:0:
402,241,163615,6,0,L|429:233,8,24.5,0|0|0|0|0|0|0|0|2,1:0|1:0|1:0|1:0|1:0|1:0|1:0|1:0|1:2,0:0:0:0:
309,169,164145,1,2,0:0:0:0:
56,290,164321,2,0,L|42:175,1,98,8|0,1:2|0:0,0:0:0:0:
367,67,164674,6,0,L|149:88,1,196,2|4,0:1|0:2,0:0:0:0:
312,168,165203,1,2,0:1:0:0:
51,308,165380,2,0,L|66:198,1,98,4|0,3:1|0:0,0:0:0:0:
319,269,165733,2,0,L|334:149,1,98,10|2,1:2|0:0,0:0:0:0:
213,207,166086,2,0,L|111:194,1,98,2|2,0:0|0:0,0:0:0:0:
410,145,166439,6,0,L|430:128,8,24.5,0|0|0|0|0|0|0|0|2,1:0|1:0|1:0|1:0|1:0|1:0|1:0|1:0|1:2,0:0:0:0:
306,80,166968,1,2,0:0:0:0:
66,168,167145,2,0,L|178:168,1,98,8|0,1:2|0:0,0:0:0:0:
479,255,167497,6,0,L|254:255,1,196,2|4,0:1|0:2,0:0:0:0:
406,187,168027,1,4,3:0:0:0:
158,353,168203,2,0,L|148:244,1,98,4|0,3:1|0:0,0:0:0:0:
421,232,168556,2,0,L|314:224,1,98,10|2,1:2|0:0,0:0:0:0:
201,183,168909,2,0,L|91:177,1,98,2|2,0:0|0:0,0:0:0:0:
351,149,169262,6,0,L|365:122,8,24.5,0|0|0|0|0|0|0|0|2,1:0|1:0|1:0|1:0|1:0|1:0|1:0|1:0|1:2,0:0:0:0:
205,79,169792,1,2,0:0:0:0:
476,34,169968,2,0,L|366:33,1,98,8|0,1:2|0:0,0:0:0:0:
96,184,170321,6,0,L|291:184,1,196,2|4,0:1|0:2,0:0:0:0:
27,263,170850,2,0,L|232:263,1,196,2|0,0:1|0:0,0:0:0:0:
474,259,171380,1,10,1:2:0:0:
314,257,171556,1,2,0:0:0:0:
166,258,171733,1,2,0:0:0:0:
332,257,171909,1,2,0:0:0:0:
76,202,172086,6,0,L|60:169,8,24.5,0|0|0|0|0|0|0|0|2,1:0|1:0|1:0|1:0|1:0|1:0|1:0|1:0|1:2,0:0:0:0:
185,127,172615,1,2,0:2:0:0:
435,234,172792,2,0,L|449:138,1,98,8|0,1:2|0:0,0:0:0:0:
135,92,173145,6,0,L|376:77,1,196,2|4,0:1|0:0,0:0:0:0:
86,260,173674,2,0,L|214:251,1,98,4|4,3:0|3:1,0:0:0:0:
315,244,174027,1,0,0:0:0:0:
48,55,174203,2,0,L|184:65,1,98,10|2,1:2|1:2,0:0:0:0:
264,148,174556,2,0,L|150:159,1,98,2|2,1:2|1:2,0:0:0:0:
424,307,174909,5,0,1:0:0:0:
443,292,174953,1,0,1:0:0:0:
458,273,174997,1,0,1:0:0:0:
466,250,175041,1,0,1:0:0:0:
467,225,175085,1,0,1:0:0:0:
461,202,175129,1,0,1:0:0:0:
449,181,175173,1,0,1:0:0:0:
431,164,175217,1,0,1:0:0:0:
409,154,175261,1,2,1:2:0:0:
295,149,175439,1,2,0:0:0:0:
62,145,175615,2,0,L|159:145,1,98,8|0,1:2|0:0,0:0:0:0:
435,61,175968,6,0,L|223:61,1,196,2|4,0:1|0:0,0:0:0:0:
355,127,176497,1,2,0:1:0:0:
91,221,176674,2,0,L|209:221,1,98,4|0,3:1|0:0,0:0:0:0:
448,323,177027,2,0,L|345:323,1,98,10|2,1:2|0:0,0:0:0:0:
225,331,177380,2,0,L|124:331,1,98,2|2,0:0|0:0,0:0:0:0:
396,353,177733,5,0,1:0:0:0:
416,340,177777,1,0,1:0:0:0:
433,322,177821,1,0,1:0:0:0:
443,300,177865,1,0,1:0:0:0:
446,275,177909,1,0,1:0:0:0:
441,251,177953,1,0,1:0:0:0:
429,230,177997,1,0,1:0:0:0:
412,213,178041,1,0,1:0:0:0:
390,202,178085,1,2,1:2:0:0:
247,198,178262,1,2,0:0:0:0:
485,133,178439,2,0,L|374:133,1,98,8|0,1:2|0:0,0:0:0:0:
122,82,178792,6,0,L|344:81,1,196,2|4,0:1|0:0,0:0:0:0:
54,258,179321,2,0,L|44:146,1,98,4|4,3:0|3:1,0:0:0:0:
170,91,179674,1,0,0:0:0:0:
455,230,179850,2,0,L|346:220,1,98,8|2,1:2|0:0,0:0:0:0:
235,342,180203,2,0,L|346:325,1,98,2|2,0:0|0:0,0:0:0:0:
96,302,180556,5,0,1:0:0:0:
78,284,180600,1,0,1:0:0:0:
66,263,180644,1,0,1:0:0:0:
61,239,180688,1,0,1:0:0:0:
62,215,180732,1,0,1:0:0:0:
70,192,180776,1,0,1:0:0:0:
85,172,180820,1,0,1:0:0:0:
104,157,180864,1,0,1:0:0:0:
127,148,180908,1,2,1:2:0:0:
269,149,181086,1,2,0:0:0:0:
27,75,181262,2,0,L|137:67,1,98,8|0,1:2|0:0,0:0:0:0:
388,52,181615,6,0,L|179:46,1,196,2|4,0:1|0:0,0:0:0:0:
64,43,182145,1,2,0:1:0:0:
334,168,182321,2,0,L|435:155,1,98,4|0,3:1|0:0,0:0:0:0:
89,338,182674,2,0,L|75:226,1,98,8|2,1:2|1:2,0:0:0:0:
200,147,183027,2,0,L|93:135,1,98,2|2,1:2|1:2,0:0:0:0:
444,63,183380,5,2,0:0:0:0:
197,127,183909,1,2,0:0:0:0:
355,259,184086,2,0,P|407:186|330:111,1,196,2|2,0:0|0:0,0:0:0:0:
210,107,184615,1,0,0:0:0:0:
456,46,184792,5,0,3:0:0:0:
295,97,184968,1,0,0:0:0:0:
246,97,185056,1,0,3:0:0:0:
197,97,185144,1,0,0:0:0:0:
372,182,185365,1,0,0:0:0:0:
374,158,185409,1,0,0:0:0:0:
112,270,185497,6,0,L|215:263,1,98,12|0,1:2|0:0,0:0:0:0:
432,331,185762,2,0,L|325:324,1,98,12|0,1:2|0:0,0:0:0:0:
107,355,186027,2,0,L|95:294,1,49,12|0,1:2|0:0,0:0:0:0:
334,235,186203,6,0,P|443:168|351:34,1,294,4|0,3:1|0:0,0:0:0:0:
72,268,186909,2,0,L|30:264,1,24.5,10|0,1:3|1:0,0:0:0:0:
278,121,187086,2,0,L|320:117,1,24.5,2|0,1:3|1:0,0:0:0:0:
162,228,187262,2,0,L|148:193,1,24.5,2|0,1:3|1:0,0:0:0:0:
394,129,187439,2,0,L|408:94,1,24.5,0|0,1:0|1:0,0:0:0:0:
261,258,187615,2,0,L|219:254,1,24.5,2|0,1:3|1:0,0:0:0:0:
467,111,187792,2,0,L|509:107,1,24.5,2|0,1:3|1:0,0:0:0:0:
75,197,187968,6,0,L|62:94,1,98,0|0,0:0|0:0,0:0:0:0:
337,314,188321,1,8,1:2:0:0:
368,312,188365,1,0,0:0:0:0:
398,304,188409,1,0,0:0:0:0:
425,287,188453,1,0,0:0:0:0:
445,262,188497,1,0,0:0:0:0:
461,232,188542,1,0,0:0:0:0:
472,202,188586,1,0,0:0:0:0:
474,170,188630,1,0,0:0:0:0:
466,138,188674,1,0,0:0:0:0:
449,112,188718,1,0,0:0:0:0:
425,89,188762,1,0,0:0:0:0:
399,70,188806,1,0,0:0:0:0:
369,57,188850,1,0,0:0:0:0:
337,48,188895,1,0,0:0:0:0:
305,46,188939,1,0,0:0:0:0:
128,325,189027,5,4,3:1:0:0:
100,308,189071,1,0,0:0:0:0:
89,278,189115,1,0,0:0:0:0:
93,246,189159,1,0,0:0:0:0:
111,220,189203,1,0,0:0:0:0:
140,208,189247,1,0,0:0:0:0:
172,208,189292,1,0,0:0:0:0:
203,211,189336,1,0,0:0:0:0:
234,206,189380,1,0,0:0:0:0:
263,194,189424,1,0,0:0:0:0:
287,173,189468,1,0,0:0:0:0:
304,146,189512,1,0,0:0:0:0:
311,115,189556,1,0,0:0:0:0:
299,85,189600,1,0,0:0:0:0:
276,61,189645,1,0,0:0:0:0:
74,131,189733,6,0,L|66:102,1,24.5,10|0,1:3|1:0,0:0:0:0:
306,288,189909,2,0,L|353:282,1,24.5,2|0,1:3|1:0,0:0:0:0:
214,108,190086,2,0,L|186:104,1,24.5,2|0,1:3|1:0,0:0:0:0:
438,131,190262,2,0,L|446:102,1,24.5,2|0,1:3|1:0,0:0:0:0:
206,288,190438,2,0,L|159:282,1,24.5,2|0,1:3|1:0,0:0:0:0:
435,175,190615,1,4,3:0:0:0:
192,64,190792,2,0,L|306:50,1,98,4|0,3:1|0:0,0:0:0:0:
34,246,191145,2,0,L|243:228,1,196,8|2,1:2|1:3,0:0:0:0:
106,182,191674,1,0,0:0:0:0:
435,258,191850,6,0,P|348:192|451:79,1,294,4|0,3:1|0:0,0:0:0:0:
191,266,192556,2,0,L|222:263,1,24.5,10|0,1:3|1:0,0:0:0:0:
346,266,192733,2,0,L|350:228,1,24.5,2|0,1:3|1:0,0:0:0:0:
137,134,192909,2,0,L|168:131,1,24.5,2|0,1:3|1:0,0:0:0:0:
406,144,193086,2,0,L|410:106,1,24.5,2|0,1:3|1:0,0:0:0:0:
164,52,193262,2,0,L|195:49,1,24.5,2|0,1:3|1:0,0:0:0:0:
310,53,193439,2,0,L|314:15,1,24.5,2|0,1:3|1:0,0:0:0:0:
56,251,193615,6,0,L|181:237,1,98,4|0,3:0|0:0,0:0:0:0:
82,192,193880,1,0,0:0:0:0:
255,329,193968,1,8,1:2:0:0:
286,327,194012,1,0,0:0:0:0:
316,319,194056,1,0,0:0:0:0:
343,302,194100,1,0,0:0:0:0:
363,277,194144,1,0,0:0:0:0:
379,247,194189,1,0,0:0:0:0:
390,217,194233,1,0,0:0:0:0:
392,185,194277,1,0,0:0:0:0:
384,153,194321,1,0,0:0:0:0:
367,127,194365,1,0,0:0:0:0:
343,104,194409,1,0,0:0:0:0:
317,85,194453,1,0,0:0:0:0:
287,72,194497,1,0,0:0:0:0:
255,63,194542,1,0,0:0:0:0:
223,61,194586,1,0,0:0:0:0:
460,253,194674,6,0,L|469:216,6,24.5,4|0|0|0|0|0|0,3:1|0:0|0:0|0:0|0:0|0:0|0:0,0:0:0:0:
249,162,195027,2,0,L|240:125,6,24.5,0|0|0|0|0|0|0,0:0|0:0|0:0|0:0|0:0|0:0|0:0,0:0:0:0:
433,117,195380,2,0,L|359:113,1,49,10|0,1:3|1:0,0:0:0:0:
171,167,195556,2,0,L|165:136,1,24.5,2|0,1:3|1:0,0:0:0:0:
401,54,195733,1,2,1:3:0:0:
103,269,195909,6,0,L|226:270,1,117.599996411133,4|0,3:0|0:0,0:0:0:0:
475,180,196262,2,0,L|480:118,1,58.7999982055665,2|0,0:1|0:0,0:0:0:0:
246,46,196439,2,0,L|376:53,1,117.599996411133,4|0,3:1|0:0,0:0:0:0:
73,337,196791,1,8,1:2:0:0:
104,335,196835,1,0,0:0:0:0:
134,327,196879,1,0,0:0:0:0:
161,310,196923,1,0,0:0:0:0:
181,285,196967,1,0,0:0:0:0:
197,255,197012,1,0,0:0:0:0:
208,225,197056,1,0,0:0:0:0:
210,193,197100,1,0,0:0:0:0:
202,161,197144,1,0,0:0:0:0:
185,135,197188,1,0,0:0:0:0:
161,112,197232,1,0,0:0:0:0:
135,93,197276,1,0,0:0:0:0:
105,80,197320,1,0,0:0:0:0:
73,71,197365,1,0,0:0:0:0:
41,69,197409,1,0,0:0:0:0:
330,171,197497,6,0,L|343:134,6,29.3999991027832,4|0|0|0|0|0|0,3:1|0:0|0:0|0:0|0:0|0:0|0:0,0:0:0:0:
213,55,197850,2,0,L|200:18,6,29.3999991027832,0|0|0|0|0|0|0,0:0|0:0|0:0|0:0|0:0|0:0|0:0,0:0:0:0:
434,220,198203,6,0,L|473:214,1,29.3999991027832,10|0,1:2|1:0,0:0:0:0:
214,159,198380,2,0,L|217:126,1,29.3999991027832,10|0,1:3|1:0,0:0:0:0:
347,81,198556,2,0,L|386:77,1,29.3999991027832,2|0,1:3|1:0,0:0:0:0:
78,220,198733,6,0,L|39:214,1,29.3999991027832,2|0,1:3|1:0,0:0:0:0:
298,159,198910,2,0,L|295:126,1,29.3999991027832,2|0,1:3|1:0,0:0:0:0:
165,81,199086,2,0,L|126:77,1,29.3999991027832,2|0,1:3|1:0,0:0:0:0:
333,271,199262,2,0,L|420:266,1,58.7999982055665,4|0,3:0|0:0,0:0:0:0:
168,138,199439,2,0,L|90:131,1,58.7999982055665,0|0,0:0|0:0,0:0:0:0:
433,245,199615,6,0,L|441:212,10,29.3999991027832,4|0|0|0|0|0|0|0|0|0|0,1:2|0:0|0:0|0:0|0:0|0:0|0:0|0:0|0:0|0:0|0:0,0:0:0:0:
253,136,200145,2,0,L|152:131,1,88.1999973083497,0|0,0:0|0:0,0:0:0:0:
361,307,200321,6,0,P|431:277|458:176,1,176.399994616699,4|0,3:1|0:0,0:0:0:0:
160,192,200674,1,0,0:0:0:0:
136,180,200718,1,0,0:0:0:0:
122,157,200762,1,0,0:0:0:0:
118,130,200806,1,0,0:0:0:0:
126,105,200850,1,0,0:0:0:0:
146,87,200895,1,0,0:0:0:0:
172,82,200939,1,0,0:0:0:0:
398,157,201027,6,0,L|359:151,1,29.3999991027832,10|0,1:3|1:0,0:0:0:0:
122,234,201203,2,0,L|112:199,1,29.3999991027832,2|0,1:3|1:0,0:0:0:0:
231,124,201380,2,0,L|273:123,1,29.3999991027832,2|0,1:3|1:0,0:0:0:0:
461,260,201556,2,0,L|468:215,1,29.3999991027832,2|0,1:3|1:0,0:0:0:0:
162,294,201733,2,0,L|113:292,1,29.3999991027832,2|0,1:3|1:0,0:0:0:0:
250,197,201909,2,0,L|289:201,1,29.3999991027832,4|0,3:0|0:0,0:0:0:0:
33,107,202086,2,0,L|19:-21,1,117.599996411133,4|0,3:1|0:0,0:0:0:0:
278,237,202439,6,0,L|90:219,1,176.399994616699,8|0,1:2|0:0,0:0:0:0:
386,207,202792,1,2,1:3:0:0:
410,197,202836,1,0,0:0:0:0:
424,175,202880,1,0,0:0:0:0:
431,149,202924,1,0,0:0:0:0:
421,124,202968,1,0,0:0:0:0:
401,106,203012,1,0,0:0:0:0:
376,96,203056,1,0,0:0:0:0:
144,297,203145,6,0,B|109:179|109:179|221:151|221:151|102:132,1,352.799989233399,4|0,3:1|0:0,0:0:0:0:
399,227,203850,6,0,L|432:222,1,29.3999991027832,10|0,1:3|1:0,0:0:0:0:
181,228,204027,2,0,L|184:187,1,29.3999991027832,2|0,1:3|1:0,0:0:0:0:
306,146,204203,2,0,L|313:103,1,29.3999991027832,2|0,1:3|1:0,0:0:0:0:
53,147,204380,2,0,L|56:106,1,29.3999991027832,2|0,1:3|1:0,0:0:0:0:
178,65,204556,2,0,L|185:22,1,29.3999991027832,2|0,1:3|1:3,0:0:0:0:
430,171,204733,2,0,L|477:169,1,29.3999991027832,2|0,1:3|1:3,0:0:0:0:
165,180,204909,2,0,L|31:196,1,117.599996411133,4|0,3:0|0:0,0:0:0:0:
320,352,205262,5,8,1:2:0:0:
351,350,205306,1,0,0:0:0:0:
381,342,205350,1,0,0:0:0:0:
408,325,205394,1,0,0:0:0:0:
428,300,205438,1,0,0:0:0:0:
444,270,205483,1,0,0:0:0:0:
455,240,205527,1,0,0:0:0:0:
457,208,205571,1,0,0:0:0:0:
449,176,205615,1,0,0:0:0:0:
432,150,205659,1,0,0:0:0:0:
408,127,205703,1,0,0:0:0:0:
382,108,205747,1,0,0:0:0:0:
352,95,205791,1,0,0:0:0:0:
320,86,205836,1,0,0:0:0:0:
288,84,205880,1,0,0:0:0:0:
44,204,205968,6,0,P|51:144|163:84,1,176.399994616699,4|0,3:1|0:0,0:0:0:0:
373,228,206321,1,0,0:0:0:0:
395,214,206365,1,0,0:0:0:0:
407,190,206409,1,0,0:0:0:0:
410,163,206453,1,0,0:0:0:0:
398,139,206497,1,0,0:0:0:0:
374,125,206542,1,0,0:0:0:0:
348,119,206586,1,0,0:0:0:0:
138,217,206674,2,0,L|201:204,1,58.7999982055665,10|0,1:3|1:0,0:0:0:0:
402,295,206850,2,0,P|457:253|459:186,1,117.599996411133,2|2,1:3|1:3,0:0:0:0:
128,128,207203,1,0,3:0:0:0:
421,182,207380,6,0,P|407:108|289:59,1,176.399994616699,4|0,3:0|0:0,0:0:0:0:
237,60,207733,1,4,3:1:0:0:
453,265,207821,2,0,L|474:119,1,117.599996411133,0|0,0:0|0:0,0:0:0:0:
206,197,208086,6,0,P|139:144|191:102,1,176.399994616699,8|0,1:2|0:0,0:0:0:0:
403,254,208439,1,0,0:0:0:0:
426,237,208483,1,0,0:0:0:0:
439,211,208527,1,0,0:0:0:0:
437,182,208571,1,0,0:0:0:0:
420,158,208615,1,0,0:0:0:0:
394,145,208659,1,0,0:0:0:0:
365,140,208703,1,0,0:0:0:0:
156,285,208792,6,0,L|145:171,1,98,6|0,0:0|0:0,0:0:0:0:
290,146,209145,1,0,0:0:0:0:
133,102,209321,2,0,L|33:118,2,98,2|0|0,0:0|0:0|0:0,0:0:0:0:
290,146,209850,2,0,L|399:159,1,98,2|0,0:0|0:0,0:0:0:0:
238,306,210203,6,0,L|232:189,1,98,0|2,0:0|0:0,0:0:0:0:
367,153,210556,1,0,0:0:0:0:
201,107,210733,2,0,L|337:98,1,98,0|2,0:0|0:0,0:0:0:0:
434,89,211086,1,0,0:0:0:0:
285,190,211262,2,0,L|406:179,1,98,2|0,0:0|0:0,0:0:0:0:
78,348,211615,6,0,L|105:250,1,98,6|0,0:0|0:0,0:0:0:0:
235,242,211968,1,2,0:0:0:0:
372,245,212145,2,0,L|356:130,1,98,2|0,0:0|0:0,0:0:0:0:
229,119,212497,1,0,0:0:0:0:
378,86,212674,2,0,L|271:86,1,98,2|0,0:0|0:0,0:0:0:0:
135,158,213027,5,0,0:0:0:0:
232,157,213203,1,2,0:0:0:0:
330,157,213379,1,0,0:0:0:0:
181,308,213556,2,0,L|176:196,1,98,0|2,0:0|0:0,0:0:0:0:
314,172,213909,1,0,0:0:0:0:
155,122,214086,1,2,0:0:0:0:
391,79,214262,1,0,0:0:0:0:
147,118,214439,6,0,L|156:225,1,98,6|0,0:0|0:0,0:0:0:0:
284,211,214792,1,0,0:0:0:0:
154,246,214968,2,0,L|35:258,2,98,2|0|0,0:0|0:0|0:0,0:0:0:0:
280,338,215497,2,0,L|162:348,1,98,2|0,0:0|0:0,0:0:0:0:
353,266,215850,5,0,0:0:0:0:
222,254,216027,2,0,L|115:254,1,98,2|0,0:0|0:0,0:0:0:0:
256,252,216380,1,0,0:0:0:0:
382,252,216556,2,0,L|489:253,1,98,2|0,0:0|0:0,0:0:0:0:
347,159,216909,2,0,L|451:159,1,98,2|0,0:0|0:0,0:0:0:0:
180,344,217262,5,6,0:0:0:0:
138,258,217438,1,0,0:0:0:0:
174,169,217614,1,0,0:0:0:0:
263,136,217791,1,2,0:0:0:0:
400,138,217968,2,0,L|297:138,1,98,0|0,0:0|0:0,0:0:0:0:
175,139,218321,2,0,L|49:138,1,98,2|0,0:0|0:0,0:0:0:0:
330,328,218674,6,0,L|340:214,1,98,0|2,0:0|0:0,0:0:0:0:
202,198,219027,1,0,0:0:0:0:
352,167,219203,2,0,L|461:185,1,98,0|2,0:0|0:0,0:0:0:0:
284,101,219556,2,0,L|176:108,1,98,0|2,0:0|0:0,0:0:0:0:
459,82,219909,1,0,0:0:0:0:
158,102,220086,6,0,L|163:218,1,98,6|0,0:0|0:0,0:0:0:0:
307,231,220439,1,0,0:0:0:0:
162,331,220615,2,0,L|274:317,1,98,2|0,0:0|0:0,0:0:0:0:
391,298,220968,1,0,0:0:0:0:
136,290,221145,6,0,P|91:205|168:129,1,196,2|0,0:0|0:0,0:0:0:0:
323,225,221674,2,0,L|333:117,1,98,2|0,0:0|0:0,0:0:0:0:
178,54,222027,1,0,0:0:0:0:
301,110,222203,2,0,L|419:97,1,98,2|2,0:0|0:0,0:0:0:0:
269,213,222556,2,0,L|159:206,1,98,2|2,0:0|0:0,0:0:0:0:
448,356,222909,6,0,L|467:255,1,98,6|0,0:0|0:0,0:0:0:0:
340,234,223262,1,0,0:0:0:0:
203,243,223439,2,0,L|330:244,1,98,2|0,0:0|0:0,0:0:0:0:
454,244,223792,1,0,0:0:0:0:
187,348,223968,6,0,P|129:272|206:181,1,196,2|0,0:0|0:0,0:0:0:0:
331,176,224497,2,0,L|221:176,2,98,2|0|0,0:0|0:0|0:0,0:0:0:0:
192,298,225027,2,0,L|169:181,1,98,2|2,0:0|0:0,0:0:0:0:
342,179,225380,2,0,L|355:73,1,98,2|2,0:0|0:0,0:0:0:0:
88,83,225733,6,0,L|200:97,2,98,6|0|0,0:0|0:0|0:0,0:0:0:0:
224,211,226262,2,0,L|242:93,1,98,2|0,0:0|0:0,0:0:0:0:
116,67,226615,1,0,0:0:0:0:
370,173,226792,6,0,L|163:197,1,196,2|0,0:0|0:0,0:0:0:0:
333,328,227321,2,0,L|340:223,1,98,2|0,0:0|0:0,0:0:0:0:
204,178,227674,1,0,0:0:0:0:
374,215,227850,1,2,0:0:0:0:
475,148,228026,1,2,0:0:0:0:
458,55,228202,1,2,0:0:0:0:
339,25,228379,1,2,0:0:0:0:
94,37,228556,6,0,L|81:152,1,98,6|0,0:0|0:0,0:0:0:0:
211,182,228909,1,0,0:0:0:0:
66,180,229086,2,0,L|58:287,1,98,2|0,0:0|0:0,0:0:0:0:
188,351,229439,1,0,0:0:0:0:
473,274,229615,6,0,P|499:185|400:113,1,196,2|0,0:0|0:0,0:0:0:0:
302,199,230145,2,0,L|286:73,1,98,2|0,0:0|0:0,0:0:0:0:
428,56,230497,1,0,0:0:0:0:
300,199,230674,2,0,L|166:188,1,98,2|2,0:0|0:0,0:0:0:0:
369,307,231027,2,0,L|381:202,1,98,2|2,0:0|0:0,0:0:0:0:
128,202,231380,6,0,L|24:193,2,98,4|0|0,3:1|0:0|0:0,0:0:0:0:
250,186,231909,2,0,L|258:77,1,98,2|0,0:0|0:0,0:0:0:0:
136,69,232262,1,0,0:0:0:0:
380,271,232439,6,0,P|448:228|366:172,1,196,2|0,0:0|0:0,0:0:0:0:
253,298,232968,2,0,L|240:189,1,98,2|0,0:0|0:0,0:0:0:0:
370,207,233321,1,0,0:0:0:0:
233,166,233497,6,0,L|220:57,1,98,2|2,0:0|0:0,0:0:0:0:
363,159,233850,2,0,L|376:50,1,98,2|2,0:0|0:0,0:0:0:0:
126,193,234203,6,0,L|14:182,2,98,6|0|0,0:0|0:0|0:0,0:0:0:0:
263,181,234733,2,0,L|267:82,1,98,2|0,0:0|0:0,0:0:0:0:
129,73,235086,1,0,0:0:0:0:
381,211,235262,6,0,L|496:202,1,98,2|0,0:0|0:0,0:0:0:0:
232,151,235615,1,0,0:0:0:0:
99,163,235792,2,0,L|93:53,1,98,2|0,0:0|0:0,0:0:0:0:
229,61,236145,1,0,0:0:0:0:
91,67,236321,6,0,L|211:64,1,98,2|2,0:0|0:0,0:0:0:0:
339,194,236674,2,0,L|223:199,1,98,2|2,0:0|0:0,0:0:0:0:
480,96,237027,6,0,L|364:89,2,98,6|0|0,0:0|0:0|0:0,0:0:0:0:
320,288,237556,2,0,L|308:164,1,98,2|0,0:0|0:0,0:0:0:0:
434,189,237909,1,0,0:0:0:0:
118,303,238086,6,0,P|54:244|128:193,1,196,2|0,0:0|0:0,0:0:0:0:
286,137,238615,2,0,L|166:135,2,98,2|0|0,0:0|0:0|0:0,0:0:0:0:
135,274,239145,6,0,L|116:152,1,98,2|2,0:0|0:0,0:0:0:0:
294,206,239497,2,0,L|167:205,1,98,2|2,0:0|0:0,0:0:0:0:
455,272,239850,6,0,L|346:268,1,98,6|2,0:0|0:0,0:0:0:0:
231,183,240203,2,0,L|346:185,1,98,0|0,0:0|0:0,0:0:0:0:
456,298,240556,6,0,P|456:220|284:93,1,294,4|0,0:0|0:0,0:0:0:0:
141,235,241262,2,0,P|62:168|158:27,1,294,4|0,0:0|0:0,0:0:0:0:
290,91,241968,2,0,L|407:90,1,98,4|0,0:0|0:0,0:0:0:0:
151,214,242321,2,0,L|42:212,1,98
291,302,242674,6,0,L|410:298,2,98,6|0|0,0:0|0:0|0:0,0:0:0:0:
151,251,243203,2,0,L|152:146,1,98,2|0,0:0|0:0,0:0:0:0:
296,154,243556,1,0,0:0:0:0:
146,178,243733,6,0,L|27:174,2,98,2|0|0,0:0|0:0|0:0,0:0:0:0:
286,127,244262,2,0,L|285:22,1,98,2|0,0:0|0:0,0:0:0:0:
141,30,244615,1,0,0:0:0:0:
298,160,244792,6,0,L|170:161,1,98,2|2,0:0|0:0,0:0:0:0:
384,256,245145,2,0,L|273:256,1,98,2|2,0:0|0:0,0:0:0:0:
27,214,245497,6,0,L|22:97,1,98,6|0,0:0|0:0,0:0:0:0:
153,119,245850,1,0,0:0:0:0:
297,119,246027,2,0,L|198:118,2,98,2|0|0,0:0|0:0|0:0,0:0:0:0:
186,250,246556,6,0,L|315:249,1,98,2|0,0:0|0:0,0:0:0:0:
408,148,246909,1,0,0:0:0:0:
153,58,247086,2,0,L|44:61,2,98,2|0|0,0:0|0:0|0:0,0:0:0:0:
280,238,247615,6,0,L|286:123,1,98,2|2,0:0|0:0,0:0:0:0:
51,143,247968,2,0,L|162:142,1,98,2|2,0:0|0:0,0:0:0:0:
392,255,248321,6,0,L|274:252,2,98,4|0|0,0:0|0:0|0:0,0:0:0:0:
246,177,248850,2,0,L|236:70,1,98,6|0,0:0|0:0,0:0:0:0:
376,80,249203,1,0,0:0:0:0:
90,197,249380,6,0,L|221:184,2,98,6|0|0,0:0|0:0|0:0,0:0:0:0:
221,300,249909,2,0,L|233:183,1,98,6|0,0:0|0:0,0:0:0:0:
91,150,250262,1,0,0:0:0:0:
242,195,250439,6,0,L|364:189,1,98,2|2,0:0|0:0,0:0:0:0:
463,116,250792,2,0,L|341:108,1,98,2|2,0:0|0:0,0:0:0:0:
119,318,251145,6,0,L|111:189,1,98,0|0,0:0|0:0,0:0:0:0:
267,212,251497,1,0,0:0:0:0:
109,218,251674,2,0,L|2:210,2,98,0|0|0,0:0|3:0|3:0,0:0:0:0:
249,135,252203,6,0,L|141:142,1,98,0|0,3:0|3:0,0:0:0:0:
281,301,252556,2,0,P|312:266|292:183,1,98,0|0,3:0|3:0,0:0:0:0:
233,149,252821,2,0,L|30:140,2,196,0|0|0,3:0|3:0|3:0,0:0:0:0:
443,97,253792,1,0,0:0:0:0:
178,138,253968,6,0,L|156:100,3,24.5,4|0|0|0,3:2|0:0|1:0|1:0,0:0:0:0:
327,152,254145,1,0,1:0:0:0:
350,159,254189,1,0,1:0:0:0:
369,174,254233,1,0,1:0:0:0:
382,194,254277,1,0,1:0:0:0:
388,218,254321,1,0,1:0:0:0:
385,242,254365,1,0,1:0:0:0:
374,264,254409,1,0,1:0:0:0:
356,281,254453,1,0,1:0:0:0:
334,291,254497,1,0,1:0:0:0:
238,296,254586,1,0,1:0:0:0:
449,359,254674,6,0,B|458:231|458:231|299:285|299:285|271:140|271:140|443:169,1,588.000022430421,8|0,1:2|0:0,0:0:0:0:
313,208,255468,1,0,0:0:0:0:
216,334,255556,2,0,L|200:248,1,73.5000028038026,0|0,0:0|0:0,0:0:0:0:
106,235,255733,2,0,L|107:151,1,73.5000028038026,0|0,0:0|0:0,0:0:0:0:
195,147,255909,2,0,L|203:71,1,73.5000028038026,0|0,0:0|0:0,0:0:0:0:
365,61,256086,6,0,L|186:41,1,147,8|0,1:2|0:0,0:0:0:0:
70,141,256439,2,0,L|100:135,1,24.5,2|0,0:0|0:0,0:0:0:0:
429,197,256615,2,0,L|364:187,1,49,2|0,3:2|0:0,0:0:0:0:
186,326,256792,6,0,L|369:301,1,171.5,4|0,3:0|0:0,0:0:0:0:
95,202,257145,1,2,3:2:0:0:
236,204,257409,1,0,3:0:0:0:
51,149,257497,6,0,L|33:110,4,24.5,8|0|0|0|0,1:2|0:0|0:0|0:0|0:0,0:0:0:0:
294,254,257762,2,0,L|303:221,4,24.5,2|0|0|0|0,0:2|0:0|0:0|0:0|3:0,0:0:0:0:
205,173,258027,2,0,L|183:158,1,24.5,4|0,3:0|0:0,0:0:0:0:
413,107,258115,6,0,L|290:107,1,98,0|0,0:0|0:0,0:0:0:0:
125,133,258380,1,2,3:2:0:0:
194,136,258468,2,0,L|251:137,1,49,0|4,0:0|3:0,0:0:0:0:
58,302,258645,1,0,0:0:0:0:
36,279,258689,1,0,0:0:0:0:
36,255,258733,1,0,0:0:0:0:
58,234,258777,1,0,0:0:0:0:
260,250,258821,2,0,L|301:242,1,24.5,0|0,0:0|0:0,0:0:0:0:
111,185,258909,6,0,L|91:161,1,24.5,10|0,1:2|0:0,0:0:0:0:
197,92,259086,2,0,L|217:67,1,24.5,2|0,0:0|0:0,0:0:0:0:
322,142,259262,2,0,L|289:137,1,24.5,2|0,0:1|0:0,0:0:0:0:
208,210,259439,2,0,L|248:204,1,24.5,2|0,0:1|0:0,0:0:0:0:
475,306,259615,6,0,L|493:274,3,24.5,4|0|0|0,3:2|0:0|1:0|1:0,0:0:0:0:
301,249,259792,1,0,1:0:0:0:
281,234,259836,1,0,1:0:0:0:
266,215,259880,1,0,1:0:0:0:
257,192,259924,1,0,1:0:0:0:
256,168,259968,1,0,1:0:0:0:
261,144,260012,1,0,1:0:0:0:
274,123,260056,1,0,1:0:0:0:
291,106,260100,1,0,1:0:0:0:
313,95,260144,1,0,1:0:0:0:
400,93,260233,1,0,1:0:0:0:
191,31,260321,6,0,B|49:48|49:48|77:181|77:181|258:134|258:134|287:253|287:253|187:256|187:256|198:325|198:325|331:322|331:322,1,881.999973083497,8|0,1:2|0:0,0:0:0:0:
411,323,261292,1,0,0:0:0:0:
311,287,261380,2,0,L|294:193,1,88.1999973083497,0|0,0:0|0:0,0:0:0:0:
408,197,261556,2,0,L|415:105,1,88.1999973083497,0|0,0:0|0:0,0:0:0:0:
212,28,261733,6,0,P|143:65|159:152,1,147,8|0,1:2|0:0,0:0:0:0:
393,205,262086,2,0,L|208:230,1,171.5,0|0,0:0|0:0,0:0:0:0:
481,329,262439,5,4,3:0:0:0:
477,282,262615,1,0,0:0:0:0:
471,242,262792,1,0,0:0:0:0:
467,207,262968,1,0,0:0:0:0:
171,67,263145,6,0,L|128:77,2,24.5,12|0|0,1:2|0:0|0:0,0:0:0:0:
264,133,263321,2,0,L|286:142,2,24.5,0|0|0,0:0|0:0|0:0,0:0:0:0:
69,191,263497,1,2,0:1:0:0:
352,333,263674,2,0,L|355:265,1,49,4|0,3:0|0:0,0:0:0:0:
185,242,263850,6,0,L|78:262,2,98,8|2|0,3:2|0:0|0:0,0:0:0:0:
329,273,264380,2,0,L|336:218,1,49,2|2,0:0|0:0,0:0:0:0:
143,232,264556,1,10,1:2:0:0:
107,199,264644,1,0,0:0:0:0:
97,152,264732,1,0,0:0:0:0:
116,107,264820,1,0,0:0:0:0:
158,82,264908,1,0,0:0:0:0:
214,82,264997,1,0,0:0:0:0:
158,82,265086,2,0,L|93:82,1,49,0|0,0:0|0:0,0:0:0:0:
427,3,265262,6,0,L|427:378,1,367.5,12|0,3:3|0:0,0:0:0:0:
137,354,265968,5,8,1:2:0:0:
116,341,266012,1,0,0:0:0:0:
99,323,266056,1,0,0:0:0:0:
88,301,266100,1,0,0:0:0:0:
82,277,266144,1,0,0:0:0:0:
83,253,266188,1,0,0:0:0:0:
91,230,266232,1,0,0:0:0:0:
105,210,266276,1,0,0:0:0:0:
125,197,266320,5,0,0:0:0:0:
149,190,266365,1,0,0:0:0:0:
173,188,266409,1,0,0:0:0:0:
198,190,266453,1,0,0:0:0:0:
222,195,266497,1,0,0:0:0:0:
246,200,266541,1,0,0:0:0:0:
269,206,266585,1,0,0:0:0:0:
293,211,266629,1,0,0:0:0:0:
318,214,266673,5,0,0:0:0:0:
342,215,266717,1,0,0:0:0:0:
366,211,266762,1,0,0:0:0:0:
389,203,266806,1,0,0:0:0:0:
410,191,266850,1,0,0:0:0:0:
428,174,266894,1,0,0:0:0:0:
441,153,266938,1,0,0:0:0:0:
448,130,266982,1,0,0:0:0:0:
450,105,267026,5,0,0:0:0:0:
446,81,267070,1,0,0:0:0:0:
435,59,267115,1,0,0:0:0:0:
418,42,267159,1,0,0:0:0:0:
396,31,267203,1,0,0:0:0:0:
372,27,267247,1,0,0:0:0:0:
348,27,267291,1,0,0:0:0:0:
323,29,267335,1,0,0:0:0:0:
166,61,267380,6,0,L|175:127,1,49,8|0,1:2|0:0,0:0:0:0:
256,104,267556,2,0,L|265:173,1,49,0|0,0:0|0:0,0:0:0:0:
82,307,267733,6,0,L|48:298,1,24.5,2|0,0:3|0:0,0:0:0:0:
192,261,267821,2,0,L|221:253,1,24.5,2|0,0:3|0:0,0:0:0:0:
82,307,267909,2,0,L|48:298,1,24.5,2|0,0:3|0:0,0:0:0:0:
192,261,267997,2,0,L|221:253,1,24.5,2|0,0:3|0:0,0:0:0:0:
463,321,268086,5,4,3:0:0:0:
478,302,268130,1,0,0:0:0:0:
487,279,268174,1,0,0:0:0:0:
486,255,268218,1,0,0:0:0:0:
478,232,268262,1,0,0:0:0:0:
462,214,268306,1,0,0:0:0:0:
440,202,268350,1,0,0:0:0:0:
416,198,268394,1,0,0:0:0:0:
199,220,268439,2,0,P|164:162|216:98,1,147,6|0,3:2|3:0,0:0:0:0:
418,70,268792,5,8,1:2:0:0:
279,119,268968,1,4,3:0:0:0:
423,188,269145,2,0,L|427:107,1,49,0|0,0:0|3:0,0:0:0:0:
195,67,269321,2,0,L|133:57,1,49,4|0,3:0|0:0,0:0:0:0:
372,271,269497,6,0,L|404:258,2,24.5,2|0|0,0:0|0:0|0:0,0:0:0:0:
218,220,269674,2,0,L|164:206,1,49,2|0,3:2|0:0,0:0:0:0:
371,161,269850,2,0,L|441:147,2,49,4|0|0,3:0|0:0|0:0,0:0:0:0:
61,53,270203,2,0,L|98:62,1,24.5,10|0,1:2|0:0,0:0:0:0:
202,108,270380,2,0,L|218:139,1,24.5,2|0,0:0|0:0,0:0:0:0:
119,178,270556,2,0,L|90:199,1,24.5,2|0,0:1|0:0,0:0:0:0:
229,230,270733,2,0,L|258:236,1,24.5,2|0,0:1|0:0,0:0:0:0:
60,343,270909,6,0,L|49:299,3,24.5,4|0|0|0,3:2|0:0|1:0|1:0,0:0:0:0:
246,295,271086,1,0,1:0:0:0:
268,285,271130,1,0,1:0:0:0:
287,270,271174,1,0,1:0:0:0:
302,251,271218,1,0,1:0:0:0:
312,228,271262,1,0,1:0:0:0:
316,204,271306,1,0,1:0:0:0:
313,180,271350,1,0,1:0:0:0:
304,157,271394,1,0,1:0:0:0:
290,137,271438,1,0,1:0:0:0:
271,121,271483,1,0,1:0:0:0:
249,111,271527,1,0,1:0:0:0:
225,107,271571,1,0,0:0:0:0:
57,179,271615,6,0,B|43:14|43:14|273:0|273:0|276:68|276:68|151:86|151:86|180:210|180:210|389:176|389:176|358:59|358:59|227:75|227:75|286:294|286:294|440:268,1,1519,8|0,1:2|0:0,0:0:0:0:
260,360,273027,6,0,L|246:307,1,49,8|0,1:2|0:0,0:0:0:0:
339,280,273203,2,0,L|352:225,1,49,0|0,0:0|0:0,0:0:0:0:
152,208,273380,2,0,L|138:155,1,49,2|2,0:0|0:0,0:0:0:0:
231,128,273556,2,0,L|244:73,1,49,2|2,0:0|0:0,0:0:0:0:
37,41,273733,6,0,B|36:148|36:148|146:91|146:91|21:70,1,343,4|0,3:0|0:0,0:0:0:0:
421,167,274439,5,8,1:2:0:0:
284,215,274615,2,0,L|219:216,1,49,0|0,0:0|0:0,0:0:0:0:
430,345,274792,2,0,L|441:228,1,98,2|0,0:1|3:0,0:0:0:0:
284,213,275145,2,0,L|155:200,2,98,0|0|4,0:0|3:0|3:0,0:0:0:0:
369,231,275586,1,0,0:0:0:0:
106,272,275674,2,0,L|44:282,1,49,2|2,0:0|0:0,0:0:0:0:
401,323,275850,5,10,1:2:0:0:
472,210,276027,1,0,0:0:0:0:
103,273,276556,5,4,3:0:0:0:
258,220,276645,1,0,1:0:0:0:
282,204,276689,1,0,1:0:0:0:
296,178,276733,1,0,1:0:0:0:
295,149,276777,1,0,1:0:0:0:
281,123,276821,1,0,1:0:0:0:
257,108,276865,1,0,1:0:0:0:
107,80,276909,1,0,1:0:0:0:
409,273,277262,5,8,1:2:0:0:
254,220,277350,1,0,1:0:0:0:
229,204,277394,1,0,1:0:0:0:
215,178,277438,1,0,1:0:0:0:
216,149,277482,1,0,1:0:0:0:
230,123,277526,1,0,1:0:0:0:
254,108,277570,1,0,1:0:0:0:
405,80,277615,1,0,1:0:0:0:
144,255,277968,5,4,3:0:0:0:
304,263,278056,1,0,1:0:0:0:
331,253,278100,1,0,1:0:0:0:
348,230,278144,1,0,1:0:0:0:
349,201,278188,1,0,1:0:0:0:
333,176,278232,1,0,1:0:0:0:
306,165,278276,1,0,1:0:0:0:
143,161,278321,1,0,1:0:0:0:
368,255,278674,5,8,1:2:0:0:
208,263,278762,1,0,1:0:0:0:
180,253,278806,1,0,1:0:0:0:
163,230,278850,1,0,1:0:0:0:
162,201,278894,1,0,1:0:0:0:
178,176,278938,1,0,1:0:0:0:
205,165,278982,1,0,1:0:0:0:
369,161,279027,1,0,1:0:0:0:
122,192,279380,6,0,L|110:156,6,29.3999991027832,4|0|0|0|0|0|0,3:0|0:0|1:0|1:0|1:0|1:0|1:0,0:0:0:0:
325,233,279733,2,0,P|391:221|440:122,1,176.399994616699,0|0,1:0|0:0,0:0:0:0:
91,346,280086,6,0,B|36:206|36:206|87:68|87:68|228:34,1,441.000016822816,8|0,1:2|0:0,0:0:0:0:
368,51,280792,2,0,B|224:52|224:52|372:53|372:53|220:52,1,441.000016822816,4|0,3:0|0:0,0:0:0:0:
348,253,281497,2,0,L|357:179,1,58.7999982055665,8|0,1:2|0:0,0:0:0:0:
198,248,281674,2,0,L|207:174,1,58.7999982055665,0|0,0:0|0:0,0:0:0:0:
46,120,281850,2,0,L|111:120,2,58.7999982055665,0|0|0,0:0|0:0|3:0,0:0:0:0:
385,333,282203,6,0,P|306:285|425:119,1,352.799989233399,0|0,3:0|0:0,0:0:0:0:
128,160,282909,5,4,1:2:0:0:
317,246,282997,1,0,1:0:0:0:
346,243,283041,1,0,1:0:0:0:
373,233,283085,1,0,1:0:0:0:
397,216,283129,1,0,1:0:0:0:
415,193,283173,1,0,1:0:0:0:
427,166,283217,1,0,1:0:0:0:
244,98,283262,1,0,1:0:0:0:
384,160,283615,5,4,3:0:0:0:
195,246,283703,1,0,1:0:0:0:
165,243,283747,1,0,1:0:0:0:
138,233,283791,1,0,1:0:0:0:
114,216,283835,1,0,1:0:0:0:
96,193,283879,1,0,1:0:0:0:
84,166,283923,1,0,1:0:0:0:
268,98,283968,1,0,1:0:0:0:
128,160,284321,5,8,1:2:0:0:
327,184,284409,1,0,1:0:0:0:
351,168,284453,1,0,1:0:0:0:
365,143,284497,1,0,1:0:0:0:
366,114,284541,1,0,1:0:0:0:
352,88,284585,1,0,1:0:0:0:
328,72,284629,1,0,1:0:0:0:
158,61,284674,1,0,1:0:0:0:
319,184,285027,5,4,3:0:0:0:
126,182,285115,2,0,L|81:176,4,29.3999991027832,0|0|0|0|0,1:0|1:0|1:0|1:0|1:0,0:0:0:0:
319,184,285380,1,0,1:0:0:0:
453,353,285733,6,0,B|461:202|461:202|401:337|401:337|376:190|376:190|302:307|302:307|247:170|247:170|148:270|148:270|-14:187,1,1029.00003925324,8|2,1:2|0:0,0:0:0:0:
151,333,287145,2,0,L|82:314,1,58.7999982055665,0|0,0:0|0:0,0:0:0:0:
172,229,287321,2,0,L|222:262,1,58.7999982055665,0|0,0:0|0:0,0:0:0:0:
379,152,287497,2,0,L|356:70,1,58.7999982055665,2|0,0:0|0:0,0:0:0:0:
283,65,287674,2,0,L|292:1,1,58.7999982055665,0|0,0:0|0:0,0:0:0:0:
128,160,287850,5,8,1:2:0:0:
288,268,287939,1,0,1:0:0:0:
316,263,287983,1,0,1:0:0:0:
343,250,288027,1,0,1:0:0:0:
363,229,288071,1,0,1:0:0:0:
376,203,288115,1,0,1:0:0:0:
130,109,288203,1,0,1:0:0:0:
271,107,288380,1,0,3:0:0:0:
128,128,288556,5,4,1:2:0:0:
330,229,288645,1,0,1:0:0:0:
356,218,288689,1,0,1:0:0:0:
374,195,288733,1,0,1:0:0:0:
375,166,288777,1,0,1:0:0:0:
361,140,288821,1,0,1:0:0:0:
335,127,288865,1,0,1:0:0:0:
136,129,288909,1,0,1:0:0:0:
384,192,289262,5,8,1:2:0:0:
187,193,289350,1,0,1:0:0:0:
157,192,289394,1,0,1:0:0:0:
130,181,289438,1,0,1:0:0:0:
110,161,289482,1,0,1:0:0:0:
98,134,289526,1,0,1:0:0:0:
98,105,289570,1,0,1:0:0:0:
275,103,289615,1,0,1:0:0:0:
128,192,289968,5,4,1:2:0:0:
325,193,290056,1,0,1:0:0:0:
354,192,290100,1,0,1:0:0:0:
381,181,290144,1,0,1:0:0:0:
401,161,290188,1,0,1:0:0:0:
413,134,290232,1,0,1:0:0:0:
413,105,290276,1,0,1:0:0:0:
237,103,290321,1,0,1:0:0:0:
386,128,290674,6,0,L|424:116,8,29.3999991027832,4|0|0|0|0|0|0|0|0,3:0|0:0|1:0|1:0|1:0|1:0|1:0|1:0|1:0,0:0:0:0:
140,125,291203,2,0,L|102:113,8,29.3999991027832,4|0|0|0|0|0|0|0|0,3:0|0:0|1:0|1:0|1:0|1:0|1:0|1:0|1:0,0:0:0:0:
320,224,291733,5,8,1:2:0:0:
107,222,291821,2,0,P|60:192|118:142,1,146.999995513916,0|0,0:0|0:0,0:0:0:0:
264,283,292086,2,0,P|363:249|246:106,1,352.799989233399,12|0,1:2|0:0,0:0:0:0:
374,290,292792,2,0,L|307:285,1,58.7999982055665,0|0,0:0|0:0,0:0:0:0:
147,215,292968,2,0,L|208:209,1,58.7999982055665,0|0,0:0|0:0,0:0:0:0:
321,169,293145,2,0,L|305:100,1,58.7999982055665,0|0,0:0|0:0,0:0:0:0:
204,68,293321,2,0,L|219:8,1,58.7999982055665,0|0,0:0|0:0,0:0:0:0:
401,216,293497,6,0,P|392:149|289:102,1,176.399994616699,2|0,0:3|0:0,0:0:0:0:
59,106,293850,1,2,0:1:0:0:
183,106,294027,5,4,3:0:0:0:
371,196,294115,1,0,1:0:0:0:
399,192,294159,1,0,1:0:0:0:
418,171,294203,1,0,1:0:0:0:
419,142,294247,1,0,1:0:0:0:
401,120,294291,1,0,1:0:0:0:
373,115,294335,1,0,1:0:0:0:
196,124,294380,1,0,1:0:0:0:
329,106,294909,5,8,1:2:0:0:
172,223,294997,1,0,1:0:0:0:
142,220,295041,1,0,1:0:0:0:
116,208,295085,1,0,1:0:0:0:
95,187,295129,1,0,1:0:0:0:
83,161,295173,1,0,1:0:0:0:
80,132,295217,1,0,1:0:0:0:
316,124,295262,1,0,1:0:0:0:
183,106,295615,5,4,1:2:0:0:
334,226,295703,1,0,1:0:0:0:
363,223,295747,1,0,1:0:0:0:
389,211,295791,1,0,1:0:0:0:
410,190,295835,1,0,1:0:0:0:
422,164,295879,1,0,1:0:0:0:
425,135,295923,1,0,1:0:0:0:
196,124,295968,1,0,1:0:0:0:
320,149,296321,5,4,3:0:0:0:
146,94,296409,2,0,L|139:53,6,29.3999991027832,0|0|0|0|0|0|0,1:0|1:0|1:0|1:0|1:0|1:0|1:0,0:0:0:0:
389,289,297027,6,0,L|428:288,6,29.3999991027832,2|0|0|0|0|0|0,1:2|1:0|1:0|1:0|1:0|1:0|1:0,0:0:0:0:
158,147,297380,2,0,L|119:146,6,29.3999991027832,2|0|0|0|0|0|0,1:2|1:0|1:0|1:0|1:0|1:0|1:0,0:0:0:0:
379,123,297733,6,0,L|392:86,6,29.3999991027832,8|0|0|0|0|0|0,1:2|0:0|1:0|1:0|1:0|1:0|1:0,0:0:0:0:
160,288,298086,5,0,0:0:0:0:
117,257,298174,1,0,0:0:0:0:
96,208,298262,1,0,0:0:0:0:
105,156,298350,1,0,0:0:0:0:
146,122,298439,1,0,0:0:0:0:
198,123,298527,1,0,0:0:0:0:
230,164,298615,1,0,0:0:0:0:
214,214,298703,1,0,0:0:0:0:
168,250,298792,2,0,L|106:255,1,58.7999982055665,0|0,3:0|3:0,0:0:0:0:
199,331,298968,2,0,L|281:336,1,58.7999982055665,0|0,3:0|3:0,0:0:0:0:
454,354,299145,5,0,0:0:0:0:
475,334,299189,1,0,0:0:0:0:
490,308,299233,1,0,0:0:0:0:
497,280,299277,1,0,0:0:0:0:
496,251,299321,1,0,0:0:0:0:
486,223,299365,1,0,0:0:0:0:
469,199,299409,1,0,0:0:0:0:
446,181,299453,1,0,0:0:0:0:
416,176,299497,5,0,0:0:0:0:
394,165,299541,1,0,0:0:0:0:
377,147,299585,1,0,0:0:0:0:
366,125,299629,1,0,0:0:0:0:
364,101,299673,1,0,0:0:0:0:
370,77,299717,1,0,0:0:0:0:
383,57,299761,1,0,0:0:0:0:
403,42,299805,1,0,0:0:0:0:
426,34,299849,1,0,0:0:0:0:
259,8,300203,2,0,P|135:103|192:211,1,294,2|2,0:3|0:3,0:0:0:0:
445,248,301968,5,4,0:0:0:0:
241,277,302497,1,0,0:0:0:0:
457,255,303027,2,0,L|475:134,1,98,2|2,0:0|0:0,0:0:0:0:
271,86,303380,6,0,P|209:55|9:141,2,294,4|4|4,0:0|0:0|0:0,0:0:0:0:
133,297,304792,6,0,P|116:222|202:132,1,196,2|2,0:0|0:0,0:0:0:0:
314,139,305321,1,0,0:0:0:0:
161,88,305497,1,2,0:0:0:0:
388,32,305850,2,0,L|90:75,1,294,2|2,0:3|0:3,0:0:0:0:
399,349,307615,6,0,P|476:279|382:138,1,294,4|0,0:0|0:0,0:0:0:0:
280,134,308321,1,4,0:0:0:0:
105,134,308674,1,0,0:0:0:0:
280,134,309027,2,0,L|383:134,2,98,4|0|0,0:0|0:0|0:0,0:0:0:0:
136,132,309733,2,0,L|351:133,1,196,4|0,0:0|0:0,0:0:0:0:
107,329,310439,6,0,L|406:300,1,294,2|2,0:0|0:0,0:0:0:0:
126,223,311497,1,2,0:3:0:0:
315,71,312027,1,2,0:3:0:0:
105,22,313262,6,0,P|49:93|165:229,1,294,4|0,0:0|0:0,0:0:0:0:
269,219,313968,1,0,0:0:0:0:
49,318,314321,1,2,0:0:0:0:
166,295,314497,1,2,0:0:0:0:
335,340,314674,2,0,L|28:313,1,294,4|4,0:0|0:0,0:0:0:0:
363,346,316086,6,0,P|402:255|261:131,1,294,2|2,0:0|0:0,0:0:0:0:
110,134,317145,2,0,L|432:95,1,294,2|2,0:3|0:3,0:0:0:0:
252,39,317850,1,2,0:0:0:0:
407,64,318909,5,4,0:0:0:0:
247,168,319659,2,0,L|43:148,1,196,2|2,0:0|0:0,0:0:0:0:
391,70,320459,1,4,0:0:0:0:
110,121,321101,1,4,0:0:0:0:
406,74,321777,6,0,B|344:34|214:35|260:75|240:132|287:285|236:353|85:378|1:292|-41:172|-12:17|72:7|157:-76|246:103|280:171|272:246|346:243|385:260|433:258|471:224|513:154|497:85|414:21|329:19|286:63|266:91,1,1176.00004486084,4|0,0:0|0:2,0:0:0:0:
