osu file format v14

[General]
AudioFilename: Cuebrick - Save Me (Fliwo Remix) (Short Ver.).mp3
AudioLeadIn: 0
PreviewTime: 99361
Countdown: 1
SampleSet: Soft
StackLeniency: 0.8
Mode: 0
LetterboxInBreaks: 0
WidescreenStoryboard: 0

[Editor]
Bookmarks: 12464,22119,44188,66257,71778,74536,75912,77292,82812,88329,93846,98671,99361,104881,110398,115915,120740,120743,121430,126950,132467,137984,143499
DistanceSpacing: 1.4
BeatDivisor: 4
GridSize: 4
TimelineZoom: 1.3

[Metadata]
Title:Save Me (Fliwo Remix) (Short ver.)
TitleUnicode:Save Me (Fliwo Remix) (Short ver.)
Artist:Cuebrick
ArtistUnicode:Cuebrick
Creator:pLolz
Version:Insane
Source:
Tags:dnb Drum N Bass
BeatmapID:818275
BeatmapSetID:373497

[Difficulty]
HPDrainRate:6
CircleSize:4
OverallDifficulty:8
ApproachRate:9
SliderMultiplier:1.8
SliderTickRate:1

[Events]
//Background and Video events
0,0,"breaking_ties_by_nanfe-d5f5ejq.jpg",0,0
//Break Periods
//Storyboard Layer 0 (Background)
//Storyboard Layer 1 (Fail)
//Storyboard Layer 2 (Pass)
//Storyboard Layer 3 (Foreground)
//Storyboard Sound Samples

[TimingPoints]
54,344.827142857143,4,2,0,10,1,0
15226,-100,4,2,0,12,0,0
16605,-100,4,2,0,13,0,0
17985,-100,4,2,0,15,0,0
19364,-100,4,2,0,20,0,0
21433,-133.333333333333,4,2,0,20,0,0
22122,-100,4,2,0,40,0,0
27640,-133.333333333333,4,2,0,40,0,0
28157,-100,4,2,0,40,0,0
36433,-133.333333333333,4,2,0,40,0,0
37812,-100,4,2,0,40,0,0
43847,-100,4,2,0,5,0,0
44191,-100,4,2,0,60,0,0
49191,-100,4,2,0,60,0,0
60053,-100,4,2,0,60,0,0
77295,-100,4,2,0,75,0,1
82640,-100,4,2,0,40,0,1
82812,-100,4,2,0,75,0,1
88157,-100,4,2,0,40,0,1
88329,-100,4,2,0,75,0,1
93674,-100,4,2,0,40,0,1
93846,-100,4,2,0,75,0,1
98674,-100,4,2,0,75,0,0
99364,-100,4,2,0,75,0,1
104709,-100,4,2,0,40,0,1
104881,-100,4,2,0,75,0,1
110226,-100,4,2,0,40,0,1
110398,-100,4,2,0,75,0,1
115743,-100,4,2,0,40,0,1
115915,-100,4,2,0,75,0,1
120743,-100,4,2,0,75,0,0

[HitObjects]
72,124,54,6,0,P|60:188|76:224,1,90,4|0,0:0|0:0,0:0:0:0:
100,292,398,1,0,0:0:0:0:
184,328,571,1,0,0:0:0:0:
268,300,743,1,0,0:0:0:0:
300,216,916,1,0,0:0:0:0:
272,132,1088,2,0,P|272:80|304:36,1,90
408,104,1433,6,0,P|408:156|376:200,1,90,2|0,0:0|0:0,0:0:0:0:
300,216,1778,1,0,0:0:0:0:
212,232,1950,1,0,0:0:0:0:
148,168,2122,1,0,0:0:0:0:
172,80,2295,1,0,0:0:0:0:
251,45,2467,2,0,P|271:101|267:157,1,90
212,232,2812,6,0,P|152:252|124:284,1,90,2|0,0:0|0:0,0:0:0:0:
44,280,3157,1,0,0:0:0:0:
0,200,3329,1,0,0:0:0:0:
52,124,3502,1,0,0:0:0:0:
140,128,3674,1,0,0:0:0:0:
231,127,3847,2,0,P|255:75|247:35,1,90
126,43,4191,6,0,P|122:91|150:139,1,90,2|0,0:0|0:0,0:0:0:0:
192,204,4536,1,0,0:0:0:0:
276,236,4709,1,0,0:0:0:0:
351,183,4881,1,0,0:0:0:0:
364,96,5053,1,0,0:0:0:0:
424,28,5226,2,0,P|464:72|460:116,1,90
427,218,5571,6,0,P|375:210|347:174,1,90,2|0,0:0|0:0,0:0:0:0:
272,136,5916,1,0,0:0:0:0:
184,132,6088,1,0,0:0:0:0:
115,187,6260,1,0,0:0:0:0:
120,280,6433,1,0,0:0:0:0:
64,348,6605,2,0,P|24:312|24:256,1,90
12,152,6950,6,0,P|33:98|69:76,1,90,2|0,0:0|0:0,0:0:0:0:
144,48,7295,1,0,0:0:0:0:
228,76,7467,1,0,0:0:0:0:
252,164,7640,1,0,0:0:0:0:
184,224,7812,1,0,0:0:0:0:
192,312,7985,2,0,P|248:324|292:300,1,90
348,244,8329,5,2,0:0:0:0:
440,184,8502,2,0,L|472:136,5,45
408,104,9019,2,0,L|421:48,6,45
280,60,9709,5,2,0:0:0:0:
184,112,9881,2,0,L|152:160,5,45
220,188,10398,2,0,L|206:244,6,45
312,244,11088,5,2,0:0:0:0:
380,160,11260,2,0,L|428:128,5,45
444,200,11777,2,0,L|500:186,6,45
372,292,12467,5,2,0:0:0:0:
268,320,12640,1,0,0:0:0:0:
232,320,12726,1,0,0:0:0:0:
200,308,12812,1,0,0:0:0:0:
172,284,12898,1,0,0:0:0:0:
156,252,12985,1,0,0:0:0:0:
152,216,13071,1,0,0:0:0:0:
160,180,13157,2,0,L|168:136,3,45
248,112,13502,2,0,L|270:73,3,45
196,36,13847,5,2,0:0:0:0:
160,28,13933,1,0,0:0:0:0:
124,28,14019,1,0,0:0:0:0:
92,44,14105,1,0,0:0:0:0:
68,72,14191,1,0,0:0:0:0:
56,108,14278,1,0,0:0:0:0:
56,144,14364,1,0,0:0:0:0:
56,180,14450,2,0,L|16:244,4,45
108,244,14881,2,0,L|116:308,3,45
184,328,15226,5,2,0:0:0:0:
220,332,15312,1,0,0:0:0:0:
256,328,15398,1,0,0:0:0:0:
292,316,15485,1,0,0:0:0:0:
320,296,15571,1,0,0:0:0:0:
340,264,15657,1,0,0:0:0:0:
344,228,15743,1,0,0:0:0:0:
336,192,15829,1,0,0:0:0:0:
316,164,15916,5,0,0:0:0:0:
304,132,16002,1,0,0:0:0:0:
304,96,16088,1,0,0:0:0:0:
324,64,16174,1,0,0:0:0:0:
356,48,16260,1,0,0:0:0:0:
392,44,16347,1,0,0:0:0:0:
424,60,16433,1,0,0:0:0:0:
448,88,16519,1,0,0:0:0:0:
460,120,16605,6,0,L|408:116,3,45,2|0|0|0,0:0|0:0|0:0|0:0,0:0:0:0:
376,188,16950,2,0,L|325:202,3,45
276,140,17295,2,0,L|232:143,3,45
208,220,17640,2,0,L|165:231,3,45
92,196,17985,5,2,0:0:0:0:
60,180,18071,1,0,0:0:0:0:
36,152,18157,1,0,0:0:0:0:
28,116,18243,1,0,0:0:0:0:
40,84,18329,1,0,0:0:0:0:
68,64,18416,1,0,0:0:0:0:
104,60,18502,1,0,0:0:0:0:
140,68,18588,1,0,0:0:0:0:
164,96,18674,5,0,0:0:0:0:
184,128,18760,1,0,0:0:0:0:
188,164,18847,1,0,0:0:0:0:
184,200,18933,1,0,0:0:0:0:
168,232,19019,1,0,0:0:0:0:
152,264,19105,1,0,0:0:0:0:
148,300,19191,1,0,0:0:0:0:
160,336,19278,1,0,0:0:0:0:
188,356,19364,5,0,0:0:0:0:
224,364,19450,1,0,0:0:0:0:
260,360,19536,1,0,0:0:0:0:
292,344,19622,1,0,0:0:0:0:
304,308,19709,1,0,0:0:0:0:
308,272,19795,1,0,0:0:0:0:
300,236,19881,1,0,0:0:0:0:
284,204,19967,1,0,0:0:0:0:
272,168,20053,5,0,0:0:0:0:
272,132,20140,1,0,0:0:0:0:
288,100,20226,1,0,0:0:0:0:
316,76,20312,1,0,0:0:0:0:
352,72,20398,1,0,0:0:0:0:
388,80,20485,1,0,0:0:0:0:
412,104,20571,1,0,0:0:0:0:
424,136,20657,1,0,0:0:0:0:
420,172,20743,6,0,L|368:200,3,45
352,267,21088,2,0,L|293:273,3,45
260,320,21433,6,0,P|171:326|116:216,1,202.500007724762
156,140,22122,5,8,3:0:0:0:
260,320,22640,5,0,0:0:0:0:
319,239,22812,2,0,P|343:191|339:143,1,90
300,56,23157,1,0,0:0:0:0:
192,36,23329,2,0,P|147:37|108:59,1,90
72,164,23674,2,0,P|116:162|155:140,1,90
207,219,24019,2,0,P|228:257|230:302,1,90
340,316,24364,1,0,0:0:0:0:
412,236,24536,1,0,0:0:0:0:
308,204,24709,2,0,P|276:164|300:36,1,180
368,124,25226,5,0,0:0:0:0:
332,112,25312,1,0,0:0:0:0:
296,104,25398,1,0,0:0:0:0:
260,104,25485,1,0,0:0:0:0:
224,116,25571,1,0,0:0:0:0:
196,136,25657,1,0,0:0:0:0:
176,164,25743,1,0,0:0:0:0:
168,200,25829,1,0,0:0:0:0:
168,236,25916,2,0,L|180:284,3,45
260,332,26260,5,2,0:0:0:0:
260,296,26347,1,0,0:0:0:0:
264,260,26433,1,0,0:0:0:0:
280,228,26519,1,0,0:0:0:0:
304,204,26605,1,0,0:0:0:0:
336,188,26691,1,0,0:0:0:0:
372,184,26778,1,0,0:0:0:0:
404,200,26864,1,0,0:0:0:0:
428,224,26950,6,0,L|496:228,3,45
356,296,27295,2,0,L|312:320,3,45
220,344,27640,2,0,P|172:316|136:236,1,135.000005149842
72,128,28157,6,0,P|104:92|164:80,1,90
184,180,28502,2,0,P|217:208|232:250,1,90
328,304,28847,1,0,0:0:0:0:
328,304,29019,2,0,P|360:264|336:136,1,180
276,60,29536,2,0,P|244:100|268:228,1,180
328,304,30053,2,0,P|280:344|224:340,1,90
152,312,30398,5,0,0:0:0:0:
72,240,30571,2,0,P|64:188|80:136,1,90
120,56,30916,2,0,P|220:96|260:176,1,180
268,264,31433,6,0,L|312:304,3,45
396,344,31778,1,0,0:0:0:0:
420,320,31864,1,0,0:0:0:0:
436,288,31950,1,0,0:0:0:0:
444,252,32036,1,0,0:0:0:0:
444,216,32122,1,0,0:0:0:0:
432,180,32209,1,0,0:0:0:0:
412,148,32295,1,0,0:0:0:0:
384,128,32381,1,0,0:0:0:0:
348,120,32467,1,0,0:0:0:0:
312,124,32553,1,0,0:0:0:0:
276,136,32640,1,0,0:0:0:0:
240,144,32726,2,0,L|188:120,4,45
130,186,33157,6,0,P|173:260|259:264,1,180
316,160,33674,1,0,0:0:0:0:
432,152,33847,2,0,P|452:200|440:256,1,90
396,340,34191,2,0,P|351:337|311:356,1,90
200,316,34536,1,0,0:0:0:0:
188,200,34709,2,0,P|194:155|219:119,1,90
104,132,35053,2,0,P|60:123|20:142,1,90
68,228,35398,2,0,P|59:271|78:311,1,90
260,264,36260,5,0,0:0:0:0:
184,204,36433,2,0,P|156:152|316:216,1,472.500018024445
256,192,37812,12,0,39019,0:0:0:0:
116,124,39191,6,0,P|107:182|142:237,1,90
228,152,39536,2,0,P|270:139|314:150,1,90
424,216,39881,2,0,P|436:258|425:302,1,90,2|0,0:0|0:0,0:0:0:0:
304,344,40226,1,2,0:0:0:0:
212,256,40398,1,2,0:0:0:0:
96,308,40571,2,0,P|64:260|76:208,1,90,2|2,0:0|0:0,0:0:0:0:
64,104,40916,1,2,0:0:0:0:
180,156,41088,1,2,0:0:0:0:
212,32,41260,1,2,0:0:0:0:
336,92,41433,6,0,P|360:152|340:196,1,90,2|2,0:0|0:0,0:0:0:0:
244,236,41778,2,0,P|199:231|161:254,1,90
144,284,42036,1,0,0:0:0:0:
116,308,42122,1,0,0:0:0:0:
80,312,42209,1,0,0:0:0:0:
52,292,42295,1,0,0:0:0:0:
44,256,42381,1,0,0:0:0:0:
52,220,42467,1,0,0:0:0:0:
76,192,42553,1,0,0:0:0:0:
108,176,42640,5,0,0:0:0:0:
140,160,42726,1,0,0:0:0:0:
156,128,42812,1,0,0:0:0:0:
152,92,42898,1,0,0:0:0:0:
128,64,42984,2,0,L|176:32,3,45
236,80,43329,2,0,L|292:66,3,45,0|0|0|0,3:0|0:0|3:0|0:0,0:0:0:0:
336,128,43674,6,0,P|352:188|340:232,1,90
232,304,44191,6,0,P|152:312|104:300,1,90,8|0,0:0|0:0,0:0:0:0:
36,240,44536,1,2,0:0:0:0:
124,152,44709,2,0,P|204:144|252:156,1,90,2|0,0:0|0:0,0:0:0:0:
316,220,45053,2,0,P|344:172|340:108,1,90,2|0,0:0|0:0,0:0:0:0:
468,100,45398,2,0,P|440:148|444:212,1,90,2|0,0:0|0:0,0:0:0:0:
396,300,45743,5,2,0:0:0:0:
272,312,45916,1,2,0:0:0:0:
272,312,46088,2,0,P|209:258|202:213,1,90,0|2,0:3|0:3,0:3:0:0:
180,132,46433,1,2,0:0:0:0:
116,24,46605,1,0,0:0:0:0:
56,136,46778,1,2,0:0:0:0:
144,224,46950,2,0,P|117:259|76:278,2,90,0|2|0,0:0|0:0|0:0,0:0:0:0:
268,200,47467,5,0,0:0:0:0:
320,84,47640,2,0,P|372:64|444:168,1,180,2|2,0:0|0:0,0:0:0:0:
468,268,48157,1,0,0:0:0:0:
356,328,48329,2,0,P|290:328|248:299,1,90,2|0,0:0|0:0,0:0:0:0:
168,264,48674,5,2,0:0:0:0:
148,244,48760,1,0,0:0:0:0:
132,224,48847,1,2,0:0:0:0:
116,204,48933,1,0,0:0:0:0:
100,184,49019,1,0,0:0:0:0:
84,160,49105,1,0,0:0:0:0:
68,140,49191,2,0,P|56:92|87:44,1,90,2|0,0:0|0:0,0:0:0:0:
300,56,49709,6,0,P|352:80|368:140,1,90,2|0,0:0|0:0,0:0:0:0:
368,232,50053,1,2,0:0:0:0:
244,248,50226,2,0,P|192:224|176:164,1,90,2|0,0:0|0:0,0:0:0:0:
68,136,50571,2,0,P|92:84|152:68,1,90,2|0,0:0|0:0,0:0:0:0:
244,56,50916,1,2,0:0:0:0:
340,136,51088,1,0,0:0:0:0:
300,256,51260,1,2,0:0:0:0:
192,320,51433,2,0,P|124:300|108:260,1,90,2|0,0:0|0:0,0:0:0:0:
32,192,51778,5,2,0:0:0:0:
156,172,51950,1,2,0:0:0:0:
92,64,52122,1,2,0:0:0:0:
156,172,52295,1,0,0:0:0:0:
236,76,52467,2,0,P|300:68|352:96,1,90,0|2,0:0|0:0,0:0:0:0:
432,144,52812,1,0,0:0:0:0:
432,268,52984,1,2,0:0:0:0:
316,324,53157,2,0,P|240:320|172:228,1,180,0|2,0:0|0:0,0:0:0:0:
60,196,53674,2,0,P|68:140|96:96,1,90,0|2,0:0|0:0,0:0:0:0:
192,48,54019,6,0,P|248:56|292:84,1,90,2|0,0:0|0:0,0:0:0:0:
340,180,54364,2,0,P|284:172|240:144,1,90,2|0,0:0|0:0,0:0:0:0:
132,184,54709,2,0,P|162:250|264:293,1,180,2|2,0:0|0:0,0:0:0:0:
380,276,55226,6,0,P|424:232|432:188,1,90,8|0,3:0|0:0,0:0:0:0:
268,196,55571,1,2,0:0:0:0:
156,104,55743,2,0,P|208:64|256:68,1,90,2|0,0:0|0:0,0:0:0:0:
372,88,56088,2,0,P|320:128|272:124,1,90,2|0,0:0|0:0,0:0:0:0:
168,196,56433,1,2,0:0:0:0:
236,324,56605,1,0,0:0:0:0:
380,304,56778,2,0,P|416:272|424:208,1,90,2|0,0:0|0:0,0:0:0:0:
400,112,57122,6,0,P|357:100|314:112,1,90,2|2,0:0|0:0,0:0:0:0:
212,184,57467,1,2,0:0:0:0:
164,68,57640,1,2,0:0:0:0:
56,132,57812,2,0,P|28:184|32:224,1,90
84,328,58157,2,0,P|112:276|108:236,1,90,2|0,0:0|0:0,0:0:0:0:
212,184,58502,1,2,0:0:0:0:
296,280,58674,6,0,P|344:256|376:124,1,180,2|2,0:0|0:0,0:0:0:0:
312,36,59191,1,0,0:0:0:0:
240,140,59364,2,0,P|183:160|129:143,1,90,2|0,0:0|0:0,0:0:0:0:
56,76,59709,1,2,0:0:0:0:
8,192,59881,1,2,0:0:0:0:
60,308,60053,6,0,P|128:328|168:312,1,90,0|2,0:0|0:0,0:0:0:0:
264,364,60398,2,0,P|289:300|271:243,1,90
256,156,60743,6,0,P|258:87|297:45,1,90,2|0,0:0|0:0,0:0:0:0:
388,24,61088,1,2,0:0:0:0:
488,124,61260,2,0,P|496:180|480:220,1,90,2|0,0:0|0:0,0:0:0:0:
392,320,61605,2,0,P|348:308|305:317,1,90,2|0,0:0|0:0,0:0:0:0:
160,336,61950,2,0,P|148:292|157:249,1,90,2|0,0:0|0:0,0:0:0:0:
184,108,62295,1,0,0:0:0:0:
184,108,62467,2,0,P|244:72|340:124,1,180,2|2,0:0|0:0,0:0:0:0:
404,244,62984,1,2,0:0:0:0:
260,240,63157,1,2,0:0:0:0:
335,116,63329,5,2,0:0:0:0:
335,116,63502,2,0,P|384:104|440:124,1,90,0|2,0:0|0:0,0:0:0:0:
404,244,63847,2,0,P|416:293|396:349,1,90,0|2,0:0|0:0,0:0:0:0:
292,284,64191,1,2,0:0:0:0:
184,352,64364,1,0,0:0:0:0:
68,300,64536,1,2,0:0:0:0:
32,184,64709,2,0,P|64:128|176:88,1,180,0|2,0:0|0:0,0:0:0:0:
204,88,65140,5,0,0:0:0:0:
240,92,65226,1,0,0:0:0:0:
272,108,65312,1,0,0:0:0:0:
296,136,65398,1,2,0:0:0:0:
312,168,65484,1,0,0:0:0:0:
316,204,65571,1,0,0:0:0:0:
312,240,65657,1,0,0:0:0:0:
300,272,65743,1,2,0:0:0:0:
276,300,65829,2,0,L|224:316,4,45,0|0|0|2|0,0:0|0:0|0:0|0:0|0:0,0:0:0:0:
144,288,66260,5,8,0:0:0:0:
76,192,66433,2,0,P|64:144|80:96,1,90,0|8,0:0|3:0,0:0:0:0:
196,28,66778,2,0,P|208:76|192:124,1,90,0|0,0:0|3:0,0:0:0:0:
336,68,67122,2,0,P|384:56|432:72,1,90,0|8,0:0|3:0,0:0:0:0:
396,208,67467,2,0,P|408:256|392:304,1,90,0|8,0:0|3:0,0:0:0:0:
272,224,67812,2,0,P|228:213|185:225,1,90,0|8,0:0|3:0,0:0:0:0:
68,308,68157,2,0,P|116:320|164:304,1,90,0|8,0:0|3:0,0:0:0:0:
84,184,68502,2,0,P|72:136|88:88,1,90,0|8,0:0|3:0,0:0:0:0:
204,20,68847,6,0,P|216:68|200:116,1,90,0|8,0:0|3:0,0:0:0:0:
272,224,69191,2,0,P|320:236|368:220,1,90,0|8,0:0|3:0,0:0:0:0:
196,312,69536,2,0,P|152:301|109:313,1,90,0|8,0:0|3:0,0:0:0:0:
84,184,69881,2,0,P|96:141|85:97,1,90,0|8,0:0|3:0,0:0:0:0:
228,112,70226,2,0,P|276:100|324:116,1,90,0|8,0:0|3:0,0:0:0:0:
416,216,70571,2,0,P|428:264|412:312,1,90,0|8,0:0|3:0,0:0:0:0:
284,252,70915,2,0,P|240:262|197:250,1,90,0|8,0:0|3:0,0:0:0:0:
84,184,71260,5,0,0:0:0:0:
156,60,71433,2,0,P|212:40|268:60,1,90,8|0,3:0|0:0,0:0:0:0:
376,96,71778,5,8,3:0:0:0:
260,180,71950,1,8,3:0:0:0:
420,208,72122,1,8,3:0:0:0:
336,324,72295,1,8,3:0:0:0:
260,180,72467,1,8,3:0:0:0:
172,296,72640,1,8,3:0:0:0:
272,164,72812,1,8,3:0:0:0:
128,64,72984,2,0,P|96:112|104:168,1,90,8|8,3:0|3:0,0:0:0:0:
28,272,73329,5,8,3:0:0:0:
188,296,73502,1,8,3:0:0:0:
124,168,73674,1,8,3:0:0:0:
204,312,73847,1,8,3:0:0:0:
240,184,74019,1,8,3:0:0:0:
128,64,74191,1,8,3:0:0:0:
272,60,74364,2,0,P|328:56|376:80,1,90,8|8,3:0|3:0,0:0:0:0:
388,92,74622,5,0,3:0:0:0:
408,124,74709,1,0,3:0:0:0:
416,160,74795,1,0,3:0:0:0:
416,196,74881,1,0,3:0:0:0:
400,228,74967,1,0,3:0:0:0:
376,256,75053,1,0,3:0:0:0:
340,268,75140,1,0,3:0:0:0:
304,264,75226,1,0,3:0:0:0:
272,244,75312,1,0,3:0:0:0:
248,216,75398,1,0,3:0:0:0:
220,196,75484,1,0,3:0:0:0:
184,188,75571,1,0,3:0:0:0:
148,196,75657,1,0,3:0:0:0:
120,216,75743,1,0,3:0:0:0:
100,244,75829,1,0,3:0:0:0:
92,280,75915,1,2,0:0:0:0:
184,280,76088,6,0,P|236:192|208:88,1,180
292,60,76605,2,0,P|352:48|392:76,1,90
420,136,76950,1,2,0:0:0:0:
416,172,77036,1,2,0:0:0:0:
412,208,77122,1,2,0:0:0:0:
408,244,77209,1,2,0:0:0:0:
400,280,77295,6,0,P|348:304|280:296,1,90,8|2,3:0|0:0,0:0:0:0:
160,256,77640,1,8,0:0:0:0:
128,96,77812,2,0,P|200:60|244:64,1,90,2|0,0:0|0:0,0:0:0:0:
372,60,78157,1,8,3:0:0:0:
300,204,78329,1,8,0:0:0:0:
444,128,78502,1,2,0:0:0:0:
400,280,78674,1,0,0:0:0:0:
340,128,78847,1,2,0:0:0:0:
276,276,79019,5,8,0:0:0:0:
116,288,79191,2,0,P|80:236|80:176,1,90,2|0,0:0|0:0,0:0:0:0:
76,48,79536,1,8,3:0:0:0:
216,132,79709,1,8,0:0:0:0:
75,210,79881,1,2,0:0:0:0:
216,132,80053,1,8,3:0:0:0:
216,296,80226,1,2,0:0:0:0:
216,132,80398,1,8,0:0:0:0:
376,96,80571,6,0,P|404:160|396:216,1,90,8|0,0:0|0:0,0:0:0:0:
336,324,80915,1,8,3:0:0:0:
220,212,81088,1,8,0:0:0:0:
81,297,81260,2,0,P|70:225|86:184,1,90,2|0,0:0|0:0,0:0:0:0:
152,68,81605,1,8,3:0:0:0:
220,212,81778,1,8,0:0:0:0:
340,104,81950,1,2,0:0:0:0:
220,212,82122,1,0,0:0:0:0:
376,264,82295,5,8,3:0:0:0:
264,148,82467,1,8,0:0:0:0:
228,308,82640,1,2,0:0:0:0:
228,308,82726,1,2,0:0:0:0:
228,308,82812,2,0,P|164:312|116:296,1,90,2|8,0:0|3:0,0:0:0:0:
40,176,83157,1,8,0:0:0:0:
144,52,83329,2,8,P|200:40|248:52,1,90,2|0,0:0|0:0,0:0:0:0:
388,84,83674,1,8,3:0:0:0:
276,200,83846,5,8,0:0:0:0:
436,212,84019,2,0,P|424:276|396:308,1,90,2|0,0:0|0:0,0:0:0:0:
256,344,84364,1,8,3:0:0:0:
276,200,84536,1,8,0:0:0:0:
128,264,84709,2,0,P|64:244|40:212,1,90,2|0,0:0|0:0,0:0:0:0:
144,100,85053,1,8,3:0:0:0:
276,200,85226,1,8,0:0:0:0:
312,44,85398,5,2,0:0:0:0:
428,156,85571,2,0,P|429:227|404:272,1,90,8|2,3:0|0:0,0:0:0:0:
284,324,85915,1,8,0:0:0:0:
284,180,86088,1,2,0:0:0:0:
136,244,86260,1,0,0:0:0:0:
284,180,86433,1,8,3:0:0:0:
144,100,86605,1,8,0:0:0:0:
136,244,86778,2,0,P|76:236|40:204,1,90,2|0,0:0|0:0,0:0:0:0:
32,60,87122,5,8,3:0:0:0:
192,32,87295,1,8,0:0:0:0:
236,168,87467,2,0,P|300:200|344:200,1,90
460,124,87812,1,8,3:0:0:0:
432,284,87984,1,8,0:0:0:0:
276,328,88157,1,0,0:0:0:0:
276,328,88243,1,0,0:0:0:0:
276,328,88329,2,0,P|216:336|172:324,1,90,8|0,3:0|0:0,0:0:0:0:
72,216,88674,5,8,0:0:0:0:
140,68,88846,2,0,P|208:48|248:60,1,90,2|0,0:0|0:0,0:0:0:0:
384,88,89191,1,8,3:0:0:0:
252,184,89364,1,8,0:0:0:0:
408,232,89536,2,0,P|416:296|400:336,1,90,2|0,0:0|0:0,0:0:0:0:
248,332,89881,1,8,3:0:0:0:
108,252,90053,1,8,0:0:0:0:
252,184,90226,2,0,P|252:124|220:72,1,90,2|0,0:0|0:0,0:0:0:0:
80,68,90571,5,8,3:0:0:0:
28,224,90743,1,8,0:0:0:0:
184,184,90915,1,2,0:0:0:0:
248,332,91088,1,8,3:0:0:0:
108,252,91260,1,2,0:0:0:0:
248,332,91433,1,8,0:0:0:0:
320,188,91605,2,0,P|324:132|304:72,1,90,2|0,0:0|0:0,0:0:0:0:
172,28,91950,1,8,3:0:0:0:
184,184,92122,5,8,0:0:0:0:
312,280,92295,2,0,P|376:272|408:240,1,90,2|0,0:0|0:0,0:0:0:0:
468,112,92640,1,8,3:0:0:0:
308,124,92812,1,8,0:0:0:0:
394,257,92984,2,0,P|388:312|360:348,1,90
208,324,93329,1,8,3:0:0:0:
144,176,93502,1,8,0:0:0:0:
32,292,93674,1,0,0:0:0:0:
32,292,93760,5,0,0:0:0:0:
32,292,93846,2,0,P|24:240|32:176,1,90,8|2,3:0|0:0,0:0:0:0:
76,48,94191,1,8,0:0:0:0:
220,120,94364,2,0,P|224:180|216:224,1,90,2|0,0:0|0:0,0:0:0:0:
308,344,94709,1,8,3:0:0:0:
392,208,94881,1,8,0:0:0:0:
308,344,95053,2,0,P|256:352|196:340,1,90,2|0,0:0|0:0,0:0:0:0:
104,236,95398,1,8,3:0:0:0:
220,120,95571,5,8,0:0:0:0:
388,119,95743,2,0,P|396:171|384:231,1,90,2|0,0:0|0:0,0:0:0:0:
244,280,96088,1,8,3:0:0:0:
220,120,96260,1,8,0:0:0:0:
104,236,96433,1,2,0:0:0:0:
220,120,96605,1,8,3:0:0:0:
64,80,96778,1,0,0:0:0:0:
104,236,96950,1,8,0:0:0:0:
220,120,97122,5,2,0:0:0:0:
244,280,97295,1,2,0:0:0:0:
316,136,97467,1,8,3:0:0:0:
172,216,97640,1,8,0:0:0:0:
332,228,97812,2,0,P|392:220|424:192,1,90
480,52,98157,1,8,3:0:0:0:
320,52,98329,1,8,0:0:0:0:
248,193,98502,2,0,P|236:253|244:281,1,90,2|0,0:0|0:0,0:0:0:0:
108,200,98846,5,2,0:0:0:0:
108,200,99191,1,2,0:0:0:0:
220,316,99364,6,0,P|288:304|324:280,1,90,4|0,1:0|0:0,0:0:0:0:
396,160,99709,1,8,0:0:0:0:
260,72,99881,2,0,P|192:84|156:108,1,90,2|0,0:0|0:0,0:0:0:0:
28,164,100226,1,8,3:0:0:0:
160,256,100398,1,8,0:0:0:0:
174,93,100571,1,2,0:0:0:0:
160,256,100743,1,0,0:0:0:0:
304,180,100915,1,8,3:0:0:0:
160,256,101088,5,8,0:0:0:0:
312,308,101260,2,0,P|356:312|400:302,1,90,2|0,0:0|0:0,0:0:0:0:
468,156,101605,1,8,3:0:0:0:
304,180,101778,1,8,0:0:0:0:
360,28,101950,1,0,0:0:0:0:
200,56,102122,1,8,3:0:0:0:
304,180,102295,1,2,0:0:0:0:
256,336,102467,1,8,0:0:0:0:
96,320,102640,6,0,P|76:260|76:216,1,90,2|0,0:0|0:0,0:0:0:0:
100,76,102984,1,8,3:0:0:0:
224,184,103157,1,8,0:0:0:0:
300,40,103329,2,0,P|359:61|394:88,1,90,2|0,0:0|0:0,0:0:0:0:
452,220,103674,1,8,3:0:0:0:
304,180,103846,1,8,0:0:0:0:
344,336,104019,1,2,0:0:0:0:
304,180,104191,1,2,0:0:0:0:
180,284,104364,5,8,3:0:0:0:
200,124,104536,1,8,0:0:0:0:
52,188,104709,1,0,0:0:0:0:
52,188,104795,1,0,0:0:0:0:
52,188,104881,2,0,P|32:128|48:84,1,90,4|0,1:0|0:0,0:0:0:0:
180,24,105226,1,8,0:0:0:0:
320,104,105398,2,0,P|340:164|324:208,1,90,2|0,0:0|0:0,0:0:0:0:
324,352,105743,1,8,3:0:0:0:
180,284,105915,5,8,0:0:0:0:
140,128,106088,2,0,P|152:76|184:24,1,90,2|0,0:0|0:0,0:0:0:0:
320,104,106433,1,8,3:0:0:0:
216,228,106605,1,8,0:0:0:0:
324,352,106778,2,0,P|380:344|411:303,1,90,2|0,0:0|0:0,0:0:0:0:
476,180,107122,1,8,3:0:0:0:
324,236,107295,1,8,0:0:0:0:
476,180,107467,1,0,0:0:0:0:
402,322,107640,5,8,3:0:0:0:
384,160,107812,1,2,0:0:0:0:
232,140,107984,2,0,P|168:132|136:148,1,90,8|2,0:0|0:0,0:0:0:0:
12,236,108329,1,2,0:0:0:0:
160,300,108502,1,8,3:0:0:0:
146,141,108674,1,8,0:0:0:0:
160,300,108846,2,0,P|204:312|256:284,1,90
380,208,109191,1,8,3:0:0:0:
344,48,109364,5,8,0:0:0:0:
188,92,109536,2,0,P|124:112|108:148,1,90,2|0,0:0|0:0,0:0:0:0:
220,252,109881,1,8,3:0:0:0:
304,116,110053,1,8,0:0:0:0:
380,260,110226,1,0,0:0:0:0:
380,260,110312,1,0,0:0:0:0:
380,260,110398,2,0,P|408:208|404:160,1,90,4|0,1:0|0:0,0:0:0:0:
344,48,110743,1,8,0:0:0:0:
188,92,110915,6,0,P|160:144|164:192,1,90,2|0,0:0|0:0,0:0:0:0:
96,324,111260,1,8,3:0:0:0:
20,180,111433,1,8,0:0:0:0:
100,40,111605,2,0,P|156:16|204:28,1,90
344,48,111950,1,8,3:0:0:0:
296,204,112122,1,8,0:0:0:0:
420,96,112295,1,2,0:0:0:0:
260,120,112467,1,0,0:0:0:0:
400,200,112640,5,8,3:0:0:0:
264,284,112812,1,8,0:0:0:0:
260,120,112984,1,2,0:0:0:0:
264,284,113157,2,0,P|200:296|152:280,1,90,8|2,3:0|0:0,0:0:0:0:
36,212,113502,1,8,0:0:0:0:
172,127,113674,2,0,P|236:115|284:131,1,90,2|0,0:0|0:0,0:0:0:0:
400,200,114019,1,8,3:0:0:0:
412,40,114191,1,8,0:0:0:0:
312,168,114364,5,0,0:0:0:0:
460,104,114536,1,0,0:0:0:0:
324,16,114709,1,8,3:0:0:0:
312,168,114881,1,8,0:0:0:0:
444,264,115053,1,0,0:0:0:0:
296,332,115226,2,0,P|236:336|184:304,1,90,0|8,0:0|3:0,0:0:0:0:
72,236,115571,1,8,0:0:0:0:
180,116,115743,1,0,0:0:0:0:
180,116,115829,1,0,0:0:0:0:
180,116,115915,6,0,P|232:84|280:76,1,90,4|2,1:0|0:0,0:0:0:0:
404,148,116260,1,8,0:0:0:0:
300,276,116433,2,0,P|248:308|200:316,1,90,2|0,0:0|0:0,0:0:0:0:
72,236,116777,1,8,3:0:0:0:
228,196,116950,1,8,2:0:0:0:
91,116,117122,2,0,P|135:108|179:115,1,90,2|0,0:0|0:0,0:0:0:0:
308,16,117467,1,8,3:0:0:0:
404,148,117640,5,8,0:0:0:0:
228,196,117812,2,0,P|216:256|228:308,1,90,2|0,0:0|0:0,0:0:0:0:
368,352,118157,1,8,3:0:0:0:
496,252,118329,1,8,0:0:0:0:
340,216,118502,1,2,0:0:0:0:
496,252,118674,1,8,3:0:0:0:
396,128,118846,1,2,0:0:0:0:
236,92,119019,1,8,0:0:0:0:
340,216,119191,5,2,0:0:0:0:
328,52,119364,1,2,0:0:0:0:
248,192,119536,1,8,3:0:0:0:
156,60,119709,1,8,0:0:0:0:
64,192,119881,2,0,P|60:248|72:284,1,90
188,328,120226,2,0,P|231:316|275:322,1,90,8|8,3:0|0:0,0:0:0:0:
400,340,120571,1,2,0:0:0:0:
400,340,120915,1,2,0:0:0:0:
456,208,121260,5,2,0:0:0:0:
456,208,121433,2,0,P|456:152|436:100,1,90,4|0,1:0|0:0,0:0:0:0:
340,24,121777,1,8,0:0:0:0:
196,44,121950,2,0,P|140:44|88:64,1,90,2|0,0:0|0:0,0:0:0:0:
36,180,122295,1,8,3:0:0:0:
180,168,122467,1,8,0:0:0:0:
108,292,122640,1,2,0:0:0:0:
180,168,122812,1,2,0:0:0:0:
252,292,122984,5,8,3:0:0:0:
336,176,123157,1,8,0:0:0:0:
464,244,123329,2,0,P|478:186|470:136,1,90,2|0,0:0|0:0,0:0:0:0:
388,40,123674,1,8,3:0:0:0:
336,176,123846,1,8,0:0:0:0:
215,91,124019,1,2,0:0:0:0:
248,232,124191,1,8,3:0:0:0:
304,100,124364,1,0,0:0:0:0:
180,168,124536,5,8,0:0:0:0:
56,240,124709,2,0,P|40:164|48:128,1,90,2|0,0:0|0:0,0:0:0:0:
92,20,125053,1,8,3:0:0:0:
215,91,125226,1,8,0:0:0:0:
248,232,125398,2,0,P|264:308|256:344,1,90,2|0,0:0|0:0,0:0:0:0:
408,304,125743,1,8,3:0:0:0:
436,164,125915,1,8,0:0:0:0:
304,100,126088,2,0,P|240:88|212:92,1,90,2|0,0:0|0:0,0:0:0:0:
80,140,126433,5,8,3:0:0:0:
108,280,126605,1,8,0:0:0:0:
248,232,126777,1,0,0:0:0:0:
248,232,126864,1,0,0:0:0:0:
248,232,126950,2,0,P|312:240|352:224,1,90,8|2,3:0|0:0,0:0:0:0:
412,112,127295,1,8,0:0:0:0:
284,44,127467,2,0,P|208:52|176:80,1,90,2|0,0:0|0:0,0:0:0:0:
80,140,127812,1,8,3:0:0:0:
108,280,127984,5,8,0:0:0:0:
248,232,128157,1,2,0:0:0:0:
140,140,128329,1,0,0:0:0:0:
248,232,128502,1,8,3:0:0:0:
272,92,128674,1,8,0:0:0:0:
412,112,128846,2,0,P|428:176|424:216,1,90,2|0,0:0|0:0,0:0:0:0:
364,328,129191,1,8,3:0:0:0:
248,232,129364,1,8,0:0:0:0:
272,92,129536,5,2,0:0:0:0:
140,140,129709,1,8,3:0:0:0:
248,232,129881,1,2,0:0:0:0:
140,140,130053,1,8,0:0:0:0:
108,280,130226,2,0,P|152:324|204:340,1,90,2|0,0:0|0:0,0:0:0:0:
308,276,130571,1,8,3:0:0:0:
212,172,130743,1,8,0:0:0:0:
349,132,130915,2,0,P|297:97|243:91,1,90,2|0,0:0|0:0,0:0:0:0:
132,48,131260,5,8,3:0:0:0:
271,91,131433,1,8,0:0:0:0:
140,140,131605,1,2,0:0:0:0:
271,91,131777,1,0,0:0:0:0:
196,216,131950,1,8,3:0:0:0:
316,292,132122,1,8,0:0:0:0:
180,340,132295,1,0,0:0:0:0:
180,340,132381,1,0,0:0:0:0:
180,340,132467,6,0,P|108:320|72:288,1,90,4|2,1:0|0:0,0:0:0:0:
48,176,132812,1,8,0:0:0:0:
184,132,132984,2,0,P|256:152|292:184,1,90,2|0,0:0|0:0,0:0:0:0:
316,292,133329,1,8,3:0:0:0:
432,208,133502,1,8,0:0:0:0:
388,344,133674,1,2,0:0:0:0:
432,208,133846,1,0,0:0:0:0:
332,104,134019,1,8,3:0:0:0:
472,128,134191,5,8,0:0:0:0:
340,192,134364,2,0,P|312:236|256:272,1,90,2|0,0:0|0:0,0:0:0:0:
144,296,134708,1,8,3:0:0:0:
96,160,134881,1,8,0:0:0:0:
144,296,135053,1,2,0:0:0:0:
176,156,135226,1,8,3:0:0:0:
60,240,135398,1,2,0:0:0:0:
36,96,135571,1,8,0:0:0:0:
164,28,135743,6,0,P|224:20|264:32,1,90,2|0,0:0|0:0,0:0:0:0:
380,96,136088,1,8,3:0:0:0:
268,184,136260,1,8,0:0:0:0:
129,209,136433,2,0,P|128:253|143:295,1,90,2|0,0:0|0:0,0:0:0:0:
284,332,136777,1,8,3:0:0:0:
268,184,136950,1,8,0:0:0:0:
400,240,137122,1,2,0:0:0:0:
268,184,137295,1,0,0:0:0:0:
264,40,137467,5,8,3:0:0:0:
180,156,137640,1,8,0:0:0:0:
316,108,137812,1,0,0:0:0:0:
316,108,137898,1,0,0:0:0:0:
316,108,137984,2,0,P|372:112|408:136,1,90,4|2,1:0|0:0,0:0:0:0:
484,248,138329,1,8,0:0:0:0:
368,332,138502,2,0,P|312:336|268:324,1,90
152,260,138846,1,8,3:0:0:0:
268,184,139019,5,8,0:0:0:0:
132,132,139191,2,0,P|128:76|140:32,1,90,2|0,0:0|0:0,0:0:0:0:
280,32,139536,1,8,3:0:0:0:
388,124,139708,1,8,0:0:0:0:
268,184,139881,2,0,P|276:228|271:272,1,90,2|0,0:0|0:0,0:0:0:0:
148,348,140226,1,0,3:0:0:0:
92,216,140398,1,8,0:0:0:0:
148,348,140571,1,2,0:0:0:0:
180,208,140743,5,8,3:0:0:0:
124,76,140915,1,2,0:0:0:0:
92,216,141088,1,8,0:0:0:0:
200,120,141260,1,2,0:0:0:0:
56,136,141433,1,0,0:0:0:0:
200,120,141605,1,8,3:0:0:0:
140,252,141777,1,8,0:0:0:0:
284,252,141950,2,0,P|344:232|376:200,1,90,2|0,0:0|0:0,0:0:0:0:
344,72,142295,5,8,3:0:0:0:
204,40,142467,1,8,0:0:0:0:
132,168,142640,1,0,3:0:0:0:
132,168,142726,1,0,3:0:0:0:
132,168,142812,1,0,3:0:0:0:
152,312,142984,1,8,3:0:0:0:
284,252,143157,1,8,0:0:0:0:
228,120,143329,1,0,0:0:0:0:
352,152,143502,5,4,1:0:0:0:
