osu file format v14

[General]
AudioFilename: audio.mp3
AudioLeadIn: 0
PreviewTime: -1
Countdown: 0
SampleSet: None
StackLeniency: 0.7
Mode: 0
LetterboxInBreaks: 0
WidescreenStoryboard: 1

[Editor]
DistanceSpacing: 0.8
BeatDivisor: 4
GridSize: 8
TimelineZoom: 1

[Metadata]
Title:Red Shift
TitleUnicode:Red Shift
Artist:Cubed
ArtistUnicode:CubedĀ³
Creator:kirbob
Version:Unshifted
Source:
Tags:
BeatmapID:1343396
BeatmapSetID:632921

[Difficulty]
HPDrainRate:5
CircleSize:3.5
OverallDifficulty:4
ApproachRate:6
SliderMultiplier:1.2
SliderTickRate:1

[Events]
//Background and Video events
0,0,"spectrum.jpg",0,0
//Break Periods
//Storyboard Layer 0 (Background)
//Storyboard Layer 1 (Fail)
//Storyboard Layer 2 (Pass)
//Storyboard Layer 3 (Foreground)
//Storyboard Sound Samples

[TimingPoints]
-12,400,4,1,0,70,1,0
11988,-50,4,1,0,70,0,0
12788,-100,4,1,0,70,0,0
15188,-50,4,1,0,70,0,0
15588,-100,4,1,0,70,0,0
18388,-50,4,1,0,70,0,0
18788,-100,4,1,0,70,0,0
20788,-50,4,1,0,70,0,0
22388,-100,4,1,0,70,0,0
23588,-200,4,1,0,70,0,0
25588,-66.6666666666667,4,1,0,70,0,0
38388,-50,4,1,0,70,0,0
49188,-200,4,1,0,70,0,0
51188,-50,4,1,0,70,0,0
63988,-200,4,1,0,70,0,0

[Colours]
Combo1 : 169,51,232
Combo2 : 191,191,191
Combo3 : 223,223,223
Combo4 : 255,45,45
Combo5 : 237,128,46
Combo6 : 221,235,54
Combo7 : 62,227,86
Combo8 : 80,95,228

[HitObjects]
80,232,12188,38,2,B|104:232|104:232|112:216|112:216|120:232|120:232|136:232|136:232|144:248|144:248|152:232|152:232|168:232,1,120,0|0,2:1|2:1,2:1:0:0:
256,80,12788,86,0,B|208:88|200:96|200:96|200:128|176:168,1,120,0|8,2:2|2:2,2:2:0:0:
280,256,13588,2,0,B|320:264|336:280|336:280|368:264|360:216,1,120,0|8,2:2|2:2,2:2:0:0:
240,96,14388,22,0,B|224:128|224:128|224:152,2,60,2|0|2,2:1|2:2|2:1,2:2:0:0:
312,96,14988,1,0,2:2:0:0:
384,96,15188,2,0,B|384:128|384:128|400:136|400:136|384:144|384:144|384:160|384:160|368:168|368:168|384:176|384:176|384:200|384:200,1,120,2|0,2:1|2:2,2:2:0:0:
352,240,15588,102,0,L|288:192,1,60,8|0,2:2|2:2,2:2:0:0:
184,160,16388,2,0,B|152:144|152:144|120:168,1,60,8|0,2:2|2:2,2:2:0:0:
160,232,16788,1,0,2:2:0:0:
160,280,16988,1,0,2:2:0:0:
344,176,17388,5,0,2:2:0:0:
280,80,17788,86,0,L|224:128,2,60,0|8|0,2:2|2:2|2:2,2:2:0:0:
144,224,18388,22,0,B|184:280|184:280|200:256|200:256|208:280|208:280|240:224|240:224|304:224,1,240,2|2,2:1|2:1,2:2:0:0:
256,80,19188,86,0,B|200:120|200:120|224:144|224:144|224:176,1,120,0|8,2:2|2:2,2:2:0:0:
376,288,19988,2,0,B|360:240|360:240|312:280|296:248,1,120,0|8,2:2|2:2,2:2:0:0:
272,80,20788,22,0,B|296:136|296:136|272:192,1,120,2|0,2:1|2:2,2:2:0:0:
208,136,21188,1,2,2:1:0:0:
144,80,21388,2,0,B|120:136|120:136|144:192,1,120,0|2,2:2|2:1,2:2:0:0:
304,288,21988,2,2,B|312:272|312:272|320:288|320:288|344:288|344:288|352:304|352:304|360:288|360:288|392:288,1,120,0|0,2:2|2:2,2:1:0:0:
304,112,22788,85,8,2:2:0:0:
256,168,22988,1,0,2:2:0:0:
200,120,23188,2,0,B|168:128|168:128|184:152|184:152|184:176,1,60,0|8,2:2|2:2,2:2:0:0:
392,184,23788,6,2,B|392:216|392:216|360:240,1,60,0|0,2:2|2:2,2:1:0:0:
256,192,24388,12,0,25188,2:2:0:0:
208,144,25688,6,0,P|176:96|112:80,1,90.0000034332277,2|0,2:1|2:2,2:2:0:0:
208,144,25988,2,0,P|160:110|95:118,1,90.0000034332277,2|0,2:1|2:2,2:2:0:0:
208,144,26388,1,8,2:2:0:0:
208,280,26788,2,0,P|248:321|314:324,1,90.0000034332277,2|0,2:1|2:2,2:2:0:0:
208,280,27188,2,0,P|264:289|320:253,1,90.0000034332277,2|0,2:1|2:2,2:2:0:0:
208,280,27588,2,0,P|259:254|283:192,1,90.0000034332277,2|0,2:1|2:2,2:2:0:0:
208,280,27988,1,8,2:2:0:0:
144,144,28388,1,8,2:2:0:0:
352,160,28788,6,0,B|336:128|336:128|304:112|304:112|272:128,1,90.0000034332277,2|0,2:1|2:2,2:2:0:0:
352,160,29188,2,0,B|368:192|368:192|400:208|400:208|432:192,1,90.0000034332277,2|0,2:1|2:2,2:2:0:0:
352,160,29588,1,8,2:2:0:0:
120,224,29988,2,0,B|136:256|136:256|168:272|168:272|200:256,1,90.0000034332277,2|0,2:1|2:2,2:2:0:0:
120,224,30388,2,0,B|84:221|84:221|54:241|54:241|52:277,1,90.0000034332277,2|0,2:1|2:2,2:2:0:0:
120,224,30788,2,0,B|139:194|139:194|137:158|137:158|107:138,1,90.0000034332277,2|0,2:1|2:2,2:2:0:0:
120,224,31188,1,8,2:2:0:0:
240,168,31588,1,8,2:2:0:0:
387,333,31988,6,0,P|355:301|355:253,1,90.0000034332277,2|0,2:1|2:2,2:2:0:0:
320,184,32388,2,0,P|352:216|352:264,1,90.0000034332277,2|0,2:1|2:2,2:2:0:0:
353,258,32788,1,8,2:2:0:0:
200,80,33188,2,0,P|211:123|187:165,1,90.0000034332277,2|0,2:1|2:2,2:2:0:0:
117,195,33588,2,0,P|149:163|197:162,1,90.0000034332277,2|0,2:1|2:2,2:2:0:0:
258,208,33988,2,0,P|214:196|190:154,1,90.0000034332277,2|0,2:1|2:2,2:2:0:0:
191,160,34388,1,8,2:2:0:0:
152,296,34788,1,8,2:2:0:0:
296,168,35188,6,0,B|288:112|288:112|256:136,1,90.0000034332277,2|0,2:1|2:2,2:2:0:0:
296,168,35588,2,0,B|304:224|304:224|336:200,1,90.0000034332277,2|0,2:1|2:2,2:2:0:0:
296,168,35988,1,8,2:2:0:0:
128,208,36388,2,0,B|90:165|90:165|77:202,1,90.0000034332277,2|0,2:1|2:2,2:2:0:0:
128,208,36788,2,0,B|118:263|118:263|156:250,1,90.0000034332277,2|0,2:1|2:2,2:2:0:0:
128,208,37188,2,0,B|181:188|181:188|150:162,1,90.0000034332277,2|0,2:1|2:2,2:2:0:0:
128,208,37588,1,8,2:2:0:0:
216,64,38388,6,0,B|184:72|184:72|152:64|152:64|160:96|160:96|152:128,1,120,2|0,2:1|2:2,2:2:0:0:
226,188,38788,2,0,B|232:168|232:168|224:136|224:136|256:144|256:144|288:136,1,120,2|0,2:1|2:2,2:2:0:0:
296,208,39188,1,8,2:2:0:0:
128,200,39588,2,0,P|152:112|176:104,1,120,2|0,2:1|2:2,2:2:0:0:
128,200,39988,2,0,P|192:264|187:289,1,120,2|0,2:1|2:2,2:2:0:0:
128,200,40388,2,0,P|39:223|20:206,1,120,2|0,2:1|2:2,2:2:0:0:
128,200,40788,1,8,2:2:0:0:
296,192,41188,1,8,2:2:0:0:
376,312,41588,6,0,B|320:272|320:272|280:304,1,120,2|0,2:1|2:2,2:2:0:0:
209,272,41988,2,0,B|177:328|177:328|193:352|193:352|225:336,1,120,2|0,2:1|2:2,2:2:0:0:
281,304,42388,1,8,2:2:0:0:
312,96,42788,2,0,B|272:112|272:112|264:72|264:72|296:40,1,120,2|0,2:1|2:2,2:2:0:0:
312,96,43188,2,0,B|345:122|345:122|315:149|315:149|271:137,1,120,2|0,2:1|2:2,2:2:0:0:
312,96,43588,2,0,B|318:53|318:53|356:66|356:66|368:110,1,120,2|0,2:1|2:2,2:2:0:0:
312,96,43988,1,8,2:2:0:0:
168,168,44388,1,8,2:2:0:0:
304,304,44788,38,0,P|248:296|208:248,1,120,2|0,2:1|2:2,2:2:0:0:
304,304,45188,2,0,P|360:296|400:248,1,120,2|0,2:1|2:2,2:2:0:0:
304,240,45588,1,8,2:2:0:0:
160,160,45988,2,0,B|144:128|144:128|160:88|160:88|176:128|176:128|168:152,1,120,2|0,2:1|2:2,2:2:0:0:
160,160,46388,2,0,B|195:162|195:162|222:196|222:196|179:189|179:189|162:170,1,120,2|0,2:1|2:2,2:2:0:0:
160,159,46788,2,0,B|140:189|140:189|97:195|97:195|124:162|124:162|149:157,1,120,2|0,2:1|2:2,2:2:0:0:
160,159,47188,1,8,2:2:0:0:
320,160,47588,1,8,2:2:0:0:
240,280,47988,6,0,B|197:303|197:303|195:274|195:274|174:260|174:260|176:238,1,120,2|0,2:1|2:2,2:2:0:0:
119,191,48388,2,0,B|121:173|121:173|100:159|100:159|97:131|97:131|55:154,1,120,2|0,2:1|2:2,2:2:0:0:
56,232,48788,1,8,2:2:0:0:
256,240,49188,70,0,B|215:215|215:215|215:175|215:175|256:150|256:150|296:175|296:175|296:215|296:215|256:240,1,270,0|0,2:2|2:2,2:2:0:0:
256,239,51188,22,0,B|184:239|184:239|216:271|216:271|224:279,1,120,2|0,2:1|2:2,2:2:0:0:
256,239,51588,2,0,B|328:239|328:239|296:207|296:207|288:199,1,120,2|0,2:1|2:2,2:2:0:0:
256,239,51988,1,8,2:1:0:0:
128,128,52388,2,0,B|104:160|104:160|104:224|104:224|128:208,1,120,2|0,2:1|2:2,2:2:0:0:
128,128,52788,2,0,B|167:132|167:132|223:100|223:100|197:88,1,120,2|0,2:1|2:2,2:2:0:0:
128,128,53188,2,0,B|112:91|112:91|56:59|56:59|58:87,1,120,2|0,2:1|2:2,2:2:0:0:
128,128,53588,1,8,2:1:0:0:
264,256,53988,1,8,2:1:0:0:
336,104,54388,6,0,B|360:128|360:128|384:128|384:128|368:160|368:160|400:160,1,120,2|0,2:1|2:2,2:2:0:0:
336,104,54788,2,0,B|312:80|312:80|288:80|288:80|304:48|304:48|272:48,1,120,2|0,2:1|2:2,2:2:0:0:
336,104,55188,1,8,2:1:0:0:
200,264,55588,2,0,B|168:248|168:248|192:232|192:232|208:176,1,120,2|0,2:1|2:2,2:2:0:0:
200,264,55988,2,0,B|202:299|202:299|176:286|176:286|119:301,1,120,2|0,2:1|2:2,2:2:0:0:
200,264,56388,2,0,B|229:244|229:244|231:273|231:273|272:314,1,120,2|0,2:1|2:2,2:2:0:0:
200,264,56788,1,8,2:1:0:0:
176,120,57188,1,8,2:1:0:0:
336,144,57588,6,0,B|320:184|320:184|352:184|352:184|336:240,1,120,2|0,2:1|2:2,2:2:0:0:
343,310,57988,2,0,B|359:270|359:270|327:270|327:270|343:214,1,120,2|0,2:1|2:2,2:2:0:0:
339,226,58388,1,8,2:1:0:0:
136,216,58788,2,0,B|164:183|164:183|134:172|134:172|168:125,1,120,2|0,2:1|2:2,2:2:0:0:
104,72,59188,2,0,B|117:112|117:112|141:92|141:92|165:145,1,120,2|0,2:1|2:2,2:2:0:0:
242,118,59588,2,0,B|199:109|199:109|205:140|205:140|147:134,1,120,2|0,2:1|2:2,2:2:0:0:
160,136,59988,1,8,2:1:0:0:
232,280,60388,1,8,2:1:0:0:
392,144,60788,6,0,B|352:120|352:120|376:88|376:88|328:88,1,120,2|0,2:1|2:2,2:2:0:0:
342,88,61188,2,0,B|271:120|271:120|239:88|239:88|231:112,1,120,2|0,2:1|2:2,2:2:0:0:
241,89,61588,1,8,2:1:0:0:
152,224,61988,2,0,B|128:256|128:256|128:288|128:288|136:304|168:312,1,120,2|0,2:1|2:2,2:2:0:0:
152,224,62388,2,0,B|136:187|136:187|108:171|108:171|90:170|67:193,1,120,2|0,2:1|2:2,2:2:0:0:
152,223,62788,2,0,B|191:228|191:228|219:212|219:212|229:197|220:166,1,120,2|0,2:1|2:2,2:2:0:0:
152,223,63188,1,8,2:1:0:0:
240,168,63388,6,0,B|280:168|280:168|288:152|288:152|296:168|296:168|304:152|304:152|312:168|312:168|320:152|320:152|328:168|328:168|336:152|336:152|344:168|344:168|400:168,1,240,2|0,2:1|2:2,2:2:0:0:
408,168,63988,1,8,2:2:0:0:
376,272,65588,21,0,2:2:0:0:
136,208,66788,1,0,2:2:0:0:
296,88,68388,1,0,2:2:0:0:
216,280,69788,2,0,B|208:232|208:232|160:224,1,90,0|0,2:2|2:2,2:2:0:0:
344,136,71988,1,0,2:2:0:0:
96,224,73188,1,0,2:2:0:0:
184,112,74788,1,0,2:2:0:0:
256,192,75488,12,0,76788,2:2:0:0:
