osu file format v14

[General]
AudioFilename: audio.mp3
AudioLeadIn: 0
PreviewTime: -1
Countdown: 0
SampleSet: None
StackLeniency: 0.3
Mode: 0
LetterboxInBreaks: 0
WidescreenStoryboard: 1

[Editor]
DistanceSpacing: 0.8
BeatDivisor: 4
GridSize: 8
TimelineZoom: 1

[Metadata]
Title:Red Shift
TitleUnicode:Red Shift
Artist:Cubed
ArtistUnicode:CubedĀ³
Creator:kirbob
Version:Redshifted
Source:
Tags:
BeatmapID:1343395
BeatmapSetID:632921

[Difficulty]
HPDrainRate:6
CircleSize:4
OverallDifficulty:7
ApproachRate:8
SliderMultiplier:1.3
SliderTickRate:1

[Events]
//Background and Video events
0,0,"spectrum.jpg",0,0
//Break Periods
//Storyboard Layer 0 (Background)
//Storyboard Layer 1 (Fail)
//Storyboard Layer 2 (Pass)
//Storyboard Layer 3 (Foreground)
//Storyboard Sound Samples

[TimingPoints]
-12,400,4,1,0,70,1,0
12188,-66.6666666666667,4,1,0,70,0,0
12788,-100,4,1,0,70,0,0
15188,-66.6666666666667,4,1,0,70,0,0
15588,-57.1428571428571,4,1,0,70,0,0
15988,-100,4,1,0,70,0,0
18388,-66.6666666666667,4,1,0,70,0,0
19188,-100,4,1,0,70,0,0
20788,-66.6666666666667,4,1,0,70,0,0
21988,-57.1428571428571,4,1,0,70,0,0
22388,-100,4,1,0,70,0,0
23588,-200,4,1,0,70,0,0
24788,-66.6666666666667,4,1,0,70,0,0
25588,-57.1428571428571,4,1,0,70,0,0
38388,-50,4,1,0,70,0,0
63988,-200,4,1,0,70,0,0

[Colours]
Combo1 : 169,51,232
Combo2 : 191,191,191
Combo3 : 223,223,223
Combo4 : 255,45,45
Combo5 : 237,128,46
Combo6 : 221,235,54
Combo7 : 62,227,86
Combo8 : 80,95,228

[HitObjects]
144,104,12188,5,0,2:2:0:0:
144,104,12288,1,0,2:2:0:0:
144,104,12388,2,0,B|144:144|216:144|216:96,1,97.50000371933,2|0,2:2|2:2,2:2:0:0:
352,128,12788,6,0,L|328:216,1,65,8|0,2:2|2:2,2:2:0:0:
312,256,13188,1,8,2:2:0:0:
334,190,13388,1,0,2:2:0:0:
232,112,13588,102,0,B|216:144|216:144|232:176,1,65,8|0,2:2|2:2,2:2:0:0:
264,224,13988,2,0,B|280:256|280:256|264:288,1,65,8|0,2:2|2:2,2:2:0:0:
160,96,14388,21,2,2:1:0:0:
160,96,14588,1,0,2:2:0:0:
296,200,14788,1,2,2:1:0:0:
296,200,14988,1,0,2:2:0:0:
184,288,15188,2,0,B|176:272|176:272|192:240|192:240|176:208|176:208|192:176|192:176,1,97.50000371933,2|0,2:1|2:2,2:2:0:0:
320,120,15588,2,0,B|368:160|368:160|320:192,1,113.750001084805,0|0,2:2|2:2,2:2:0:0:
192,152,16388,85,8,2:2:0:0:
208,136,16588,1,0,2:2:0:0:
320,256,16788,1,8,2:2:0:0:
336,272,16988,1,0,2:2:0:0:
376,96,17388,1,0,2:2:0:0:
112,280,17788,1,0,2:2:0:0:
112,280,17988,1,8,2:2:0:0:
112,280,18188,1,0,2:2:0:0:
256,224,18388,22,0,B|200:192|200:192|200:128,1,97.50000371933,2|0,2:1|2:2,2:2:0:0:
256,152,18788,2,0,B|312:120|312:120|312:56,1,97.50000371933,2|0,2:1|2:2,2:2:0:0:
160,264,19188,85,8,2:2:0:0:
160,264,19388,1,0,2:2:0:0:
160,264,19588,2,0,L|232:248,1,65,8|0,2:2|2:2,2:2:0:0:
328,216,19988,6,0,P|296:160|280:160,2,65,8|0|8,2:2|2:2|2:2,2:2:0:0:
328,216,20588,1,0,2:2:0:0:
184,128,20788,5,2,2:1:0:0:
184,128,20988,1,0,2:2:0:0:
360,72,21188,2,0,B|400:112|400:112|376:144,1,97.50000371933,2|0,2:1|2:2,2:2:0:0:
416,224,21588,2,0,B|416:176|416:176|376:144,1,97.50000371933,2|0,2:1|2:2,2:2:0:0:
272,176,21988,54,2,P|224:136|216:88,1,113.750001084805,2|2,2:1|2:1,2:1:0:0:
200,256,22788,21,0,2:2:0:0:
200,256,22988,1,0,2:2:0:0:
265,256,23188,2,0,L|177:256,1,65,8|0,2:2|2:2,2:2:0:0:
88,72,23788,5,0,2:2:0:0:
352,200,24188,1,0,2:2:0:0:
352,200,24388,1,0,2:2:0:0:
352,200,24588,1,0,2:2:0:0:
248,304,24788,70,2,B|208:272|208:272|224:208,1,97.50000371933,0|0,2:2|2:2,2:1:0:0:
248,136,25188,2,2,B|288:168|288:168|272:232,1,97.50000371933,2|2,2:1|2:1,2:1:0:0:
216,168,25588,53,2,2:1:0:0:
216,168,25788,2,0,B|160:136|160:136|104:160,1,113.750001084805,0|0,2:2|2:2,2:2:0:0:
120,160,26188,1,0,2:2:0:0:
120,160,26388,1,2,2:1:0:0:
368,304,26788,2,0,B|320:272|320:272|320:208,1,113.750001084805,2|0,2:1|2:2,2:2:0:0:
320,215,27188,1,0,2:2:0:0:
288,208,27388,1,0,2:2:0:0:
256,184,27588,1,0,2:2:0:0:
240,144,27788,1,0,2:2:0:0:
240,144,27988,2,0,L|112:144,1,113.750001084805,2|0,2:1|2:2,2:2:0:0:
136,232,28388,85,0,2:2:0:0:
136,232,28588,1,0,2:2:0:0:
216,272,28788,37,2,2:1:0:0:
216,272,28988,2,0,B|288:256|288:256|312:208,1,113.750001084805,0|0,2:2|2:2,2:2:0:0:
305,220,29388,1,0,2:2:0:0:
305,220,29588,1,2,2:1:0:0:
232,80,29988,2,0,B|192:128|192:128|144:144,1,113.750001084805,2|0,2:1|2:2,2:2:0:0:
143,144,30388,1,0,2:2:0:0:
152,184,30588,1,0,2:2:0:0:
184,208,30788,1,0,2:2:0:0:
224,216,30988,1,0,2:2:0:0:
224,216,31188,2,0,L|304:128,1,113.750001084805,2|0,2:1|2:2,2:2:0:0:
224,216,31588,2,0,L|336:176,1,113.750001084805,2|0,2:1|2:2,2:2:0:0:
360,232,31988,5,2,2:1:0:0:
360,232,32188,2,0,B|400:192|400:192|368:136,1,113.750001084805,0|0,2:2|2:2,2:2:0:0:
371,142,32588,1,0,2:2:0:0:
371,142,32788,1,2,2:1:0:0:
96,240,33188,2,0,B|48:296|48:296|96:352,1,113.750001084805,2|0,2:1|2:2,2:2:0:0:
74,326,33588,1,0,2:2:0:0:
112,320,33788,1,0,2:2:0:0:
136,296,33988,1,0,2:2:0:0:
144,264,34188,1,0,2:2:0:0:
144,264,34388,2,0,B|176:200|176:200|224:184,1,113.750001084805,2|0,2:1|2:2,2:2:0:0:
248,264,34788,69,0,2:2:0:0:
248,264,34988,1,0,2:2:0:0:
312,208,35188,53,2,2:1:0:0:
312,208,35388,2,0,B|352:264|352:264|344:328,1,113.750001084805,0|0,2:2|2:2,2:2:0:0:
346,308,35788,1,0,2:2:0:0:
346,308,35988,1,2,2:1:0:0:
168,88,36388,2,0,B|136:136|136:136|160:192,1,113.750001084805,2|0,2:1|2:2,2:2:0:0:
158,187,36788,1,0,2:2:0:0:
176,224,36988,1,0,2:2:0:0:
192,256,37188,1,0,2:2:0:0:
208,288,37388,1,0,2:2:0:0:
224,320,37588,53,12,2:2:0:0:
296,256,38388,69,2,2:1:0:0:
296,256,38588,2,0,B|336:200|336:200|304:136,1,130,0|8,2:2|2:2,2:2:0:0:
308,145,38988,1,0,2:2:0:0:
308,145,39188,1,2,2:1:0:0:
120,88,39588,2,0,B|72:136|72:136|96:208,1,130,2|0,2:1|2:2,2:2:0:0:
91,194,39988,1,8,2:2:0:0:
136,280,40188,1,0,2:2:0:0:
120,184,40388,1,8,2:2:0:0:
164,269,40588,1,2,2:1:0:0:
144,168,40788,21,4,2:3:0:0:
312,216,41188,1,4,2:3:0:0:
256,80,41588,101,2,2:1:0:0:
256,80,41788,2,0,B|200:136|200:136|216:192,1,130,0|8,2:2|2:2,2:2:0:0:
213,184,42188,1,0,2:2:0:0:
213,184,42388,1,2,2:1:0:0:
376,336,42788,2,0,B|416:264|416:264|392:216,1,130,2|0,2:1|2:2,2:2:0:0:
391,220,43188,1,8,2:2:0:0:
296,224,43388,1,0,2:2:0:0:
392,192,43588,1,8,2:2:0:0:
296,195,43788,1,2,2:1:0:0:
224,168,43988,38,2,B|176:216|176:216|200:280,1,130,2|2,2:1|2:1,2:1:0:0:
264,240,44388,2,2,B|312:192|312:192|288:128,1,130,2|2,2:1|2:1,2:1:0:0:
200,112,44788,5,2,2:1:0:0:
200,112,44988,2,0,B|144:152|144:152|160:224,1,130,0|8,2:2|2:2,2:2:0:0:
157,211,45388,1,0,2:2:0:0:
157,211,45588,1,2,2:1:0:0:
400,144,45988,2,0,B|416:72|416:72|352:96,1,130,2|0,2:1|2:2,2:2:0:0:
363,91,46388,1,8,2:2:0:0:
280,128,46588,1,0,2:2:0:0:
352,128,46788,1,8,2:2:0:0:
268,164,46988,1,2,2:1:0:0:
344,160,47188,69,4,2:3:0:0:
256,296,47588,1,4,2:3:0:0:
112,80,47988,53,2,2:1:0:0:
112,80,48188,2,0,B|176:128|176:128|240:104,1,130,0|8,2:2|2:2,2:2:0:0:
222,110,48588,1,0,2:2:0:0:
222,110,48788,1,2,2:1:0:0:
320,224,49188,2,0,B|352:280|352:280|304:344,1,130,2|0,2:1|2:2,2:2:0:0:
312,332,49588,85,8,2:2:0:0:
200,328,49788,5,8,2:3:0:0:
312,296,49988,5,8,2:2:0:0:
199,291,50188,5,4,2:3:0:0:
312,256,50388,5,8,2:2:0:0:
199,251,50588,5,2,2:3:0:0:
312,216,50788,5,2,2:1:0:0:
199,211,50988,1,2,2:1:0:0:
256,144,51188,22,2,P|224:88|152:80,1,130,2|2,2:1|2:1,2:1:0:0:
184,144,51588,2,2,P|216:200|280:208,1,130,2|2,2:1|2:1,2:1:0:0:
336,184,51988,1,8,2:3:0:0:
112,304,52388,1,0,2:2:0:0:
88,240,52588,2,2,P|144:208|208:232,1,130,2|2,2:1|2:1,2:1:0:0:
192,288,52988,1,0,2:2:0:0:
202,227,53188,1,0,2:2:0:0:
216,160,53388,1,0,2:2:0:0:
232,96,53588,1,8,2:3:0:0:
288,168,53788,85,0,2:2:0:0:
288,168,53888,1,0,2:2:0:0:
288,168,53988,2,0,B|256:184|256:184|320:192|320:192|288:208,1,130,0|0,2:1|2:1,2:1:0:0:
256,280,54388,38,2,P|184:256|128:208,1,130,2|2,2:1|2:1,2:1:0:0:
112,160,54788,2,2,P|125:85|165:23,1,130,2|2,2:1|2:1,2:1:0:0:
208,80,55188,1,8,2:3:0:0:
320,304,55588,1,0,2:2:0:0:
336,240,55788,2,2,P|336:176|296:120,1,130,2|2,2:1|2:1,2:1:0:0:
240,144,56188,1,0,2:2:0:0:
184,176,56388,1,0,2:2:0:0:
424,336,56988,5,2,2:2:0:0:
384,272,57188,1,0,2:2:0:0:
352,336,57388,1,2,2:2:0:0:
280,336,57588,2,2,P|224:296|224:224,1,130,2|2,2:1|2:1,2:1:0:0:
288,248,57988,2,2,P|344:208|344:136,1,130,2|2,2:1|2:1,2:1:0:0:
280,152,58388,1,8,2:3:0:0:
112,224,58788,1,0,2:2:0:0:
40,224,58988,2,2,P|64:168|136:152,1,130,2|2,2:1|2:1,2:1:0:0:
112,224,59388,1,0,2:2:0:0:
176,224,59588,1,0,2:2:0:0:
320,144,59988,53,8,2:3:0:0:
256,208,60188,5,0,2:2:0:0:
256,208,60288,1,0,2:2:0:0:
256,208,60388,2,0,P|224:232|272:216,1,130,0|0,2:2|2:2,2:2:0:0:
328,168,60788,54,2,P|272:120|208:96,1,130,2|2,2:1|2:1,2:1:0:0:
152,96,61188,2,2,P|120:40|80:96,1,130,2|2,2:1|2:1,2:1:0:0:
72,136,61588,1,8,2:3:0:0:
224,288,61988,1,0,2:2:0:0:
296,288,62188,2,2,P|352:256|384:192,1,130,2|2,2:1|2:1,2:1:0:0:
384,136,62588,1,0,2:2:0:0:
382,199,62788,1,0,2:2:0:0:
168,152,63388,5,0,2:2:0:0:
216,112,63588,1,0,2:2:0:0:
280,96,63788,1,0,2:2:0:0:
344,104,63988,5,4,2:3:0:0:
224,160,65188,5,2,2:2:0:0:
144,216,65588,1,0,2:2:0:0:
352,104,66788,5,0,2:2:0:0:
408,264,67188,2,0,L|344:280,1,65,2|0,2:2|2:2,2:2:0:0:
160,112,68388,102,0,P|152:176|200:216,1,130,2|0,2:2|2:2,2:2:0:0:
376,264,69788,5,0,2:2:0:0:
328,200,69988,1,0,2:2:0:0:
288,264,70188,1,0,2:2:0:0:
216,264,70388,2,0,L|144:264,1,65,2|0,2:2|2:2,2:2:0:0:
264,80,71588,101,2,2:2:0:0:
312,176,71988,1,0,2:2:0:0:
184,288,73188,5,0,2:2:0:0:
256,128,73588,2,0,L|288:200,1,65,2|0,2:2|2:2,2:2:0:0:
448,144,74788,102,0,P|416:88|352:64,1,130,2|0,2:2|2:2,2:2:0:0:
256,192,76188,12,0,77588,2:2:0:0:
