osu file format v14

[General]
AudioFilename: audio.mp3
AudioLeadIn: 0
PreviewTime: -1
Countdown: 0
SampleSet: None
StackLeniency: 0.3
Mode: 0
LetterboxInBreaks: 0
WidescreenStoryboard: 1

[Editor]
DistanceSpacing: 0.8
BeatDivisor: 4
GridSize: 8
TimelineZoom: 1

[Metadata]
Title:Red Shift
TitleUnicode:Red Shift
Artist:Cubed
ArtistUnicode:CubedĀ³
Creator:kirbob
Version:Radiating
Source:
Tags:
BeatmapID:1343394
BeatmapSetID:632921

[Difficulty]
HPDrainRate:7.5
CircleSize:4.5
OverallDifficulty:8
ApproachRate:8.5
SliderMultiplier:1.3
SliderTickRate:1

[Events]
//Background and Video events
0,0,"spectrum.jpg",0,0
//Break Periods
//Storyboard Layer 0 (Background)
//Storyboard Layer 1 (Fail)
//Storyboard Layer 2 (Pass)
//Storyboard Layer 3 (Foreground)
//Storyboard Sound Samples

[TimingPoints]
-12,400,4,1,0,70,1,0
12188,-66.6666666666667,4,1,0,70,0,0
12788,-100,4,1,0,70,0,0
15188,-66.6666666666667,4,1,0,70,0,0
15588,-57.1428571428571,4,1,0,70,0,0
15988,-100,4,1,0,70,0,0
18388,-66.6666666666667,4,1,0,70,0,0
19188,-100,4,1,0,70,0,0
20788,-66.6666666666667,4,1,0,70,0,0
21988,-57.1428571428571,4,1,0,70,0,0
22388,-100,4,1,0,70,0,0
23588,-200,4,1,0,70,0,0
24788,-66.6666666666667,4,1,0,70,0,0
25588,-57.1428571428571,4,1,0,70,0,0
38388,-50,4,1,0,70,0,0
63988,-200,4,1,0,70,0,0

[Colours]
Combo1 : 169,51,232
Combo2 : 191,191,191
Combo3 : 223,223,223
Combo4 : 255,45,45
Combo5 : 237,128,46
Combo6 : 221,235,54
Combo7 : 62,227,86
Combo8 : 80,95,228

[HitObjects]
224,240,12188,38,2,P|184:200|160:128,1,97.50000371933,2|2,2:2|2:2,2:2:0:0:
304,128,12588,1,0,2:2:0:0:
320,264,12788,85,8,2:2:0:0:
160,272,12988,1,0,2:2:0:0:
264,152,13188,2,0,L|216:104,1,65,0|0,2:2|2:2,2:2:0:0:
160,176,13588,2,0,L|232:216,1,65,8|0,2:2|2:2,2:2:0:0:
336,240,13988,1,0,2:2:0:0:
328,112,14188,1,0,2:2:0:0:
144,160,14388,21,2,2:1:0:0:
344,272,14588,1,0,2:2:0:0:
256,72,14788,2,0,L|184:24,1,65,0|0,2:2|2:2,2:2:0:0:
256,72,15188,2,0,B|280:120|280:120|264:168,1,97.50000371933,0|0,2:2|2:2,2:2:0:0:
112,304,15588,2,2,B|192:272|192:272|256:312|256:312|320:280,1,227.500002169609,2|2,2:1|2:1,2:1:0:0:
352,160,16388,101,8,2:2:0:0:
224,80,16588,1,0,2:2:0:0:
192,224,16788,6,2,L|152:240,2,32.5,2|2|2,2:1|2:1|2:1,2:1:0:0:
368,264,17388,85,0,2:2:0:0:
136,96,17788,1,0,2:2:0:0:
224,160,17988,1,8,2:2:0:0:
136,96,18188,1,0,2:2:0:0:
312,248,18388,22,0,B|264:232|264:232|288:184,1,97.50000371933,2|0,2:1|2:2,2:2:0:0:
312,248,18788,2,0,L|208:328,1,97.50000371933,2|0,2:1|2:2,2:2:0:0:
208,112,19188,85,0,2:2:0:0:
360,152,19388,1,0,2:2:0:0:
256,320,19588,2,0,P|232:272|208:240,1,65,8|0,2:2|2:2,2:2:0:0:
80,176,19988,1,8,2:3:0:0:
224,144,20188,1,4,2:3:0:0:
80,144,20388,1,8,2:3:0:0:
224,176,20588,1,4,2:3:0:0:
368,88,20788,21,2,2:1:0:0:
216,120,20988,1,0,2:2:0:0:
264,312,21188,2,0,B|320:336|320:336|384:312,1,97.50000371933,0|0,2:2|2:2,2:2:0:0:
264,312,21588,2,0,L|184:216,1,97.50000371933,0|0,2:2|2:2,2:2:0:0:
376,96,21988,2,2,B|408:144|408:144|384:208,1,113.750001084805,2|2,2:1|2:1,2:1:0:0:
160,96,22788,86,0,L|128:88,1,32.5,8|0,2:2|2:2,2:2:0:0:
160,96,22988,2,0,L|200:104,1,32.5,0|0,2:2|2:2,2:2:0:0:
160,96,23188,1,8,2:2:0:0:
160,208,23388,1,0,2:2:0:0:
368,208,23788,5,0,2:2:0:0:
80,104,24188,1,0,2:2:0:0:
170,194,24388,1,0,2:2:0:0:
193,81,24588,1,0,2:2:0:0:
45,145,24788,1,0,2:2:0:0:
223,196,24988,1,0,2:2:0:0:
173,36,25188,1,2,2:1:0:0:
176,240,25588,6,0,P|168:280|192:312,1,56.8750005424023,0|0,3:2|3:2,3:2:0:0:
256,264,25788,2,0,P|264:224|240:192,1,56.8750005424023,0|0,3:2|3:2,3:2:0:0:
96,208,25988,2,0,P|88:248|112:280,1,56.8750005424023,0|0,3:2|3:2,3:2:0:0:
176,224,26188,2,0,P|184:184|160:152,1,56.8750005424023,0|0,3:2|3:2,3:2:0:0:
96,168,26388,1,8,3:1:0:0:
144,112,26788,6,0,L|160:56,1,56.8750005424023,0|0,3:2|3:2,3:2:0:0:
216,120,26988,2,0,L|232:176,1,56.8750005424023,0|0,3:2|3:2,3:2:0:0:
288,112,27188,2,0,L|304:48,1,56.8750005424023,0|0,3:2|3:2,3:2:0:0:
360,120,27388,2,0,L|376:176,1,56.8750005424023,0|0,3:2|3:2,3:2:0:0:
432,112,27588,2,0,L|448:48,1,56.8750005424023,0|0,3:2|3:2,3:2:0:0:
448,184,27788,1,0,3:1:0:0:
296,272,27988,2,0,P|216:288|176:272,1,113.750001084805,8|0,3:1|3:1,3:1:0:0:
119,150,28388,5,8,2:3:0:0:
264,112,28588,1,4,2:3:0:0:
408,288,28788,2,0,P|432:256|432:232,1,56.8750005424023,0|0,3:2|3:2,3:2:0:0:
360,232,28988,2,0,P|336:200|336:176,1,56.8750005424023,0|0,3:2|3:2,3:2:0:0:
408,176,29188,2,0,P|432:144|432:120,1,56.8750005424023,0|0,3:2|3:2,3:2:0:0:
360,120,29388,2,0,P|336:88|336:64,1,56.8750005424023,0|0,3:2|3:2,3:2:0:0:
408,64,29588,1,8,3:1:0:0:
168,232,29988,6,0,P|144:216|120:232,1,56.8750005424023,0|0,3:2|3:2,3:2:0:0:
144,296,30188,2,0,P|168:312|192:296,1,56.8750005424023,0|0,3:2|3:2,3:2:0:0:
280,232,30388,2,0,P|256:216|232:232,1,56.8750005424023,0|0,3:2|3:2,3:2:0:0:
256,296,30588,2,0,P|280:312|304:296,1,56.8750005424023,0|0,3:2|3:2,3:2:0:0:
392,232,30788,2,0,P|368:216|344:232,1,56.8750005424023,0|0,3:2|3:2,3:2:0:0:
368,296,30988,2,0,P|392:312|416:296,1,56.8750005424023,0|0,3:2|3:2,3:2:0:0:
456,240,31188,2,2,L|416:104,1,113.750001084805,2|2,2:1|2:1,2:1:0:0:
408,64,31588,2,2,L|272:32,1,113.750001084805,2|2,2:1|2:1,2:1:0:0:
232,96,31988,6,0,L|192:144,1,56.8750005424023,0|0,3:2|3:2,3:2:0:0:
152,96,32188,2,0,L|112:144,1,56.8750005424023,0|0,3:2|3:2,3:2:0:0:
152,184,32388,2,0,L|192:232,1,56.8750005424023,0|0,3:2|3:2,3:2:0:0:
232,184,32588,2,0,L|272:232,1,56.8750005424023,0|0,3:2|3:2,3:2:0:0:
272,288,32788,1,8,3:1:0:0:
416,200,33188,6,0,P|384:184|352:192,1,56.8750005424023,0|0,3:2|3:2,3:2:0:0:
336,256,33388,2,0,P|368:272|400:264,1,56.8750005424023,0|0,3:2|3:2,3:2:0:0:
448,128,33588,2,0,P|416:112|384:120,1,56.8750005424023,0|0,3:2|3:2,3:2:0:0:
304,320,33788,2,0,P|336:336|368:328,1,56.8750005424023,0|0,3:2|3:2,3:2:0:0:
416,200,33988,2,0,P|384:184|352:192,1,56.8750005424023,0|0,3:2|3:2,3:2:0:0:
336,256,34188,2,0,P|368:272|400:264,1,56.8750005424023,0|0,3:2|3:2,3:2:0:0:
448,128,34388,2,0,L|320:56,1,113.750001084805,0|0,3:2|3:2,3:2:0:0:
232,128,34788,5,8,2:3:0:0:
232,128,34988,1,4,2:3:0:0:
128,312,35188,22,0,L|216:272,3,56.8750005424023,0|0|0|0,2:2|2:2|2:2|2:2,2:2:0:0:
96,256,35588,6,0,L|184:216,3,56.8750005424023,0|0|0|0,2:2|2:2|2:2|2:2,2:2:0:0:
112,176,35988,5,4,2:3:0:0:
296,96,36388,6,0,L|376:128,3,56.8750005424023,0|0|0|0,2:2|2:2|2:2|2:2,2:2:0:0:
280,160,36788,6,0,L|360:192,3,56.8750005424023,0|0|0|0,2:2|2:2|2:2|2:2,2:2:0:0:
264,224,37188,6,0,L|344:256,3,56.8750005424023,0|0|0|0,2:2|2:2|2:2|2:2,2:2:0:0:
320,312,37588,1,8,2:1:0:0:
136,80,38388,38,0,P|112:104|112:136,1,65,0|0,3:2|3:2,3:2:0:0:
168,192,38588,2,0,P|192:168|192:136,1,65,0|0,3:2|3:2,3:2:0:0:
48,176,38788,2,0,P|72:200|104:200,1,65,0|0,3:2|3:2,3:2:0:0:
256,96,38988,2,0,P|232:72|200:72,1,65,0|0,3:2|3:2,3:2:0:0:
136,80,39188,1,8,3:1:0:0:
296,232,39588,6,0,P|312:200|344:200,1,65,0|0,3:2|3:2,3:2:0:0:
408,232,39788,2,0,P|392:264|360:264,1,65,0|0,3:2|3:2,3:2:0:0:
408,160,39988,2,0,P|424:128|456:128,1,65,0|0,3:2|3:2,3:2:0:0:
296,304,40188,2,0,P|280:336|248:336,1,65,0|0,3:2|3:2,3:2:0:0:
296,232,40388,2,0,P|312:200|344:200,1,65,0|0,3:2|3:2,3:2:0:0:
408,232,40588,2,0,P|392:264|360:264,1,65,0|0,3:2|3:2,3:2:0:0:
408,160,40788,1,8,3:1:0:0:
96,96,41188,69,2,2:1:0:0:
88,328,41588,54,0,L|144:280,1,65,0|0,3:2|3:2,3:2:0:0:
176,336,41788,2,0,L|232:288,1,65,0|0,3:2|3:2,3:2:0:0:
184,240,41988,2,0,L|240:192,1,65,0|0,3:2|3:2,3:2:0:0:
272,248,42188,2,0,L|328:200,1,65,0|0,3:2|3:2,3:2:0:0:
288,152,42388,1,8,3:1:0:0:
128,128,42788,6,0,P|136:160|104:184,1,65,0|0,3:2|3:2,3:2:0:0:
200,224,42988,2,0,P|192:192|224:168,1,65,0|0,3:2|3:2,3:2:0:0:
264,216,43188,2,0,P|272:248|240:272,1,65,0|0,3:2|3:2,3:2:0:0:
64,144,43388,2,0,P|56:112|88:88,1,65,0|0,3:2|3:2,3:2:0:0:
128,128,43588,2,0,P|136:160|104:184,1,65,0|0,3:2|3:2,3:2:0:0:
200,224,43788,2,0,P|192:192|224:168,1,65,0|0,3:2|3:2,3:2:0:0:
272,152,43988,2,2,L|408:112,1,130,2|2,2:1|2:1,2:1:0:0:
272,152,44388,2,2,L|400:224,1,130,2|2,2:1|2:1,2:1:0:0:
280,328,44788,6,0,B|248:296|248:296|272:264,1,65,0|0,3:2|3:2,3:2:0:0:
328,272,44988,2,0,B|360:240|360:240|336:208,1,65,0|0,3:2|3:2,3:2:0:0:
280,216,45188,2,0,B|248:184|248:184|272:152,1,65,0|0,3:2|3:2,3:2:0:0:
328,160,45388,2,0,B|360:128|360:128|336:96,1,65,0|0,3:2|3:2,3:2:0:0:
280,104,45588,1,8,3:1:0:0:
152,288,45988,6,0,P|176:264|176:224,1,65,0|0,3:2|3:2,3:2:0:0:
272,176,46188,2,0,P|248:200|248:240,1,65,0|0,3:2|3:2,3:2:0:0:
288,288,46388,2,0,P|312:264|312:224,1,65,0|0,3:2|3:2,3:2:0:0:
136,176,46588,2,0,P|112:200|112:240,1,65,0|0,3:2|3:2,3:2:0:0:
152,288,46788,2,0,P|176:264|176:224,1,65,0|0,3:2|3:2,3:2:0:0:
272,176,46988,2,0,P|248:200|248:240,1,65,0|0,3:2|3:2,3:2:0:0:
288,288,47188,1,8,3:1:0:0:
408,72,47588,5,2,2:1:0:0:
152,88,47988,22,0,B|120:88|120:88|120:128,1,65,0|0,3:2|3:2,3:2:0:0:
184,160,48188,2,0,B|216:160|216:160|216:120,1,65,0|0,3:2|3:2,3:2:0:0:
248,64,48388,2,0,B|280:64|280:64|280:104,1,65,0|0,3:2|3:2,3:2:0:0:
96,192,48588,2,0,B|64:192|64:192|64:152,1,65,0|0,3:2|3:2,3:2:0:0:
152,88,48788,1,8,3:1:0:0:
256,192,49188,12,0,50788,2:2:0:0:
264,104,51188,6,0,P|248:80|208:64,1,65,0|0,3:2|3:2,3:2:0:0:
192,136,51388,2,0,P|176:160|136:176,1,65,0|0,3:2|3:2,3:2:0:0:
224,224,51588,2,0,P|248:208|264:168,1,65,0|0,3:2|3:2,3:2:0:0:
296,32,51788,2,0,P|320:48|336:88,1,65,0|0,3:2|3:2,3:2:0:0:
328,152,51988,1,8,3:1:0:0:
72,328,52388,6,0,L|120:224,1,65,0|0,3:2|3:2,3:2:0:0:
96,120,52588,2,0,L|144:224,1,65,0|0,3:2|3:2,3:2:0:0:
144,328,52788,2,0,L|192:224,1,65,0|0,3:2|3:2,3:2:0:0:
168,120,52988,2,0,L|216:224,1,65,0|0,3:2|3:2,3:2:0:0:
216,328,53188,2,0,L|264:224,1,65,0|0,3:2|3:2,3:2:0:0:
240,120,53388,2,0,L|288:224,1,65,0|0,3:2|3:2,3:2:0:0:
288,328,53588,1,8,3:1:0:0:
384,96,53988,53,2,1:1:0:0:
255,104,54388,22,0,B|223:103|223:103|191:119,1,65,0|0,3:2|3:2,3:2:0:0:
168,192,54588,2,0,B|167:223|167:223|183:255,1,65,0|0,3:2|3:2,3:2:0:0:
256,280,54788,2,0,B|287:280|287:280|319:264,1,65,0|0,3:2|3:2,3:2:0:0:
344,192,54988,2,0,B|344:160|344:160|328:128,1,65,0|0,3:2|3:2,3:2:0:0:
256,104,55188,1,8,3:1:0:0:
256,344,55588,6,0,B|288:344|288:344|320:328,1,65,0|0,3:2|3:2,3:2:0:0:
387,268,55788,2,0,B|403:240|403:240|405:204,1,65,0|0,3:2|3:2,3:2:0:0:
387,116,55988,2,0,B|371:88|371:88|341:68,1,65,0|0,3:2|3:2,3:2:0:0:
256,40,56188,2,0,B|224:40|224:40|192:56,1,65,0|0,3:2|3:2,3:2:0:0:
124,116,56388,2,0,B|108:143|108:143|106:179,1,65,0|0,3:2|3:2,3:2:0:0:
124,268,56588,2,0,B|140:295|140:295|170:315,1,65,0|0,3:2|3:2,3:2:0:0:
256,344,56788,1,8,3:1:0:0:
224,272,56988,5,4,2:3:0:0:
192,208,57188,1,8,2:3:0:0:
160,144,57388,1,8,2:3:0:0:
256,72,57588,2,0,P|272:120|304:152,1,65,0|0,3:2|3:2,3:2:0:0:
368,144,57788,2,0,P|352:96|320:64,1,65,0|0,3:2|3:2,3:2:0:0:
176,64,57988,2,0,P|192:112|224:144,1,65,0|0,3:2|3:2,3:2:0:0:
448,152,58188,2,0,P|432:104|400:72,1,65,0|0,3:2|3:2,3:2:0:0:
256,72,58388,1,8,3:1:0:0:
104,240,58788,6,0,P|128:224|144:192,1,65,0|0,3:2|3:2,3:2:0:0:
256,168,58988,2,0,P|232:184|216:216,1,65,0|0,3:2|3:2,3:2:0:0:
248,280,59188,2,0,P|272:264|288:232,1,65,0|0,3:2|3:2,3:2:0:0:
112,128,59388,2,0,P|88:144|72:176,1,65,0|0,3:2|3:2,3:2:0:0:
104,240,59588,2,0,P|128:224|144:192,1,65,0|0,3:2|3:2,3:2:0:0:
256,168,59788,2,0,P|232:184|216:216,1,65,0|0,3:2|3:2,3:2:0:0:
240,280,59988,1,8,3:1:0:0:
352,232,60388,37,2,1:1:0:0:
168,96,60788,86,0,P|120:96|80:112,1,65,0|0,3:2|3:2,3:2:0:0:
152,168,60988,2,0,P|183:161|216:163,1,65,0|0,3:2|3:2,3:2:0:0:
296,96,61188,2,0,P|248:96|208:112,1,65,0|0,3:2|3:2,3:2:0:0:
280,168,61388,2,0,P|311:161|344:163,1,65,0|0,3:2|3:2,3:2:0:0:
384,104,61588,1,8,3:1:0:0:
240,360,61988,6,0,P|208:336|184:304,1,65,0|0,3:2|3:2,3:2:0:0:
96,312,62188,2,0,P|128:288|152:256,1,65,0|0,3:2|3:2,3:2:0:0:
232,256,62388,2,0,P|200:232|176:200,1,65,0|0,3:2|3:2,3:2:0:0:
104,192,62588,2,0,P|136:168|160:136,1,65,0|0,3:2|3:2,3:2:0:0:
240,128,62788,2,0,P|208:104|184:72,1,65,0|0,3:2|3:2,3:2:0:0:
104,72,62988,2,0,P|136:48|160:16,1,65,0|0,3:2|3:2,3:2:0:0:
216,32,63188,1,8,3:1:0:0:
288,48,63388,5,4,3:3:0:0:
288,48,63588,1,8,3:3:0:0:
288,48,63788,1,8,3:3:0:0:
312,104,63988,1,4,3:3:0:0:
160,168,65188,5,0,2:2:0:0:
360,120,65588,101,0,2:2:0:0:
352,320,66788,5,0,2:2:0:0:
232,208,67188,101,0,2:2:0:0:
384,80,68388,21,0,2:2:0:0:
168,128,69788,101,0,2:2:0:0:
168,128,69988,1,0,2:2:0:0:
168,128,70188,1,0,2:2:0:0:
168,128,70388,1,0,2:2:0:0:
424,240,71588,101,0,2:2:0:0:
328,112,71988,5,0,2:2:0:0:
160,296,73188,101,0,2:2:0:0:
248,192,73588,5,0,2:2:0:0:
368,80,74788,101,0,2:2:0:0:
256,192,75188,12,0,76788,2:2:0:0:
