osu file format v14

[General]
AudioFilename: audio.mp3
AudioLeadIn: 0
PreviewTime: -1
Countdown: 0
SampleSet: None
StackLeniency: 0.7
Mode: 0
LetterboxInBreaks: 0
WidescreenStoryboard: 1

[Editor]
DistanceSpacing: 0.8
BeatDivisor: 4
GridSize: 8
TimelineZoom: 1

[Metadata]
Title:Red Shift
TitleUnicode:Red Shift
Artist:Cubed
ArtistUnicode:CubedĀ³
Creator:kirbob
Version:Blueshifted
Source:
Tags:
BeatmapID:1343393
BeatmapSetID:632921

[Difficulty]
HPDrainRate:3
CircleSize:2.5
OverallDifficulty:2
ApproachRate:4
SliderMultiplier:1.2
SliderTickRate:1

[Events]
//Background and Video events
0,0,"spectrum.jpg",0,0
//Break Periods
//Storyboard Layer 0 (Background)
//Storyboard Layer 1 (Fail)
//Storyboard Layer 2 (Pass)
//Storyboard Layer 3 (Foreground)
//Storyboard Sound Samples

[TimingPoints]
-12,400,4,1,0,70,1,0
18388,-66.6666666666667,4,1,0,70,0,0
18788,-100,4,1,0,70,0,0
25588,-76.9230769230769,4,1,0,70,0,0
35188,-100,4,1,0,70,0,0
38388,-76.9230769230769,4,1,0,70,0,0
63988,-133.333333333333,4,1,0,70,0,0

[Colours]
Combo1 : 169,51,232
Combo2 : 191,191,191
Combo3 : 223,223,223
Combo4 : 255,45,45
Combo5 : 237,128,46
Combo6 : 221,235,54
Combo7 : 62,227,86
Combo8 : 80,95,228

[HitObjects]
168,96,12788,5,0,2:2:0:0:
256,144,13188,2,0,B|296:200|296:200|256:248,1,120,8|0,2:2|2:2,2:2:0:0:
176,296,13988,1,8,2:2:0:0:
168,192,14388,5,0,2:2:0:0:
264,128,14788,1,8,2:2:0:0:
360,192,15188,1,0,2:2:0:0:
256,272,15588,6,0,L|256:144,1,120,8|0,2:2|2:2,2:2:0:0:
352,152,16388,101,8,2:2:0:0:
384,248,16788,6,0,L|336:288,1,60,0|0,2:1|2:2,2:1:0:0:
176,200,17388,101,0,2:2:0:0:
288,120,17788,2,0,L|288:192,1,60,0|0,2:2|2:2,2:2:0:0:
248,288,18388,6,0,B|280:288|280:288|288:272|288:272|296:288|296:288|304:272|304:272|312:288|312:288|320:272|320:272|328:288|328:288|368:288,1,180.000006866455,2|2,2:1|2:1,2:1:0:0:
256,120,19188,85,0,2:2:0:0:
176,216,19588,1,8,2:2:0:0:
328,216,19988,1,0,2:2:0:0:
256,96,20388,1,8,2:2:0:0:
200,216,20788,22,0,B|152:176|152:176|112:216,2,120,0|8|0,2:2|2:2|2:2,2:2:0:0:
344,192,21988,101,8,2:2:0:0:
256,120,22388,1,0,2:2:0:0:
160,160,22788,2,0,B|120:224|120:224|184:232,1,120,8|0,2:2|2:2,2:2:0:0:
256,192,23588,1,8,2:2:0:0:
256,192,24088,12,2,25188,2:1:0:0:
136,256,25588,6,0,B|176:256|176:256|184:240|184:240|192:256|192:256|200:240|200:240|208:256|208:256|216:240|216:240|224:256|224:256|232:240|232:240|240:256|240:256|248:240|248:240|256:256|256:256|264:240|264:240|272:256|272:256|280:240|280:240|288:256|288:256|320:256,1,311.999985717774,2|8,3:1|3:2,3:1:0:0:
392,96,26788,6,0,B|416:136|416:136|368:152|368:152|416:168|416:168|368:184|368:184|416:200|416:200|392:264,1,311.999985717774,2|8,3:1|1:2,3:1:0:0:
272,224,27988,1,2,2:1:0:0:
192,128,28388,1,2,2:1:0:0:
240,192,28788,6,0,B|192:216|192:216|176:208|176:208|176:224|176:224|160:216|160:216|160:232|160:232|144:224|144:224|144:240|144:240|128:232|128:232|128:248|128:248|112:240|112:240|112:256|112:256|96:248|96:248|96:264|96:264|32:288,1,311.999985717774,2|8,3:1|3:2,3:2:0:0:
112,128,29988,6,0,B|128:176|128:176|144:176|144:176|136:192|136:192|152:192|152:192|144:208|144:208|160:208|160:208|152:224|152:224|160:224|168:224|168:224|160:240|160:240|176:240|176:240|168:256|168:256|184:256|184:256|176:272|176:272|192:272|192:272|184:288|184:288|200:320,1,311.999985717774,2|8,3:1|1:2,3:2:0:0:
296,264,31188,1,2,2:1:0:0:
352,176,31588,1,2,2:1:0:0:
256,120,31988,6,0,B|224:120|208:112|208:112|208:128|208:128|192:128|192:128|208:144|208:144|192:144|192:144|208:160|208:160|192:168|192:168|208:176|208:176|192:192|192:192|208:192|208:192|200:208|200:208|224:200|224:200|216:216|216:216|232:208|232:208|264:208,1,311.999985717774,2|8,3:1|3:2,3:2:0:0:
336,320,33188,6,0,B|336:288|328:280|328:280|344:272|344:272|328:264|328:264|344:256|344:256|328:248|328:248|344:240|344:240|328:232|328:232|344:224|344:224|328:216|328:216|344:208|344:208|328:200|328:200|344:192|344:192|328:184|328:184|344:176|344:176|336:168|336:168|336:136,1,311.999985717774,2|8,3:1|3:2,3:2:0:0:
224,168,34388,1,2,0:0:0:0:
200,64,34788,1,2,0:0:0:0:
304,56,35188,6,0,B|336:88|336:88|320:96|320:96|336:104|336:104|304:136|280:160|280:160|296:168|296:168|280:176|280:176|304:200|312:208,1,240
352,288,36388,2,0,B|328:312|304:328|280:336|264:336|240:328|216:312|192:288|192:288|216:264|240:248,1,240
320,208,37588,1,4,0:0:0:0:
256,72,38388,22,0,B|216:64|208:120|168:96|144:120|104:120|104:120|120:160|144:184|136:232|160:264,1,311.999985717774,2|8,2:1|2:2,2:0:0:0:
272,192,39588,2,0,B|272:144|264:112|232:80|200:72|160:72,1,155.999992858887,2|0,2:1|2:2,2:0:0:0:
176,192,40388,2,0,B|176:240|184:272|216:304|248:312|288:312,1,155.999992858887,0|8,2:2|2:2,2:0:0:0:
256,168,41188,1,0,2:0:0:0:
256,56,41588,6,0,B|296:56|296:104|344:80|344:128|392:104|400:136|400:136|360:144|368:192|320:192|320:232|296:240,1,311.999985717774,2|8,2:1|2:2,2:0:0:0:
240,168,42788,2,0,B|144:232|144:232|144:256|144:256|256:304|256:304|256:328|256:328|224:368,1,311.999985717774,2|8,2:1|2:2,2:0:0:0:
336,240,43988,1,2,2:2:0:0:
208,136,44388,1,2,2:2:0:0:
112,200,44788,6,0,B|56:296|56:296|168:296|168:296|120:200,1,311.999985717774,2|8,2:1|2:2,2:0:0:0:
240,176,45988,2,0,B|184:80|184:80|296:80|296:80|248:176,1,311.999985717774,2|8,2:1|2:2,2:0:0:0:
256,304,47188,2,0,P|336:272|368:208,1,155.999992858887,0|0,3:3|3:3,3:3:0:0:
264,192,47988,6,0,B|224:176|184:192|184:192|224:64|224:64|264:184,1,311.999985717774,2|8,2:1|2:2,2:0:0:0:
344,224,49188,2,0,B|360:184|344:144|344:144|472:184|472:184|352:224,1,311.999985717774,2|8,2:1|2:2,2:0:0:0:
392,128,51188,6,0,B|360:192|360:192|368:208|368:208|344:216|344:216|352:232|352:232|328:240|328:240|336:256|336:256|312:264|312:264|320:280|320:280|296:288|296:288|304:296|304:296|272:352,1,311.999985717774,2|8,2:1|2:1,2:0:0:0:
376,56,52388,2,0,B|376:120|376:120|360:136|360:136|384:152|384:152|360:168|360:168|384:184|384:184|360:200|360:200|376:216|376:216|376:304,1,311.999985717774,2|8,2:1|2:1,2:0:0:0:
248,240,53588,1,2,2:2:0:0:
144,168,53988,1,2,2:2:0:0:
288,88,54388,6,0,B|336:40|336:40|336:56|336:56|352:56|352:56|352:72|352:72|368:72|368:72|368:88|368:88|384:88|384:88|384:104|384:104|400:104|400:104|400:120|400:120|416:120|416:120|416:128|416:128|416:136|416:136|432:136|432:136|392:176,1,311.999985717774,2|8,2:1|2:1,2:0:0:0:
320,248,55588,2,0,B|272:295|272:295|272:279|272:279|255:279|255:279|255:263|255:263|240:263|240:263|240:247|240:247|224:247|224:247|224:231|224:231|208:231|208:231|208:215|208:215|192:215|192:215|192:207|192:207|192:199|192:199|176:199|176:199|120:248,1,311.999985717774,2|8,2:1|2:1,2:0:0:0:
184,336,56788,1,2,2:2:0:0:
352,336,57188,1,2,2:2:0:0:
344,216,57588,38,0,B|320:192|320:192|304:192|304:192|296:168|296:168|288:184|288:184|280:160|280:160|272:176|272:176|264:152|264:152|256:168|256:168|248:144|248:144|240:160|240:160|232:136|232:136|224:152|224:152|216:128|216:128|208:144|208:144|192:144|192:144,1,311.999985717774,2|8,2:1|2:1,2:0:0:0:
120,176,58788,2,0,B|96:184|96:184|104:200|104:200|80:208|80:208|96:224|96:224|72:232|72:232|88:248|88:248|64:264|64:264|88:280|88:280|72:288|72:288|96:296|96:296|88:312|88:312|152:328|152:328,1,311.999985717774,2|8,2:1|2:1,2:0:0:0:
208,248,59988,1,2,2:2:0:0:
256,160,60388,1,2,2:2:0:0:
368,152,60788,6,0,B|392:184|392:184|424:184|424:184|408:200|408:200|440:200|440:200|424:216|424:216|456:216|456:216|440:232|440:232|440:248|440:248|408:248|408:248|424:264|424:264|392:264|392:264|368:264,1,311.999985717774,0|8,2:0|2:1,2:0:0:0:
280,216,61988,2,0,B|263:188|263:188|245:189|245:189|255:174|255:174|237:176|237:176|247:161|247:161|229:162|229:162|238:147|238:147|220:148|220:148|230:133|230:133|212:135|212:135|194:136|194:136|204:121|204:121|186:122|186:122|196:107|196:107|178:109|178:109|187:93|187:93|179:80,1,311.999985717774,2|8,2:1|2:1,2:0:0:0:
256,192,63188,12,2,65388,2:2:0:0:
