osu file format v14

[General]
AudioFilename: audio.mp3
AudioLeadIn: 0
PreviewTime: 40001
Countdown: 0
SampleSet: Soft
StackLeniency: 0.3
Mode: 0
LetterboxInBreaks: 0
WidescreenStoryboard: 1

[Editor]
DistanceSpacing: 1.6
BeatDivisor: 4
GridSize: 4
TimelineZoom: 1.8

[Metadata]
Title:Blanca Navidad
TitleUnicode:Blanca Navidad
Artist:Cuando la Lluvia Cae
ArtistUnicode:Cuando la Lluvia Cae
Creator:Mortem
Version:Normal
Source:
Tags:post-rock post rock shoegaze white christmas orchestra cover villahermosa mexico instrumental Luis Andrés
BeatmapID:2227447
BeatmapSetID:1063749

[Difficulty]
HPDrainRate:5
CircleSize:5
OverallDifficulty:5
ApproachRate:5
SliderMultiplier:1.2
SliderTickRate:2

[Events]
//Background and Video events
0,0,"tobias-jonassen-bakklandet.jpg",0,0
//Break Periods
//Storyboard Layer 0 (Background)
//Storyboard Layer 1 (Fail)
//Storyboard Layer 2 (Pass)
//Storyboard Layer 3 (Foreground)
//Storyboard Layer 4 (Overlay)
//Storyboard Sound Samples

[TimingPoints]
8106,1000,4,2,1,30,1,0
40140,1000,4,2,1,30,1,0
104140,-100,4,2,1,5,0,0

[Colours]
Combo1 : 188,199,184
Combo2 : 163,142,99
Combo3 : 192,192,192
Combo4 : 201,148,124

[HitObjects]
81,194,8106,6,0,P|85:158|77:126,1,60,4|0,0:0|0:0,0:0:0:0:
148,66,9106,2,0,P|184:70|216:62,1,60,0|0,0:0|0:0,0:0:0:0:
303,65,10106,2,0,P|332:60|362:64,1,60,2|0,0:0|0:0,0:0:0:0:
430,132,11107,2,0,P|425:161|429:191,1,60,0|0,0:0|0:0,0:0:0:0:
382,274,12106,5,4,0:0:0:0:
304,330,12606,1,0,0:0:0:0:
223,277,13106,2,0,P|171:263|154:263,1,60,0|0,0:0|0:0,0:0:0:0:
105,338,14106,5,2,0:0:0:0:
49,260,14606,1,0,0:0:0:0:
102,179,15106,2,0,P|116:127|116:110,1,60,0|0,0:0|0:0,0:0:0:0:
197,69,16106,6,0,P|249:58|330:83,1,120,4|0,0:0|0:0,0:0:0:0:
391,128,17606,1,0,0:0:0:0:
449,204,18106,2,0,P|454:244|450:273,1,60,2|0,0:0|0:0,0:0:0:0:
363,300,19106,2,0,P|358:260|362:231,1,60,0|0,0:0|0:0,0:0:0:0:
297,167,20106,6,0,P|245:178|164:153,1,120,4|0,0:0|0:0,0:0:0:0:
97,114,21606,1,0,0:0:0:0:
176,60,22106,2,0,P|216:55|245:59,1,60,2|0,0:0|0:0,0:0:0:0:
315,110,23106,2,0,P|320:150|316:179,1,60,0|0,0:0|0:0,0:0:0:0:
385,237,24106,6,0,P|381:273|389:305,1,60,4|0,0:0|0:0,0:0:0:0:
303,345,25106,2,0,P|267:341|235:349,1,60,0|0,0:0|0:0,0:0:0:0:
174,279,26106,2,0,P|144:283|114:279,1,60,2|0,0:0|0:0,0:0:0:0:
54,204,27107,2,0,P|58:174|54:144,1,60,0|0,0:0|0:0,0:0:0:0:
125,79,28106,5,4,0:0:0:0:
215,46,28606,1,0,0:0:0:0:
291,103,29106,2,0,P|343:117|360:117,1,60,0|0,0:0|0:0,0:0:0:0:
427,62,30106,5,2,0:0:0:0:
473,145,30606,1,0,0:0:0:0:
411,218,31106,2,0,P|397:270|397:287,1,60,0|0,0:0|0:0,0:0:0:0:
328,343,32106,6,0,P|276:354|195:329,1,120,4|0,0:0|0:0,0:0:0:0:
143,271,33606,1,0,0:0:0:0:
94,188,34106,2,0,P|89:148|93:119,1,60,2|0,0:0|0:0,0:0:0:0:
174,80,35106,2,0,P|179:120|175:149,1,60,0|0,0:0|0:0,0:0:0:0:
215,217,36106,6,0,P|267:206|348:231,1,120,4|0,0:1|0:0,0:0:0:0:
414,269,37606,1,0,0:0:0:0:
336,324,38106,2,0,P|296:329|267:325,1,60,2|0,0:0|0:0,0:0:0:0:
196,273,39106,2,0,P|201:233|197:204,1,60,0|0,0:0|0:0,0:0:0:0:
250,132,40140,6,0,P|299:145|371:122,1,120,4|0,0:3|0:0,0:0:0:0:
446,76,41640,1,8,0:3:0:0:
482,164,42140,2,0,P|474:215|476:240,1,60,8|0,0:0|0:0,0:0:0:0:
406,290,43140,2,0,P|355:282|330:284,1,60,8|0,0:3|0:0,0:0:0:0:
259,322,44140,6,0,P|224:345|141:340,1,120,2|8,0:1|0:0,0:0:0:0:
68,289,45640,1,0,0:0:0:0:
95,197,46140,2,0,P|99:162|90:122,1,60,0|2,0:0|0:1,0:0:0:0:
163,69,47140,2,0,P|198:73|238:64,1,60,8|8,0:3|0:0,0:0:0:0:
268,57,47890,1,8,0:3:0:0:
310,79,48140,6,0,P|299:120|320:205,1,120,4|0,0:3|0:0,0:0:0:0:
359,279,49640,1,8,0:3:0:0:
429,214,50140,2,0,P|459:199|491:191,2,60,8|0|0,0:0|0:0|0:0,0:0:0:0:
359,279,51640,1,0,0:0:0:0:
265,257,52140,6,0,P|221:248|182:249,1,60,2|0,0:1|0:0,0:0:0:0:
154,328,53140,2,0,P|129:290|100:263,1,60,0|8,0:0|0:3,0:0:0:0:
31,240,54140,2,0,P|40:196|39:157,1,60,8|0,0:0|0:0,0:0:0:0:
98,104,55140,1,8,0:3:0:0:
177,49,55640,1,8,0:0:0:0:
210,83,55890,1,8,0:3:0:0:
244,116,56140,6,0,P|275:103|383:128,1,120,4|0,0:3|0:0,0:0:0:0:
443,157,57640,1,8,0:3:0:0:
412,248,58140,1,8,0:0:0:0:
327,292,58640,2,0,P|289:278|208:294,1,120
162,211,60140,6,0,P|119:222|41:195,1,120,2|0,0:1|0:0,0:0:0:0:
5,115,61640,1,8,0:3:0:0:
78,52,62140,2,0,P|108:42|155:40,1,60,8|0,0:0|0:0,0:0:0:0:
226,72,63140,2,0,P|256:82|303:84,1,60,8|8,0:3|0:0,0:0:0:0:
332,80,63890,1,8,0:0:0:0:
379,70,64140,6,0,P|408:122|388:195,1,120,4|0,0:3|0:0,0:0:0:0:
354,264,65640,1,8,0:3:0:0:
263,294,66140,2,0,P|230:288|184:293,1,60,8|0,0:0|0:0,0:0:0:0:
112,321,67140,1,0,0:0:0:0:
136,228,67640,1,0,0:0:0:0:
203,289,68140,6,0,P|245:322|317:318,1,120,2|0,0:1|0:0,0:0:0:0:
394,277,69640,1,8,0:3:0:0:
461,209,70140,1,8,0:0:0:0:
393,141,70640,1,0,0:0:0:0:
325,73,71140,1,8,0:3:0:0:
257,140,71640,1,8,0:0:0:0:
243,186,71890,1,8,0:0:0:0:
233,233,72140,6,0,P|184:220|112:243,1,120,4|0,0:3|0:0,0:0:0:0:
37,289,73640,1,8,0:3:0:0:
1,201,74140,2,0,P|9:150|7:125,1,60,8|0,0:0|0:0,0:0:0:0:
77,75,75140,2,0,P|128:83|153:81,1,60,8|0,0:3|0:0,0:0:0:0:
229,61,76140,6,0,P|264:38|347:43,1,120,2|8,0:1|0:0,0:0:0:0:
425,82,77640,1,0,0:0:0:0:
388,168,78140,2,0,P|384:203|393:243,1,60,0|2,0:0|0:1,0:0:0:0:
320,296,79140,2,0,P|285:292|245:301,1,60,8|8,0:3|0:0,0:0:0:0:
215,308,79890,1,8,0:3:0:0:
173,286,80140,6,0,P|184:245|163:160,1,120,4|0,0:3|0:0,0:0:0:0:
124,86,81640,1,8,0:3:0:0:
54,151,82140,2,0,P|24:166|-8:174,2,60,8|0|0,0:0|0:0|0:0,0:0:0:0:
124,86,83640,1,0,0:0:0:0:
218,108,84140,6,0,P|262:117|301:116,1,60,2|0,0:1|0:0,0:0:0:0:
329,37,85140,2,0,P|353:74|382:101,1,60,0|8,0:0|0:3,0:0:0:0:
452,125,86140,2,0,P|443:169|444:208,1,60,8|0,0:0|0:0,0:0:0:0:
385,261,87140,1,8,0:3:0:0:
306,316,87640,1,8,0:0:0:0:
271,282,87890,1,8,0:3:0:0:
239,249,88140,6,0,P|208:262|100:237,1,120,4|0,0:3|0:0,0:0:0:0:
40,208,89640,1,8,0:3:0:0:
99,132,90140,2,0,P|133:108|163:106,1,60,8|0,0:0|0:0,0:0:0:0:
221,40,91140,2,0,P|245:74|247:104,1,60,0|0,0:0|0:0,0:0:0:0:
321,154,92140,6,0,P|364:143|442:170,1,120,2|0,0:1|0:0,0:0:0:0:
478,250,93640,1,8,0:3:0:0:
405,313,94140,2,0,P|375:323|328:325,1,60,8|0,0:0|0:0,0:0:0:0:
257,293,95140,2,0,P|227:283|180:281,1,60,8|8,0:3|0:0,0:0:0:0:
151,285,95890,1,8,0:0:0:0:
104,295,96140,6,0,P|75:243|95:170,1,120,4|0,0:3|0:0,0:0:0:0:
129,101,97640,1,8,0:3:0:0:
220,71,98140,2,0,P|253:77|299:72,1,60,8|0,0:0|0:0,0:0:0:0:
371,44,99140,1,0,0:0:0:0:
347,137,99640,1,0,0:0:0:0:
280,76,100140,6,0,P|238:43|166:47,1,120,2|0,0:1|0:0,0:0:0:0:
89,88,101640,1,8,0:3:0:0:
22,156,102140,1,8,0:0:0:0:
90,224,102640,1,0,0:0:0:0:
157,291,103140,2,0,P|206:304|225:298,1,60,8|8,0:3|0:0,0:0:0:0:
260,290,103890,5,8,0:0:0:0:
256,192,104140,12,2,110140,0:0:0:0:
