osu file format v14

[General]
AudioFilename: audio.mp3
AudioLeadIn: 0
PreviewTime: 207917
Countdown: 0
SampleSet: Soft
StackLeniency: 0.5
Mode: 0
LetterboxInBreaks: 0
WidescreenStoryboard: 0

[Editor]
Bookmarks: 19012,50887,82762,112762,147449,164324,179324,209324,239324
DistanceSpacing: 2.5
BeatDivisor: 4
GridSize: 16
TimelineZoom: 1.8

[Metadata]
Title:Whisper (feat. emalyn)
TitleUnicode:Whisper (feat. emalyn)
Artist:Crywolf
ArtistUnicode:Crywolf
Creator:Ccori
Version:Suppressed Voice
Source:
Tags:featured artist fa english electronic chillout chillstep Angels - EP
BeatmapID:4245111
BeatmapSetID:2035723

[Difficulty]
HPDrainRate:6
CircleSize:5
OverallDifficulty:7.5
ApproachRate:7
SliderMultiplier:1.4
SliderTickRate:1

[Events]
//Background and Video events
0,0,"bg.jpg",0,0
//Break Periods
2,112844,116549
2,149324,163424
//Storyboard Layer 0 (Background)
//Storyboard Layer 1 (Fail)
//Storyboard Layer 2 (Pass)
//Storyboard Layer 3 (Foreground)
//Storyboard Layer 4 (Overlay)
//Storyboard Sound Samples

[TimingPoints]
262,468.75,4,2,0,60,1,0
19012,-200,4,2,0,60,0,0
50887,-100,4,2,0,70,0,1
51355,-100,4,2,0,70,0,0
52762,-133.333333333333,4,2,0,70,0,0
53230,-100,4,2,0,70,0,0
60262,-133.333333333333,4,2,0,70,0,0
60730,-100,4,2,0,70,0,0
75262,-133.333333333333,4,2,0,70,0,0
75730,-100,4,2,0,70,0,0
82762,-100,4,2,0,70,0,1
112762,-100,4,2,0,70,0,0
117449,468.75,4,2,0,80,1,0
118386,-200,4,2,0,80,0,1
118855,-100,4,2,0,80,0,0
120730,-200,4,2,0,80,0,1
121199,-100,4,2,0,80,0,0
125886,-100,4,2,0,80,0,1
126355,-100,4,2,0,80,0,0
128230,-200,4,2,0,80,0,1
128699,-100,4,2,0,80,0,0
133386,-200,4,2,0,80,0,1
133855,-100,4,2,0,80,0,0
135730,-200,4,2,0,80,0,1
136199,-100,4,2,0,80,0,0
140886,-200,4,2,0,80,0,1
141355,-100,4,2,0,80,0,0
143230,-200,4,2,0,80,0,1
143699,-100,4,2,0,80,0,0
147449,-100,4,2,0,50,0,0
179324,-100,4,2,0,60,0,0
194324,-100,4,2,0,65,0,0
209324,-100,4,2,0,80,0,1
209792,-100,4,2,0,80,0,0
210261,-100,4,2,0,80,0,1
210730,-100,4,2,0,80,0,0
212605,-200,4,2,0,80,0,1
213074,-100,4,2,0,80,0,0
217761,-200,4,2,0,80,0,1
218230,-100,4,2,0,80,0,0
220105,-200,4,2,0,80,0,1
220574,-100,4,2,0,80,0,0
225261,-100,4,2,0,80,0,1
225730,-100,4,2,0,80,0,0
226199,-100,4,2,0,80,0,1
226667,-100,4,2,0,80,0,0
227605,-200,4,2,0,80,0,1
228074,-100,4,2,0,80,0,0
232761,-200,4,2,0,80,0,1
233230,-100,4,2,0,80,0,0
235105,-200,4,2,0,80,0,1
235574,-100,4,2,0,80,0,0
239324,-100,4,2,0,70,0,0

[Colours]
Combo1 : 255,128,0
Combo2 : 255,128,192
Combo3 : 128,64,0
Combo4 : 0,255,255

[HitObjects]
52,30,19012,6,0,L|261:46,1,210,14|0,1:2|0:0,0:0:0:0:
323,109,20652,2,0,L|326:143,1,35,2|0,2:0|0:0,0:0:0:0:
326,143,21355,2,0,L|322:177,1,35,2|0,2:0|0:0,0:0:0:0:
322,265,21824,2,0,L|269:269,2,52.5,2|2|2,2:0|2:0|2:0,0:0:0:0:
384,327,22762,5,2,2:0:0:0:
384,327,24637,1,0,0:0:0:0:
384,327,26394,5,2,1:2:0:0:
384,327,26512,2,0,L|436:323,2,52.5,10|2|2,1:2|2:0|2:0,0:0:0:0:
322,265,27449,1,2,2:0:0:0:
322,265,27918,2,0,L|287:261,1,35,2|0,2:0|0:0,0:0:0:0:
225,199,28387,2,0,L|220:146,2,52.5,2|2|2,2:0|2:0|2:0,0:0:0:0:
163,260,29324,2,0,L|156:329,1,70,2|0,2:0|0:0,0:0:0:0:
69,329,30027,1,2,2:0:0:0:
6,266,30262,5,0,0:0:0:0:
6,266,32137,1,2,2:0:0:0:
6,266,33894,5,2,1:2:0:0:
6,266,34012,2,0,L|250:245,1,245,10|0,1:2|0:0,0:0:0:0:
312,183,35887,1,0,0:0:0:0:
312,183,36355,2,0,L|346:186,1,35,2|0,2:0|0:0,0:0:0:0:
408,124,36824,2,0,L|404:71,2,52.5,2|2|2,2:0|2:0|2:0,0:0:0:0:
430,208,37762,5,2,2:0:0:0:
430,208,39637,1,0,0:0:0:0:
430,208,41394,5,2,1:2:0:0:
430,208,41512,2,0,L|434:155,2,52.5,10|2|2,1:2|2:0|2:0,0:0:0:0:
342,208,42449,2,0,L|346:260,2,52.5,2|2|2,2:0|2:0|2:0,0:0:0:0:
254,208,43387,2,0,L|258:155,2,52.5,2|2|2,2:0|2:0|2:0,0:0:0:0:
166,208,44324,2,0,L|170:260,2,52.5,2|2|2,2:0|2:0|2:0,0:0:0:0:
78,208,45262,5,0,1:2:0:0:
78,208,45730,1,0,1:2:0:0:
78,208,47137,1,2,2:0:0:0:
78,208,49012,6,0,L|68:104,2,105,0|0|0,1:2|1:2|1:2,0:0:0:0:
211,331,50652,1,0,3:2:0:0:
211,331,50769,1,0,3:2:0:0:
211,331,50887,6,0,L|207:365,1,35,6|0,1:2|0:0,0:0:0:0:
124,293,51121,2,0,L|127:327,1,35,2|0,2:0|0:0,0:0:0:0:
272,211,51355,6,0,L|268:245,1,35,2|0,2:0|0:0,0:0:0:0:
185,173,51590,2,0,L|188:207,1,35,2|0,1:2|0:0,0:0:0:0:
386,143,51824,5,10,1:2:0:0:
385,161,51941,1,2,2:0:0:0:
383,179,52058,1,2,2:0:0:0:
381,197,52176,1,2,2:0:0:0:
380,215,52293,1,2,2:0:0:0:
378,233,52410,1,2,2:0:0:0:
377,251,52527,1,2,2:0:0:0:
375,269,52644,1,2,2:0:0:0:
373,286,52762,6,0,L|379:366,1,78.7500000000002,2|0,1:2|0:0,0:0:0:0:
379,365,53230,1,0,0:0:0:0:
462,329,53465,1,2,1:2:0:0:
233,340,53699,6,0,P|198:343|164:336,1,70,8|2,1:2|2:0,0:0:0:0:
175,181,54051,2,0,P|210:178|244:185,1,70,0|0,1:2|0:0,0:0:0:0:
226,259,54402,2,0,L|191:257,1,35,2|0,1:2|0:0,0:0:0:0:
216,93,54637,5,2,1:2:0:0:
306,84,54871,1,2,2:0:0:0:
396,75,55105,1,2,2:0:0:0:
387,165,55340,1,0,1:2:0:0:
507,257,55574,6,0,L|438:251,1,70,8|0,1:2|0:0,0:0:0:0:
366,322,56043,5,2,2:0:0:0:
276,331,56277,1,0,0:0:0:0:
61,352,56512,6,0,L|67:282,1,70,2|0,1:2|0:0,0:0:0:0:
170,229,56980,2,0,L|176:298,1,70
30,150,57449,5,10,1:2:0:0:
21,53,57683,1,0,0:0:0:0:
118,44,57918,1,0,0:0:0:0:
127,141,58152,1,2,2:0:0:0:
218,96,58387,6,0,L|252:99,1,35,2|0,1:2|0:0,0:0:0:0:
260,192,58621,2,0,L|294:188,1,35,2|0,2:0|0:0,0:0:0:0:
354,305,58855,6,0,L|388:301,1,35,2|0,2:0|0:0,0:0:0:0:
396,209,59090,2,0,L|430:212,1,35,2|0,1:2|0:0,0:0:0:0:
483,111,59324,6,0,L|448:114,1,35,10|0,1:2|0:0,0:0:0:0:
379,50,59558,2,0,L|350:70,1,35,2|0,2:0|0:0,0:0:0:0:
258,49,59793,2,0,L|243:80,1,35,2|0,2:0|0:0,0:0:0:0:
152,108,60027,2,0,L|155:142,1,35,2|0,2:0|0:0,0:0:0:0:
69,228,60262,6,0,L|148:234,1,78.7500000000002,2|0,1:2|0:0,0:0:0:0:
148,234,60730,1,0,0:0:0:0:
108,325,60965,1,2,1:2:0:0:
199,361,61199,5,10,1:2:0:0:
233,357,61316,1,2,2:0:0:0:
268,354,61433,1,2,2:0:0:0:
302,351,61551,1,2,1:2:0:0:
337,348,61668,1,2,2:0:0:0:
371,345,61785,1,2,2:0:0:0:
406,342,61902,1,2,1:2:0:0:
440,339,62019,1,2,2:0:0:0:
474,336,62137,6,0,L|480:267,1,70,2|0,1:2|0:0,0:0:0:0:
505,113,62605,2,0,L|511:182,1,70,0|0,0:0|1:2,0:0:0:0:
296,135,63074,5,8,1:2:0:0:
301,37,63308,1,0,0:0:0:0:
398,46,63543,1,0,0:0:0:0:
390,143,63777,1,0,0:0:0:0:
296,135,64012,6,0,L|226:141,1,70,2|0,1:2|0:0,0:0:0:0:
113,39,64480,2,0,L|182:45,1,70
137,224,64949,5,8,1:2:0:0:
126,136,65183,1,0,0:0:0:0:
221,259,65418,1,0,0:0:0:0:
66,279,65652,1,0,0:0:0:0:
66,279,65769,1,0,0:0:0:0:
66,279,65886,6,0,L|69:313,1,35,2|0,1:2|0:0,0:0:0:0:
177,357,66121,2,0,B|183:341|183:341|178:322,1,35,2|0,2:0|0:0,0:0:0:0:
125,162,66355,6,0,L|128:196,1,35,2|0,2:0|0:0,0:0:0:0:
236,240,66590,2,0,B|242:224|242:224|237:205,1,35,2|0,1:2|0:0,0:0:0:0:
184,45,66824,5,10,1:2:0:0:
297,90,67058,1,2,2:0:0:0:
125,162,67293,5,2,2:0:0:0:
238,207,67527,1,2,2:0:0:0:
66,279,67762,5,2,1:2:0:0:
98,291,67879,1,2,2:0:0:0:
131,304,67996,1,2,2:0:0:0:
163,317,68113,1,2,2:0:0:0:
196,330,68230,6,0,L|230:326,1,35,2|2,2:0|2:0,0:0:0:0:
339,369,68465,2,0,L|373:372,1,35,2|2,1:2|2:0,0:0:0:0:
353,216,68699,5,10,1:2:0:0:
339,199,68816,1,2,2:0:0:0:
322,214,68933,1,2,2:0:0:0:
336,231,69051,1,2,1:2:0:0:
337,215,69168,6,0,B|289:194|289:194|238:206,1,105,2|0,2:0|0:0,0:0:0:0:
184,104,69637,6,0,L|253:95,1,70,2|0,1:2|0:0,0:0:0:0:
354,47,70105,2,0,L|423:55,1,70,2|0,2:0|1:2,0:0:0:0:
488,153,70574,5,10,1:2:0:0:
390,162,70808,1,0,0:0:0:0:
423,55,71043,5,2,2:0:0:0:
447,242,71277,1,0,0:0:0:0:
294,132,71512,6,0,L|224:125,1,70,2|0,1:2|0:0,0:0:0:0:
168,238,71980,2,0,L|237:231,1,70
122,28,72449,5,10,1:2:0:0:
113,124,72683,1,0,0:0:0:0:
36,218,72918,1,0,0:0:0:0:
45,314,73152,1,0,0:0:0:0:
155,356,73387,6,0,L|189:352,1,35,2|0,1:2|0:0,0:0:0:0:
313,336,73621,2,0,L|347:339,1,35,2|0,2:0|0:0,0:0:0:0:
193,250,73855,6,0,L|227:246,1,35,2|0,2:0|0:0,0:0:0:0:
351,230,74090,2,0,L|385:233,1,35,2|0,1:2|0:0,0:0:0:0:
512,272,74324,6,0,L|478:281,1,35,10|0,1:2|0:0,0:0:0:0:
385,233,74558,2,0,L|351:230,1,35,2|0,2:0|0:0,0:0:0:0:
279,153,74793,2,0,L|247:138,1,35,2|0,2:0|0:0,0:0:0:0:
205,41,75027,2,0,L|180:16,1,35,2|0,2:0|0:0,0:0:0:0:
65,14,75262,6,0,L|59:93,1,78.7500000000002,2|0,1:2|0:0,0:0:0:0:
59,93,75730,1,0,0:0:0:0:
99,191,75965,1,2,1:2:0:0:
5,297,76199,5,10,1:2:0:0:
39,301,76316,1,2,2:0:0:0:
74,304,76433,1,2,2:0:0:0:
108,307,76551,1,2,1:2:0:0:
143,310,76668,1,2,2:0:0:0:
177,313,76785,1,2,2:0:0:0:
212,316,76902,1,2,1:2:0:0:
246,319,77019,1,2,2:0:0:0:
280,321,77137,6,0,L|349:315,1,70,2|0,1:2|0:0,0:0:0:0:
460,226,77605,2,0,L|390:220,1,70,0|0,0:0|1:2,0:0:0:0:
300,178,78074,5,10,1:2:0:0:
203,186,78308,1,0,0:0:0:0:
341,81,78543,1,0,0:0:0:0:
244,73,78777,1,0,0:0:0:0:
438,89,79012,6,0,L|444:158,1,70,2|0,1:2|0:0,0:0:0:0:
341,81,79480,2,0,L|347:11,1,70
244,73,79949,5,8,1:2:0:0:
253,170,80183,1,0,0:0:0:0:
142,51,80418,1,0,0:0:0:0:
133,148,80652,1,0,0:0:0:0:
133,148,80769,1,0,0:0:0:0:
133,148,80887,5,0,1:2:0:0:
133,149,82527,1,0,3:2:0:0:
133,149,82644,1,0,3:2:0:0:
133,149,82762,6,0,L|126:218,1,70,2|0,1:2|0:0,0:0:0:0:
139,231,83113,1,0,0:0:0:0:
151,243,83230,1,0,0:0:0:0:
183,337,83465,1,0,1:2:0:0:
326,234,83699,1,8,1:2:0:0:
280,321,83933,1,0,0:0:0:0:
292,334,84051,1,0,0:0:0:0:
304,347,84168,2,0,L|373:353,1,70
489,255,84637,6,0,L|483:325,1,70,2|0,1:2|0:0,0:0:0:0:
471,337,84988,1,0,0:0:0:0:
458,350,85105,1,2,2:0:0:0:
396,273,85340,1,2,1:2:0:0:
492,158,85574,6,0,L|423:164,1,70,10|0,1:2|0:0,0:0:0:0:
486,88,85926,2,0,L|417:94,1,70,2|0,1:2|0:0,0:0:0:0:
480,18,86277,2,0,L|446:21,1,35,2|0,1:2|0:0,0:0:0:0:
251,34,86512,6,0,L|320:27,1,70,2|0,1:2|0:0,0:0:0:0:
332,39,86863,1,2,2:0:0:0:
344,51,86980,1,0,0:0:0:0:
277,122,87215,1,2,1:2:0:0:
464,145,87449,1,8,1:2:0:0:
394,214,87683,1,0,0:0:0:0:
382,227,87801,1,0,0:0:0:0:
370,240,87918,2,0,L|301:246,1,70
182,159,88387,6,0,L|177:229,1,70,2|0,1:2|0:0,0:0:0:0:
189,242,88738,1,0,0:0:0:0:
202,255,88855,1,0,0:0:0:0:
263,178,89090,1,2,0:0:0:0:
69,209,89324,2,0,L|75:278,1,70,8|0,1:2|0:0,0:0:0:0:
166,314,89793,2,0,L|160:384,1,70
242,211,90262,6,0,L|235:142,1,70,2|0,1:2|0:0,0:0:0:0:
222,130,90613,1,2,2:0:0:0:
209,118,90730,1,0,0:0:0:0:
139,187,90965,1,2,1:2:0:0:
318,274,91199,1,8,1:2:0:0:
387,204,91433,1,0,0:0:0:0:
399,191,91551,1,0,0:0:0:0:
411,178,91668,2,0,L|480:172,1,70,2|0,2:0|0:0,0:0:0:0:
341,91,92137,6,0,L|271:85,1,70,2|0,1:2|0:0,0:0:0:0:
259,73,92488,1,2,2:0:0:0:
246,60,92605,1,0,0:0:0:0:
167,119,92840,1,2,1:2:0:0:
35,25,93074,6,0,L|29:94,1,70,10|0,1:2|0:0,0:0:0:0:
105,31,93426,2,0,L|99:100,1,70,0|0,1:2|0:0,0:0:0:0:
175,37,93777,2,0,L|172:71,1,35,2|0,1:2|0:0,0:0:0:0:
261,207,94012,6,0,L|192:214,1,70,2|0,1:2|0:0,0:0:0:0:
179,202,94363,1,0,0:0:0:0:
166,189,94480,1,0,0:0:0:0:
68,175,94715,1,2,1:2:0:0:
74,359,94949,1,8,1:2:0:0:
171,340,95183,1,2,2:0:0:0:
184,327,95301,1,0,0:0:0:0:
197,314,95418,2,0,L|266:320,1,70
459,321,95887,6,0,L|390:326,1,70,2|0,1:2|0:0,0:0:0:0:
376,314,96238,1,0,0:0:0:0:
363,301,96355,1,0,0:0:0:0:
293,231,96590,1,2,0:0:0:0:
442,128,96824,2,0,L|373:134,1,70,8|0,1:2|0:0,0:0:0:0:
302,64,97293,2,0,L|232:58,1,70,0|2,0:0|2:0,0:0:0:0:
159,55,97644,1,0,0:0:0:0:
159,55,97762,6,0,L|166:124,1,70,2|0,1:2|0:0,0:0:0:0:
153,136,98113,1,0,0:0:0:0:
140,148,98230,1,0,0:0:0:0:
102,240,98465,1,0,1:2:0:0:
282,213,98699,1,8,1:2:0:0:
265,309,98933,1,0,0:0:0:0:
277,322,99051,1,0,0:0:0:0:
289,335,99168,2,0,L|358:341,1,70
456,341,99637,6,0,L|449:271,1,70,2|0,1:2|0:0,0:0:0:0:
436,258,99988,1,0,0:0:0:0:
423,245,100105,1,2,2:0:0:0:
329,215,100340,1,0,1:2:0:0:
464,83,100574,6,0,L|395:77,1,70,10|0,1:2|0:0,0:0:0:0:
458,153,100926,2,0,L|389:147,1,70,2|0,1:2|0:0,0:0:0:0:
452,223,101277,2,0,L|418:220,1,35,2|0,1:2|0:0,0:0:0:0:
291,160,101512,6,0,L|222:167,1,70,2|0,1:2|0:0,0:0:0:0:
209,154,101863,1,2,2:0:0:0:
196,141,101980,1,0,0:0:0:0:
234,50,102215,1,2,1:2:0:0:
350,229,102449,1,8,1:2:0:0:
252,237,102683,1,0,0:0:0:0:
240,250,102801,1,0,0:0:0:0:
228,263,102918,2,0,L|159:269,1,70
0,278,103387,6,0,L|7:347,1,70,2|0,1:2|0:0,0:0:0:0:
20,359,103738,1,0,0:0:0:0:
33,371,103855,1,0,0:0:0:0:
83,286,104090,1,2,0:0:0:0:
11,111,104324,2,0,L|80:117,1,70,8|0,1:2|0:0,0:0:0:0:
137,197,104793,2,0,L|207:191,1,70,0|2,0:0|2:0,0:0:0:0:
286,185,105144,1,0,0:0:0:0:
286,185,105262,6,0,L|291:115,1,70,2|0,1:2|0:0,0:0:0:0:
303,102,105613,1,2,2:0:0:0:
315,89,105730,1,0,0:0:0:0:
396,143,105965,1,2,1:2:0:0:
262,269,106199,1,8,1:2:0:0:
206,191,106433,1,0,0:0:0:0:
194,204,106551,1,0,0:0:0:0:
182,217,106668,2,0,L|113:223,1,70,2|0,2:0|0:0,0:0:0:0:
0,337,107137,6,0,L|70:344,1,70,2|0,1:2|0:0,0:0:0:0:
82,332,107488,1,2,2:0:0:0:
95,319,107605,1,0,0:0:0:0:
193,325,107840,1,2,1:2:0:0:
351,198,108074,6,0,L|344:268,1,70,10|0,1:2|0:0,0:0:0:0:
282,190,108426,2,0,L|275:260,1,70,2|0,1:2|0:0,0:0:0:0:
213,185,108777,2,0,L|210:219,1,35,2|0,1:2|0:0,0:0:0:0:
337,99,109012,6,0,L|406:92,1,70,2|2,1:2|2:0,0:0:0:0:
418,104,109363,1,0,0:0:0:0:
430,116,109480,1,0,0:0:0:0:
499,185,109715,1,2,1:2:0:0:
311,202,109949,1,8,1:2:0:0:
360,286,110183,1,2,2:0:0:0:
347,299,110301,1,0,0:0:0:0:
334,312,110418,2,0,L|265:306,1,70
102,345,110887,6,0,L|171:352,1,70,2|0,1:2|0:0,0:0:0:0:
185,364,111238,1,0,0:0:0:0:
198,377,111355,1,0,0:0:0:0:
264,305,111590,1,2,0:0:0:0:
220,149,111824,2,0,L|214:218,1,70,8|0,1:2|0:0,0:0:0:0:
264,305,112293,1,0,0:0:0:0:
362,287,112527,1,0,0:0:0:0:
362,287,112644,1,0,0:0:0:0:
256,192,117449,5,0,1:2:0:0:
256,192,117683,12,0,118308,0:0:0:0:
94,144,118386,6,0,B|81:121|81:121|86:96,1,52.5,12|0,1:2|0:0,0:0:0:0:
87,78,118855,5,2,2:0:0:0:
105,80,118972,1,2,2:0:0:0:
123,82,119089,1,2,2:0:0:0:
141,84,119206,1,2,2:0:0:0:
159,86,119324,5,2,1:2:0:0:
183,110,119441,1,2,2:0:0:0:
207,134,119558,1,2,2:0:0:0:
231,158,119675,1,2,2:0:0:0:
255,182,119792,5,2,1:2:0:0:
252,216,119909,1,2,2:0:0:0:
249,251,120027,1,2,2:0:0:0:
246,285,120144,1,2,2:0:0:0:
243,319,120261,6,0,L|208:322,1,35,10|0,1:2|0:0,0:0:0:0:
122,244,120495,2,0,L|156:247,1,35
336,259,120730,6,0,B|358:246|358:246|383:251,1,52.5,2|0,1:2|0:0,0:0:0:0:
483,367,121199,6,0,B|452:316|452:316|474:276|474:276|482:171,1,210,2|0,1:2|0:0,0:0:0:0:
497,11,122136,2,0,L|462:14,1,35,10|0,1:2|0:0,0:0:0:0:
423,88,122370,2,0,L|457:91,1,35
375,19,122605,5,2,2:0:0:0:
340,22,122722,1,2,2:0:0:0:
306,25,122839,1,2,2:0:0:0:
271,28,122956,1,2,2:0:0:0:
236,31,123074,6,0,L|239:66,2,35,2|0|0,1:2|0:0|0:0,0:0:0:0:
149,23,123425,2,0,L|152:58,2,35,2|0|0,2:0|0:0|0:0,0:0:0:0:
62,15,123777,2,0,L|66:49,1,35,2|0,2:0|0:0,0:0:0:0:
0,141,124011,6,0,L|69:147,1,70,10|0,1:2|0:0,0:0:0:0:
137,264,124480,6,0,L|134:299,1,35,2|0,2:0|0:0,0:0:0:0:
51,270,124714,2,0,L|48:235,1,35,2|0,2:0|0:0,0:0:0:0:
199,195,124949,6,0,L|233:198,1,35,2|2,1:2|2:0,0:0:0:0:
227,283,125183,2,0,L|261:280,1,35,2|2,2:0|2:0,0:0:0:0:
331,227,125417,6,0,L|365:230,1,35,2|2,2:0|2:0,0:0:0:0:
359,315,125652,2,0,L|393:312,1,35,2|2,2:0|2:0,0:0:0:0:
488,353,125886,5,10,1:2:0:0:
489,335,126003,1,2,2:0:0:0:
491,317,126120,1,2,2:0:0:0:
492,299,126238,1,2,2:0:0:0:
494,281,126355,1,2,2:0:0:0:
495,263,126472,1,2,2:0:0:0:
497,245,126589,1,2,2:0:0:0:
499,228,126706,1,2,2:0:0:0:
500,210,126824,5,2,1:2:0:0:
475,185,126941,1,2,2:0:0:0:
450,160,127058,1,2,2:0:0:0:
425,135,127175,1,2,2:0:0:0:
400,110,127292,5,2,1:2:0:0:
365,113,127409,1,2,2:0:0:0:
329,116,127527,1,2,2:0:0:0:
294,119,127644,1,2,2:0:0:0:
259,122,127761,6,0,L|255:156,1,35,10|0,1:2|0:0,0:0:0:0:
319,253,127995,2,0,L|315:218,1,35
292,34,128230,6,0,B|270:21|270:21|245:26,1,52.5,2|0,1:2|0:0,0:0:0:0:
187,101,128699,5,2,1:2:0:0:
187,101,128816,1,2,2:0:0:0:
187,101,128933,1,2,2:0:0:0:
187,101,129050,1,2,2:0:0:0:
187,101,129167,1,2,2:0:0:0:
187,101,129284,1,2,2:0:0:0:
187,101,129402,1,2,2:0:0:0:
187,101,129519,1,2,2:0:0:0:
187,101,129636,5,10,1:2:0:0:
186,119,129753,1,2,2:0:0:0:
184,137,129870,1,2,2:0:0:0:
183,155,129988,1,2,2:0:0:0:
181,173,130105,1,2,2:0:0:0:
180,191,130222,1,2,2:0:0:0:
178,209,130339,1,2,2:0:0:0:
176,226,130456,1,2,2:0:0:0:
175,244,130574,6,0,L|140:240,1,35,2|0,1:2|0:0,0:0:0:0:
67,188,130808,2,0,L|63:222,1,35,2|0,2:0|0:0,0:0:0:0:
11,296,131042,2,0,L|45:299,1,35,2|2,2:0|2:0,0:0:0:0:
119,352,131277,2,0,L|122:317,1,35,2|2,2:0|2:0,0:0:0:0:
175,244,131511,5,10,1:2:0:0:
208,247,131628,1,2,2:0:0:0:
242,250,131745,1,2,2:0:0:0:
276,253,131863,1,2,2:0:0:0:
310,256,131980,1,2,2:0:0:0:
344,259,132097,1,2,2:0:0:0:
379,262,132214,1,2,2:0:0:0:
413,265,132331,1,2,2:0:0:0:
447,268,132449,5,0,1:2:0:0:
447,268,133386,6,0,B|460:290|460:290|455:315,1,52.5,14|0,1:2|0:0,0:0:0:0:
450,333,133855,5,2,2:0:0:0:
432,334,133972,1,2,2:0:0:0:
414,336,134089,1,2,2:0:0:0:
396,337,134206,1,2,2:0:0:0:
378,339,134324,5,2,1:2:0:0:
352,315,134441,1,2,2:0:0:0:
328,289,134558,1,2,2:0:0:0:
303,265,134675,1,2,2:0:0:0:
279,240,134792,5,2,1:2:0:0:
266,203,134909,1,2,2:0:0:0:
285,169,135027,1,2,2:0:0:0:
304,136,135144,1,2,2:0:0:0:
291,100,135261,6,0,L|287:64,1,35,10|0,1:2|0:0,0:0:0:0:
367,175,135495,2,0,L|363:209,1,35
222,325,135730,6,0,B|200:312|200:312|175:317,1,52.5,2|0,1:2|0:0,0:0:0:0:
40,369,136199,6,0,B|71:318|71:318|49:278|49:278|40:173,1,210,0|0,1:2|0:0,0:0:0:0:
26,13,137136,2,0,L|61:16,1,35,10|2,1:2|2:0,0:0:0:0:
100,90,137370,2,0,L|66:93,1,35,2|2,2:0|2:0,0:0:0:0:
174,35,137605,5,2,2:0:0:0:
208,38,137722,1,2,2:0:0:0:
242,41,137839,1,2,2:0:0:0:
276,44,137956,1,2,2:0:0:0:
310,47,138074,6,0,L|344:43,2,35,2|0|0,1:2|0:0|0:0,0:0:0:0:
286,132,138425,2,0,L|320:128,2,35,2|0|0,2:0|0:0|0:0,0:0:0:0:
262,217,138777,2,0,L|296:213,1,35,2|0,2:0|0:0,0:0:0:0:
153,181,139011,6,0,L|118:177,2,35,10|0|0,1:2|0:0|0:0,0:0:0:0:
177,266,139363,2,0,L|142:262,2,35,2|0|0,2:0|0:0|0:0,0:0:0:0:
201,351,139714,2,0,L|166:347,1,35,2|0,2:0|0:0,0:0:0:0:
288,357,139949,5,0,1:2:0:0:
294,363,140417,5,2,1:2:0:0:
294,363,140652,1,2,1:2:0:0:
467,352,140886,6,0,B|445:339|445:339|420:344,1,52.5,10|0,1:2|0:0,0:0:0:0:
397,348,141355,5,2,2:0:0:0:
395,331,141472,1,2,2:0:0:0:
394,313,141589,1,2,2:0:0:0:
392,296,141706,1,2,2:0:0:0:
391,278,141824,5,2,1:2:0:0:
366,253,141941,1,2,2:0:0:0:
341,228,142058,1,2,2:0:0:0:
316,203,142175,1,2,2:0:0:0:
291,178,142292,5,2,1:2:0:0:
254,165,142409,1,2,2:0:0:0:
220,184,142527,1,2,2:0:0:0:
186,202,142644,1,2,2:0:0:0:
150,190,142761,6,0,L|146:224,1,35,10|0,1:2|0:0,0:0:0:0:
105,87,142995,2,0,L|109:122,1,35
144,354,143230,6,0,B|157:332|157:332|152:307,1,52.5,2|0,1:2|0:0,0:0:0:0:
57,264,143699,5,2,1:2:0:0:
57,264,143816,1,2,2:0:0:0:
57,264,143933,1,2,2:0:0:0:
57,264,144050,1,2,2:0:0:0:
57,264,144167,1,2,2:0:0:0:
57,264,144284,1,2,2:0:0:0:
57,264,144402,1,2,2:0:0:0:
57,264,144519,1,2,2:0:0:0:
57,264,144636,5,10,1:2:0:0:
75,265,144753,1,2,2:0:0:0:
93,267,144870,1,2,2:0:0:0:
111,268,144988,1,2,2:0:0:0:
129,270,145105,1,2,2:0:0:0:
147,271,145222,1,2,2:0:0:0:
165,273,145339,1,2,2:0:0:0:
182,275,145456,1,2,2:0:0:0:
200,276,145574,6,0,L|202:311,1,35,2|0,1:2|0:0,0:0:0:0:
283,359,145808,2,0,L|285:323,1,35,2|0,2:0|0:0,0:0:0:0:
366,276,146042,6,0,L|368:311,1,35,2|2,2:0|2:0,0:0:0:0:
449,359,146277,2,0,L|451:323,1,35,2|2,2:0|2:0,0:0:0:0:
502,155,146511,5,10,1:2:0:0:
469,158,146628,1,2,2:0:0:0:
435,161,146745,1,2,2:0:0:0:
401,164,146863,1,2,2:0:0:0:
367,167,146980,1,2,2:0:0:0:
333,170,147097,1,2,2:0:0:0:
298,173,147214,1,2,2:0:0:0:
264,176,147331,1,2,2:0:0:0:
230,179,147449,5,0,1:2:0:0:
58,23,164324,6,0,L|64:92,1,70,2|0,3:2|0:0,0:0:0:0:
157,100,164792,2,0,L|127:163,1,70,0|0,3:2|0:0,0:0:0:0:
204,216,165261,2,0,L|146:256,1,70,0|0,3:2|0:0,0:0:0:0:
186,339,165730,2,0,L|116:345,1,70,0|0,3:2|0:0,0:0:0:0:
395,345,166199,6,0,L|326:339,1,70,2|0,3:2|0:0,0:0:0:0:
365,256,166667,2,0,L|308:216,1,70,0|0,3:2|0:0,0:0:0:0:
384,163,167136,2,0,L|355:100,1,70,0|0,3:2|0:0,0:0:0:0:
447,92,167605,2,0,L|454:23,1,70,0|0,3:2|0:0,0:0:0:0:
217,75,168074,6,0,L|147:68,1,70,2|0,3:2|0:0,0:0:0:0:
56,24,168542,2,0,L|49:93,1,70,0|0,3:2|0:0,0:0:0:0:
5,185,169011,2,0,L|74:191,1,70,0|0,3:2|0:0,0:0:0:0:
166,236,169480,2,0,L|172:166,1,70,0|0,3:2|0:0,0:0:0:0:
339,217,169949,6,0,L|346:148,1,70,0|0,3:2|0:0,0:0:0:0:
437,192,170417,2,0,L|507:199,1,70,0|0,3:2|0:0,0:0:0:0:
462,290,170886,2,0,L|456:360,1,70,0|0,3:2|0:0,0:0:0:0:
364,315,171355,2,0,L|295:309,1,70,0|0,3:2|0:0,0:0:0:0:
68,347,171824,6,0,L|137:353,1,70,2|0,3:2|0:0,0:0:0:0:
205,243,172292,2,0,L|135:249,1,70,0|0,3:2|0:0,0:0:0:0:
68,139,172761,2,0,L|137:145,1,70,0|0,3:2|0:0,0:0:0:0:
204,35,173230,2,0,L|134:41,1,70,0|0,3:2|0:0,0:0:0:0:
377,41,173699,6,0,L|307:34,1,70,2|0,3:2|0:0,0:0:0:0:
374,145,174167,2,0,L|443:138,1,70,0|0,3:2|0:0,0:0:0:0:
376,249,174636,2,0,L|306:242,1,70,0|0,3:2|0:0,0:0:0:0:
374,353,175105,2,0,L|443:346,1,70,0|0,3:2|0:0,0:0:0:0:
198,265,175574,6,0,L|128:258,1,70,2|0,3:2|0:0,0:0:0:0:
163,178,176042,2,0,L|134:114,1,70,0|0,3:2|0:0,0:0:0:0:
221,105,176511,2,0,L|261:47,1,70,0|0,3:2|0:0,0:0:0:0:
314,119,176980,2,0,L|383:125,1,70,0|0,3:2|0:0,0:0:0:0:
348,205,177449,2,0,L|377:268,1,70,0|0,3:2|0:0,0:0:0:0:
290,278,177917,2,0,L|249:335,1,70,0|0,3:2|0:0,0:0:0:0:
256,192,179324,5,2,3:2:0:0:
288,103,179558,1,0,0:0:0:0:
288,103,179675,1,0,0:0:0:0:
288,103,179792,1,2,3:2:0:0:
349,175,180027,1,2,2:0:0:0:
256,192,180261,2,0,L|186:186,1,70,10|0,3:2|0:0,0:0:0:0:
349,175,180730,2,0,L|418:181,1,70,2|0,3:2|0:0,0:0:0:0:
372,283,181199,5,2,3:2:0:0:
346,285,181316,1,0,3:2:0:0:
320,287,181433,1,0,3:2:0:0:
294,289,181550,1,0,3:2:0:0:
267,292,181667,1,0,3:2:0:0:
207,196,181902,1,2,3:2:0:0:
233,198,182019,1,0,3:2:0:0:
260,201,182136,2,0,L|266:132,1,70,10|0,3:2|0:0,0:0:0:0:
165,1,182605,2,0,L|171:70,1,70,2|0,3:2|0:0,0:0:0:0:
364,76,183074,5,2,3:2:0:0:
475,47,183308,1,0,0:0:0:0:
475,47,183425,1,2,2:0:0:0:
475,47,183542,1,0,3:2:0:0:
444,157,183777,1,0,0:0:0:0:
364,76,184011,2,0,L|370:7,1,70,8|0,3:2|0:0,0:0:0:0:
444,157,184480,2,0,L|450:226,1,70,0|0,3:2|0:0,0:0:0:0:
340,250,184949,5,0,3:2:0:0:
243,241,185183,1,0,3:2:0:0:
243,241,185300,1,0,3:2:0:0:
243,241,185417,1,0,3:2:0:0:
146,232,185652,1,0,3:2:0:0:
103,142,185886,2,0,L|96:72,1,70,8|0,3:2|0:0,0:0:0:0:
146,232,186355,1,0,3:2:0:0:
202,152,186589,1,0,3:2:0:0:
202,152,186706,1,0,3:2:0:0:
202,152,186824,5,2,3:2:0:0:
258,72,187058,1,0,0:0:0:0:
258,72,187175,1,0,0:0:0:0:
258,72,187292,1,2,3:2:0:0:
355,80,187527,1,2,2:0:0:0:
452,88,187761,2,0,L|459:18,1,70,10|0,3:2|0:0,0:0:0:0:
355,80,188230,2,0,L|362:149,1,70,2|0,3:2|0:0,0:0:0:0:
449,220,188699,5,2,3:2:0:0:
447,246,188816,1,0,3:2:0:0:
444,272,188933,1,0,3:2:0:0:
442,299,189050,1,0,3:2:0:0:
439,325,189167,1,0,3:2:0:0:
331,355,189402,1,2,3:2:0:0:
329,328,189519,1,0,3:2:0:0:
326,302,189636,2,0,L|256:309,1,70,10|0,3:2|0:0,0:0:0:0:
162,370,190105,2,0,L|93:363,1,70,2|0,3:2|0:0,0:0:0:0:
145,260,190574,5,2,3:2:0:0:
71,191,190808,1,0,0:0:0:0:
71,191,190925,1,2,2:0:0:0:
71,191,191042,1,0,3:2:0:0:
93,92,191277,1,0,0:0:0:0:
189,61,191511,2,0,L|258:67,1,70,8|0,3:2|0:0,0:0:0:0:
93,92,191980,2,0,L|23:99,1,70,0|0,3:2|0:0,0:0:0:0:
16,211,192449,5,0,3:2:0:0:
112,219,192683,1,0,3:2:0:0:
112,219,192800,1,0,3:2:0:0:
112,219,192917,1,0,3:2:0:0:
208,227,193152,1,0,3:2:0:0:
304,235,193386,2,0,L|310:304,1,70,8|0,3:2|0:0,0:0:0:0:
208,227,193855,1,0,3:2:0:0:
262,147,194089,1,0,3:2:0:0:
262,147,194206,1,0,3:2:0:0:
262,147,194324,5,2,3:2:0:0:
323,55,194558,1,0,0:0:0:0:
323,55,194675,1,0,0:0:0:0:
323,55,194792,1,2,3:2:0:0:
372,153,195027,1,2,2:0:0:0:
262,147,195261,2,0,L|192:140,1,70,10|0,3:2|0:0,0:0:0:0:
323,55,195730,2,0,L|392:48,1,70,2|0,3:2|0:0,0:0:0:0:
487,108,196199,5,2,3:2:0:0:
484,134,196316,1,0,3:2:0:0:
482,160,196433,1,0,3:2:0:0:
480,187,196550,1,0,3:2:0:0:
477,213,196667,1,0,3:2:0:0:
381,271,196902,1,2,3:2:0:0:
383,298,197019,1,0,3:2:0:0:
386,324,197136,2,0,L|455:330,1,70,10|0,3:2|0:0,0:0:0:0:
269,262,197605,2,0,L|199:268,1,70,2|0,3:2|0:0,0:0:0:0:
136,360,198074,5,2,3:2:0:0:
25,370,198308,1,0,0:0:0:0:
25,370,198425,1,2,2:0:0:0:
25,370,198542,1,0,3:2:0:0:
71,268,198777,1,0,0:0:0:0:
136,360,199011,2,0,L|205:366,1,70,8|0,3:2|0:0,0:0:0:0:
71,268,199480,2,0,L|2:262,1,70,0|0,3:2|0:0,0:0:0:0:
39,136,199949,5,0,3:2:0:0:
149,126,200183,1,0,3:2:0:0:
149,126,200300,1,0,3:2:0:0:
149,126,200417,1,0,3:2:0:0:
86,36,200652,1,0,3:2:0:0:
39,136,200886,2,0,L|46:206,1,70,8|0,3:2|0:0,0:0:0:0:
86,36,201355,1,0,3:2:0:0:
196,26,201589,1,0,3:2:0:0:
196,26,201706,1,0,3:2:0:0:
196,26,201824,5,2,3:2:0:0:
260,116,202058,1,0,0:0:0:0:
260,116,202175,1,0,0:0:0:0:
260,116,202292,1,2,3:2:0:0:
369,105,202527,5,2,2:0:0:0:
260,116,202761,2,0,L|190:109,1,70,10|0,3:2|0:0,0:0:0:0:
369,105,203230,2,0,L|438:111,1,70,2|0,3:2|0:0,0:0:0:0:
412,220,203699,5,2,3:2:0:0:
386,223,203816,1,0,3:2:0:0:
359,225,203933,1,0,3:2:0:0:
333,227,204050,1,0,3:2:0:0:
307,230,204167,1,0,3:2:0:0:
325,340,204402,1,2,3:2:0:0:
351,342,204519,1,0,3:2:0:0:
377,345,204636,2,0,L|446:351,1,70,10|0,3:2|0:0,0:0:0:0:
492,248,205105,2,0,L|422:254,1,70,2|0,3:2|0:0,0:0:0:0:
325,198,205574,5,2,3:2:0:0:
245,118,205808,1,0,0:0:0:0:
245,118,205925,1,2,2:0:0:0:
245,118,206042,1,0,3:2:0:0:
355,89,206277,1,0,0:0:0:0:
325,198,206511,2,0,L|331:267,1,70,8|0,3:2|0:0,0:0:0:0:
355,89,206980,2,0,L|361:20,1,70,0|0,3:2|0:0,0:0:0:0:
256,192,207449,12,0,209089,3:2:0:0:
86,65,209324,5,6,1:2:0:0:
86,65,209441,1,2,2:0:0:0:
86,65,209558,1,2,2:0:0:0:
86,65,209675,1,2,2:0:0:0:
86,65,209792,1,2,2:0:0:0:
86,65,209909,1,2,2:0:0:0:
86,65,210027,1,2,2:0:0:0:
86,65,210144,1,2,2:0:0:0:
86,65,210261,5,10,1:2:0:0:
102,63,210378,1,2,2:0:0:0:
119,62,210495,1,2,2:0:0:0:
136,60,210613,1,2,2:0:0:0:
153,59,210730,1,2,2:0:0:0:
170,57,210847,1,2,2:0:0:0:
187,56,210964,1,2,2:0:0:0:
204,54,211081,1,2,2:0:0:0:
221,53,211199,5,2,1:2:0:0:
217,87,211316,1,2,2:0:0:0:
214,121,211433,1,2,2:0:0:0:
212,155,211550,1,2,2:0:0:0:
209,189,211667,5,2,1:2:0:0:
220,226,211784,1,2,2:0:0:0:
257,237,211902,1,2,2:0:0:0:
294,248,212019,1,2,2:0:0:0:
305,285,212136,6,0,L|339:288,1,35,10|0,1:2|0:0,0:0:0:0:
203,341,212370,2,0,L|237:337,1,35
398,234,212605,6,0,B|423:229|423:229|446:242,1,52.5,2|0,1:2|0:0,0:0:0:0:
452,351,213074,5,2,1:2:0:0:
452,351,213191,1,0,0:0:0:0:
452,351,213308,1,0,0:0:0:0:
452,351,213425,1,0,0:0:0:0:
452,351,213542,1,2,2:0:0:0:
452,351,213659,1,0,0:0:0:0:
452,351,213777,1,0,0:0:0:0:
452,351,213894,1,0,0:0:0:0:
452,351,214011,5,10,1:2:0:0:
436,349,214128,1,2,2:0:0:0:
419,348,214245,1,2,2:0:0:0:
402,346,214363,1,2,2:0:0:0:
385,345,214480,1,2,2:0:0:0:
368,343,214597,1,2,2:0:0:0:
351,342,214714,1,2,2:0:0:0:
334,340,214831,1,2,2:0:0:0:
317,339,214949,6,0,L|320:304,2,35,2|0|0,1:2|0:0|0:0,0:0:0:0:
230,347,215300,2,0,L|233:312,2,35,2|0|0,2:0|0:0|0:0,0:0:0:0:
143,355,215652,2,0,L|147:321,1,35,2|0,2:0|0:0,0:0:0:0:
93,218,215886,6,0,L|90:183,2,35,10|0|0,1:2|0:0|0:0,0:0:0:0:
180,226,216238,2,0,L|177:191,2,35,2|0|0,2:0|0:0|0:0,0:0:0:0:
267,234,216589,2,0,L|263:200,1,35,2|0,2:0|0:0,0:0:0:0:
348,236,216824,5,2,1:2:0:0:
354,242,217292,5,2,1:2:0:0:
354,242,217527,1,2,1:2:0:0:
511,211,217761,6,0,B|488:224|488:224|463:219,1,52.5,10|0,1:2|0:0,0:0:0:0:
449,206,218230,5,2,2:0:0:0:
436,193,218347,1,2,2:0:0:0:
423,180,218464,1,2,2:0:0:0:
410,167,218581,1,2,2:0:0:0:
397,154,218699,5,2,1:2:0:0:
362,150,218816,1,2,2:0:0:0:
327,147,218933,1,2,2:0:0:0:
292,144,219050,1,2,2:0:0:0:
257,141,219167,5,2,1:2:0:0:
221,127,219284,1,2,2:0:0:0:
207,91,219402,1,2,2:0:0:0:
193,55,219519,1,2,2:0:0:0:
157,41,219636,6,0,L|122:44,1,35,10|0,1:2|0:0,0:0:0:0:
77,136,219870,2,0,L|111:139,1,35
274,42,220105,6,0,B|299:37|299:37|322:50,1,52.5,2|0,1:2|0:0,0:0:0:0:
451,53,220574,5,2,1:2:0:0:
451,53,220691,1,2,2:0:0:0:
451,53,220808,1,2,2:0:0:0:
451,53,220925,1,2,2:0:0:0:
451,53,221042,1,2,2:0:0:0:
451,53,221159,1,2,2:0:0:0:
451,53,221277,1,2,2:0:0:0:
451,53,221394,1,2,2:0:0:0:
451,53,221511,5,10,1:2:0:0:
452,69,221628,1,2,2:0:0:0:
453,86,221745,1,2,2:0:0:0:
455,103,221863,1,2,2:0:0:0:
456,120,221980,1,2,2:0:0:0:
458,137,222097,1,2,2:0:0:0:
459,154,222214,1,2,2:0:0:0:
461,171,222331,1,2,2:0:0:0:
462,188,222449,6,0,L|427:184,1,35,2|0,1:2|0:0,0:0:0:0:
397,276,222683,2,0,L|431:272,1,35,2|0,2:0|0:0,0:0:0:0:
356,118,222917,6,0,L|321:114,1,35,2|2,2:0|2:0,0:0:0:0:
291,206,223152,2,0,L|325:202,1,35,2|2,2:0|2:0,0:0:0:0:
313,21,223386,5,10,1:2:0:0:
280,24,223503,1,2,2:0:0:0:
246,27,223620,1,2,2:0:0:0:
212,30,223738,1,2,2:0:0:0:
178,33,223855,1,2,2:0:0:0:
144,36,223972,1,2,2:0:0:0:
109,39,224089,1,2,2:0:0:0:
75,42,224206,1,2,2:0:0:0:
41,45,224324,5,0,1:2:0:0:
41,45,225261,5,14,1:2:0:0:
38,78,225378,1,2,1:2:0:0:
55,145,225495,5,2,1:2:0:0:
52,178,225613,1,2,1:2:0:0:
69,245,225730,5,2,1:2:0:0:
147,145,225964,1,2,1:2:0:0:
86,312,226199,5,6,1:2:0:0:
120,315,226316,1,2,2:0:0:0:
154,318,226433,1,2,2:0:0:0:
188,321,226550,1,2,2:0:0:0:
222,324,226667,5,2,1:2:0:0:
258,310,226784,1,2,2:0:0:0:
270,274,226902,1,2,2:0:0:0:
282,237,227019,1,2,2:0:0:0:
318,224,227136,6,0,L|352:227,1,35,10|0,1:2|0:0,0:0:0:0:
398,319,227370,2,0,L|363:322,1,35
437,168,227605,6,0,B|460:155|460:155|485:160,1,52.5,2|0,1:2|0:0,0:0:0:0:
451,71,228074,5,2,1:2:0:0:
451,71,228191,1,0,0:0:0:0:
451,71,228308,1,0,0:0:0:0:
451,71,228425,1,0,0:0:0:0:
451,71,228542,1,2,2:0:0:0:
451,71,228659,1,0,0:0:0:0:
451,71,228777,1,0,0:0:0:0:
451,71,228894,1,0,0:0:0:0:
451,71,229011,5,10,1:2:0:0:
452,87,229128,1,2,2:0:0:0:
453,104,229245,1,2,2:0:0:0:
455,121,229363,1,2,2:0:0:0:
456,138,229480,1,2,2:0:0:0:
458,155,229597,1,2,2:0:0:0:
459,172,229714,1,2,2:0:0:0:
461,189,229831,1,2,2:0:0:0:
462,206,229949,6,0,L|427:202,2,35,2|0|0,1:2|0:0|0:0,0:0:0:0:
455,294,230300,2,0,L|420:290,2,35,2|0|0,2:0|0:0|0:0,0:0:0:0:
448,382,230652,2,0,L|413:378,1,35,2|0,2:0|0:0,0:0:0:0:
304,317,230886,6,0,L|269:321,2,35,10|0|0,1:2|0:0|0:0,0:0:0:0:
297,229,231238,2,0,L|262:233,2,35,2|0|0,2:0|0:0|0:0,0:0:0:0:
290,141,231589,2,0,L|255:145,1,35,2|0,2:0|0:0,0:0:0:0:
175,153,231824,5,0,1:2:0:0:
181,159,232292,5,2,1:2:0:0:
181,159,232527,1,2,1:2:0:0:
92,172,232761,6,0,B|79:195|79:195|84:220,1,52.5,10|0,1:2|0:0,0:0:0:0:
87,238,233230,5,2,2:0:0:0:
103,240,233347,1,2,2:0:0:0:
120,241,233464,1,2,2:0:0:0:
137,243,233581,1,2,2:0:0:0:
154,244,233699,5,2,1:2:0:0:
151,210,233816,1,2,2:0:0:0:
148,176,233933,1,2,2:0:0:0:
145,142,234050,1,2,2:0:0:0:
142,108,234167,5,2,1:2:0:0:
178,95,234284,1,2,2:0:0:0:
190,58,234402,1,2,2:0:0:0:
202,21,234519,1,2,2:0:0:0:
238,8,234636,6,0,L|272:11,1,35,10|0,1:2|0:0,0:0:0:0:
292,115,234870,2,0,L|327:112,1,35
497,76,235105,6,0,B|472:71|472:71|449:84,1,52.5,2|0,1:2|0:0,0:0:0:0:
477,204,235574,5,2,1:2:0:0:
477,204,235691,1,2,2:0:0:0:
477,204,235808,1,2,2:0:0:0:
477,204,235925,1,2,2:0:0:0:
477,204,236042,1,2,2:0:0:0:
477,204,236159,1,2,2:0:0:0:
477,204,236277,1,2,2:0:0:0:
477,204,236394,1,2,2:0:0:0:
477,204,236511,5,10,1:2:0:0:
459,205,236628,1,2,2:0:0:0:
441,207,236745,1,2,2:0:0:0:
423,208,236863,1,2,2:0:0:0:
405,210,236980,1,2,2:0:0:0:
387,211,237097,1,2,2:0:0:0:
369,213,237214,1,2,2:0:0:0:
352,215,237331,1,2,2:0:0:0:
334,216,237449,6,0,L|332:251,1,35,2|0,1:2|0:0,0:0:0:0:
218,245,237683,2,0,L|253:247,1,35,2|0,2:0|0:0,0:0:0:0:
247,361,237917,2,0,L|249:326,1,35,2|2,2:0|2:0,0:0:0:0:
363,332,238152,2,0,L|328:330,1,35,2|2,2:0|2:0,0:0:0:0:
334,216,238386,5,10,1:2:0:0:
309,191,238503,1,2,2:0:0:0:
284,166,238620,1,2,2:0:0:0:
259,141,238738,1,2,2:0:0:0:
234,116,238855,1,2,2:0:0:0:
209,91,238972,1,2,2:0:0:0:
184,66,239089,1,2,2:0:0:0:
159,41,239206,1,2,2:0:0:0:
134,16,239324,5,4,1:2:0:0:
