osu file format v14

[General]
AudioFilename: audio.mp3
AudioLeadIn: 0
PreviewTime: 207917
Countdown: 0
SampleSet: Soft
StackLeniency: 0.5
Mode: 0
LetterboxInBreaks: 0
WidescreenStoryboard: 1

[Editor]
Bookmarks: 19012,50887,82762,112762,147449,164324,179324,209324,239324
DistanceSpacing: 1.2
BeatDivisor: 4
GridSize: 32
TimelineZoom: 1.6

[Metadata]
Title:Whisper (feat. emalyn)
TitleUnicode:Whisper (feat. emalyn)
Artist:Crywolf
ArtistUnicode:Crywolf
Creator:Ccori
Version:Normal
Source:
Tags:featured artist fa english electronic chillout chillstep Angels - EP
BeatmapID:4246211
BeatmapSetID:2035723

[Difficulty]
HPDrainRate:4
CircleSize:3.5
OverallDifficulty:4
ApproachRate:5
SliderMultiplier:1
SliderTickRate:1

[Events]
//Background and Video events
0,0,"bg.jpg",0,0
//Break Periods
2,112972,116249
2,149324,163124
//Storyboard Layer 0 (Background)
//Storyboard Layer 1 (Fail)
//Storyboard Layer 2 (Pass)
//Storyboard Layer 3 (Foreground)
//Storyboard Layer 4 (Overlay)
//Storyboard Sound Samples

[TimingPoints]
262,468.75,4,2,0,60,1,0
50887,-100,4,2,0,70,0,1
51355,-100,4,2,0,70,0,0
82762,-100,4,2,0,70,0,1
112762,-100,4,2,0,70,0,0
117449,468.75,4,2,0,80,1,0
118386,-83.3333333333333,4,2,0,80,0,1
118855,-83.3333333333333,4,2,0,80,0,0
120730,-83.3333333333333,4,2,0,80,0,1
121199,-83.3333333333333,4,2,0,80,0,0
125886,-83.3333333333333,4,2,0,80,0,1
126355,-83.3333333333333,4,2,0,80,0,0
128230,-83.3333333333333,4,2,0,80,0,1
128699,-83.3333333333333,4,2,0,80,0,0
133386,-83.3333333333333,4,2,0,80,0,1
133855,-83.3333333333333,4,2,0,80,0,0
135730,-83.3333333333333,4,2,0,80,0,1
136199,-83.3333333333333,4,2,0,80,0,0
140886,-83.3333333333333,4,2,0,80,0,1
141355,-83.3333333333333,4,2,0,80,0,0
143230,-83.3333333333333,4,2,0,80,0,1
143699,-83.3333333333333,4,2,0,80,0,0
147449,-83.3333333333333,4,2,0,50,0,0
164324,-100,4,2,0,50,0,0
179324,-100,4,2,0,60,0,0
194324,-100,4,2,0,65,0,0
209324,-83.3333333333333,4,2,0,80,0,1
209792,-83.3333333333333,4,2,0,80,0,0
210261,-83.3333333333333,4,2,0,80,0,1
210730,-83.3333333333333,4,2,0,80,0,0
212605,-83.3333333333333,4,2,0,80,0,1
213074,-83.3333333333333,4,2,0,80,0,0
217761,-83.3333333333333,4,2,0,80,0,1
218230,-83.3333333333333,4,2,0,80,0,0
220105,-83.3333333333333,4,2,0,80,0,1
220574,-83.3333333333333,4,2,0,80,0,0
225261,-83.3333333333333,4,2,0,80,0,1
225730,-83.3333333333333,4,2,0,80,0,0
226199,-83.3333333333333,4,2,0,80,0,1
226667,-83.3333333333333,4,2,0,80,0,0
227605,-83.3333333333333,4,2,0,80,0,1
228074,-83.3333333333333,4,2,0,80,0,0
232761,-83.3333333333333,4,2,0,80,0,1
233230,-83.3333333333333,4,2,0,80,0,0
235105,-83.3333333333333,4,2,0,80,0,1
235574,-83.3333333333333,4,2,0,80,0,0
239324,-83.3333333333333,4,2,0,70,0,0

[Colours]
Combo1 : 255,128,0
Combo2 : 255,128,192
Combo3 : 128,64,0
Combo4 : 0,255,255

[HitObjects]
120,160,19012,6,0,B|280:40|280:40|472:94,2,400,14|0|2,1:2|0:0|2:0,0:0:0:0:
120,160,24637,1,0,0:0:0:0:
392,352,26512,6,0,B|232:232|232:232|39:286,2,400,10|2|0,1:2|2:0|0:0,0:0:0:0:
392,352,32137,1,2,2:0:0:0:
429,148,34012,6,0,P|308:256|466:293,2,400,10|0|2,1:2|0:0|2:0,0:0:0:0:
429,148,39637,1,0,0:0:0:0:
173,236,41512,6,0,P|52:127|210:90,2,400,10|2|0,1:2|2:0|1:2,0:0:0:0:
259,288,45730,1,0,1:2:0:0:
259,288,47137,1,2,2:0:0:0:
259,288,49012,6,0,L|408:301,2,150,0|0|0,1:2|1:2|1:2,0:0:0:0:
181,351,50887,5,6,1:2:0:0:
81,360,51355,1,2,2:0:0:0:
43,267,51824,2,0,L|52:167,1,100,10|2,1:2|2:0,0:0:0:0:
60,67,52762,1,2,1:2:0:0:
159,76,53230,1,0,0:0:0:0:
259,74,53699,2,0,L|334:66,2,75,8|0|2,1:2|1:2|1:2,0:0:0:0:
259,124,54637,6,0,L|267:223,1,100,2|2,1:2|2:0,0:0:0:0:
303,259,55340,1,0,1:2:0:0:
303,259,55574,2,0,L|402:267,1,100,8|2,1:2|2:0,0:0:0:0:
473,196,56512,2,0,L|464:96,1,100,2|0,1:2|0:0,0:0:0:0:
393,25,57449,2,0,L|293:16,1,100,10|0,1:2|0:0,0:0:0:0:
203,61,58387,5,2,1:2:0:0:
103,70,58855,1,2,2:0:0:0:
52,157,59324,2,0,L|43:256,1,100,10|2,1:2|2:0,0:0:0:0:
114,327,60262,2,0,L|213:318,1,100,2|0,1:2|0:0,0:0:0:0:
232,219,61199,2,0,L|155:212,2,75,10|2|2,1:2|1:2|1:2,0:0:0:0:
232,168,62137,6,0,L|240:68,1,100,2|0,1:2|0:0,0:0:0:0:
290,68,62840,1,0,1:2:0:0:
290,68,63074,2,0,L|390:77,1,100,8|0,1:2|0:0,0:0:0:0:
460,147,64012,2,0,L|451:246,1,100,2|0,1:2|0:0,0:0:0:0:
450,346,64949,2,0,L|350:337,1,100,8|0,1:2|0:0,0:0:0:0:
250,337,65887,5,2,1:2:0:0:
241,237,66355,1,2,2:0:0:0:
140,245,66824,1,10,1:2:0:0:
149,345,67293,1,2,2:0:0:0:
250,337,67762,2,0,L|349:346,1,100,2|2,1:2|2:0,0:0:0:0:
385,309,68465,1,2,1:2:0:0:
385,309,68699,2,0,L|459:303,2,75,10|2|2,1:2|1:2|1:2,0:0:0:0:
385,258,69637,6,0,L|376:158,1,100,2|2,1:2|2:0,0:0:0:0:
305,87,70574,2,0,L|205:78,1,100,10|2,1:2|2:0,0:0:0:0:
105,78,71512,2,0,L|5:86,2,100,2|0|10,1:2|0:0|1:2,0:0:0:0:
105,178,72918,1,0,0:0:0:0:
34,248,73387,5,2,1:2:0:0:
43,346,73855,1,2,2:0:0:0:
142,359,74324,2,0,L|241:367,1,100,10|2,1:2|2:0,0:0:0:0:
341,367,75262,1,2,1:2:0:0:
411,296,75730,1,0,0:0:0:0:
428,197,76199,2,0,L|503:189,2,75,10|2|2,1:2|1:2|1:2,0:0:0:0:
392,161,77137,6,0,L|292:152,1,100,2|0,1:2|0:0,0:0:0:0:
260,120,77840,1,0,1:2:0:0:
260,120,78074,2,0,L|251:20,1,100,10|0,1:2|0:0,0:0:0:0:
150,15,79012,2,0,L|158:114,1,100,2|0,1:2|0:0,0:0:0:0:
158,214,79949,2,0,L|257:223,1,100,8|0,1:2|0:0,0:0:0:0:
267,322,80887,5,0,1:2:0:0:
267,322,82762,6,0,L|240:23,1,300,2|0,1:2|0:0,0:0:0:0:
190,23,84402,1,0,0:0:0:0:
139,23,84637,1,2,1:2:0:0:
139,122,85105,2,0,L|89:126,1,50,2|2,2:0|1:2,0:0:0:0:
39,125,85574,2,0,L|33:49,2,75,10|2|2,1:2|1:2|1:2,0:0:0:0:
39,175,86512,6,0,L|30:274,1,100,2|0,1:2|0:0,0:0:0:0:
69,313,87215,1,2,1:2:0:0:
69,313,87449,2,0,L|168:304,1,100,8|0,1:2|0:0,0:0:0:0:
268,303,88387,2,0,L|259:203,1,100,2|0,1:2|0:0,0:0:0:0:
294,167,89090,1,2,0:0:0:0:
294,167,89324,2,0,L|393:175,1,100,8|0,1:2|0:0,0:0:0:0:
493,175,90262,6,0,L|498:250,2,75,2|2|2,1:2|2:0|1:2,0:0:0:0:
493,125,91199,1,8,1:2:0:0:
392,125,91668,2,0,L|342:129,1,50,2|0,2:0|0:0,0:0:0:0:
292,128,92137,2,0,L|297:52,2,75,2|2|2,1:2|2:0|1:2,0:0:0:0:
242,128,93074,2,0,L|247:203,2,75,10|0|2,1:2|1:2|1:2,0:0:0:0:
191,128,94012,5,2,1:2:0:0:
120,198,94480,2,0,L|70:203,1,50,0|2,0:0|1:2,0:0:0:0:
34,167,94949,2,0,L|42:67,1,100,8|0,1:2|0:0,0:0:0:0:
142,67,95887,2,0,L|241:58,1,100,2|0,1:2|0:0,0:0:0:0:
280,97,96590,1,2,0:0:0:0:
280,97,96824,2,0,L|379:105,1,100,8|0,1:2|0:0,0:0:0:0:
379,205,97762,6,0,L|80:231,1,300,2|0,1:2|0:0,0:0:0:0:
80,280,99402,1,0,0:0:0:0:
80,330,99637,1,2,1:2:0:0:
176,354,100105,1,2,2:0:0:0:
268,315,100574,2,0,L|261:240,2,75,10|2|2,1:2|1:2|1:2,0:0:0:0:
303,350,101512,6,0,L|402:359,1,100,2|0,1:2|0:0,0:0:0:0:
438,323,102215,1,2,1:2:0:0:
438,323,102449,2,0,L|430:224,1,100,8|0,1:2|0:0,0:0:0:0:
359,152,103387,2,0,L|260:161,1,100,2|0,1:2|0:0,0:0:0:0:
227,129,104090,1,2,0:0:0:0:
227,129,104324,2,0,L|235:30,1,100,8|0,1:2|0:0,0:0:0:0:
335,29,105262,6,0,L|410:22,2,75,2|2|2,1:2|2:0|1:2,0:0:0:0:
292,71,106199,2,0,L|300:170,1,100,8|2,1:2|2:0,0:0:0:0:
300,270,107137,2,0,L|225:277,2,75,2|2|2,1:2|2:0|1:2,0:0:0:0:
349,270,108074,2,0,L|356:345,2,75,10|2|2,1:2|1:2|1:2,0:0:0:0:
399,270,109012,5,2,1:2:0:0:
399,170,109480,2,0,L|349:165,1,50,0|2,0:0|1:2,0:0:0:0:
313,129,109949,2,0,L|213:137,1,100,8|0,1:2|0:0,0:0:0:0:
113,136,110887,2,0,L|121:236,1,100,2|0,1:2|0:0,0:0:0:0:
160,274,111590,1,2,0:0:0:0:
160,274,111824,2,0,L|152:374,1,100,8|0,1:2|0:0,0:0:0:0:
51,374,112762,5,0,0:0:0:0:
103,343,117449,5,0,1:2:0:0:
103,343,118386,2,0,L|103:223,1,120,12|2,1:2|2:0,0:0:0:0:
103,102,119324,6,0,L|163:102,1,60,2|2,1:2|2:0,0:0:0:0:
205,144,119792,2,0,L|247:186,1,60,2|2,1:2|2:0,0:0:0:0:
289,228,120261,2,0,L|289:288,1,60,10|0,1:2|0:0,0:0:0:0:
289,348,120730,1,2,1:2:0:0:
409,348,121199,6,0,L|409:228,1,120,2|0,1:2|0:0,0:0:0:0:
409,167,121902,1,0,0:0:0:0:
409,107,122136,2,0,L|289:107,1,120,10|2,1:2|2:0,0:0:0:0:
228,107,122839,1,2,2:0:0:0:
167,107,123074,2,0,L|167:17,2,90,2|2|2,1:2|2:0|2:0,0:0:0:0:
124,149,124011,1,10,1:2:0:0:
123,269,124480,1,2,2:0:0:0:
2,269,124949,6,0,L|2:149,1,120,2|2,1:2|2:0,0:0:0:0:
2,88,125652,1,2,2:0:0:0:
2,28,125886,2,0,L|122:28,1,120,10|2,1:2|2:0,0:0:0:0:
242,28,126824,6,0,L|302:28,1,60,2|2,1:2|2:0,0:0:0:0:
344,70,127292,2,0,L|386:113,1,60,2|2,1:2|2:0,0:0:0:0:
428,154,127761,2,0,L|428:214,1,60,10|0,1:2|0:0,0:0:0:0:
428,274,128230,1,2,1:2:0:0:
343,358,128699,6,0,L|223:358,1,120,2|2,1:2|2:0,0:0:0:0:
223,297,129402,1,2,2:0:0:0:
223,237,129636,1,10,1:2:0:0:
343,237,130105,1,2,2:0:0:0:
343,116,130574,2,0,L|463:116,1,120,2|2,1:2|2:0,0:0:0:0:
463,56,131277,1,2,2:0:0:0:
463,0,131511,1,10,1:2:0:0:
343,0,131980,1,2,2:0:0:0:
222,0,132449,5,0,1:2:0:0:
222,0,133386,2,0,L|102:0,1,120,14|2,1:2|2:0,0:0:0:0:
16,85,134324,6,0,L|16:145,1,60,2|2,1:2|2:0,0:0:0:0:
58,187,134792,2,0,L|100:230,1,60,2|2,1:2|2:0,0:0:0:0:
142,271,135261,2,0,L|202:271,1,60,10|0,1:2|0:0,0:0:0:0:
262,271,135730,1,2,1:2:0:0:
346,355,136199,6,0,L|466:355,1,120,0|2,1:2|2:0,0:0:0:0:
466,294,136902,1,0,0:0:0:0:
466,234,137136,2,0,L|466:114,1,120,10|2,1:2|2:0,0:0:0:0:
405,114,137839,1,2,2:0:0:0:
344,114,138074,2,0,L|344:24,2,90,2|2|2,1:2|2:0|2:0,0:0:0:0:
284,114,139011,2,0,L|284:204,2,90,10|2|2,1:2|2:0|2:0,0:0:0:0:
223,114,139949,5,0,1:2:0:0:
103,114,140417,2,0,L|43:114,1,60,2|2,1:2|1:2,0:0:0:0:
43,174,140886,2,0,L|43:294,1,120,10|2,1:2|2:0,0:0:0:0:
128,379,141824,6,0,L|188:379,1,60,2|2,1:2|2:0,0:0:0:0:
230,337,142292,2,0,L|272:295,1,60,2|2,1:2|2:0,0:0:0:0:
314,253,142761,2,0,L|314:193,1,60,10|0,1:2|0:0,0:0:0:0:
314,133,143230,1,2,1:2:0:0:
193,133,143699,6,0,L|193:253,1,120,2|2,1:2|2:0,0:0:0:0:
193,313,144402,1,2,2:0:0:0:
193,374,144636,1,10,1:2:0:0:
313,374,145105,1,2,2:0:0:0:
313,253,145574,2,0,L|313:133,1,120,2|2,1:2|2:0,0:0:0:0:
313,72,146277,1,2,2:0:0:0:
313,17,146511,1,10,1:2:0:0:
433,17,146980,2,0,L|433:77,1,60,2|2,2:0|2:0,0:0:0:0:
433,127,147449,5,0,1:2:0:0:
90,46,164324,6,0,B|66:319|66:319|190:330,2,400,2|2|2,3:2|3:2|3:2,0:0:0:0:
90,46,169949,1,0,3:2:0:0:
345,338,171824,6,0,B|321:64|321:64|445:53,2,400,2|2|2,3:2|3:2|3:2,0:0:0:0:
345,338,177449,1,0,3:2:0:0:
256,192,179324,5,2,3:2:0:0:
185,121,179792,2,0,L|135:116,1,50,2|2,3:2|2:0,0:0:0:0:
85,111,180261,1,10,3:2:0:0:
14,181,180730,1,2,3:2:0:0:
22,280,181199,2,0,L|121:288,1,100,2|0,3:2|3:2,0:0:0:0:
160,327,181902,1,2,3:2:0:0:
160,327,182136,1,10,3:2:0:0:
253,291,182605,1,2,3:2:0:0:
256,192,183074,5,2,3:2:0:0:
326,121,183542,2,0,L|375:116,1,50,0|0,3:2|0:0,0:0:0:0:
424,111,184011,1,8,3:2:0:0:
467,201,184480,1,0,3:2:0:0:
476,301,184949,1,0,3:2:0:0:
394,358,185417,2,0,L|344:362,1,50,0|0,3:2|3:2,0:0:0:0:
295,368,185886,1,8,3:2:0:0:
232,289,186355,1,0,3:2:0:0:
256,192,186824,5,2,3:2:0:0:
159,166,187292,2,0,L|109:170,1,50,2|2,3:2|2:0,0:0:0:0:
59,176,187761,1,10,3:2:0:0:
8,89,188230,1,2,3:2:0:0:
83,23,188699,2,0,L|182:31,1,100,2|0,3:2|3:2,0:0:0:0:
236,39,189402,1,2,3:2:0:0:
236,39,189636,1,10,3:2:0:0:
309,107,190105,1,2,3:2:0:0:
256,192,190574,6,0,L|247:291,1,100,2|0,3:2|3:2,0:0:0:0:
176,362,191511,2,0,L|126:366,1,50,8|0,3:2|0:0,0:0:0:0:
76,366,191980,1,0,3:2:0:0:
76,366,192214,2,0,L|84:266,1,100,0|0,0:0|3:2,0:0:0:0:
70,218,192917,1,0,3:2:0:0:
149,157,193386,1,8,3:2:0:0:
177,253,193855,1,0,3:2:0:0:
256,192,194324,5,2,3:2:0:0:
353,212,194792,2,0,L|402:207,1,50,2|2,3:2|2:0,0:0:0:0:
453,202,195261,1,10,3:2:0:0:
507,117,195730,1,2,3:2:0:0:
502,17,196199,2,0,L|402:8,1,100,2|0,3:2|3:2,0:0:0:0:
366,43,196902,1,2,3:2:0:0:
366,43,197136,1,10,3:2:0:0:
280,95,197605,1,2,3:2:0:0:
256,192,198074,5,2,3:2:0:0:
186,262,198542,2,0,L|182:311,1,50,0|0,3:2|0:0,0:0:0:0:
177,361,199011,1,8,3:2:0:0:
79,378,199480,1,0,3:2:0:0:
48,282,199949,1,0,3:2:0:0:
92,192,200417,2,0,L|97:142,1,50,0|0,3:2|3:2,0:0:0:0:
102,93,200886,1,8,3:2:0:0:
201,109,201355,1,0,3:2:0:0:
256,192,201824,5,2,3:2:0:0:
327,121,202292,2,0,L|376:116,1,50,2|2,3:2|2:0,0:0:0:0:
427,115,202761,1,10,3:2:0:0:
475,202,203230,1,2,3:2:0:0:
475,302,203699,2,0,L|375:311,1,100,2|0,3:2|3:2,0:0:0:0:
337,350,204402,1,2,3:2:0:0:
337,350,204636,1,10,3:2:0:0:
267,279,205105,1,2,3:2:0:0:
197,208,205574,5,2,3:2:0:0:
256,192,206042,12,0,207449,0:0:0:0:
49,43,209324,6,0,L|169:43,1,120,6|2,1:2|2:0,0:0:0:0:
169,163,210261,2,0,L|49:163,1,120,10|2,1:2|2:0,0:0:0:0:
49,223,210964,1,2,2:0:0:0:
49,283,211199,6,0,L|91:325,1,60,2|2,1:2|2:0,0:0:0:0:
151,325,211667,2,0,L|210:325,1,60,2|2,1:2|2:0,0:0:0:0:
271,325,212136,2,0,L|313:282,1,60,10|0,1:2|0:0,0:0:0:0:
355,240,212605,1,2,1:2:0:0:
439,155,213074,6,0,L|439:35,1,120,2|2,1:2|2:0,0:0:0:0:
378,35,213777,1,0,0:0:0:0:
318,35,214011,2,0,L|198:35,1,120,10|2,1:2|2:0,0:0:0:0:
155,77,214714,1,2,2:0:0:0:
112,120,214949,2,0,L|22:120,2,90,2|2|2,1:2|2:0|2:0,0:0:0:0:
112,179,215886,2,0,L|202:179,2,90,10|2|2,1:2|2:0|2:0,0:0:0:0:
112,239,216824,5,2,1:2:0:0:
112,358,217292,2,0,L|172:358,1,60,2|2,1:2|1:2,0:0:0:0:
214,315,217761,2,0,L|334:315,1,120,10|2,1:2|2:0,0:0:0:0:
454,315,218699,6,0,L|496:272,1,60,2|2,1:2|2:0,0:0:0:0:
496,213,219167,2,0,L|496:153,1,60,2|2,1:2|2:0,0:0:0:0:
496,93,219636,2,0,L|453:50,1,60,10|0,1:2|0:0,0:0:0:0:
411,9,220105,1,2,1:2:0:0:
290,9,220574,6,0,L|170:9,1,120,2|2,1:2|2:0,0:0:0:0:
109,9,221277,1,2,2:0:0:0:
49,9,221511,1,10,1:2:0:0:
49,129,221980,1,2,2:0:0:0:
169,129,222449,2,0,L|289:129,1,120,2|2,1:2|2:0,0:0:0:0:
349,129,223152,1,2,2:0:0:0:
410,129,223386,1,10,1:2:0:0:
410,249,223855,1,2,2:0:0:0:
289,249,224324,5,0,1:2:0:0:
289,249,225261,2,0,L|229:249,1,60,14|2,1:2|1:2,0:0:0:0:
168,249,225730,1,2,1:2:0:0:
168,128,226199,6,0,L|211:86,1,60,6|2,1:2|2:0,0:0:0:0:
270,86,226667,2,0,L|330:86,1,60,2|2,1:2|2:0,0:0:0:0:
390,86,227136,2,0,L|433:129,1,60,10|0,1:2|0:0,0:0:0:0:
474,171,227605,1,2,1:2:0:0:
474,291,228074,6,0,L|354:291,1,120,2|2,1:2|2:0,0:0:0:0:
293,291,228777,1,0,0:0:0:0:
233,291,229011,2,0,L|113:291,1,120,10|2,1:2|2:0,0:0:0:0:
113,230,229714,1,2,2:0:0:0:
112,170,229949,2,0,L|202:170,2,90,2|2|2,1:2|2:0|2:0,0:0:0:0:
112,110,230886,2,0,L|22:110,2,90,10|2|2,1:2|2:0|2:0,0:0:0:0:
112,49,231824,5,0,1:2:0:0:
231,49,232292,2,0,L|299:49,1,60,2|2,1:2|1:2,0:0:0:0:
351,49,232761,2,0,L|351:169,1,120,10|2,1:2|2:0,0:0:0:0:
351,289,233699,6,0,L|308:331,1,60,2|2,1:2|2:0,0:0:0:0:
249,331,234167,2,0,L|189:331,1,60,2|2,1:2|2:0,0:0:0:0:
129,331,234636,2,0,L|86:288,1,60,10|0,1:2|0:0,0:0:0:0:
45,246,235105,1,2,1:2:0:0:
45,125,235574,6,0,L|165:125,1,120,2|2,1:2|2:0,0:0:0:0:
225,125,236277,1,2,2:0:0:0:
285,125,236511,1,10,1:2:0:0:
405,124,236980,1,2,2:0:0:0:
405,244,237449,2,0,L|405:364,1,120,2|2,1:2|2:0,0:0:0:0:
344,364,238152,1,2,2:0:0:0:
284,364,238386,1,10,1:2:0:0:
163,364,238855,2,0,L|103:364,1,60,2|2,2:0|2:0,0:0:0:0:
42,364,239324,5,4,1:2:0:0:
