osu file format v14

[General]
AudioFilename: audio.mp3
AudioLeadIn: 0
PreviewTime: 207917
Countdown: 0
SampleSet: Soft
StackLeniency: 0.5
Mode: 0
LetterboxInBreaks: 0
WidescreenStoryboard: 1

[Editor]
Bookmarks: 19012,50887,82762,112762,147449,164324,179324,209324,239324
DistanceSpacing: 1.3
BeatDivisor: 4
GridSize: 32
TimelineZoom: 1.7

[Metadata]
Title:Whisper (feat. emalyn)
TitleUnicode:Whisper (feat. emalyn)
Artist:Crywolf
ArtistUnicode:Crywolf
Creator:Ccori
Version:Hard
Source:
Tags:featured artist fa english electronic chillout chillstep Angels - EP
BeatmapID:4246085
BeatmapSetID:2035723

[Difficulty]
HPDrainRate:5
CircleSize:4
OverallDifficulty:6
ApproachRate:7
SliderMultiplier:1.4
SliderTickRate:1

[Events]
//Background and Video events
0,0,"bg.jpg",0,0
//Break Periods
2,149324,163424
//Storyboard Layer 0 (Background)
//Storyboard Layer 1 (Fail)
//Storyboard Layer 2 (Pass)
//Storyboard Layer 3 (Foreground)
//Storyboard Layer 4 (Overlay)
//Storyboard Sound Samples

[TimingPoints]
262,468.75,4,2,0,60,1,0
19012,-200,4,2,0,60,0,0
49715,-133.333333333333,4,2,0,60,0,0
50887,-100,4,2,0,70,0,1
51355,-100,4,2,0,70,0,0
82762,-90.9090909090909,4,2,0,70,0,1
112762,-80,4,2,0,70,0,0
117449,468.75,4,2,0,80,1,0
118386,-66.6666666666667,4,2,0,80,0,1
118855,-80,4,2,0,80,0,0
120730,-66.6666666666667,4,2,0,80,0,1
121199,-80,4,2,0,80,0,0
125886,-80,4,2,0,80,0,1
126355,-80,4,2,0,80,0,0
128230,-66.6666666666667,4,2,0,80,0,1
128699,-80,4,2,0,80,0,0
133386,-66.6666666666667,4,2,0,80,0,1
133855,-80,4,2,0,80,0,0
135730,-66.6666666666667,4,2,0,80,0,1
136199,-80,4,2,0,80,0,0
140886,-66.6666666666667,4,2,0,80,0,1
141355,-80,4,2,0,80,0,0
143230,-66.6666666666667,4,2,0,80,0,1
143699,-80,4,2,0,80,0,0
147449,-80,4,2,0,50,0,0
164324,-200,4,2,0,50,0,0
179324,-100,4,2,0,60,0,0
194324,-100,4,2,0,65,0,0
209324,-80,4,2,0,80,0,1
209792,-80,4,2,0,80,0,0
210261,-80,4,2,0,80,0,1
210730,-80,4,2,0,80,0,0
212605,-66.6666666666667,4,2,0,80,0,1
213074,-80,4,2,0,80,0,0
217761,-66.6666666666667,4,2,0,80,0,1
218230,-80,4,2,0,80,0,0
220105,-66.6666666666667,4,2,0,80,0,1
220574,-80,4,2,0,80,0,0
225261,-80,4,2,0,80,0,1
225730,-80,4,2,0,80,0,0
226199,-80,4,2,0,80,0,1
226667,-80,4,2,0,80,0,0
227605,-66.6666666666667,4,2,0,80,0,1
228074,-80,4,2,0,80,0,0
232761,-66.6666666666667,4,2,0,80,0,1
233230,-80,4,2,0,80,0,0
235105,-66.6666666666667,4,2,0,80,0,1
235574,-80,4,2,0,80,0,0
239324,-80,4,2,0,70,0,0

[Colours]
Combo1 : 255,128,0
Combo2 : 255,128,192
Combo3 : 128,64,0
Combo4 : 0,255,255

[HitObjects]
8,112,19012,6,0,B|32:40|97:11|97:11|138:70|139:145|139:145|216:150|249:76|249:76|308:32|386:48,1,560,14|2,1:2|2:0,0:0:0:0:
380,46,24637,1,0,0:0:0:0:
380,46,26394,5,2,1:2:0:0:
380,46,26512,2,0,B|423:104|417:179|417:179|347:175|280:197|280:197|306:261|367:302|367:302|296:311|243:364,1,560,10|0,1:2|0:0,0:0:0:0:
242,364,32137,1,2,2:0:0:0:
243,364,33894,5,2,1:2:0:0:
243,364,34012,2,0,B|152:256|152:256|88:278|51:353|51:353|4:303|5:230|5:230|51:171|127:169,1,560,10|2,1:2|2:0,0:0:0:0:
125,169,39637,1,0,0:0:0:0:
125,169,41394,5,2,1:2:0:0:
125,169,41512,2,0,B|217:115|328:132|328:132|325:245|401:323|401:323|467:293|494:225,1,560,10|0,1:2|1:2,0:0:0:0:
494,224,45730,1,0,1:2:0:0:
494,224,47137,1,2,2:0:0:0:
494,224,49012,6,0,L|424:230,1,70,0|0,1:2|0:0,0:0:0:0:
354,161,49715,6,0,L|249:151,1,105.000004005432,0|0,1:2|0:0,0:0:0:0:
171,215,50418,5,0,1:2:0:0:
131,134,50652,1,0,3:2:0:0:
131,134,50769,1,0,3:2:0:0:
131,134,50887,5,6,1:2:0:0:
146,38,51121,1,2,2:0:0:0:
18,50,51355,1,2,2:0:0:0:
33,144,51590,1,2,1:2:0:0:
76,232,51824,6,0,L|72:266,3,35,10|2|2|2,1:2|2:0|2:0|2:0,0:0:0:0:
107,301,52293,2,0,L|110:335,3,35,2|2|2|2,2:0|2:0|2:0|2:0,0:0:0:0:
75,370,52762,6,0,L|214:357,1,140,2|0,1:2|0:0,0:0:0:0:
309,383,53465,1,2,1:2:0:0:
283,288,53699,2,0,L|352:281,1,70,8|2,1:2|2:0,0:0:0:0:
387,248,54051,2,0,L|456:254,1,70,0|0,1:2|0:0,0:0:0:0:
491,289,54402,1,2,1:2:0:0:
409,343,54637,5,2,1:2:0:0:
387,248,54871,1,2,2:0:0:0:
442,167,55105,2,0,P|442:132|432:98,1,70,2|0,2:0|1:2,0:0:0:0:
343,56,55574,2,0,B|276:31|276:31|208:39,1,140,8|2,1:2|2:0,0:0:0:0:
197,137,56277,1,0,0:0:0:0:
111,88,56512,6,0,L|41:81,2,70,2|0|0,1:2|0:0|0:0,0:0:0:0:
197,137,57215,1,0,0:0:0:0:
137,214,57449,2,0,P|136:248|145:282,1,70,10|0,1:2|0:0,0:0:0:0:
215,352,57918,2,0,P|248:362|283:362,1,70,0|2,0:0|2:0,0:0:0:0:
284,362,58269,1,0,0:0:0:0:
284,362,58387,5,2,1:2:0:0:
389,362,58621,1,2,2:0:0:0:
411,266,58855,1,2,2:0:0:0:
315,257,59090,1,2,1:2:0:0:
273,168,59324,6,0,L|266:98,2,70,10|2|2,1:2|2:0|2:0,0:0:0:0:
175,181,60027,1,2,2:0:0:0:
77,192,60262,6,0,B|56:244|56:244|60:327,1,140,2|0,1:2|0:0,0:0:0:0:
147,373,60965,1,2,1:2:0:0:
236,332,61199,6,0,L|270:328,3,35,10|2|2|2,1:2|2:0|2:0|1:2,0:0:0:0:
305,363,61668,2,0,L|339:366,3,35,2|2|2|2,2:0|2:0|1:2|2:0,0:0:0:0:
388,376,62137,6,0,L|401:236,1,140,2|0,1:2|0:0,0:0:0:0:
490,196,62840,1,0,1:2:0:0:
481,98,63074,2,0,L|411:104,1,70,8|0,1:2|0:0,0:0:0:0:
341,34,63543,2,0,L|271:27,1,70
193,88,64012,6,0,P|134:49|66:40,1,140,2|0,1:2|0:0,0:0:0:0:
34,133,64715,1,0,0:0:0:0:
0,225,64949,2,0,P|0:259|9:293,1,70,8|0,1:2|0:0,0:0:0:0:
79,362,65418,2,0,P|112:352|147:352,1,70
147,352,65769,1,0,0:0:0:0:
147,352,65887,5,2,1:2:0:0:
244,343,66121,1,2,2:0:0:0:
313,273,66355,1,2,2:0:0:0:
410,282,66590,1,2,1:2:0:0:
479,212,66824,6,0,L|472:142,2,70,10|2|2,1:2|2:0|2:0,0:0:0:0:
410,282,67527,1,2,2:0:0:0:
313,273,67762,6,0,L|278:269,3,35,2|2|2|2,1:2|2:0|2:0|2:0,0:0:0:0:
243,235,68230,2,0,L|208:238,3,35,2|2|2|2,2:0|2:0|1:2|2:0,0:0:0:0:
173,272,68699,5,10,1:2:0:0:
148,270,68816,1,2,2:0:0:0:
123,267,68933,1,2,2:0:0:0:
98,265,69051,1,2,1:2:0:0:
73,263,69168,1,2,2:0:0:0:
24,348,69402,1,2,1:2:0:0:
73,263,69637,6,0,L|66:193,1,70,2|0,1:2|0:0,0:0:0:0:
25,103,70105,1,2,2:0:0:0:
123,112,70340,1,0,1:2:0:0:
180,31,70574,2,0,L|249:24,1,70,10|0,1:2|0:0,0:0:0:0:
315,95,71043,2,0,L|308:164,1,70,2|0,2:0|0:0,0:0:0:0:
247,241,71512,6,0,P|310:265|336:328,1,140,2|0,1:2|0:0,0:0:0:0:
244,364,72215,1,0,0:0:0:0:
336,328,72449,2,0,P|399:303|425:240,1,140,10|0,1:2|0:0,0:0:0:0:
461,148,73152,1,0,0:0:0:0:
461,148,73269,1,0,0:0:0:0:
461,148,73387,5,2,1:2:0:0:
363,139,73621,1,2,2:0:0:0:
293,69,73855,1,2,2:0:0:0:
195,78,74090,1,2,1:2:0:0:
106,35,74324,6,0,L|99:104,1,70,10|2,1:2|2:0,0:0:0:0:
195,78,74793,2,0,L|201:147,1,70,2|2,2:0|2:0,0:0:0:0:
129,215,75262,6,0,B|150:267|150:267|146:350,1,140,2|0,1:2|0:0,0:0:0:0:
58,308,75965,1,2,1:2:0:0:
146,351,76199,6,0,L|180:354,3,35,10|2|2|2,1:2|2:0|2:0|1:2,0:0:0:0:
215,319,76668,2,0,L|249:315,3,35,2|2|2|2,2:0|2:0|1:2|2:0,0:0:0:0:
284,350,77137,6,0,P|343:311|411:302,1,140,2|0,1:2|0:0,0:0:0:0:
479,371,77840,1,0,1:2:0:0:
410,301,78074,2,0,P|419:232|458:174,1,140,10|0,1:2|0:0,0:0:0:0:
269,119,79012,6,0,P|210:158|142:167,1,140,2|0,1:2|0:0,0:0:0:0:
74,98,79715,1,0,0:0:0:0:
142,167,79949,2,0,P|132:235|93:293,1,140,8|0,1:2|0:0,0:0:0:0:
11,342,80652,1,0,0:0:0:0:
11,342,80769,1,0,0:0:0:0:
11,342,80887,5,0,1:2:0:0:
11,342,82527,1,0,3:2:0:0:
11,342,82644,1,0,3:2:0:0:
11,342,82762,6,0,L|24:188,1,154.000004699707,2|0,1:2|0:0,0:0:0:0:
12,81,83465,1,0,1:2:0:0:
105,27,83699,2,0,P|144:28|181:37,1,77.0000023498536,8|0,1:2|0:0,0:0:0:0:
204,142,84168,1,0,0:0:0:0:
141,229,84402,1,0,0:0:0:0:
164,334,84637,6,0,P|201:343|239:344,1,77.0000023498536,2|0,1:2|0:0,0:0:0:0:
320,273,85105,1,2,2:0:0:0:
340,377,85340,1,2,1:2:0:0:
320,273,85574,6,0,P|355:282|394:284,1,77.0000023498536,10|0,1:2|0:0,0:0:0:0:
449,285,85926,2,0,P|439:246|421:211,1,77.0000023498536,2|0,1:2|0:0,0:0:0:0:
395,167,86277,1,2,1:2:0:0:
460,80,86512,6,0,P|385:59|316:92,1,154.000004699707,2|0,1:2|0:0,0:0:0:0:
226,44,87215,1,2,1:2:0:0:
226,44,87449,2,0,L|149:51,1,77.0000023498536,8|0,1:2|0:0,0:0:0:0:
69,123,87918,2,0,L|61:199,1,77.0000023498536
52,304,88387,6,0,P|126:324|195:291,1,154.000004699707,2|0,1:2|0:0,0:0:0:0:
286,340,89090,1,2,0:0:0:0:
286,340,89324,2,0,L|363:333,1,77.0000023498536,8|0,1:2|0:0,0:0:0:0:
442,260,89793,1,0,0:0:0:0:
469,364,90027,1,0,0:0:0:0:
442,260,90262,6,0,P|444:220|455:184,1,77.0000023498536,2|0,1:2|0:0,0:0:0:0:
493,146,90613,2,0,P|489:106|478:70,1,77.0000023498536,2|0,2:0|0:0,0:0:0:0:
440,32,90965,1,2,1:2:0:0:
332,42,91199,2,0,L|255:48,1,77.0000023498536,8|0,1:2|0:0,0:0:0:0:
147,57,91668,1,2,2:0:0:0:
42,29,91902,1,0,0:0:0:0:
147,57,92137,6,0,P|137:94|135:132,1,77.0000023498536,2|0,1:2|0:0,0:0:0:0:
135,186,92488,2,0,P|172:195|210:197,1,77.0000023498536,2|0,2:0|0:0,0:0:0:0:
265,197,92840,1,2,1:2:0:0:
332,280,93074,6,0,P|369:289|407:291,1,77.0000023498536,10|0,1:2|0:0,0:0:0:0:
461,292,93425,2,0,P|470:254|472:216,1,77.0000023498536,0|0,1:2|0:0,0:0:0:0:
472,162,93777,1,2,1:2:0:0:
447,58,94012,6,0,P|379:24|306:42,1,154.000004699707,2|0,1:2|0:0,0:0:0:0:
247,134,94715,1,2,1:2:0:0:
247,134,94949,2,0,L|240:210,1,77.0000023498536,8|2,1:2|2:0,0:0:0:0:
138,176,95418,2,0,L|144:253,1,77.0000023498536
65,326,95887,6,0,P|132:359|205:341,1,154.000004699707,2|0,1:2|0:0,0:0:0:0:
265,250,96590,1,2,0:0:0:0:
265,250,96824,2,0,L|272:174,1,77.0000023498536,8|0,1:2|0:0,0:0:0:0:
281,65,97293,1,0,0:0:0:0:
394,55,97527,1,2,2:0:0:0:
394,55,97644,1,0,0:0:0:0:
394,55,97762,6,0,L|408:208,1,154.000004699707,2|0,1:2|0:0,0:0:0:0:
497,269,98465,1,0,1:2:0:0:
401,316,98699,2,0,L|314:308,1,77.0000023498536,8|0,1:2|0:0,0:0:0:0:
216,297,99168,1,0,0:0:0:0:
139,373,99402,1,0,0:0:0:0:
216,297,99637,6,0,P|206:259|206:221,1,77.0000023498536,2|0,1:2|0:0,0:0:0:0:
160,124,100105,1,2,2:0:0:0:
236,47,100340,1,0,1:2:0:0:
340,21,100574,6,0,P|375:32|409:50,1,77.0000023498536,10|0,1:2|0:0,0:0:0:0:
457,79,100926,2,0,P|428:106|395:126,1,77.0000023498536,2|0,1:2|0:0,0:0:0:0:
348,151,101277,1,2,1:2:0:0:
441,205,101512,6,0,P|459:278|425:345,1,154.000004699707,2|0,1:2|0:0,0:0:0:0:
321,362,102215,1,2,1:2:0:0:
321,362,102449,2,0,L|233:370,1,77.0000023498536,8|0,1:2|0:0,0:0:0:0:
167,292,102918,2,0,L|79:285,1,77.0000023498536
71,179,103387,6,0,P|52:105|86:38,1,154.000004699707,2|0,1:2|0:0,0:0:0:0:
191,22,104090,1,2,0:0:0:0:
191,22,104324,2,0,L|279:14,1,77.0000023498536,8|0,1:2|0:0,0:0:0:0:
345,92,104793,1,0,0:0:0:0:
451,101,105027,1,2,2:0:0:0:
451,101,105144,1,0,0:0:0:0:
451,101,105262,6,0,P|463:137|467:175,1,77.0000023498536,2|0,1:2|0:0,0:0:0:0:
505,213,105613,2,0,P|492:249|488:287,1,77.0000023498536,2|0,2:0|0:0,0:0:0:0:
488,342,105965,1,2,1:2:0:0:
380,342,106199,6,0,P|367:305|363:267,1,77.0000023498536,8|0,1:2|0:0,0:0:0:0:
326,230,106550,2,0,P|338:193|342:155,1,77.0000023498536
342,100,106902,1,0,0:0:0:0:
242,56,107137,6,0,P|206:46|167:44,1,77.0000023498536,2|0,1:2|0:0,0:0:0:0:
113,44,107489,2,0,P|122:82|140:117,1,77.0000023498536,2|0,2:0|0:0,0:0:0:0:
167,162,107840,1,2,1:2:0:0:
225,254,108074,6,0,P|260:263|299:265,1,77.0000023498536,10|0,1:2|0:0,0:0:0:0:
354,266,108426,2,0,P|344:227|326:192,1,77.0000023498536,2|0,1:2|0:0,0:0:0:0:
300,148,108777,1,2,1:2:0:0:
365,61,109012,5,2,1:2:0:0:
441,137,109246,2,0,P|474:204|456:277,1,154.000004699707,2|2,2:0|1:2,0:0:0:0:
400,370,109949,2,0,L|323:363,1,77.0000023498536,8|2,1:2|2:0,0:0:0:0:
246,286,110418,2,0,L|169:292,1,77.0000023498536
71,247,110887,6,0,P|37:179|55:106,1,154.000004699707,2|0,1:2|0:0,0:0:0:0:
112,14,111590,1,2,0:0:0:0:
112,14,111824,2,0,L|188:20,1,77.0000023498536,8|0,1:2|0:0,0:0:0:0:
266,98,112293,1,0,0:0:0:0:
372,88,112527,1,0,0:0:0:0:
372,88,112644,1,0,0:0:0:0:
256,192,115105,12,0,117449,1:2:0:0:
47,46,118386,6,0,L|203:59,1,157.5,12|0,1:2|0:0,0:0:0:0:
244,100,118855,2,0,L|247:143,3,43.75,2|2|2|2,2:0|2:0|2:0|2:0,0:0:0:0:
288,184,119324,6,0,B|305:197|305:197|326:192,3,43.75,2|2|2|2,1:2|2:0|2:0|2:0,0:0:0:0:
367,152,119792,6,0,B|384:139|384:139|405:143,3,43.75,2|2|2|2,1:2|2:0|2:0|2:0,0:0:0:0:
446,184,120261,5,10,1:2:0:0:
462,301,120495,1,0,0:0:0:0:
284,286,120730,2,0,L|127:299,1,157.5,2|0,1:2|0:0,0:0:0:0:
81,334,121199,6,0,L|96:159,1,175,2|0,1:2|0:0,0:0:0:0:
62,50,121902,1,0,0:0:0:0:
176,43,122136,6,0,L|219:39,3,43.75,10|0|0|0,1:2|0:0|0:0|0:0,0:0:0:0:
260,79,122605,2,0,L|303:82,3,43.75,2|2|2|2,2:0|2:0|2:0|2:0,0:0:0:0:
360,82,123074,6,0,B|402:65|402:65|441:82,1,87.5,2|0,1:2|0:0,0:0:0:0:
480,122,123425,2,0,B|497:164|497:164|480:203,1,87.5,2|0,2:0|0:0,0:0:0:0:
439,243,123777,2,0,L|397:259,1,43.75,2|0,2:0|0:0,0:0:0:0:
357,218,124011,6,0,L|269:210,1,87.5,10|0,1:2|0:0,0:0:0:0:
189,290,124480,2,0,L|197:377,1,87.5,2|2,2:0|2:0,0:0:0:0:
309,361,124949,6,0,L|352:357,3,43.75,2|2|2|2,1:2|2:0|2:0|2:0,0:0:0:0:
404,334,125417,2,0,L|447:338,3,43.75,2|2|2|2,2:0|2:0|2:0|2:0,0:0:0:0:
483,293,125886,6,0,L|479:250,3,43.75,10|2|2|2,1:2|2:0|2:0|2:0,0:0:0:0:
456,198,126355,2,0,L|460:155,3,43.75,2|2|2|2,2:0|2:0|2:0|2:0,0:0:0:0:
437,101,126824,6,0,B|420:88|420:88|399:93,3,43.75,2|2|2|2,1:2|2:0|2:0|2:0,0:0:0:0:
358,133,127292,6,0,B|341:146|341:146|320:142,3,43.75,2|2|2|2,1:2|2:0|2:0|2:0,0:0:0:0:
278,101,127761,5,10,1:2:0:0:
164,91,127995,1,0,0:0:0:0:
22,200,128230,2,0,L|35:356,1,157.5,2|0,1:2|0:0,0:0:0:0:
92,356,128699,6,0,L|135:360,3,43.75,2|2|2|2,1:2|2:0|2:0|2:0,0:0:0:0:
175,319,129167,2,0,L|218:315,3,43.75,2|2|2|2,2:0|2:0|2:0|2:0,0:0:0:0:
259,274,129636,6,0,L|263:231,3,43.75,10|2|2|2,1:2|2:0|2:0|2:0,0:0:0:0:
222,191,130105,2,0,L|218:148,3,43.75,2|2|2|2,2:0|2:0|2:0|2:0,0:0:0:0:
258,106,130574,6,0,L|346:98,1,87.5,2|2,1:2|2:0,0:0:0:0:
425,178,131042,2,0,L|418:265,1,87.5,2|2,2:0|2:0,0:0:0:0:
417,379,131511,6,0,L|374:383,3,43.75,10|2|2|2,1:2|2:0|2:0|2:0,0:0:0:0:
333,342,131980,2,0,L|290:338,3,43.75,2|2|2|2,2:0|2:0|2:0|2:0,0:0:0:0:
248,378,132449,5,0,1:2:0:0:
248,378,133386,6,0,L|404:365,1,157.5,14|0,1:2|0:0,0:0:0:0:
445,323,133855,2,0,L|449:279,3,43.75,2|2|2|2,2:0|2:0|2:0|2:0,0:0:0:0:
416,232,134324,6,0,B|411:211|411:211|424:194,3,43.75,2|2|2|2,1:2|2:0|2:0|2:0,0:0:0:0:
446,171,134792,5,2,1:2:0:0:
449,140,134909,1,2,2:0:0:0:
451,109,135027,1,2,2:0:0:0:
454,78,135144,1,2,2:0:0:0:
457,47,135261,5,10,1:2:0:0:
346,71,135495,1,0,0:0:0:0:
179,7,135730,2,0,L|22:20,1,157.5,2|0,1:2|0:0,0:0:0:0:
45,74,136199,6,0,L|41:117,3,43.75,0|0|0|0,1:2|0:0|0:0|0:0,0:0:0:0:
0,157,136667,2,0,L|3:200,3,43.75,2|0|0|0,2:0|0:0|0:0|0:0,0:0:0:0:
43,241,137136,6,0,L|86:237,3,43.75,10|2|2|2,1:2|2:0|2:0|2:0,0:0:0:0:
127,196,137605,2,0,L|170:199,3,43.75,2|2|2|2,2:0|2:0|2:0|2:0,0:0:0:0:
170,141,138074,6,0,B|153:99|153:99|170:60,1,87.5,2|0,1:2|0:0,0:0:0:0:
210,21,138425,2,0,B|249:5|249:5|291:21,1,87.5,2|0,2:0|0:0,0:0:0:0:
331,61,138777,2,0,L|347:103,1,43.75,2|0,2:0|0:0,0:0:0:0:
335,157,139011,6,0,B|318:199|318:199|335:238,1,87.5,10|0,1:2|0:0,0:0:0:0:
375,277,139363,2,0,B|414:293|414:293|456:277,1,87.5,2|0,2:0|0:0,0:0:0:0:
496,236,139714,2,0,L|512:194,1,43.75,2|0,2:0|0:0,0:0:0:0:
512,138,139949,5,0,1:2:0:0:
459,138,140417,5,2,1:2:0:0:
432,138,140652,1,2,1:2:0:0:
305,264,140886,6,0,L|148:277,1,157.5,10|0,1:2|0:0,0:0:0:0:
107,317,141355,2,0,L|63:313,3,43.75,2|2|2|2,2:0|2:0|2:0|2:0,0:0:0:0:
22,272,141824,6,0,B|17:251|17:251|30:234,3,43.75,2|2|2|2,1:2|2:0|2:0|2:0,0:0:0:0:
70,193,142292,5,2,1:2:0:0:
101,190,142409,1,2,2:0:0:0:
132,188,142527,1,2,2:0:0:0:
163,185,142644,1,2,2:0:0:0:
194,182,142761,5,10,1:2:0:0:
141,82,142995,1,0,0:0:0:0:
317,47,143230,2,0,L|331:203,1,157.5,2|0,1:2|0:0,0:0:0:0:
371,244,143699,6,0,L|367:287,3,43.75,2|2|2|2,1:2|2:0|2:0|2:0,0:0:0:0:
407,327,144167,2,0,L|450:324,3,43.75,2|2|2|2,2:0|2:0|2:0|2:0,0:0:0:0:
491,283,144636,6,0,L|488:240,3,43.75,10|2|2|2,1:2|2:0|2:0|2:0,0:0:0:0:
447,198,145105,2,0,L|450:155,3,43.75,2|2|2|2,2:0|2:0|2:0|2:0,0:0:0:0:
490,113,145574,6,0,L|483:25,1,87.5,2|2,1:2|2:0,0:0:0:0:
369,25,146042,2,0,L|361:113,1,87.5,2|2,2:0|2:0,0:0:0:0:
247,112,146511,6,0,L|204:108,3,43.75,10|2|2|2,1:2|2:0|2:0|2:0,0:0:0:0:
164,148,146980,2,0,L|121:151,3,43.75,2|2|2|2,2:0|2:0|2:0|2:0,0:0:0:0:
80,110,147449,5,0,1:2:0:0:
108,23,164324,6,0,B|151:80|146:156|146:156|100:211|121:287|121:287|193:306|254:267|254:267|266:194|328:148,1,560,2|2,3:2|3:2,0:0:0:0:
325,149,169949,1,0,3:2:0:0:
325,149,171824,6,0,B|348:220|421:243|421:243|370:288|350:361|350:361|278:364|227:311|227:311|154:323|96:374,1,560,2|2,3:2|3:2,0:0:0:0:
99,371,177449,1,0,3:2:0:0:
99,371,179324,5,2,3:2:0:0:
34,306,179558,1,0,0:0:0:0:
74,224,179792,2,0,L|74:154,1,70,2|2,3:2|2:0,0:0:0:0:
38,69,180261,2,0,L|199:69,2,140,10|2|2,3:2|3:2|3:2,0:0:0:0:
56,250,181667,5,0,3:2:0:0:
128,194,181902,1,2,3:2:0:0:
214,222,182136,2,0,L|284:222,1,70,10|0,3:2|0:0,0:0:0:0:
348,286,182605,2,0,L|348:356,1,70,2|0,3:2|0:0,0:0:0:0:
439,356,183074,5,2,3:2:0:0:
500,185,183542,1,0,3:2:0:0:
489,94,183777,1,0,0:0:0:0:
405,59,184011,2,0,P|355:42|311:39,1,70,8|0,3:2|0:0,0:0:0:0:
256,80,184480,2,0,P|206:97|162:100,1,70,0|0,3:2|0:0,0:0:0:0:
102,70,184949,5,0,3:2:0:0:
13,228,185417,1,0,3:2:0:0:
102,214,185652,1,0,3:2:0:0:
166,278,185886,2,0,P|216:295|260:298,1,70,8|0,3:2|0:0,0:0:0:0:
297,232,186355,2,0,P|347:215|391:212,1,70,0|0,3:2|3:2,0:0:0:0:
381,229,186706,1,0,3:2:0:0:
398,246,186824,5,2,3:2:0:0:
461,75,187292,2,0,L|391:75,1,70,2|2,3:2|2:0,0:0:0:0:
299,74,187761,2,0,L|299:214,2,140,10|2|2,3:2|3:2|3:2,0:0:0:0:
121,35,189167,5,0,3:2:0:0:
67,108,189402,1,2,3:2:0:0:
104,190,189636,2,0,L|104:280,1,70,10|0,3:2|0:0,0:0:0:0:
158,333,190105,1,2,3:2:0:0:
243,302,190339,1,0,0:0:0:0:
332,321,190574,6,0,L|422:321,1,70,2|0,3:2|0:0,0:0:0:0:
492,317,191042,1,0,3:2:0:0:
463,137,191511,1,8,3:2:0:0:
374,115,191745,1,0,0:0:0:0:
302,58,191980,1,0,3:2:0:0:
213,80,192214,2,0,P|181:66|141:59,1,70,0|0,0:0|3:2,0:0:0:0:
57,77,192683,5,0,3:2:0:0:
39,166,192917,2,0,P|45:200|60:233,1,70,0|0,3:2|3:2,0:0:0:0:
151,233,193386,2,0,P|185:239|217:253,1,70,8|0,3:2|0:0,0:0:0:0:
281,318,193855,2,0,P|315:311|347:297,1,70,0|0,3:2|3:2,0:0:0:0:
371,297,194206,1,0,3:2:0:0:
395,297,194324,5,2,3:2:0:0:
453,227,194558,1,0,0:0:0:0:
393,158,194792,2,0,L|296:158,1,70,2|2,3:2|2:0,0:0:0:0:
231,158,195261,2,0,L|231:18,2,140,10|2|2,3:2|3:2|3:2,0:0:0:0:
60,94,196667,5,0,3:2:0:0:
71,184,196902,1,2,3:2:0:0:
44,270,197136,2,0,L|114:270,1,70,10|0,3:2|0:0,0:0:0:0:
170,341,197605,2,0,L|240:341,1,70,2|0,3:2|0:0,0:0:0:0:
328,361,198074,5,2,3:2:0:0:
299,181,198542,1,0,3:2:0:0:
388,198,198777,1,0,0:0:0:0:
457,139,199011,2,0,P|471:106|477:72,2,70,8|0|0,3:2|0:0|3:2,0:0:0:0:
316,22,199949,6,0,P|281:28|249:42,1,70,0|0,3:2|3:2,0:0:0:0:
187,108,200417,1,0,3:2:0:0:
98,91,200652,1,0,3:2:0:0:
29,150,200886,2,0,P|14:182|8:216,2,70,8|0|0,3:2|0:0|3:2,0:0:0:0:
113,184,201589,1,0,3:2:0:0:
130,201,201706,1,0,3:2:0:0:
147,218,201824,5,2,3:2:0:0:
209,284,202058,1,0,0:0:0:0:
293,250,202292,2,0,L|363:250,1,70,2|2,3:2|2:0,0:0:0:0:
446,212,202761,2,0,L|446:55,2,140,10|2|2,3:2|3:2|3:2,0:0:0:0:
310,333,204167,5,0,3:2:0:0:
221,309,204402,1,2,3:2:0:0:
132,328,204636,2,0,L|62:328,1,70,10|0,3:2|0:0,0:0:0:0:
62,236,205105,2,0,L|132:236,1,70,2|0,3:2|0:0,0:0:0:0:
196,171,205574,5,2,3:2:0:0:
175,82,205808,1,0,0:0:0:0:
262,108,206042,2,0,L|331:114,1,70,0|0,3:2|0:0,0:0:0:0:
422,101,206511,2,0,L|415:170,1,70,8|0,3:2|0:0,0:0:0:0:
429,261,206980,2,0,L|359:254,1,70,0|0,3:2|0:0,0:0:0:0:
359,254,209089,5,0,3:2:0:0:
359,254,209206,1,0,3:2:0:0:
359,254,209324,6,0,L|362:297,3,43.75,6|2|2|2,1:2|2:0|2:0|2:0,0:0:0:0:
322,337,209792,2,0,L|278:333,3,43.75,2|2|2|2,2:0|2:0|2:0|2:0,0:0:0:0:
237,292,210261,6,0,L|193:295,3,43.75,10|2|2|2,1:2|2:0|2:0|2:0,0:0:0:0:
153,335,210730,2,0,L|109:331,1,43.75,2|2,2:0|2:0,0:0:0:0:
68,290,210964,2,0,L|24:293,1,43.75,2|2,2:0|2:0,0:0:0:0:
24,236,211199,6,0,B|11:219|11:219|16:198,3,43.75,2|2|2|2,1:2|2:0|2:0|2:0,0:0:0:0:
16,166,211667,5,2,1:2:0:0:
45,168,211784,1,2,2:0:0:0:
75,171,211902,1,2,2:0:0:0:
105,173,212019,1,2,2:0:0:0:
135,176,212136,5,10,1:2:0:0:
223,104,212370,1,0,0:0:0:0:
324,252,212605,2,0,L|167:265,1,157.5,2|0,1:2|0:0,0:0:0:0:
116,293,213074,6,0,L|112:336,3,43.75,2|0|0|0,1:2|0:0|0:0|0:0,0:0:0:0:
72,376,213542,2,0,L|28:379,3,43.75,2|0|0|0,2:0|0:0|0:0|0:0,0:0:0:0:
28,322,214011,6,0,L|31:278,3,43.75,10|2|2|2,1:2|2:0|2:0|2:0,0:0:0:0:
71,238,214480,2,0,L|67:194,3,43.75,2|2|2|2,2:0|2:0|2:0|2:0,0:0:0:0:
108,153,214949,6,0,L|108:65,1,87.5,2|0,1:2|0:0,0:0:0:0:
164,65,215300,2,0,L|251:65,1,87.5,2|0,2:0|0:0,0:0:0:0:
251,122,215652,2,0,L|251:165,1,43.75,2|0,2:0|0:0,0:0:0:0:
251,222,215886,6,0,L|163:222,1,87.5,10|0,1:2|0:0,0:0:0:0:
163,279,216238,2,0,L|163:366,1,87.5,2|0,2:0|0:0,0:0:0:0:
219,366,216589,2,0,L|262:366,1,43.75,2|0,2:0|0:0,0:0:0:0:
319,363,216824,5,2,1:2:0:0:
371,363,217292,5,2,1:2:0:0:
397,363,217527,1,2,1:2:0:0:
463,197,217761,6,0,L|306:211,1,157.5,10|0,1:2|0:0,0:0:0:0:
265,251,218230,2,0,L|221:248,3,43.75,2|2|2|2,2:0|2:0|2:0|2:0,0:0:0:0:
166,263,218699,6,0,B|149:276|149:276|128:271,3,43.75,2|2|2|2,1:2|2:0|2:0|2:0,0:0:0:0:
121,240,219167,5,2,1:2:0:0:
118,210,219284,1,2,2:0:0:0:
115,179,219402,1,2,2:0:0:0:
113,148,219519,1,2,2:0:0:0:
110,117,219636,5,10,1:2:0:0:
29,36,219870,1,0,0:0:0:0:
211,73,220105,2,0,L|367:86,1,157.5,2|0,1:2|0:0,0:0:0:0:
417,58,220574,6,0,L|421:101,3,43.75,2|2|2|2,1:2|2:0|2:0|2:0,0:0:0:0:
461,141,221042,2,0,L|457:184,3,43.75,2|2|2|2,2:0|2:0|2:0|2:0,0:0:0:0:
497,225,221511,6,0,L|493:268,3,43.75,10|2|2|2,1:2|2:0|2:0|2:0,0:0:0:0:
453,308,221980,2,0,L|457:351,3,43.75,2|2|2|2,2:0|2:0|2:0|2:0,0:0:0:0:
399,351,222449,6,0,L|311:343,1,87.5,2|2,1:2|2:0,0:0:0:0:
231,263,222917,2,0,L|143:270,1,87.5,2|2,2:0|2:0,0:0:0:0:
29,270,223386,6,0,L|33:227,3,43.75,10|2|2|2,1:2|2:0|2:0|2:0,0:0:0:0:
73,187,223855,2,0,L|69:144,3,43.75,2|2|2|2,2:0|2:0|2:0|2:0,0:0:0:0:
28,102,224324,5,0,1:2:0:0:
28,102,225261,5,14,1:2:0:0:
70,105,225378,1,2,1:2:0:0:
113,109,225495,1,2,1:2:0:0:
157,113,225613,1,2,1:2:0:0:
200,117,225730,1,2,1:2:0:0:
301,49,225964,1,2,1:2:0:0:
200,117,226199,6,0,L|204:160,3,43.75,6|2|2|2,1:2|2:0|2:0|2:0,0:0:0:0:
246,163,226667,5,2,1:2:0:0:
289,167,226784,1,2,2:0:0:0:
333,171,226902,1,2,2:0:0:0:
376,175,227019,1,2,2:0:0:0:
419,179,227136,5,10,1:2:0:0:
465,282,227370,1,0,0:0:0:0:
299,348,227605,2,0,L|142:361,1,157.5,2|0,1:2|0:0,0:0:0:0:
101,321,228074,6,0,L|104:277,3,43.75,2|0|0|0,1:2|0:0|0:0|0:0,0:0:0:0:
64,237,228542,2,0,L|20:240,3,43.75,2|0|0|0,2:0|0:0|0:0|0:0,0:0:0:0:
20,183,229011,6,0,L|16:139,3,43.75,10|2|2|2,1:2|2:0|2:0|2:0,0:0:0:0:
57,99,229480,2,0,L|100:102,3,43.75,2|2|2|2,2:0|2:0|2:0|2:0,0:0:0:0:
141,61,229949,6,0,L|229:61,1,87.5,2|0,1:2|0:0,0:0:0:0:
228,117,230300,2,0,L|228:204,1,87.5,2|0,2:0|0:0,0:0:0:0:
170,204,230652,2,0,L|127:204,1,43.75,2|0,2:0|0:0,0:0:0:0:
126,260,230886,6,0,L|126:348,1,87.5,10|0,1:2|0:0,0:0:0:0:
184,347,231238,2,0,L|271:347,1,87.5,2|0,2:0|0:0,0:0:0:0:
272,290,231589,2,0,L|272:247,1,43.75,2|0,2:0|0:0,0:0:0:0:
272,188,231824,5,0,1:2:0:0:
272,135,232292,5,2,1:2:0:0:
272,108,232527,1,2,1:2:0:0:
450,108,232761,6,0,L|437:264,1,157.5,10|0,1:2|0:0,0:0:0:0:
436,322,233230,2,0,L|393:319,3,43.75,2|2|2|2,2:0|2:0|2:0|2:0,0:0:0:0:
351,278,233699,6,0,B|334:265|334:265|313:270,3,43.75,2|2|2|2,1:2|2:0|2:0|2:0,0:0:0:0:
272,310,234167,5,2,1:2:0:0:
242,313,234284,1,2,2:0:0:0:
211,316,234402,1,2,2:0:0:0:
180,318,234519,1,2,2:0:0:0:
149,321,234636,5,10,1:2:0:0:
41,358,234870,1,0,0:0:0:0:
61,180,235105,2,0,L|218:193,1,157.5,2|0,1:2|0:0,0:0:0:0:
258,233,235574,6,0,L|301:237,3,43.75,2|2|2|2,1:2|2:0|2:0|2:0,0:0:0:0:
341,277,236042,2,0,L|384:274,3,43.75,2|2|2|2,2:0|2:0|2:0|2:0,0:0:0:0:
425,233,236511,6,0,L|428:190,3,43.75,10|2|2|2,1:2|2:0|2:0|2:0,0:0:0:0:
469,150,236980,2,0,L|465:107,3,43.75,2|2|2|2,2:0|2:0|2:0|2:0,0:0:0:0:
424,65,237449,6,0,L|336:58,1,87.5,2|2,1:2|2:0,0:0:0:0:
256,138,237917,2,0,L|264:226,1,87.5,2|2,2:0|2:0,0:0:0:0:
263,339,238386,6,0,L|219:343,3,43.75,10|2|2|2,1:2|2:0|2:0|2:0,0:0:0:0:
180,383,238855,2,0,L|136:380,3,43.75,2|2|2|2,2:0|2:0|2:0|2:0,0:0:0:0:
95,339,239324,5,4,1:2:0:0:
