osu file format v14

[General]
AudioFilename: Crywolf - Wake [E-bow].mp3
AudioLeadIn: 0
PreviewTime: 138312
Countdown: 0
SampleSet: Normal
StackLeniency: 0.7
Mode: 1
LetterboxInBreaks: 0
WidescreenStoryboard: 0

[Editor]
Bookmarks: 27883,55709,83535,111361,139187,167013,168752,196578,224404
DistanceSpacing: 1
BeatDivisor: 4
GridSize: 4
TimelineZoom: 2.3

[Metadata]
Title:Wake [E-bow]
TitleUnicode:Wake [E-bow]
Artist:Crywolf
ArtistUnicode:Crywolf
Creator:Ulqui
Version:Oni
Source:
Tags:runcrywolf cataclasm electronic english chill skull kid genjuro _dusk_
BeatmapID:2213657
BeatmapSetID:1058199

[Difficulty]
HPDrainRate:5.5
CircleSize:2
OverallDifficulty:6
ApproachRate:0
SliderMultiplier:1.4
SliderTickRate:1

[Events]
//Background and Video events
0,0,"804675-fog-wallpapers.jpg",0,0
//Break Periods
//Storyboard Layer 0 (Background)
//Storyboard Layer 1 (Fail)
//Storyboard Layer 2 (Pass)
//Storyboard Layer 3 (Foreground)
//Storyboard Layer 4 (Overlay)
//Storyboard Sound Samples

[TimingPoints]
27878,434.782608695652,4,1,0,100,1,0
55921,-125,4,1,0,60,0,0
82660,-66.6666666666667,4,1,0,5,0,0
83530,-95.2380952380952,4,1,0,100,0,1
111356,-95.2380952380952,4,1,0,100,0,0
111573,-125,4,1,0,60,0,0
138312,-66.6666666666667,4,1,0,5,0,0
139182,-95.2380952380952,4,1,0,100,0,1
167008,-95.2380952380952,4,1,0,100,0,0
168747,-95.2380952380952,4,1,0,80,0,0

[HitObjects]
257,167,27660,5,0,0:0:0:0:
257,167,27769,1,0,0:0:0:0:
127,160,27878,1,8,0:0:0:0:
127,160,28095,1,8,0:0:0:0:
127,160,28204,1,8,0:0:0:0:
127,160,28312,1,0,0:0:0:0:
173,87,28530,1,0,0:0:0:0:
173,87,28747,1,8,0:0:0:0:
157,113,28964,1,0,0:0:0:0:
151,132,29073,1,0,0:0:0:0:
151,126,29182,1,0,0:0:0:0:
151,132,29399,1,0,0:0:0:0:
187,115,29834,1,0,0:0:0:0:
187,115,29943,1,8,0:0:0:0:
187,115,30051,1,0,0:0:0:0:
176,66,30269,1,0,0:0:0:0:
176,66,30486,1,8,0:0:0:0:
113,135,30921,1,8,0:0:0:0:
113,135,31138,1,0,0:0:0:0:
113,135,31247,1,8,0:0:0:0:
113,135,31356,1,0,0:0:0:0:
113,135,31573,1,8,0:0:0:0:
113,135,31682,1,8,0:0:0:0:
113,135,31791,1,0,0:0:0:0:
129,113,32008,1,0,0:0:0:0:
127,116,32225,1,8,0:0:0:0:
127,116,32443,1,0,0:0:0:0:
127,116,32551,1,0,0:0:0:0:
127,116,32660,1,0,0:0:0:0:
129,113,32878,1,0,0:0:0:0:
144,102,33312,1,0,0:0:0:0:
144,102,33421,1,8,0:0:0:0:
143,102,33530,1,0,0:0:0:0:
129,113,33747,1,0,0:0:0:0:
132,110,33964,1,8,0:0:0:0:
154,100,34399,1,8,0:0:0:0:
146,97,34617,1,8,0:0:0:0:
145,98,34834,1,0,0:0:0:0:
145,78,35051,1,8,0:0:0:0:
145,78,35160,1,8,0:0:0:0:
145,78,35269,1,0,0:0:0:0:
144,79,35486,1,0,0:0:0:0:
144,79,35704,1,8,0:0:0:0:
139,88,35921,1,0,0:0:0:0:
145,78,36030,1,0,0:0:0:0:
139,88,36138,1,0,0:0:0:0:
139,88,36356,1,0,0:0:0:0:
138,88,36791,1,0,0:0:0:0:
139,88,36899,1,8,0:0:0:0:
138,88,37008,1,0,0:0:0:0:
131,92,37225,1,0,0:0:0:0:
130,93,37443,1,8,0:0:0:0:
130,93,37878,1,8,0:0:0:0:
131,92,38095,1,0,0:0:0:0:
131,92,38204,1,8,0:0:0:0:
131,92,38312,1,0,0:0:0:0:
130,93,38530,1,8,0:0:0:0:
130,93,38638,1,8,0:0:0:0:
130,93,38747,1,0,0:0:0:0:
131,92,38964,1,0,0:0:0:0:
131,92,39182,1,8,0:0:0:0:
130,93,39399,1,0,0:0:0:0:
128,99,39508,1,0,0:0:0:0:
130,93,39617,1,0,0:0:0:0:
128,98,39834,1,8,0:0:0:0:
127,100,40051,1,0,0:0:0:0:
126,113,40269,1,0,0:0:0:0:
126,113,40378,1,0,0:0:0:0:
126,113,40486,1,8,0:0:0:0:
126,113,40595,1,8,0:0:0:0:
125,113,40704,1,0,0:0:0:0:
121,115,40812,1,0,0:0:0:0:
121,115,40921,1,8,0:0:0:0:
157,70,41247,1,0,0:0:0:0:
157,70,41356,1,8,0:0:0:0:
164,65,41573,1,0,0:0:0:0:
163,66,41682,1,8,0:0:0:0:
163,66,41791,1,0,0:0:0:0:
124,168,42008,1,8,0:0:0:0:
124,168,42117,1,8,0:0:0:0:
124,168,42225,1,0,0:0:0:0:
124,168,42443,1,0,0:0:0:0:
124,168,42660,1,8,0:0:0:0:
124,168,42877,1,0,0:0:0:0:
124,168,42986,1,0,0:0:0:0:
124,168,43095,1,8,0:0:0:0:
124,168,43312,1,0,0:0:0:0:
124,168,43747,1,0,0:0:0:0:
124,168,43856,1,8,0:0:0:0:
124,168,43964,1,0,0:0:0:0:
124,168,44182,1,0,0:0:0:0:
124,168,44399,1,8,0:0:0:0:
135,67,44617,5,0,0:0:0:0:
124,168,44834,1,8,0:0:0:0:
136,82,45269,1,0,0:0:0:0:
136,82,45486,1,8,0:0:0:0:
136,82,45595,1,8,0:0:0:0:
136,82,45704,1,0,0:0:0:0:
124,99,45921,1,0,0:0:0:0:
124,99,46138,1,8,0:0:0:0:
124,99,46356,1,0,0:0:0:0:
124,99,46464,1,0,0:0:0:0:
124,99,46573,1,8,0:0:0:0:
124,99,46791,1,0,0:0:0:0:
194,80,47225,1,0,0:0:0:0:
184,85,47334,1,8,0:0:0:0:
184,85,47443,1,0,0:0:0:0:
182,85,47660,1,0,0:0:0:0:
182,85,47877,1,8,0:0:0:0:
182,85,48312,1,8,0:0:0:0:
184,85,48530,1,8,0:0:0:0:
182,85,48747,1,0,0:0:0:0:
130,96,48964,1,8,0:0:0:0:
130,96,49073,1,8,0:0:0:0:
130,96,49182,1,0,0:0:0:0:
143,82,49399,1,0,0:0:0:0:
143,82,49617,1,8,0:0:0:0:
143,82,49834,1,0,0:0:0:0:
143,82,49943,1,0,0:0:0:0:
143,82,50051,1,8,0:0:0:0:
146,80,50269,1,0,0:0:0:0:
150,82,50704,1,0,0:0:0:0:
150,82,50812,1,8,0:0:0:0:
150,82,50921,1,0,0:0:0:0:
146,80,51138,1,0,0:0:0:0:
151,82,51356,1,8,0:0:0:0:
150,82,51573,1,0,0:0:0:0:
150,82,51791,1,8,0:0:0:0:
151,82,52225,1,0,0:0:0:0:
150,82,52443,1,8,0:0:0:0:
150,82,52551,1,8,0:0:0:0:
150,82,52660,1,0,0:0:0:0:
151,82,52877,1,0,0:0:0:0:
151,82,53095,1,8,0:0:0:0:
150,82,53312,1,0,0:0:0:0:
166,48,53421,1,0,0:0:0:0:
142,82,53530,1,8,0:0:0:0:
142,82,53747,1,8,0:0:0:0:
166,51,53964,1,0,0:0:0:0:
167,51,54182,1,8,0:0:0:0:
167,51,54291,1,8,0:0:0:0:
166,48,54399,1,0,0:0:0:0:
166,51,54508,1,0,0:0:0:0:
166,51,54617,1,8,0:0:0:0:
166,51,54725,1,8,0:0:0:0:
162,57,54834,1,0,0:0:0:0:
162,59,55160,1,0,0:0:0:0:
162,59,55269,1,8,0:0:0:0:
162,59,55486,1,0,0:0:0:0:
141,37,55595,1,8,0:0:0:0:
162,59,55704,1,0,0:0:0:0:
158,197,56356,1,0,0:0:0:0:
158,197,56573,1,8,0:0:0:0:
147,173,57225,1,0,0:0:0:0:
147,173,57877,1,0,0:0:0:0:
147,173,58312,1,8,0:0:0:0:
147,173,59182,1,0,0:0:0:0:
147,173,59834,1,0,0:0:0:0:
147,173,60051,1,8,0:0:0:0:
147,173,60704,1,0,0:0:0:0:
147,173,61356,1,0,0:0:0:0:
147,173,61791,1,8,0:0:0:0:
147,173,62660,1,0,0:0:0:0:
147,173,63312,1,0,0:0:0:0:
147,173,63530,1,8,0:0:0:0:
147,173,64182,1,0,0:0:0:0:
147,173,64834,1,0,0:0:0:0:
147,173,65269,1,8,0:0:0:0:
157,162,66138,1,0,0:0:0:0:
157,162,66791,1,0,0:0:0:0:
157,162,67008,1,8,0:0:0:0:
157,162,67877,1,0,0:0:0:0:
166,157,69617,1,0,0:0:0:0:
166,157,70051,1,8,0:0:0:0:
166,157,70269,1,0,0:0:0:0:
166,157,70486,1,8,0:0:0:0:
188,117,70921,1,0,0:0:0:0:
166,157,71138,1,0,0:0:0:0:
188,117,71573,1,8,0:0:0:0:
188,117,71791,1,0,0:0:0:0:
188,117,72225,1,8,0:0:0:0:
166,75,72660,1,8,0:0:0:0:
166,75,72877,1,8,0:0:0:0:
166,75,73095,1,0,0:0:0:0:
166,75,73530,1,8,0:0:0:0:
166,75,73747,1,0,0:0:0:0:
166,75,73964,1,8,0:0:0:0:
189,86,74399,1,0,0:0:0:0:
189,86,74617,1,0,0:0:0:0:
177,88,75051,1,8,0:0:0:0:
177,88,75269,1,0,0:0:0:0:
177,88,75704,1,8,0:0:0:0:
195,46,75921,1,0,0:0:0:0:
146,25,76138,1,8,0:0:0:0:
146,25,76356,1,8,0:0:0:0:
166,97,76573,1,0,0:0:0:0:
195,47,77008,1,0,0:0:0:0:
166,97,77225,1,0,0:0:0:0:
166,97,77443,1,8,0:0:0:0:
195,47,77877,1,0,0:0:0:0:
166,97,78095,1,0,0:0:0:0:
166,97,78530,1,8,0:0:0:0:
166,97,78747,1,0,0:0:0:0:
166,97,79182,1,8,0:0:0:0:
166,97,80051,1,0,0:0:0:0:
166,97,80704,1,0,0:0:0:0:
168,92,81791,1,0,0:0:0:0:
256,192,82660,12,8,83312,0:0:0:0:
152,188,83530,5,8,0:0:0:0:
160,170,83747,1,0,0:0:0:0:
160,170,83856,1,0,0:0:0:0:
158,171,83964,1,8,0:0:0:0:
157,171,84182,1,0,0:0:0:0:
156,171,84399,1,8,0:0:0:0:
160,170,84617,1,0,0:0:0:0:
151,172,84725,1,0,0:0:0:0:
152,173,84834,1,0,0:0:0:0:
158,171,85051,1,0,0:0:0:0:
156,171,85269,1,8,0:0:0:0:
151,172,85486,1,0,0:0:0:0:
146,25,85595,1,8,0:0:0:0:
151,172,85704,1,0,0:0:0:0:
158,171,85921,1,0,0:0:0:0:
156,171,86138,1,8,0:0:0:0:
141,152,86573,1,8,0:0:0:0:
131,112,86791,1,0,0:0:0:0:
151,83,86899,1,0,0:0:0:0:
161,38,87008,1,0,0:0:0:0:
215,126,87225,1,8,0:0:0:0:
215,126,87334,1,8,0:0:0:0:
215,126,87443,1,0,0:0:0:0:
202,143,87660,1,0,0:0:0:0:
191,147,87877,1,8,0:0:0:0:
186,146,88095,1,0,0:0:0:0:
186,146,88204,1,0,0:0:0:0:
184,146,88312,1,0,0:0:0:0:
183,147,88530,1,0,0:0:0:0:
159,147,88747,1,8,0:0:0:0:
162,147,88964,1,0,0:0:0:0:
159,148,89073,1,0,0:0:0:0:
159,147,89182,1,8,0:0:0:0:
159,148,89399,1,0,0:0:0:0:
159,147,89617,1,8,0:0:0:0:
159,148,90051,1,8,0:0:0:0:
160,73,90269,1,0,0:0:0:0:
159,147,90486,1,8,0:0:0:0:
143,155,90704,1,0,0:0:0:0:
143,155,90812,1,0,0:0:0:0:
143,155,90921,1,8,0:0:0:0:
143,155,91138,1,0,0:0:0:0:
143,154,91356,1,8,0:0:0:0:
143,155,91573,1,0,0:0:0:0:
144,163,91682,1,0,0:0:0:0:
144,165,91791,1,0,0:0:0:0:
144,166,92008,1,0,0:0:0:0:
152,164,92225,1,8,0:0:0:0:
154,164,92443,1,0,0:0:0:0:
154,164,92551,1,8,0:0:0:0:
153,164,92660,1,0,0:0:0:0:
153,164,92877,1,0,0:0:0:0:
152,164,93095,1,8,0:0:0:0:
154,164,93530,1,8,0:0:0:0:
153,164,93747,1,0,0:0:0:0:
153,164,93856,1,0,0:0:0:0:
153,164,93964,1,0,0:0:0:0:
154,164,94182,1,8,0:0:0:0:
154,164,94291,1,8,0:0:0:0:
154,164,94399,1,0,0:0:0:0:
154,164,94617,1,0,0:0:0:0:
153,164,94834,1,8,0:0:0:0:
154,164,95051,1,0,0:0:0:0:
154,164,95160,1,0,0:0:0:0:
154,164,95269,1,0,0:0:0:0:
154,164,95486,1,8,0:0:0:0:
153,164,95704,1,0,0:0:0:0:
153,164,95812,1,0,0:0:0:0:
154,164,95921,1,0,0:0:0:0:
154,164,96030,1,8,0:0:0:0:
154,164,96138,1,8,0:0:0:0:
154,164,96356,1,0,0:0:0:0:
153,164,96573,1,8,0:0:0:0:
154,164,96899,1,0,0:0:0:0:
154,164,97008,1,8,0:0:0:0:
154,164,97225,1,0,0:0:0:0:
154,164,97334,1,8,0:0:0:0:
209,43,97443,1,8,0:0:0:0:
160,170,97660,1,0,0:0:0:0:
160,170,97769,1,0,0:0:0:0:
158,171,97877,1,8,0:0:0:0:
157,171,98095,1,0,0:0:0:0:
156,171,98312,1,8,0:0:0:0:
160,170,98530,1,0,0:0:0:0:
151,172,98638,1,0,0:0:0:0:
152,173,98747,1,0,0:0:0:0:
158,171,98964,1,0,0:0:0:0:
156,171,99182,1,8,0:0:0:0:
151,172,99399,1,0,0:0:0:0:
146,25,99508,1,8,0:0:0:0:
151,172,99617,1,0,0:0:0:0:
158,171,99834,1,0,0:0:0:0:
156,171,100051,1,8,0:0:0:0:
141,152,100486,1,8,0:0:0:0:
131,112,100704,1,0,0:0:0:0:
151,83,100812,1,0,0:0:0:0:
161,38,100921,1,0,0:0:0:0:
215,126,101138,1,8,0:0:0:0:
215,126,101247,1,8,0:0:0:0:
215,126,101356,1,0,0:0:0:0:
202,143,101573,1,0,0:0:0:0:
191,147,101791,1,8,0:0:0:0:
186,146,102008,1,0,0:0:0:0:
186,146,102117,1,0,0:0:0:0:
184,146,102225,1,0,0:0:0:0:
183,147,102443,1,0,0:0:0:0:
159,147,102660,1,8,0:0:0:0:
162,147,102877,1,0,0:0:0:0:
159,148,102986,1,0,0:0:0:0:
159,147,103095,1,8,0:0:0:0:
159,148,103312,1,0,0:0:0:0:
159,147,103530,1,8,0:0:0:0:
159,148,103964,1,8,0:0:0:0:
160,73,104182,1,0,0:0:0:0:
159,147,104399,1,8,0:0:0:0:
143,155,104617,1,0,0:0:0:0:
143,155,104725,1,0,0:0:0:0:
143,155,104834,1,8,0:0:0:0:
143,155,105051,1,0,0:0:0:0:
143,154,105269,1,8,0:0:0:0:
143,155,105486,1,0,0:0:0:0:
144,163,105595,1,0,0:0:0:0:
144,165,105704,1,0,0:0:0:0:
144,166,105921,1,0,0:0:0:0:
152,164,106138,1,8,0:0:0:0:
154,164,106356,1,0,0:0:0:0:
154,164,106464,1,8,0:0:0:0:
153,164,106573,1,0,0:0:0:0:
153,164,106791,1,0,0:0:0:0:
152,164,107008,1,8,0:0:0:0:
154,164,107443,1,8,0:0:0:0:
153,164,107660,1,0,0:0:0:0:
153,164,107769,1,0,0:0:0:0:
153,164,107877,1,0,0:0:0:0:
154,164,108095,1,8,0:0:0:0:
154,164,108204,1,8,0:0:0:0:
154,164,108312,1,0,0:0:0:0:
154,164,108530,1,0,0:0:0:0:
153,164,108747,1,8,0:0:0:0:
154,164,108964,1,0,0:0:0:0:
154,164,109073,1,0,0:0:0:0:
154,164,109182,1,0,0:0:0:0:
154,164,109399,1,8,0:0:0:0:
142,54,109617,1,0,0:0:0:0:
141,68,109834,1,0,0:0:0:0:
141,68,109943,1,0,0:0:0:0:
141,68,110051,1,8,0:0:0:0:
141,68,110160,1,8,0:0:0:0:
141,69,110269,1,0,0:0:0:0:
142,68,110486,1,8,0:0:0:0:
141,68,110812,1,0,0:0:0:0:
141,68,110921,1,8,0:0:0:0:
141,68,111138,1,0,0:0:0:0:
144,62,111247,1,8,0:0:0:0:
142,68,111356,1,0,0:0:0:0:
141,208,111791,1,8,0:0:0:0:
89,171,112008,1,0,0:0:0:0:
89,171,112225,1,8,0:0:0:0:
141,208,112660,1,0,0:0:0:0:
89,171,112877,1,0,0:0:0:0:
141,208,113312,1,8,0:0:0:0:
89,171,113530,1,0,0:0:0:0:
89,171,113964,1,8,0:0:0:0:
89,171,114834,1,0,0:0:0:0:
121,206,115269,1,8,0:0:0:0:
89,171,115486,1,0,0:0:0:0:
89,171,115704,1,8,0:0:0:0:
89,171,116356,1,0,0:0:0:0:
89,171,117008,1,0,0:0:0:0:
89,171,117443,1,8,0:0:0:0:
121,131,117877,1,8,0:0:0:0:
121,131,118095,1,0,0:0:0:0:
89,171,118312,1,0,0:0:0:0:
134,137,118747,1,8,0:0:0:0:
89,171,118964,1,0,0:0:0:0:
89,171,119182,1,8,0:0:0:0:
159,77,119617,1,0,0:0:0:0:
89,171,119834,1,0,0:0:0:0:
143,84,120269,1,8,0:0:0:0:
89,171,120486,1,0,0:0:0:0:
89,171,120921,1,8,0:0:0:0:
90,163,121791,1,0,0:0:0:0:
101,163,122443,1,0,0:0:0:0:
101,163,122660,1,8,0:0:0:0:
131,142,123530,1,0,0:0:0:0:
116,163,125269,1,0,0:0:0:0:
137,112,125704,1,8,0:0:0:0:
116,163,125921,1,0,0:0:0:0:
116,163,126138,1,8,0:0:0:0:
137,112,126573,1,0,0:0:0:0:
113,150,126791,1,0,0:0:0:0:
137,112,127225,1,8,0:0:0:0:
113,150,127443,1,0,0:0:0:0:
113,150,127877,1,8,0:0:0:0:
113,150,128747,1,0,0:0:0:0:
129,130,129182,1,8,0:0:0:0:
113,150,129399,1,0,0:0:0:0:
113,150,129617,1,8,0:0:0:0:
129,130,130051,1,0,0:0:0:0:
113,150,130269,1,0,0:0:0:0:
129,130,130704,1,8,0:0:0:0:
113,150,130921,1,0,0:0:0:0:
113,150,131356,1,8,0:0:0:0:
156,110,131791,1,8,0:0:0:0:
156,110,132008,1,0,0:0:0:0:
111,143,132225,1,0,0:0:0:0:
136,84,132660,1,8,0:0:0:0:
111,143,132877,1,0,0:0:0:0:
111,143,133095,1,8,0:0:0:0:
131,112,133530,1,0,0:0:0:0:
111,143,133747,1,0,0:0:0:0:
131,112,134182,1,8,0:0:0:0:
111,143,134399,1,0,0:0:0:0:
111,143,134834,1,8,0:0:0:0:
111,143,135704,1,0,0:0:0:0:
111,143,136356,1,0,0:0:0:0:
111,144,137443,1,0,0:0:0:0:
256,192,138312,12,0,138964,0:0:0:0:
166,128,139182,5,8,0:0:0:0:
166,128,139399,1,0,0:0:0:0:
206,55,139508,1,0,0:0:0:0:
166,128,139617,1,8,0:0:0:0:
206,55,139834,1,0,0:0:0:0:
201,72,140051,1,8,0:0:0:0:
199,78,140269,1,0,0:0:0:0:
189,92,140377,1,0,0:0:0:0:
198,82,140486,1,0,0:0:0:0:
189,92,140704,1,0,0:0:0:0:
189,92,140921,1,8,0:0:0:0:
189,92,141138,1,0,0:0:0:0:
189,92,141247,1,8,0:0:0:0:
185,98,141356,1,0,0:0:0:0:
185,98,141573,1,0,0:0:0:0:
161,103,141682,1,0,0:0:0:0:
161,103,141791,1,8,0:0:0:0:
161,103,141899,1,8,0:0:0:0:
161,103,142008,1,0,0:0:0:0:
161,103,142225,1,8,0:0:0:0:
141,113,142443,1,0,0:0:0:0:
141,113,142551,1,0,0:0:0:0:
161,38,142660,1,0,0:0:0:0:
215,126,142877,1,8,0:0:0:0:
215,126,142986,1,8,0:0:0:0:
215,126,143095,1,0,0:0:0:0:
202,143,143312,1,0,0:0:0:0:
191,147,143530,1,8,0:0:0:0:
186,146,143747,1,0,0:0:0:0:
186,146,143856,1,0,0:0:0:0:
184,146,143964,1,0,0:0:0:0:
183,147,144182,1,0,0:0:0:0:
159,147,144399,1,8,0:0:0:0:
162,147,144617,1,0,0:0:0:0:
159,148,144725,1,0,0:0:0:0:
159,147,144834,1,8,0:0:0:0:
159,148,145051,1,0,0:0:0:0:
159,147,145269,1,8,0:0:0:0:
159,148,145704,1,8,0:0:0:0:
160,73,145921,1,0,0:0:0:0:
159,147,146138,1,8,0:0:0:0:
143,155,146356,1,0,0:0:0:0:
143,155,146464,1,0,0:0:0:0:
143,155,146573,1,8,0:0:0:0:
143,155,146791,1,0,0:0:0:0:
143,154,147008,1,8,0:0:0:0:
143,155,147225,1,0,0:0:0:0:
200,20,147334,1,0,0:0:0:0:
144,163,147443,1,0,0:0:0:0:
144,166,147660,1,0,0:0:0:0:
152,164,147877,1,8,0:0:0:0:
154,164,148095,1,0,0:0:0:0:
154,164,148204,1,8,0:0:0:0:
153,164,148312,1,0,0:0:0:0:
153,164,148530,1,0,0:0:0:0:
140,108,148638,1,0,0:0:0:0:
152,164,148747,1,8,0:0:0:0:
156,136,148856,1,8,0:0:0:0:
184,20,148964,1,0,0:0:0:0:
154,164,149182,1,8,0:0:0:0:
153,164,149399,1,0,0:0:0:0:
153,164,149508,1,0,0:0:0:0:
153,164,149617,1,0,0:0:0:0:
154,164,149834,1,8,0:0:0:0:
154,164,149943,1,8,0:0:0:0:
154,164,150051,1,0,0:0:0:0:
154,164,150269,1,0,0:0:0:0:
153,164,150486,1,8,0:0:0:0:
154,164,150704,1,0,0:0:0:0:
154,164,150812,1,0,0:0:0:0:
154,164,150921,1,0,0:0:0:0:
154,164,151138,1,8,0:0:0:0:
153,164,151356,1,0,0:0:0:0:
154,164,151573,1,0,0:0:0:0:
154,164,151682,1,8,0:0:0:0:
154,164,151791,1,8,0:0:0:0:
154,164,152008,1,0,0:0:0:0:
153,164,152225,1,8,0:0:0:0:
154,164,152551,1,0,0:0:0:0:
154,164,152660,1,8,0:0:0:0:
154,164,152877,1,0,0:0:0:0:
154,164,152986,1,8,0:0:0:0:
209,43,153095,1,8,0:0:0:0:
160,170,153312,1,0,0:0:0:0:
160,170,153421,1,0,0:0:0:0:
158,171,153530,1,8,0:0:0:0:
157,171,153747,1,0,0:0:0:0:
156,171,153964,1,8,0:0:0:0:
160,170,154182,1,0,0:0:0:0:
151,172,154291,1,0,0:0:0:0:
152,173,154399,1,0,0:0:0:0:
158,171,154617,1,0,0:0:0:0:
156,171,154834,1,8,0:0:0:0:
151,172,155051,1,0,0:0:0:0:
216,16,155160,1,8,0:0:0:0:
151,172,155269,1,0,0:0:0:0:
158,171,155486,1,0,0:0:0:0:
172,36,155595,1,0,0:0:0:0:
156,171,155704,1,8,0:0:0:0:
188,96,155921,1,0,0:0:0:0:
141,152,156138,1,8,0:0:0:0:
131,112,156356,1,0,0:0:0:0:
151,83,156464,1,0,0:0:0:0:
161,38,156573,1,0,0:0:0:0:
215,126,156791,1,8,0:0:0:0:
215,126,156899,1,8,0:0:0:0:
215,126,157008,1,0,0:0:0:0:
202,143,157225,1,0,0:0:0:0:
191,147,157443,1,8,0:0:0:0:
161,38,157551,1,0,0:0:0:0:
186,146,157660,1,0,0:0:0:0:
186,146,157769,1,0,0:0:0:0:
184,146,157877,1,8,0:0:0:0:
183,147,158095,1,0,0:0:0:0:
159,147,158312,1,8,0:0:0:0:
162,147,158530,1,0,0:0:0:0:
159,148,158638,1,0,0:0:0:0:
159,147,158747,1,8,0:0:0:0:
159,148,158964,1,0,0:0:0:0:
159,147,159182,1,8,0:0:0:0:
159,148,159617,1,8,0:0:0:0:
160,73,159834,1,0,0:0:0:0:
159,147,160051,1,8,0:0:0:0:
143,155,160269,1,0,0:0:0:0:
143,155,160377,1,0,0:0:0:0:
143,155,160486,1,8,0:0:0:0:
143,155,160704,1,0,0:0:0:0:
143,154,160921,1,8,0:0:0:0:
143,155,161138,1,0,0:0:0:0:
144,163,161247,1,0,0:0:0:0:
144,165,161356,1,0,0:0:0:0:
144,166,161573,1,0,0:0:0:0:
152,164,161791,1,8,0:0:0:0:
154,164,162008,1,0,0:0:0:0:
154,164,162117,1,8,0:0:0:0:
153,164,162225,1,0,0:0:0:0:
153,164,162443,1,0,0:0:0:0:
152,164,162660,1,8,0:0:0:0:
208,36,162877,1,0,0:0:0:0:
154,164,163095,1,8,0:0:0:0:
153,164,163312,1,0,0:0:0:0:
153,164,163421,1,0,0:0:0:0:
153,164,163530,1,0,0:0:0:0:
154,164,163747,1,8,0:0:0:0:
154,164,163856,1,8,0:0:0:0:
154,164,163964,1,0,0:0:0:0:
154,164,164182,1,0,0:0:0:0:
153,164,164399,1,8,0:0:0:0:
154,164,164617,1,0,0:0:0:0:
154,164,164725,1,0,0:0:0:0:
154,164,164834,1,0,0:0:0:0:
154,164,165051,1,8,0:0:0:0:
142,54,165269,1,0,0:0:0:0:
141,68,165486,1,0,0:0:0:0:
141,68,165595,1,0,0:0:0:0:
141,68,165704,1,8,0:0:0:0:
141,69,165921,1,0,0:0:0:0:
142,68,166138,1,8,0:0:0:0:
141,68,166464,1,0,0:0:0:0:
141,68,166573,1,8,0:0:0:0:
141,68,166791,1,0,0:0:0:0:
144,62,166899,1,8,0:0:0:0:
104,68,167008,1,0,0:0:0:0:
184,112,167225,1,0,0:0:0:0:
184,112,167334,1,0,0:0:0:0:
184,112,167443,1,8,0:0:0:0:
184,112,167551,1,8,0:0:0:0:
184,112,167660,1,0,0:0:0:0:
184,112,167769,1,0,0:0:0:0:
180,120,167877,1,8,0:0:0:0:
200,76,168204,1,0,0:0:0:0:
200,76,168312,1,8,0:0:0:0:
196,52,168530,1,0,0:0:0:0:
196,52,168638,1,0,0:0:0:0:
196,52,168747,1,0,0:0:0:0:
184,188,168964,1,0,0:0:0:0:
164,108,169073,1,0,0:0:0:0:
184,188,169182,1,8,0:0:0:0:
152,108,169399,1,0,0:0:0:0:
152,108,169617,1,8,0:0:0:0:
160,120,170051,1,0,0:0:0:0:
176,128,170269,1,0,0:0:0:0:
176,128,170377,1,8,0:0:0:0:
176,128,170486,1,0,0:0:0:0:
176,128,170704,1,8,0:0:0:0:
168,132,170921,1,0,0:0:0:0:
168,132,171356,1,8,0:0:0:0:
184,80,171573,1,0,0:0:0:0:
196,56,171682,1,0,0:0:0:0:
184,80,171791,1,8,0:0:0:0:
184,80,172008,1,0,0:0:0:0:
184,80,172117,1,0,0:0:0:0:
184,80,172225,1,0,0:0:0:0:
172,80,172443,1,8,0:0:0:0:
176,108,172551,1,8,0:0:0:0:
172,80,172660,1,0,0:0:0:0:
172,80,172877,1,0,0:0:0:0:
172,80,173095,1,8,0:0:0:0:
168,88,173204,1,8,0:0:0:0:
172,80,173312,1,8,0:0:0:0:
176,68,173530,1,0,0:0:0:0:
176,68,173747,1,8,0:0:0:0:
176,56,173856,1,8,0:0:0:0:
176,68,173964,1,0,0:0:0:0:
168,48,174182,1,0,0:0:0:0:
172,56,174291,1,8,0:0:0:0:
168,48,174399,1,0,0:0:0:0:
176,80,174834,1,8,0:0:0:0:
160,96,175269,1,8,0:0:0:0:
160,96,175486,1,0,0:0:0:0:
160,96,175704,1,0,0:0:0:0:
168,80,175921,1,0,0:0:0:0:
168,80,176030,1,0,0:0:0:0:
168,80,176138,1,0,0:0:0:0:
168,80,176356,1,0,0:0:0:0:
168,80,176573,1,8,0:0:0:0:
148,92,177008,1,0,0:0:0:0:
148,92,177225,1,8,0:0:0:0:
148,92,177443,1,0,0:0:0:0:
156,68,177660,1,0,0:0:0:0:
156,68,177769,1,0,0:0:0:0:
156,68,177877,1,0,0:0:0:0:
156,68,178312,1,8,0:0:0:0:
156,68,178530,1,0,0:0:0:0:
156,68,178747,1,8,0:0:0:0:
168,88,178964,1,0,0:0:0:0:
168,88,179073,1,0,0:0:0:0:
168,88,179182,1,0,0:0:0:0:
168,88,179399,1,0,0:0:0:0:
168,88,179508,1,0,0:0:0:0:
168,88,179617,1,8,0:0:0:0:
172,76,179834,1,0,0:0:0:0:
172,76,180051,1,8,0:0:0:0:
184,76,180486,1,0,0:0:0:0:
184,76,180704,1,8,0:0:0:0:
192,84,180921,1,0,0:0:0:0:
172,76,181030,1,0,0:0:0:0:
176,76,181138,1,0,0:0:0:0:
176,76,181247,1,0,0:0:0:0:
176,76,181356,1,8,0:0:0:0:
180,60,181573,1,0,0:0:0:0:
180,60,181682,1,8,0:0:0:0:
176,64,181791,1,8,0:0:0:0:
180,60,182225,1,8,0:0:0:0:
188,72,182443,1,0,0:0:0:0:
188,72,182551,1,0,0:0:0:0:
196,52,182660,1,0,0:0:0:0:
184,188,182877,1,0,0:0:0:0:
164,108,182986,1,0,0:0:0:0:
184,188,183095,1,8,0:0:0:0:
152,108,183312,1,0,0:0:0:0:
152,108,183530,1,8,0:0:0:0:
160,120,183964,1,0,0:0:0:0:
176,128,184182,1,0,0:0:0:0:
176,128,184291,1,8,0:0:0:0:
176,128,184399,1,0,0:0:0:0:
176,128,184617,1,8,0:0:0:0:
168,132,184834,1,0,0:0:0:0:
168,132,185269,1,8,0:0:0:0:
184,80,185486,1,0,0:0:0:0:
196,56,185595,1,0,0:0:0:0:
184,80,185704,1,8,0:0:0:0:
184,80,185921,1,0,0:0:0:0:
184,80,186030,1,0,0:0:0:0:
184,80,186138,1,0,0:0:0:0:
172,80,186356,1,8,0:0:0:0:
208,48,186464,1,0,0:0:0:0:
172,80,186573,1,0,0:0:0:0:
172,80,186791,1,0,0:0:0:0:
172,80,187008,1,8,0:0:0:0:
168,88,187117,1,8,0:0:0:0:
172,80,187225,1,8,0:0:0:0:
176,68,187443,1,0,0:0:0:0:
176,68,187660,1,8,0:0:0:0:
176,56,187769,1,8,0:0:0:0:
176,68,187877,1,0,0:0:0:0:
168,48,188095,1,0,0:0:0:0:
172,56,188204,1,8,0:0:0:0:
168,48,188312,1,0,0:0:0:0:
176,80,188747,1,8,0:0:0:0:
160,96,188964,1,0,0:0:0:0:
160,96,189182,1,8,0:0:0:0:
160,96,189399,1,0,0:0:0:0:
160,96,189617,1,0,0:0:0:0:
168,80,189834,1,0,0:0:0:0:
168,80,189943,1,8,0:0:0:0:
168,80,190051,1,0,0:0:0:0:
168,80,190269,1,0,0:0:0:0:
168,80,190486,1,8,0:0:0:0:
148,92,190921,1,0,0:0:0:0:
148,92,191138,1,8,0:0:0:0:
148,92,191356,1,0,0:0:0:0:
156,68,191573,1,0,0:0:0:0:
156,68,191682,1,0,0:0:0:0:
156,68,191791,1,0,0:0:0:0:
156,68,192225,1,8,0:0:0:0:
156,68,192443,1,0,0:0:0:0:
156,68,192660,1,8,0:0:0:0:
168,88,192877,1,0,0:0:0:0:
168,88,192986,1,0,0:0:0:0:
168,88,193095,1,0,0:0:0:0:
168,88,193312,1,0,0:0:0:0:
168,88,193421,1,0,0:0:0:0:
168,88,193530,1,8,0:0:0:0:
172,76,193747,1,0,0:0:0:0:
172,76,193964,1,8,0:0:0:0:
184,76,194399,1,0,0:0:0:0:
184,76,194617,1,8,0:0:0:0:
192,84,194834,1,0,0:0:0:0:
172,76,194943,1,0,0:0:0:0:
176,76,195051,1,0,0:0:0:0:
176,76,195160,1,0,0:0:0:0:
176,76,195269,1,8,0:0:0:0:
180,60,195486,1,0,0:0:0:0:
180,60,195595,1,8,0:0:0:0:
176,64,195704,1,8,0:0:0:0:
180,60,196138,1,8,0:0:0:0:
188,72,196356,1,0,0:0:0:0:
188,72,196464,1,0,0:0:0:0:
188,48,196573,1,8,0:0:0:0:
