osu file format v14

[General]
AudioFilename: Crywolf - Eyes Half Closed by Crywolf [pleer.com].mp3
AudioLeadIn: 0
PreviewTime: 270217
Countdown: 0
SampleSet: None
StackLeniency: 0.3
Mode: 0
LetterboxInBreaks: 1
EpilepsyWarning: 1
WidescreenStoryboard: 1

[Editor]
Bookmarks: 19550,47995,62217,78217,92439,120884,135995,149328,177773,192884,207106,221328,235106,248884,259550,268439,319995,355550
DistanceSpacing: 1.8
BeatDivisor: 4
GridSize: 32
TimelineZoom: 1.9

[Metadata]
Title:Eyes Half Closed Jumps
TitleUnicode:Eyes Half Closed Jumps
Artist:Crywolf
ArtistUnicode:Crywolf
Creator:Dohinkus
Version:Remap Version
Source:
Tags:Jumps
BeatmapID:1714644
BeatmapSetID:817671

[Difficulty]
HPDrainRate:6
CircleSize:4
OverallDifficulty:8
ApproachRate:9.5
SliderMultiplier:1.7
SliderTickRate:1

[Events]
//Background and Video events
0,0,"drowning_under_the_milky_way_by_nanomortis-d8zru84.png",0,0
//Break Periods
//Storyboard Layer 0 (Background)
//Storyboard Layer 1 (Fail)
//Storyboard Layer 2 (Pass)
//Storyboard Layer 3 (Foreground)
//Storyboard Sound Samples

[TimingPoints]
1773,444.444444444444,4,1,0,50,1,0
1773,-100,4,1,0,50,0,0
19106,-200,4,1,0,50,0,0
19439,-200,4,1,0,5,0,0
19550,-200,4,1,0,50,0,0
33772,-100,4,2,0,50,0,0
47995,-105.263157894737,4,1,0,50,0,0
78217,-100,4,1,0,50,0,0
92884,-125,4,2,0,50,0,0
120884,-58.8235294117647,4,1,0,50,0,0
121217,-58.8235294117647,4,1,0,5,0,0
121328,-58.8235294117647,4,1,0,50,0,0
121661,-58.8235294117647,4,1,0,5,0,0
121772,-100,4,1,0,50,0,1
124439,-133.333333333333,4,1,0,50,0,0
125328,-100,4,1,0,50,0,1
135106,-58.8235294117647,4,1,0,50,0,1
135439,-58.8235294117647,4,1,0,5,0,1
135550,-58.8235294117647,4,1,0,50,0,1
135884,-58.8235294117647,4,1,0,5,0,1
135995,-100,4,1,0,50,0,1
138661,-133.333333333333,4,1,0,50,0,1
139550,-100,4,1,0,50,0,1
147550,-125,4,1,0,50,0,1

[Colours]
Combo1 : 0,115,230
Combo2 : 183,183,183
Combo3 : 111,111,111
Combo4 : 182,108,255
Combo5 : 255,70,70
Combo6 : 244,122,0
Combo7 : 253,0,0
Combo8 : 134,13,255

[HitObjects]
132,128,113772,6,0,L|213:118,1,68
348,192,114217,2,0,L|267:182,1,68
124,124,114661,6,0,L|205:114,1,68
352,200,115106,2,0,L|271:190,1,68
116,120,115550,6,0,L|197:110,1,68
356,208,115995,2,0,L|275:198,1,68
108,116,116439,6,0,L|189:106,1,68
360,216,116884,2,0,L|279:206,1,68
108,116,117328,5,0,0:0:0:0:
120,224,117550,1,0,0:0:0:0:
228,212,117772,1,0,0:0:0:0:
220,104,117995,1,0,0:0:0:0:
37,180,118217,5,0,0:0:0:0:
185,295,118439,1,0,0:0:0:0:
302,154,118661,1,0,0:0:0:0:
155,35,118884,1,0,0:0:0:0:
120,224,119106,5,0,0:0:0:0:
220,104,119328,1,0,0:0:0:0:
108,116,119550,1,0,0:0:0:0:
228,212,119772,1,0,0:0:0:0:
155,35,119995,1,0,0:0:0:0:
185,295,120217,1,0,0:0:0:0:
37,180,120439,1,0,0:0:0:0:
259,328,120884,6,0,P|171:375|103:285,1,216.750004134178
185,295,121328,6,0,B|204:252|192:216|192:216|152:172|152:172|142:127|168:72,1,216.750004134178
301,80,121772,5,0,0:0:0:0:
277,240,121921,1,0,0:0:0:0:
237,153,122069,1,0,0:0:0:0:
372,227,122217,1,0,0:0:0:0:
385,131,122365,1,0,0:0:0:0:
237,153,122513,1,0,0:0:0:0:
404,129,122661,5,0,0:0:0:0:
182,232,122810,1,0,0:0:0:0:
277,240,122958,1,0,0:0:0:0:
119,304,123106,1,0,0:0:0:0:
214,315,123254,1,0,0:0:0:0:
145,142,123402,1,0,0:0:0:0:
222,334,123550,5,0,0:0:0:0:
237,153,123698,1,0,0:0:0:0:
88,216,123847,1,0,0:0:0:0:
277,240,123995,1,0,0:0:0:0:
88,216,124143,1,0,0:0:0:0:
200,63,124291,1,0,0:0:0:0:
360,244,124439,6,0,P|307:317|197:264,1,212.500008106232
237,153,125328,5,0,0:0:0:0:
277,240,125476,1,0,0:0:0:0:
290,73,125624,1,0,0:0:0:0:
140,141,125772,1,0,0:0:0:0:
237,153,125921,1,0,0:0:0:0:
200,63,126069,1,0,0:0:0:0:
178,229,126217,5,0,0:0:0:0:
203,40,126365,1,0,0:0:0:0:
140,141,126513,1,0,0:0:0:0:
290,73,126661,1,0,0:0:0:0:
108,50,126810,1,0,0:0:0:0:
237,153,126958,1,0,0:0:0:0:
44,129,127106,5,0,0:0:0:0:
200,63,127254,1,0,0:0:0:0:
119,305,127402,1,0,0:0:0:0:
108,50,127550,1,0,0:0:0:0:
82,217,127698,1,0,0:0:0:0:
237,153,127847,1,0,0:0:0:0:
56,226,127995,6,0,B|28:266|28:266|45:357,1,127.5
217,290,128439,2,0,L|133:303,1,85
375,333,128884,5,0,0:0:0:0:
238,287,129032,1,0,0:0:0:0:
349,193,129180,1,0,0:0:0:0:
217,290,129328,5,0,0:0:0:0:
432,251,129476,1,0,0:0:0:0:
195,293,129624,1,0,0:0:0:0:
458,247,129772,6,0,B|486:207|486:207|469:116,1,127.5
349,193,130217,2,0,L|365:276,1,85
177,99,130661,5,0,0:0:0:0:
163,263,130810,1,0,0:0:0:0:
275,144,130958,1,0,0:0:0:0:
110,177,131106,1,0,0:0:0:0:
263,246,131254,1,0,0:0:0:0:
172,78,131402,1,0,0:0:0:0:
272,263,131550,6,0,B|286:302|286:302|268:371,1,113.333333333333
275,144,131995,5,0,0:0:0:0:
163,263,132143,1,0,0:0:0:0:
263,246,132291,1,0,0:0:0:0:
110,177,132439,6,0,B|71:163|71:163|2:181,1,113.333333333333
263,246,132884,5,0,0:0:0:0:
177,99,133032,1,0,0:0:0:0:
163,263,133180,1,0,0:0:0:0:
275,144,133328,6,0,B|314:130|314:130|383:148,1,113.333333333333
110,177,133772,5,0,0:0:0:0:
263,246,133921,1,0,0:0:0:0:
163,263,134069,1,0,0:0:0:0:
316,332,134217,6,0,B|372:346|372:346|445:328,1,113.333333333333
275,144,134661,5,0,0:0:0:0:
263,246,134810,1,0,0:0:0:0:
279,107,134958,1,0,0:0:0:0:
220,323,135106,6,0,P|117:335|84:231,1,216.750004134178
159,52,135550,6,0,B|176:97|170:121|170:121|150:197|150:197|148:225|163:263,1,216.750004134178
275,144,135995,5,0,0:0:0:0:
263,246,136143,1,0,0:0:0:0:
279,107,136291,1,0,0:0:0:0:
181,185,136439,1,0,0:0:0:0:
357,207,136587,1,0,0:0:0:0:
168,283,136735,1,0,0:0:0:0:
379,199,136884,5,0,0:0:0:0:
181,185,137032,1,0,0:0:0:0:
263,246,137180,1,0,0:0:0:0:
190,83,137328,1,0,0:0:0:0:
168,283,137476,1,0,0:0:0:0:
275,144,137624,1,0,0:0:0:0:
86,222,137772,5,0,0:0:0:0:
263,246,137921,1,0,0:0:0:0:
62,218,138069,1,0,0:0:0:0:
168,283,138217,1,0,0:0:0:0:
97,120,138365,1,0,0:0:0:0:
73,323,138513,1,0,0:0:0:0:
24,88,138661,6,0,P|112:42|175:121,1,212.500008106232
86,222,139550,5,0,0:0:0:0:
200,108,139698,1,0,0:0:0:0:
97,120,139847,1,0,0:0:0:0:
178,267,139995,1,0,0:0:0:0:
252,196,140143,1,0,0:0:0:0:
86,222,140291,1,0,0:0:0:0:
275,296,140439,5,0,0:0:0:0:
178,267,140587,1,0,0:0:0:0:
349,226,140735,1,0,0:0:0:0:
252,196,140884,1,0,0:0:0:0:
369,325,141032,1,0,0:0:0:0:
326,126,141180,1,0,0:0:0:0:
267,321,141328,5,0,0:0:0:0:
333,100,141476,1,0,0:0:0:0:
252,196,141624,1,0,0:0:0:0:
349,226,141772,1,0,0:0:0:0:
223,186,141921,1,0,0:0:0:0:
374,234,142069,1,0,0:0:0:0:
178,267,142217,6,0,B|144:264|144:264|80:276|80:276|32:268,1,127.5
103,110,142661,2,0,L|93:206,1,85
349,226,143106,5,0,0:0:0:0:
252,196,143254,1,0,0:0:0:0:
326,126,143402,1,0,0:0:0:0:
223,186,143550,5,0,0:0:0:0:
374,234,143698,1,0,0:0:0:0:
333,100,143847,1,0,0:0:0:0:
125,214,143995,6,0,P|132:278|139:346,1,127.5
25,194,144439,2,0,P|21:238|17:278,1,85
223,186,144884,5,0,0:0:0:0:
76,126,145032,1,0,0:0:0:0:
228,84,145180,1,0,0:0:0:0:
125,214,145328,1,0,0:0:0:0:
134,42,145476,1,0,0:0:0:0:
124,240,145624,1,0,0:0:0:0:
228,84,145772,6,0,B|270:68|270:68|357:86,1,113.333333333333
76,126,146217,5,0,0:0:0:0:
223,186,146365,1,0,0:0:0:0:
50,114,146513,1,0,0:0:0:0:
70,312,146661,6,0,B|126:325|126:325|180:312,1,113.333333333333
405,126,147106,5,0,0:0:0:0:
258,186,147254,1,0,0:0:0:0:
431,114,147402,1,0,0:0:0:0:
243,24,147550,6,0,L|251:106,1,68
264,253,147995,2,0,L|258:186,1,68
276,348,148439,1,0,0:0:0:0:
382,287,148661,1,0,0:0:0:0:
159,309,148884,5,0,0:0:0:0:
