osu file format v14

[General]
AudioFilename: audio.mp3
AudioLeadIn: 0
PreviewTime: 270273
Countdown: 0
SampleSet: Soft
StackLeniency: 0.7
Mode: 0
LetterboxInBreaks: 0
WidescreenStoryboard: 0

[Editor]
Bookmarks: 5384,19606,33828,48051,78273,92495,106717,120940,149384,177828,206273,234717,259606,270273,298717,327162,355606
DistanceSpacing: 1.6
BeatDivisor: 4
GridSize: 32
TimelineZoom: 1.5

[Metadata]
Title:Eyes Half Closed
TitleUnicode:Eyes Half Closed
Artist:Crywolf
ArtistUnicode:Crywolf
Creator:pkk
Version:Epiphany
Source:
Tags:chillstep
BeatmapID:1300312
BeatmapSetID:616576

[Difficulty]
HPDrainRate:5
CircleSize:4
OverallDifficulty:8.3
ApproachRate:9.2
SliderMultiplier:1.8
SliderTickRate:1

[Events]
//Background and Video events
0,0,"BG.jpg",0,0
//Break Periods
2,20472,34147
//Storyboard Layer 0 (Background)
//Storyboard Layer 1 (Fail)
//Storyboard Layer 2 (Pass)
//Storyboard Layer 3 (Foreground)
//Storyboard Sound Samples

[TimingPoints]
1829,444.444444444444,4,2,1,80,1,0
17273,-100,4,2,1,5,0,0
17384,-100,4,2,1,80,0,0
33828,-125,4,2,1,60,0,0
48051,-100,4,2,1,70,0,0
78273,-100,4,2,1,80,0,0
92940,-125,4,2,1,70,0,0
106717,-111.111111111111,4,2,1,80,0,0
107940,-111.111111111111,4,2,1,5,0,0
108051,-111.111111111111,4,2,1,80,0,0
111495,-111.111111111111,4,2,1,5,0,0
111606,-111.111111111111,4,2,1,80,0,0
120495,-66.6666666666667,4,2,1,95,0,0
120828,-66.6666666666667,4,2,1,5,0,0
120940,-43.4782608695652,4,2,1,98,0,1
121273,-43.4782608695652,4,2,1,5,0,1
121384,-83.3333333333333,4,2,1,92,0,1
121717,-83.3333333333333,4,2,1,5,0,1
121828,-100,4,2,1,92,0,1
125273,-100,4,2,1,5,0,1
125384,-100,4,2,1,92,0,1
128384,-100,4,2,1,5,0,1
128495,-100,4,2,1,92,0,1
128551,-100,4,2,1,5,0,1
128717,-100,4,2,1,92,0,1
128773,-100,4,2,1,5,0,1
128940,-100,4,2,1,92,0,1
130162,-100,4,2,1,5,0,1
130273,-100,4,2,1,92,0,1
130328,-100,4,2,1,5,0,1
130495,-100,4,2,1,92,0,1
130551,-100,4,2,1,5,0,1
130717,-100,4,2,1,92,0,1
131940,-100,4,2,1,5,0,1
132051,-100,4,2,1,92,0,1
132828,-100,4,2,1,5,0,1
132940,-100,4,2,1,92,0,1
133717,-100,4,2,1,5,0,1
133828,-100,4,2,1,92,0,1
134606,-100,4,2,1,5,0,1
134717,-100,4,2,1,92,0,1
135162,-43.4782608695652,4,2,1,60,0,0
135495,-43.4782608695652,4,2,1,60,0,0
135606,-83.3333333333333,4,2,1,60,0,0
135940,-83.3333333333333,4,2,1,60,0,0
136051,-100,4,2,1,92,0,1
139495,-100,4,2,1,5,0,1
139606,-100,4,2,1,92,0,1
142606,-100,4,2,1,5,0,1
142717,-100,4,2,1,92,0,1
142773,-100,4,2,1,5,0,1
142940,-100,4,2,1,92,0,1
142995,-100,4,2,1,5,0,1
143162,-100,4,2,1,92,0,1
144384,-100,4,2,1,5,0,1
144495,-100,4,2,1,92,0,1
144551,-100,4,2,1,5,0,1
144717,-100,4,2,1,92,0,1
144773,-100,4,2,1,5,0,1
144940,-100,4,2,1,92,0,1
147606,-111.111111111111,4,2,1,60,0,0
149384,-100,4,2,1,80,0,0
167051,-100,4,2,1,5,0,0
167162,-100,4,2,1,80,0,0
171384,-66.6666666666667,4,2,1,80,0,0
171551,-66.6666666666667,4,2,1,5,0,0
171606,-100,4,2,1,80,0,0
174273,-125,4,2,1,80,0,0
193273,-125,4,2,1,5,0,0
193384,-125,4,2,1,80,0,0
199051,-125,4,2,1,5,0,0
199162,-125,4,2,1,80,0,0
206273,-100,4,2,1,80,0,0
212828,-100,4,2,1,5,0,0
212940,-100,4,2,1,80,0,0
230606,-100,4,2,1,5,0,0
230717,-100,4,2,1,80,0,0
231940,-100,4,2,1,5,0,0
232051,-100,4,2,1,80,0,0
234717,-100,4,2,1,90,0,0
248940,-100,4,2,1,95,0,0
253717,-100,4,2,1,80,0,0
253828,-100,4,2,1,80,0,0
259606,-500,4,2,1,80,0,0
262717,-100,4,2,1,60,0,0
263162,-200,4,2,1,80,0,0
266717,-133.333333333333,4,2,1,80,0,0
268495,-200,4,2,1,80,0,0
269606,-125,4,2,1,5,0,0
269717,-66.6666666666667,4,2,1,60,0,0
269828,-50,4,2,1,90,0,0
270162,-50,4,2,1,90,0,0
270273,-43.4782608695652,4,2,1,92,0,1
270606,-43.4782608695652,4,2,1,5,0,1
270717,-83.3333333333333,4,2,1,92,0,1
271051,-83.3333333333333,4,2,1,5,0,1
271162,-100,4,2,1,92,0,1
274606,-100,4,2,1,5,0,1
274717,-100,4,2,1,92,0,1
277384,-83.3333333333333,4,2,1,92,0,1
277717,-100,4,2,1,5,0,1
277828,-100,4,2,1,92,0,1
277884,-100,4,2,1,5,0,1
278051,-100,4,2,1,92,0,1
278106,-100,4,2,1,5,0,1
278273,-83.3333333333333,4,2,1,92,0,1
279495,-83.3333333333333,4,2,1,5,0,1
279606,-100,4,2,1,92,0,1
279662,-100,4,2,1,5,0,1
279828,-100,4,2,1,92,0,1
279884,-100,4,2,1,5,0,1
280051,-83.3333333333333,4,2,1,92,0,1
284495,-43.4782608695652,4,2,1,92,0,0
284828,-43.4782608695652,4,2,1,5,0,0
284940,-83.3333333333333,4,2,1,92,0,0
285273,-83.3333333333333,4,2,1,5,0,0
285384,-100,4,2,1,92,0,1
288828,-100,4,2,1,5,0,1
288940,-100,4,2,1,92,0,1
291940,-100,4,2,1,5,0,1
292051,-100,4,2,1,92,0,1
292106,-100,4,2,1,5,0,1
292273,-100,4,2,1,92,0,1
292328,-100,4,2,1,5,0,1
292495,-100,4,2,1,92,0,1
293717,-100,4,2,1,5,0,1
293828,-100,4,2,1,92,0,1
293884,-100,4,2,1,5,0,1
294051,-100,4,2,1,92,0,1
294106,-100,4,2,1,5,0,1
294273,-100,4,2,1,92,0,1
298717,-111.111111111111,4,2,1,60,0,0
299606,-100,4,2,1,92,0,1
300384,-100,4,2,1,5,0,1
300495,-50,4,2,1,92,0,1
300828,-50,4,2,1,5,0,1
300940,-83.3333333333333,4,2,1,92,0,1
301273,-83.3333333333333,4,2,1,5,0,1
301384,-83.3333333333333,4,2,1,92,0,1
302273,-111.111111111111,4,2,1,65,0,0
303051,-111.111111111111,4,2,1,5,0,0
303162,-100,4,2,1,92,0,1
303940,-100,4,2,1,5,0,1
304051,-50,4,2,1,92,0,1
304384,-50,4,2,1,5,0,1
304495,-83.3333333333333,4,2,1,92,0,1
304828,-83.3333333333333,4,2,1,5,0,1
304940,-83.3333333333333,4,2,1,92,0,1
306162,-83.3333333333333,4,2,1,5,0,1
306273,-83.3333333333333,4,2,1,92,0,1
306328,-83.3333333333333,4,2,1,5,0,1
306495,-83.3333333333333,4,2,1,92,0,1
306551,-83.3333333333333,4,2,1,5,0,1
306717,-83.3333333333333,4,2,1,92,0,1
307940,-83.3333333333333,4,2,1,5,0,1
308051,-83.3333333333333,4,2,1,92,0,1
308106,-83.3333333333333,4,2,1,5,0,1
308273,-83.3333333333333,4,2,1,92,0,1
308328,-83.3333333333333,4,2,1,5,0,1
308495,-83.3333333333333,4,2,1,92,0,1
312940,-111.111111111111,4,2,1,60,0,0
313828,-100,4,2,1,92,0,1
314606,-100,4,2,1,5,0,1
314717,-50,4,2,1,92,0,1
315051,-50,4,2,1,5,0,1
315162,-83.3333333333333,4,2,1,92,0,1
315495,-83.3333333333333,4,2,1,5,0,1
315606,-100,4,2,1,92,0,1
316495,-100,4,2,1,65,0,0
317273,-100,4,2,1,5,0,0
317384,-100,4,2,1,92,0,1
318273,-50,4,2,1,92,0,1
318606,-50,4,2,1,5,0,1
318717,-83.3333333333333,4,2,1,92,0,1
319051,-83.3333333333333,4,2,1,5,0,1
319162,-100,4,2,1,92,0,1
325384,-100,4,2,1,80,0,0
352051,-100,4,2,1,60,0,0
355606,-100,4,2,1,20,0,0

[Colours]
Combo1 : 250,41,135
Combo2 : 133,192,203
Combo3 : 250,107,171
Combo4 : 83,126,198

[HitObjects]
218,128,4940,6,0,L|213:73,1,45,8|0,0:0|0:0,0:0:0:0:
229,246,5162,1,0,3:0:0:0:
420,178,5384,6,0,P|368:177|314:173,1,90,4|0,0:2|0:0,0:0:0:0:
139,166,5828,1,2,0:0:0:0:
330,174,6051,1,0,0:0:0:0:
250,56,6273,2,2,P|233:113|238:248,1,180,10|2,0:0|0:0,0:0:0:0:
282,341,6940,1,2,0:0:0:0:
122,344,7162,6,0,L|137:265,1,45,0|0,3:0|0:0,0:0:0:0:
53,194,7384,2,0,P|97:184|139:171,1,90,2|0,0:0|0:0,0:0:0:0:
260,119,7828,1,0,0:0:0:0:
377,240,8051,5,10,0:0:0:0:
226,218,8273,1,0,0:0:0:0:
361,24,8495,2,0,P|351:90|339:157,1,135,2|0,3:2|0:0,0:0:0:0:
339,157,8940,6,0,L|281:151,1,45,2|2,3:0|0:3,0:0:0:0:
216,86,9162,2,0,L|171:81,1,45,2|2,0:3|0:3,0:0:0:0:
215,197,9384,1,2,0:2:0:0:
215,197,9495,1,0,0:0:0:0:
215,197,9606,1,0,0:0:0:0:
56,149,9828,5,8,0:0:0:0:
56,149,10051,2,0,L|69:216,1,45
166,85,10273,1,8,0:0:0:0:
166,85,10495,2,0,L|156:164,1,45,0|0,3:0|0:0,0:0:0:0:
247,192,10717,5,2,3:2:0:0:
278,188,10829,1,2,0:2:0:0:
309,184,10940,2,0,L|296:243,1,45,2|2,0:2|0:2,0:0:0:0:
191,273,11162,5,0,3:0:0:0:
191,273,11273,2,0,L|184:230,2,22.5,0|0|2,0:0|0:0|0:0,0:0:0:0:
288,321,11606,5,8,0:0:0:0:
137,361,11828,1,0,0:0:0:0:
97,210,12051,1,2,3:2:0:0:
248,170,12273,1,0,0:0:0:0:
356,37,12495,6,0,P|364:92|369:135,1,90,2|0,3:2|0:0,0:0:0:0:
294,261,12940,1,0,0:0:0:0:
460,204,13162,2,0,P|454:248|447:293,1,90,2|8,0:0|0:0,0:0:0:0:
339,363,13606,1,0,0:0:0:0:
222,236,13828,2,0,P|281:226|315:221,1,90,2|0,3:2|0:0,0:0:0:0:
433,202,14273,1,0,3:0:0:0:
372,35,14495,6,0,P|362:93|358:134,1,90,2|0,0:0|0:0,0:0:0:0:
344,250,14940,1,0,0:0:0:0:
147,137,15162,2,0,P|200:126|259:121,1,90,10|0,0:0|0:0,0:0:0:0:
434,239,15606,2,0,P|382:227|323:222,1,90,2|0,0:0|0:0,0:0:0:0:
97,304,16051,5,0,3:0:0:0:
194,277,16273,1,0,0:0:0:0:
254,193,16495,1,0,0:0:0:0:
296,348,16717,1,0,0:0:0:0:
97,304,16940,2,0,P|84:254|84:154,1,135,8|0,0:0|0:0,0:0:0:0:
82,171,17384,2,0,L|165:183,1,45,0|0,3:0|0:0,0:0:0:0:
286,248,17606,2,0,L|197:259,1,90,0|0,0:0|3:0,0:0:0:0:
205,114,18051,5,0,0:0:0:0:
82,171,18273,1,0,0:0:0:0:
286,210,18495,1,0,0:0:0:0:
113,59,18717,5,8,0:0:0:0:
171,203,18940,1,0,0:0:0:0:
240,14,19162,1,2,0:0:0:0:
240,14,19384,1,2,0:0:0:0:
240,14,19606,6,0,B|270:30|296:27|296:27|313:40|313:40|351:29|389:44,2,135
328,164,34717,6,0,P|335:101|344:33,2,108
201,290,35606,2,0,B|256:269|288:279|288:279|326:258|326:258|369:274|420:261,2,216,2|0|0,0:0|0:0|0:0,0:0:0:0:
2,140,37384,6,0,B|56:166|95:158|95:158|144:182|144:182|213:153|288:173,1,288,2|0,0:0|0:0,0:0:0:0:
278,170,38940,5,0,0:0:0:0:
278,170,39162,2,0,B|309:161|309:161|350:167|350:167|389:154,2,108
119,261,40273,2,0,B|193:249|193:249|250:272|250:272|335:254,1,216,0|2,0:0|0:0,0:0:0:0:
445,172,41384,6,0,P|390:237|375:101,1,288
484,297,42717,2,0,P|421:326|351:337,1,108,2|0,0:0|0:0,0:0:0:0:
169,249,43384,2,0,P|222:250|310:288,2,144
31,282,44495,1,2,0:0:0:0:
208,27,48051,6,0,B|170:115|239:113|196:215,1,180,0|0,3:0|0:0,0:0:0:0:
112,155,48717,1,0,0:0:0:0:
13,265,48940,2,0,P|72:255|111:255,1,90,8|0,0:0|0:0,0:0:0:0:
183,306,49273,1,0,0:0:0:0:
183,306,49384,2,0,P|226:314|277:316,1,90
359,141,49828,6,0,P|275:135|244:213,1,180,0|0,3:0|0:0,0:0:0:0:
272,316,50495,1,0,0:0:0:0:
434,221,50717,2,0,P|453:172|466:133,1,90,8|0,0:0|0:0,0:0:0:0:
453,344,51162,2,0,P|389:324|310:316,1,135
287,330,51606,6,0,B|302:297|288:252|288:252|300:211|300:211|278:173|284:125,1,180,0|0,3:0|0:0,0:0:0:0:
185,210,52273,1,0,0:0:0:0:
127,81,52495,1,8,0:0:0:0:
127,81,52717,1,0,0:0:0:0:
9,207,52940,2,0,P|57:197|117:194,1,90
272,243,53384,6,0,P|245:276|246:342,1,90,0|0,3:0|0:0,0:0:0:0:
313,176,53717,2,0,P|271:164|211:192,1,90,0|0,3:0|0:0,0:0:0:0:
392,183,54051,2,0,P|385:140|335:97,1,90,0|8,3:0|0:0,0:0:0:0:
245,89,54495,1,0,0:0:0:0:
354,271,54717,2,0,P|408:265|463:263,1,90,0|0,3:0|0:0,0:0:0:0:
267,346,55162,6,0,P|205:340|166:338,1,90,0|0,3:0|0:0,0:0:0:0:
226,229,55606,1,2,0:0:0:0:
226,229,55828,1,0,0:0:0:0:
141,80,56051,2,0,P|127:122|121:167,1,90,8|2,0:0|0:0,0:0:0:0:
30,291,56495,2,0,P|23:246|10:203,1,90
143,271,56940,6,0,B|176:283|217:268|217:268|252:293|252:293|285:285|322:290,1,180,0|2,3:0|0:0,0:0:0:0:
428,226,57606,2,0,P|385:205|344:191,1,90,0|8,0:0|0:0,0:0:0:0:
228,72,58051,2,0,P|236:117|244:161,1,90,2|0,0:0|0:0,0:0:0:0:
176,299,58495,2,0,P|219:278|260:264,1,90,0|0,0:0|3:0,0:0:0:0:
410,234,58940,5,0,0:0:0:0:
316,343,59162,1,0,0:0:0:0:
176,299,59384,1,0,0:0:0:0:
189,26,59606,2,0,B|228:84|228:84|193:204,1,180,8|0,0:0|0:0,0:0:0:0:
108,110,60273,1,0,0:0:0:0:
119,311,60495,6,0,P|158:280|208:267,1,90,0|0,3:0|0:0,0:0:0:0:
274,232,60828,2,0,P|235:201|185:188,1,90,0|0,3:0|0:0,0:0:0:0:
101,167,61162,2,0,L|116:217,1,45,0|0,3:0|0:0,0:0:0:0:
230,345,61384,2,0,B|284:332|284:332|338:348|338:348|374:338|416:349,1,180,8|0,0:0|3:0,0:0:0:0:
471,121,62273,6,0,P|431:183|317:161,1,180,0|0,3:0|0:0,0:0:0:0:
252,86,62940,1,0,0:0:0:0:
102,219,63162,1,8,0:0:0:0:
222,189,63384,1,0,0:0:0:0:
222,189,63495,1,0,0:0:0:0:
222,189,63606,2,0,L|207:292,1,90
352,363,64051,6,0,P|340:281|327:159,1,180,2|0,3:2|0:0,0:0:0:0:
320,75,64717,1,0,0:0:0:0:
132,99,64940,2,0,P|176:112|227:126,1,90,8|0,0:0|0:0,0:0:0:0:
127,206,65384,2,0,P|67:244|66:339,1,135,2|0,0:0|0:0,0:0:0:0:
65,320,65828,6,0,P|109:312|153:305,1,90,0|0,3:0|0:0,0:0:0:0:
296,245,66273,1,0,0:0:0:0:
266,350,66495,1,0,0:0:0:0:
170,196,66717,2,0,P|162:142|149:84,1,90,8|0,0:0|0:0,0:0:0:0:
31,16,67162,2,0,P|22:60|15:104,1,90
68,236,67606,6,0,P|103:263|147:272,1,90,0|0,3:0|0:0,0:0:0:0:
213,316,67940,2,0,P|248:288|292:279,1,90,0|0,3:0|0:0,0:0:0:0:
350,227,68273,2,0,P|368:268|362:313,1,90,0|8,3:0|0:0,0:0:0:0:
289,357,68717,1,0,0:0:0:0:
281,187,68940,2,0,P|315:154|363:148,1,90,0|0,3:0|0:0,0:0:0:0:
191,69,69384,6,0,B|198:123|198:123|174:168|174:168|188:206|189:250,1,180,0|2,3:0|0:0,0:0:0:0:
227,336,70051,1,0,0:0:0:0:
91,243,70273,1,8,0:0:0:0:
264,186,70495,2,0,P|319:177|373:171,1,90,2|0,0:0|0:0,0:0:0:0:
291,74,70940,1,0,0:0:0:0:
186,19,71162,6,0,P|176:77|174:109,1,90,0|0,3:0|0:0,0:0:0:0:
152,196,71495,2,0,P|102:171|63:162,1,90
81,256,71828,1,0,0:0:0:0:
165,340,72051,2,0,P|229:303|347:315,1,180,8|0,0:0|0:0,0:0:0:0:
435,119,72940,6,0,P|426:163|419:207,1,90,0|0,3:0|0:0,0:0:0:0:
308,110,73384,1,0,0:0:0:0:
308,110,73606,1,0,0:0:0:0:
142,189,73828,2,0,P|213:197|296:281,1,180,8|0,0:0|0:0,0:0:0:0:
226,360,74495,1,0,0:0:0:0:
110,268,74717,6,0,P|114:223|141:188,1,90,0|0,3:0|0:0,0:0:0:0:
270,240,75051,2,0,P|229:258|185:252,1,90,0|0,3:0|0:0,0:0:0:0:
205,137,75384,2,0,P|217:170|221:187,1,45,0|0,3:0|0:0,0:0:0:0:
226,342,75606,2,0,B|179:333|179:333|146:346|146:346|106:318|31:349,1,180,8|0,0:0|3:0,0:0:0:0:
235,122,77384,5,2,0:0:0:0:
235,122,77717,1,2,0:0:0:0:
235,122,77828,2,0,L|246:70,1,45,8|0,0:0|0:0,0:0:0:0:
266,222,78051,2,0,L|275:271,1,45,0|0,3:0|0:0,0:0:0:0:
163,195,78273,6,0,P|110:178|56:166,1,90,0|0,3:0|0:0,0:0:0:0:
180,305,78717,1,2,0:0:0:0:
180,305,78940,1,0,0:0:0:0:
317,246,79162,2,0,P|312:290|305:335,1,90,8|0,0:0|0:0,0:0:0:0:
261,160,79606,1,0,0:0:0:0:
381,89,79828,2,0,P|387:144|391:191,1,90,0|0,0:0|3:0,0:0:0:0:
462,311,80273,6,0,P|390:276|288:300,1,180,2|0,0:0|0:0,0:0:0:0:
184,199,80940,2,0,L|201:279,1,45,10|0,0:0|0:0,0:0:0:0:
223,363,81162,1,0,0:0:0:0:
72,350,81384,2,0,P|83:288|94:236,1,90,0|0,3:0|0:0,0:0:0:0:
83,106,81828,5,0,3:0:0:0:
83,106,81940,1,0,0:0:0:0:
83,106,82051,2,0,P|114:135|129:148,1,45
196,85,82273,2,0,P|201:106|205:129,1,45
296,143,82495,2,0,P|288:177|282:202,1,45
217,256,82717,5,8,0:0:0:0:
272,362,82940,1,0,0:0:0:0:
372,202,83162,1,8,0:0:0:0:
209,268,83384,2,0,L|263:274,1,45,0|0,3:0|0:0,0:0:0:0:
456,342,83606,5,2,0:0:0:0:
411,347,83717,1,2,0:0:0:0:
366,353,83828,2,0,L|353:295,1,45,2|2,0:0|0:0,0:0:0:0:
329,180,84051,5,0,3:0:0:0:
329,180,84162,2,0,L|325:219,2,22.5,0|0|2,0:0|0:0|0:0,0:0:0:0:
258,77,84495,5,8,0:0:0:0:
326,202,84717,1,0,0:0:0:0:
214,277,84940,1,0,3:0:0:0:
393,255,85162,1,0,0:0:0:0:
246,165,85384,5,2,3:2:0:0:
391,53,85606,2,0,P|385:116|382:155,1,90
373,303,86051,1,2,0:0:0:0:
184,266,86273,2,0,P|237:256|295:250,1,90,8|0,0:0|0:0,0:0:0:0:
237,138,86717,1,0,3:0:0:0:
437,176,86940,2,0,P|384:166|326:160,1,90,0|0,0:0|3:0,0:0:0:0:
200,31,87384,6,0,P|216:84|227:132,1,90,2|0,0:0|0:0,0:0:0:0:
256,228,87828,1,0,0:0:0:0:
114,282,88051,2,0,P|128:229|145:182,1,90,10|0,0:0|0:0,0:0:0:0:
343,136,88495,2,0,P|357:178|368:222,1,90,2|0,0:0|0:0,0:0:0:0:
216,268,88940,5,0,3:0:0:0:
313,318,89162,1,0,0:0:0:0:
171,364,89384,1,0,0:0:0:0:
144,206,89606,2,0,P|179:184|212:176,1,45
315,149,89828,6,0,P|259:126|214:55,1,135,8|0,0:0|0:0,0:0:0:0:
217,66,90273,2,0,L|206:132,1,45,0|0,3:0|0:0,0:0:0:0:
156,249,90495,2,0,L|142:199,1,45
47,161,90717,5,0,3:0:0:0:
261,236,90940,1,0,0:0:0:0:
355,179,91162,1,0,0:0:0:0:
378,308,91384,1,0,0:0:0:0:
174,275,91606,5,8,0:0:0:0:
268,361,91828,1,0,0:0:0:0:
230,161,92051,1,0,0:0:0:0:
230,161,92273,2,0,L|116:143,1,90
314,57,92940,6,0,L|321:144,1,72
426,127,93384,2,0,B|432:177|432:177|411:270,1,144
312,312,94051,1,0,0:0:0:0:
207,228,94273,6,0,P|261:218|303:216,1,72
190,109,94717,2,0,P|151:136|51:113,1,144
268,39,95606,2,0,B|291:86|291:86|267:197,1,144
129,66,96495,6,0,P|177:86|205:101,1,72
355,69,96940,2,0,P|325:122|301:216,1,144
304,303,97606,1,0,0:0:0:0:
196,241,97828,2,0,P|152:226|126:220,1,72
68,362,98273,2,0,P|128:349|226:351,1,144
301,303,98940,2,0,P|310:262|305:217,1,72
187,72,99384,6,0,P|178:113|183:158,1,72
351,136,99828,2,0,P|310:127|265:132,1,72
101,226,100273,6,0,P|142:235|187:230,1,72
297,85,100717,2,0,P|267:115|248:155,1,72
222,342,101162,6,0,P|251:311|270:271,1,72
203,104,101606,2,0,P|217:142|246:177,1,72
398,227,102051,6,0,P|364:214|328:212,1,72
192,352,102495,2,0,P|226:342|256:322,1,72
329,212,102940,1,0,0:0:0:0:
259,108,103162,5,0,0:0:0:0:
181,172,103384,1,0,0:0:0:0:
122,89,103606,1,0,0:0:0:0:
222,92,103828,1,0,0:0:0:0:
267,189,104051,5,0,0:0:0:0:
180,264,104273,1,0,0:0:0:0:
78,209,104495,1,0,0:0:0:0:
101,96,104717,1,0,0:0:0:0:
214,72,104940,6,0,P|266:74|302:75,1,72
411,164,105384,2,0,P|375:162|339:161,1,72
250,197,105828,1,0,0:0:0:0:
310,295,106051,1,0,0:0:0:0:
197,270,106273,1,0,0:0:0:0:
170,357,106495,1,0,0:0:0:0:
120,200,106717,5,0,3:0:0:0:
120,200,107162,2,0,P|117:258|115:295,1,80.9999975280763
222,134,107606,2,0,P|229:188|231:286,1,121.499996292114,0|0,3:0|0:0,0:0:0:0:
231,254,108051,2,0,P|288:247|321:244,1,80.9999975280763
268,359,108495,5,0,3:0:0:0:
171,351,108717,1,0,0:0:0:0:
74,343,108940,2,0,P|54:284|132:218,2,161.999995056153,0|0|0,0:0|3:0|0:0,0:0:0:0:
313,214,110273,5,2,3:2:0:0:
313,214,110717,2,0,P|369:205|410:200,1,80.9999975280763
201,100,111162,2,0,P|247:107|355:116,1,121.499996292114,2|0,3:2|0:0,0:0:0:0:
321,114,111606,2,0,P|340:64|344:37,1,80.9999975280763
178,77,112051,5,2,3:2:0:0:
186,174,112273,1,0,0:0:0:0:
194,271,112495,2,0,P|254:275|366:301,2,161.999995056153,0|0|0,0:0|3:0|0:0,0:0:0:0:
193,270,113828,6,0,P|181:232|176:192,1,80.9999975280763,2|0,3:2|0:0,0:0:0:0:
318,113,114273,2,0,P|330:151|335:191,1,80.9999975280763,0|0,3:0|0:0,0:0:0:0:
162,218,114717,6,0,P|166:177|179:139,1,80.9999975280763,0|0,3:0|0:0,0:0:0:0:
346,169,115162,2,0,P|341:209|328:247,1,80.9999975280763,0|0,3:0|0:0,0:0:0:0:
149,153,115606,6,0,P|174:121|206:96,1,80.9999975280763,2|0,3:2|0:0,0:0:0:0:
354,232,116051,2,0,P|328:263|296:288,1,80.9999975280763,0|0,3:0|0:0,0:0:0:0:
216,80,116495,6,0,P|256:76|296:80,1,80.9999975280763,0|0,3:0|0:0,0:0:0:0:
297,297,116940,2,0,P|256:300|216:296,1,80.9999975280763,0|0,3:0|0:0,0:0:0:0:
108,125,117384,5,2,3:2:0:0:
149,217,117606,1,0,3:0:0:0:
256,43,117828,5,2,3:2:0:0:
224,152,118051,1,0,3:0:0:0:
331,124,118273,5,0,3:0:0:0:
301,251,118495,1,2,3:2:0:0:
432,242,118717,5,0,3:0:0:0:
333,351,118940,1,0,3:0:0:0:
136,231,119162,5,2,3:2:0:0:
308,148,119384,1,0,3:0:0:0:
241,340,119606,5,0,3:0:0:0:
169,116,119828,1,2,3:2:0:0:
408,230,120051,5,0,3:0:0:0:
64,299,120273,1,0,3:0:0:0:
267,83,120495,6,0,B|274:67|274:38|274:38|227:80|274:106|274:106|240:141|255:182,1,202.500007724762,8|0,0:0|0:0,0:0:0:0:
251,169,120940,6,0,B|317:180|375:109|375:109|333:212|415:270,1,310.500005922318,4|0,3:2|0:0,0:0:0:0:
466,317,121384,6,0,P|409:277|327:331,1,161.999995056153,4|0,3:2|0:0,0:0:0:0:
239,251,121828,5,10,1:2:0:0:
229,363,121977,1,2,1:2:0:0:
137,205,122125,1,2,1:2:0:0:
333,200,122273,5,2,1:2:0:0:
208,271,122421,1,2,1:2:0:0:
254,130,122569,1,2,1:2:0:0:
418,280,122717,5,2,3:2:0:0:
239,251,122866,1,2,1:2:0:0:
440,180,123014,1,2,1:2:0:0:
325,313,123162,5,2,1:2:0:0:
375,102,123310,1,2,1:2:0:0:
508,254,123458,1,2,1:2:0:0:
327,221,123606,5,10,1:2:0:0:
423,157,123754,1,2,1:2:0:0:
433,298,123903,1,2,1:2:0:0:
330,118,124051,5,2,1:2:0:0:
274,269,124199,1,2,1:2:0:0:
226,41,124347,1,2,1:2:0:0:
35,240,124495,6,0,B|64:208|118:221|118:221|144:160|144:160|215:224|314:175,1,315,4|0,3:2|0:0,0:0:0:0:
369,105,125384,5,10,1:2:0:0:
314,264,125532,1,2,1:2:0:0:
254,84,125680,1,2,1:2:0:0:
397,217,125828,5,2,1:2:0:0:
219,194,125977,1,2,1:2:0:0:
452,148,126125,1,2,1:2:0:0:
292,184,126273,5,2,3:2:0:0:
367,68,126421,1,2,1:2:0:0:
410,261,126569,1,2,1:2:0:0:
206,221,126717,5,2,1:2:0:0:
326,199,126866,1,2,1:2:0:0:
261,314,127014,1,2,1:2:0:0:
187,117,127162,5,10,1:2:0:0:
130,275,127310,1,2,1:2:0:0:
291,222,127458,1,2,1:2:0:0:
119,92,127606,5,2,1:2:0:0:
206,221,127754,1,2,1:2:0:0:
255,28,127903,1,2,1:2:0:0:
7,150,128051,6,0,B|64:172|64:172|156:163,1,135,0|0,3:0|0:0,0:0:0:0:
247,130,128495,6,0,L|251:108,1,22.5,0|0,3:0|0:0,0:0:0:0:
303,260,128717,6,0,L|299:237,1,22.5,0|0,3:0|0:0,0:0:0:0:
465,108,128940,5,10,1:2:0:0:
388,190,129088,1,2,1:2:0:0:
485,266,129236,1,2,1:2:0:0:
379,109,129384,5,2,1:2:0:0:
301,236,129532,1,2,1:2:0:0:
308,47,129680,1,2,1:2:0:0:
431,219,129828,6,0,B|374:241|374:241|287:235,1,135,0|0,3:0|0:0,0:0:0:0:
246,139,130273,6,0,L|250:162,1,22.5,0|0,3:0|0:0,0:0:0:0:
200,255,130495,6,0,L|196:278,1,22.5,0|0,3:0|0:0,0:0:0:0:
60,220,130717,5,10,1:2:0:0:
90,344,130866,1,2,1:2:0:0:
156,167,131014,1,2,1:2:0:0:
283,247,131162,5,2,1:2:0:0:
141,211,131310,1,2,1:2:0:0:
220,79,131458,1,2,1:2:0:0:
467,156,131606,6,0,P|417:200|351:202,1,135,0|0,3:0|0:0,0:0:0:0:
272,47,132051,5,2,1:2:0:0:
257,151,132199,1,2,1:2:0:0:
243,255,132347,1,2,1:2:0:0:
44,227,132495,6,0,P|94:183|160:181,1,135,10|0,0:2|0:0,0:0:0:0:
342,312,132940,5,2,1:2:0:0:
237,297,133088,1,2,1:2:0:0:
133,283,133236,1,2,1:2:0:0:
218,69,133384,6,0,P|261:118|263:184,1,135,0|0,3:0|0:0,0:0:0:0:
117,299,133828,5,2,3:2:0:0:
221,313,133977,1,2,1:2:0:0:
325,327,134125,1,2,1:2:0:0:
467,227,134273,6,0,P|417:183|351:181,1,135,8|0,0:0|0:0,0:0:0:0:
266,326,134717,5,2,1:2:0:0:
252,222,134866,1,2,1:2:0:0:
238,118,135014,2,0,L|234:96,1,15,2|0,1:2|3:0,0:0:0:0:
117,53,135162,6,0,B|96:97|149:141|149:141|89:129|89:129|145:208|101:266,1,310.500005922318,0|0,3:0|0:0,0:0:0:0:
30,312,135606,6,0,P|97:284|187:334,1,161.999995056153,0|0,3:0|0:0,0:0:0:0:
290,271,136051,5,10,1:2:0:0:
249,377,136199,1,2,1:2:0:0:
215,194,136347,1,2,1:2:0:0:
330,271,136495,5,2,1:2:0:0:
186,312,136643,1,2,1:2:0:0:
389,355,136791,1,2,1:2:0:0:
480,206,136940,5,2,3:2:0:0:
384,365,137088,1,2,1:2:0:0:
296,273,137236,1,2,1:2:0:0:
384,159,137384,5,2,1:2:0:0:
289,294,137532,1,2,1:2:0:0:
229,184,137680,1,2,1:2:0:0:
389,251,137828,5,10,1:2:0:0:
191,278,137977,1,2,1:2:0:0:
304,217,138125,1,2,1:2:0:0:
191,116,138273,5,2,1:2:0:0:
295,244,138421,1,2,1:2:0:0:
291,31,138569,1,2,1:2:0:0:
493,112,138717,6,0,B|464:141|397:127|397:127|353:172|353:172|271:130|203:208,1,315,4|0,3:2|0:0,0:0:0:0:
126,139,139606,5,2,1:2:0:0:
296,257,139754,1,2,1:2:0:0:
167,294,139903,1,2,1:2:0:0:
284,158,140051,5,2,1:2:0:0:
187,274,140199,1,2,1:2:0:0:
391,216,140347,1,2,1:2:0:0:
303,70,140495,5,2,3:2:0:0:
304,250,140643,1,2,1:2:0:0:
179,187,140791,1,2,1:2:0:0:
358,158,140940,5,2,1:2:0:0:
256,320,141088,1,2,1:2:0:0:
207,172,141236,1,2,1:2:0:0:
339,255,141384,5,10,1:2:0:0:
180,349,141532,1,2,1:2:0:0:
113,244,141680,1,2,1:2:0:0:
265,165,141828,5,2,1:2:0:0:
151,257,141977,1,2,1:2:0:0:
140,95,142125,1,2,1:2:0:0:
356,82,142273,6,0,L|342:217,1,135,0|0,3:0|0:0,0:0:0:0:
408,289,142717,6,0,L|444:285,1,22.5,0|0,3:0|0:0,0:0:0:0:
305,346,142940,6,0,L|328:344,1,22.5,0|0,3:0|0:0,0:0:0:0:
327,344,143162,5,10,1:2:0:0:
239,301,143310,1,2,1:2:0:0:
151,258,143458,1,2,1:2:0:0:
296,210,143606,5,2,1:2:0:0:
224,332,143754,1,2,1:2:0:0:
204,142,143903,1,2,1:2:0:0:
8,239,144051,6,0,L|143:253,1,135,0|0,3:0|0:0,0:0:0:0:
226,324,144495,6,0,L|232:288,1,22.5,0|0,3:0|0:0,0:0:0:0:
303,222,144717,6,0,L|300:200,1,22.5,0|0,3:0|0:0,0:0:0:0:
300,199,144940,5,10,1:2:0:0:
229,301,145088,1,2,1:2:0:0:
330,371,145236,1,2,1:2:0:0:
441,235,145384,5,2,1:2:0:0:
337,342,145532,1,2,1:2:0:0:
301,176,145680,1,2,1:2:0:0:
94,252,145828,6,0,P|146:287|235:265,1,135,0|0,3:0|0:0,0:0:0:0:
301,176,146273,5,2,3:2:0:0:
215,279,146421,1,2,1:2:0:0:
172,96,146569,1,2,1:2:0:0:
422,148,146717,6,0,P|370:183|281:161,1,135,0|0,3:0|0:0,0:0:0:0:
193,79,147162,5,10,1:2:0:0:
351,25,147310,2,0,L|355:76,1,30,2|0,1:2|3:0,0:0:0:0:
378,256,147458,1,2,1:2:0:0:
194,234,147606,5,0,3:0:0:0:
194,234,148717,5,0,3:0:0:0:
422,269,148940,1,8,0:0:0:0:
422,269,149384,6,0,P|431:181|435:149,1,90,4|0,0:0|0:0,0:0:0:0:
314,190,149828,2,0,P|305:102|301:70,1,90,4|0,0:0|0:0,0:0:0:0:
221,253,150273,1,8,0:0:0:0:
221,253,150495,1,0,0:0:0:0:
96,157,150717,2,0,P|184:148|216:144,1,90,4|0,0:0|0:0,0:0:0:0:
271,47,151162,5,0,3:0:0:0:
408,94,151384,2,0,P|378:147|366:273,1,180,2|0,0:0|0:0,0:0:0:0:
236,293,152051,2,0,P|193:278|156:273,1,45,10|0,0:0|0:0,0:0:0:0:
84,278,152273,1,0,0:0:0:0:
207,157,152495,1,2,0:0:0:0:
214,165,152940,5,0,0:0:0:0:
214,165,153051,1,0,0:0:0:0:
214,165,153162,2,0,L|204:115,1,45
290,233,153384,2,0,L|303:178,1,45
179,280,153606,2,0,L|147:241,1,45
345,306,153828,5,8,0:0:0:0:
242,382,154051,1,0,0:0:0:0:
108,257,154273,1,0,0:0:0:0:
255,295,154495,1,0,0:0:0:0:
255,142,154717,5,0,3:0:0:0:
255,142,154828,1,2,0:0:0:0:
255,142,154940,2,0,L|250:193,1,45,2|2,0:0|0:0,0:0:0:0:
192,294,155162,5,0,0:0:0:0:
192,294,155273,2,0,L|187:255,2,22.5,0|0|2,0:0|0:0|0:0,0:0:0:0:
298,333,155606,5,8,0:0:0:0:
121,370,155828,1,0,0:0:0:0:
396,360,156051,1,2,0:0:0:0:
273,344,156273,1,0,0:0:0:0:
428,208,156495,5,0,3:0:0:0:
428,208,156717,2,0,P|406:142|397:108,1,90,0|0,0:0|3:0,0:0:0:0:
309,178,157162,1,0,0:0:0:0:
241,42,157384,2,0,P|228:85|213:127,1,90,8|0,0:0|0:0,0:0:0:0:
140,251,157828,2,8,P|184:244|229:241,1,90,2|0,0:0|0:0,0:0:0:0:
68,174,158273,1,0,3:0:0:0:
69,338,158495,6,8,P|113:341|158:347,1,90,2|0,0:0|3:0,0:0:0:0:
287,365,158940,1,0,0:0:0:0:
434,231,159162,2,0,P|391:247|348:259,1,90,8|0,0:0|0:0,0:0:0:0:
321,77,159606,2,0,P|301:117|279:156,1,90,2|0,0:0|0:0,0:0:0:0:
169,62,160051,5,0,3:0:0:0:
169,62,160273,1,0,0:0:0:0:
279,156,160495,1,0,0:0:0:0:
207,232,160717,1,2,0:0:0:0:
70,129,160940,2,0,P|137:139|181:148,1,90,10|0,0:0|0:0,0:0:0:0:
279,156,161273,1,0,0:0:0:0:
279,156,161384,2,0,P|295:85|301:47,1,90,2|0,0:0|0:0,0:0:0:0:
376,241,161828,5,0,3:0:0:0:
376,241,162051,2,0,P|439:229|477:223,2,90,0|2|0,0:0|0:0|0:0,0:0:0:0:
274,345,162717,2,0,P|258:304|257:259,1,90,8|0,0:0|0:0,0:0:0:0:
349,153,163162,1,0,0:0:0:0:
420,255,163384,1,0,0:0:0:0:
258,258,163606,6,0,P|213:249|169:243,1,90,0|0,3:0|0:0,0:0:0:0:
167,122,164051,2,0,P|122:130|78:136,1,90,0|0,3:0|0:0,0:0:0:0:
263,31,164495,2,0,P|279:95|311:169,1,135,8|0,0:0|0:0,0:0:0:0:
305,158,164940,2,0,L|372:151,1,45,2|0,0:0|0:0,0:0:0:0:
321,266,165162,2,0,P|253:248|213:241,1,90,2|0,0:0|3:0,0:0:0:0:
429,218,165606,6,0,P|474:282|435:388,1,180,2|0,0:0|0:0,0:0:0:0:
239,341,166273,2,0,L|290:329,1,45,10|0,0:0|0:0,0:0:0:0:
388,303,166495,1,0,0:0:0:0:
495,166,166717,2,0,P|426:138|355:170,1,135,2|0,0:0|0:0,0:0:0:0:
268,89,167162,6,0,P|278:110|286:131,1,45,0|0,3:0|0:0,0:0:0:0:
284,253,167384,2,0,P|294:232|308:215,1,45
427,222,167606,1,0,3:0:0:0:
220,189,167828,1,0,0:0:0:0:
353,67,168051,5,10,0:0:0:0:
249,102,168273,1,0,0:0:0:0:
136,61,168495,1,2,0:0:0:0:
163,165,168717,1,0,0:0:0:0:
343,177,168940,6,0,L|399:186,2,45,0|2|2,3:0|0:0|0:0,0:0:0:0:
256,224,169273,1,2,0:0:0:0:
249,100,169384,5,0,0:0:0:0:
249,100,169495,2,0,L|251:132,2,22.5,0|0|2,0:0|0:0|0:0,0:0:0:0:
118,236,169828,5,8,0:0:0:0:
200,305,170051,1,0,0:0:0:0:
291,247,170273,1,2,0:0:0:0:
381,305,170495,1,0,0:0:0:0:
475,171,170717,6,0,P|447:162|408:162,1,45,0|0,3:0|0:0,0:0:0:0:
295,163,170940,2,0,P|323:172|362:172,1,45,0|0,3:0|0:0,0:0:0:0:
471,154,171162,2,0,P|443:145|404:145,1,45,8|4,0:3|0:3,0:0:0:0:
264,151,171384,6,0,P|287:176|297:246,1,101.250003862381,8|0,1:3|0:0,0:0:0:0:
298,241,171606,6,0,P|251:234|205:231,1,90,8|0,0:0|0:0,0:0:0:0:
318,338,172051,2,0,P|363:331|408:328,1,90,2|0,0:0|0:0,0:0:0:0:
228,354,172495,1,0,3:0:0:0:
342,240,172717,2,0,P|351:182|353:125,1,90,2|0,0:0|3:0,0:0:0:0:
246,176,173162,1,0,0:0:0:0:
456,131,173384,6,0,P|436:91|409:56,1,90,10|0,0:0|0:0,0:0:0:0:
157,191,173828,2,0,P|200:181|245:175,1,90,2|0,0:0|0:0,0:0:0:0:
437,283,174273,5,0,0:0:0:0:
344,244,174495,1,0,0:0:0:0:
423,181,174717,1,0,0:0:0:0:
359,349,174940,1,2,0:0:0:0:
236,222,175162,2,0,P|214:158|213:123,1,72,8|0,0:0|0:0,0:0:0:0:
150,83,175495,1,2,0:0:0:0:
150,83,175606,2,0,P|131:146|128:176,1,72,2|0,0:0|0:0,0:0:0:0:
138,263,176051,1,0,3:0:0:0:
138,263,177828,6,0,P|193:268|301:289,1,144,0|0,3:0|0:0,0:0:0:0:
398,311,178495,1,0,0:0:0:0:
500,245,178717,2,0,P|482:187|466:145,1,72,8|0,0:0|0:0,0:0:0:0:
381,161,179051,1,0,0:0:0:0:
381,161,179162,2,0,P|392:108|398:80,1,72,0|0,3:0|0:0,0:0:0:0:
215,33,179606,6,0,P|245:80|279:195,1,144,0|0,3:0|0:0,0:0:0:0:
210,255,180273,1,0,0:0:0:0:
280,337,180495,2,0,P|316:331|363:326,2,72,8|0|0,0:0|0:0|0:0,0:0:0:0:
175,352,181162,1,0,0:0:0:0:
124,218,181384,6,0,P|159:223|195:229,1,72,0|0,3:0|0:0,0:0:0:0:
350,236,181828,2,0,P|286:159|271:89,1,144,0|8,0:0|0:0,0:0:0:0:
433,73,182495,1,0,0:0:0:0:
433,73,182717,2,0,P|427:121|420:157,1,72
295,292,183162,6,0,P|291:238|283:184,2,108,0|0|0,3:0|3:0|3:0,0:0:0:0:
173,216,184051,2,0,P|176:154|180:115,1,72,8|0,0:0|0:0,0:0:0:0:
87,288,184495,1,0,3:0:0:0:
87,288,184940,5,0,3:0:0:0:
173,249,185162,2,0,P|191:302|200:348,1,72,0|2,0:0|0:0,0:0:0:0:
304,330,185606,1,0,0:0:0:0:
265,217,185828,2,0,P|272:177|281:141,2,72,8|2|0,0:0|0:0|3:0,0:0:0:0:
377,246,186495,1,0,0:0:0:0:
469,109,186717,6,0,P|422:128|345:60,1,144,0|2,3:0|0:0,0:0:0:0:
245,69,187384,1,0,0:0:0:0:
176,177,187606,2,0,P|230:167|265:166,1,72,8|2,0:0|0:0,0:0:0:0:
383,246,188051,2,0,P|329:236|294:235,1,72
183,300,188495,5,0,3:0:0:0:
183,300,188717,2,0,P|133:282|90:275,2,72,0|2|0,0:0|0:0|0:0,0:0:0:0:
266,185,189384,1,8,0:0:0:0:
345,250,189606,2,0,P|395:232|438:225,2,72,2|0|0,0:0|0:0|0:0,0:0:0:0:
208,115,190273,6,0,P|196:155|181:231,2,108,0|0|0,3:0|3:0|3:0,0:0:0:0:
273,249,191162,2,0,P|204:250|160:329,1,144,8|0,0:0|3:0,0:0:0:0:
245,374,191828,1,0,0:0:0:0:
378,343,192051,6,0,B|403:282|403:282|380:181,1,144,2|0,3:2|0:0,0:0:0:0:
285,156,192717,1,0,0:0:0:0:
403,19,192940,2,0,P|433:64|429:126,1,108,8|0,0:0|0:0,0:0:0:0:
432,116,193384,2,0,L|339:109,1,72,0|0,3:0|0:0,0:0:0:0:
169,203,193828,6,0,P|220:195|319:195,1,144,0|0,3:0|0:0,0:0:0:0:
428,209,194495,1,0,0:0:0:0:
372,318,194717,2,0,P|306:302|273:296,1,72,8|0,0:0|0:0,0:0:0:0:
143,327,195162,1,0,0:0:0:0:
143,327,195606,6,0,P|133:281|125:247,1,72,0|0,3:0|0:0,0:0:0:0:
174,149,196051,1,0,0:0:0:0:
316,260,196273,2,0,P|274:250|229:243,2,72,0|8|0,0:0|0:0|0:0,0:0:0:0:
317,143,196940,1,0,0:0:0:0:
317,143,197162,1,0,0:0:0:0:
409,244,197384,6,0,P|458:233|529:198,2,108,0|0|0,3:0|3:0|3:0,0:0:0:0:
310,136,198273,2,0,P|293:94|280:57,1,72,8|0,0:0|0:0,0:0:0:0:
144,210,198717,2,0,P|193:221|264:256,1,108,0|0,3:0|0:0,0:0:0:0:
245,244,199162,6,0,P|223:308|218:334,1,72,0|0,3:0|0:0,0:0:0:0:
384,224,199606,2,0,P|374:189|361:155,1,72,2|0,0:0|0:0,0:0:0:0:
378,343,200051,1,8,0:0:0:0:
482,294,200273,2,0,P|501:235|506:192,2,72,0|0|0,0:0|3:0|0:0,0:0:0:0:
375,219,200940,6,0,P|343:204|309:193,1,72,0|0,3:0|0:0,0:0:0:0:
190,95,201384,2,0,P|209:144|216:177,1,72
134,325,201828,2,0,P|148:291|157:257,1,72,8|0,0:0|0:0,0:0:0:0:
327,269,202273,2,0,P|264:284|233:297,1,72
383,338,202717,6,0,L|368:177,1,144,2|0,3:2|0:0,0:0:0:0:
314,83,203384,1,0,0:0:0:0:
487,118,203606,1,8,0:0:0:0:
486,118,203828,2,0,P|450:113|414:110,2,72
335,173,204495,6,0,P|300:174|260:184,1,72,0|0,3:0|0:0,0:0:0:0:
193,252,204828,1,0,3:0:0:0:
192,251,204940,2,0,P|158:242|122:237,1,72,0|0,0:0|3:0,0:0:0:0:
238,339,205384,2,0,B|311:318|319:364|404:338,1,144,8|0,0:0|3:0,0:0:0:0:
374,102,206273,5,2,3:2:0:0:
337,197,206495,1,0,0:0:0:0:
230,27,206717,1,0,0:0:0:0:
251,134,206940,1,0,0:0:0:0:
133,251,207162,2,0,P|141:206|151:163,1,90,8|0,0:0|0:0,0:0:0:0:
251,134,207495,1,0,0:0:0:0:
251,134,207606,2,0,P|299:146|359:156,1,90,0|0,3:0|0:0,0:0:0:0:
481,252,208051,6,0,P|436:260|393:271,1,90,0|0,3:0|0:0,0:0:0:0:
261,239,208495,1,0,0:0:0:0:
303,353,208717,1,0,0:0:0:0:
136,271,208940,1,8,0:0:0:0:
136,271,209162,2,0,P|141:226|148:181,2,90
24,301,209828,5,0,3:0:0:0:
140,358,210051,1,0,0:0:0:0:
297,249,210273,1,0,0:0:0:0:
174,273,210495,1,0,0:0:0:0:
279,113,210717,1,8,0:0:0:0:
279,113,210940,2,0,P|323:114|368:117,2,90
140,39,211606,6,0,P|156:95|165:135,1,90,0|0,3:0|0:0,0:0:0:0:
145,223,211940,2,0,P|220:192|249:187,1,90,0|0,3:0|0:0,0:0:0:0:
315,194,212273,2,0,P|305:234|300:263,1,45,0|0,3:0|0:0,0:0:0:0:
403,197,212495,6,0,P|380:137|293:110,1,135,8|0,0:0|0:0,0:0:0:0:
319,107,212940,2,0,P|274:111|229:116,1,90,0|0,3:0|0:0,0:0:0:0:
99,217,213384,6,0,P|143:221|188:225,1,90,0|0,3:0|0:0,0:0:0:0:
247,78,213828,1,2,0:0:0:0:
287,183,214051,1,0,0:0:0:0:
148,74,214273,1,8,0:0:0:0:
341,25,214495,1,2,0:0:0:0:
341,25,214717,2,0,P|336:69|329:114,1,90,0|0,3:0|0:0,0:0:0:0:
428,274,215162,6,0,B|394:252|374:205|374:205|341:240|294:244,1,180,2|0,3:2|0:0,0:0:0:0:
150,170,215828,2,0,P|194:160|238:154,1,90,0|8,0:0|0:0,0:0:0:0:
165,281,216273,2,0,P|122:265|79:253,2,90
282,369,216940,6,0,B|296:325|278:284|278:284|296:248|296:248|280:177,1,180,2|0,3:2|0:0,0:0:0:0:
337,80,217606,1,0,0:0:0:0:
468,222,217828,1,8,0:0:0:0:
374,174,218051,1,0,0:0:0:0:
216,268,218273,1,0,0:0:0:0:
302,241,218495,1,0,0:0:0:0:
452,338,218717,6,0,P|393:323|351:313,1,90,0|0,3:0|0:0,0:0:0:0:
302,241,219051,2,0,P|247:258|205:273,1,90,0|0,3:0|0:0,0:0:0:0:
126,324,219384,2,0,P|112:281|119:237,1,90,0|8,3:0|0:0,0:0:0:0:
244,115,219828,1,0,0:0:0:0:
334,165,220051,2,0,P|347:207|340:251,1,90,0|0,3:0|0:0,0:0:0:0:
221,371,220495,6,0,B|199:276|257:277|215:175,1,180,0|0,3:0|0:0,0:0:0:0:
137,86,221162,1,0,0:0:0:0:
333,20,221384,2,0,P|319:63|308:106,1,90,8|0,0:0|0:0,0:0:0:0:
353,195,221717,1,0,0:0:0:0:
353,195,221828,2,0,L|450:177,1,90,0|0,3:0|0:0,0:0:0:0:
320,291,222273,6,0,P|248:279|197:277,1,90,0|0,3:0|0:0,0:0:0:0:
110,261,222717,1,0,0:0:0:0:
206,183,222940,1,0,0:0:0:0:
169,361,223162,1,8,0:0:0:0:
49,306,223384,1,0,0:0:0:0:
49,306,223606,2,0,P|67:238|77:209,1,90
201,38,224051,6,0,L|223:138,1,90,0|0,3:0|0:0,0:0:0:0:
249,264,224495,1,0,0:0:0:0:
144,204,224717,1,0,0:0:0:0:
38,377,224940,2,0,P|100:352|223:340,1,180,8|0,0:0|0:0,0:0:0:0:
329,364,225606,1,0,0:0:0:0:
480,225,225828,6,0,P|446:253|403:262,1,90,0|0,3:0|0:0,0:0:0:0:
345,121,226162,2,0,P|370:157|410:177,1,90,0|0,3:0|0:0,0:0:0:0:
472,83,226495,2,0,P|450:90|429:98,1,45,0|0,3:0|0:0,0:0:0:0:
302,214,226717,2,0,P|259:197|217:184,1,90,8|0,0:0|0:0,0:0:0:0:
94,107,227162,2,0,P|101:152|106:197,1,90,0|0,3:0|0:0,0:0:0:0:
21,52,227606,6,0,P|76:20|180:84,1,180,2|2,3:2|0:0,0:0:0:0:
211,210,228273,1,0,0:0:0:0:
304,119,228495,1,8,0:0:0:0:
120,172,228717,1,2,0:0:0:0:
307,225,228940,2,0,P|369:211|423:205,1,90,0|0,3:0|0:0,0:0:0:0:
467,22,229384,6,0,P|435:53|395:72,1,90,0|0,3:0|0:0,0:0:0:0:
331,134,229717,1,0,0:0:0:0:
331,134,229828,2,0,L|242:103,1,90,2|0,0:0|0:0,0:0:0:0:
76,213,230273,2,0,P|143:184|214:239,1,135,8|0,0:0|0:0,0:0:0:0:
195,208,230717,2,0,L|180:307,1,90
334,378,231162,6,0,P|321:333|308:268,1,90,0|0,3:0|0:0,0:0:0:0:
459,134,231606,2,0,P|417:176|327:145,1,135
346,166,232051,1,8,0:0:0:0:
227,69,232273,1,0,0:0:0:0:
227,69,232495,2,0,P|237:124|241:182,1,90
101,325,232940,6,0,P|142:309|186:297,1,90,0|0,3:0|0:0,0:0:0:0:
238,237,233273,2,0,P|169:209|141:197,1,90,0|0,3:0|0:0,0:0:0:0:
43,254,233606,2,0,P|64:248|86:243,1,45,0|0,3:0|0:0,0:0:0:0:
265,313,233828,2,0,B|329:323|329:323|378:310|378:310|459:320,1,180,8|0,0:0|0:0,0:0:0:0:
395,122,234717,5,2,3:2:0:0:
395,122,235162,2,0,P|380:178|369:232,1,90
249,155,235606,2,0,P|266:219|296:305,1,135,2|0,3:2|0:0,0:0:0:0:
287,284,236051,2,0,P|217:273|176:267,1,90
0,346,236495,5,2,3:2:0:0:
111,338,236717,1,0,0:0:0:0:
199,270,236940,2,0,P|221:207|201:76,2,180,0|2|0,0:0|3:2|0:0,0:0:0:0:
88,68,238273,5,2,3:2:0:0:
88,68,238717,2,0,P|153:58|197:51,1,90
381,72,239162,2,0,P|325:111|280:196,1,135,2|0,3:2|0:0,0:0:0:0:
289,166,239606,2,0,P|305:227|316:266,1,90
186,307,240051,5,2,3:2:0:0:
328,351,240273,1,0,0:0:0:0:
178,286,240495,2,0,P|122:277|16:338,1,180,0|2,0:0|3:2,0:0:0:0:
126,181,241162,2,0,P|170:174|215:171,1,90
393,265,241606,6,0,P|348:258|303:255,1,90,0|2,0:0|3:2,0:0:0:0:
305,70,242051,2,0,P|310:114|312:159,1,90
214,346,242495,2,0,P|208:301|206:256,1,90,0|2,0:0|3:2,0:0:0:0:
405,181,242940,2,0,P|363:224|332:250,1,90
136,142,243384,6,0,P|178:154|220:171,1,90,0|2,0:0|3:2,0:0:0:0:
381,317,243828,2,0,P|336:320|291:327,1,90
161,337,244273,2,0,P|176:294|187:251,1,90,0|2,0:0|3:2,0:0:0:0:
306,110,244717,2,0,P|316:153|332:195,1,90
389,298,245162,1,0,0:0:0:0:
241,242,245384,6,0,P|177:233|135:231,1,90,2|0,3:2|0:0,0:0:0:0:
193,148,245828,2,0,P|129:139|87:137,1,90
318,86,246273,2,0,P|382:77|424:75,1,90,2|0,3:2|0:0,0:0:0:0:
381,163,246717,2,0,P|445:154|487:152,1,90
336,250,247162,5,2,3:2:0:0:
231,206,247384,1,0,0:0:0:0:
360,266,247606,1,0,0:0:0:0:
247,326,247828,1,0,0:0:0:0:
115,310,248051,2,0,P|134:261|160:205,1,90,2|0,3:2|0:0,0:0:0:0:
55,135,248495,2,0,P|105:108|148:90,1,90
303,136,248940,5,0,3:0:0:0:
303,136,249384,1,2,3:2:0:0:
394,218,249606,1,0,0:0:0:0:
241,268,249828,2,0,P|167:246|78:226,1,135,2|0,3:2|0:0,0:0:0:0:
110,232,250273,2,0,P|128:283|135:328,1,90,2|0,3:2|0:0,0:0:0:0:
22,167,250717,6,0,P|30:122|46:80,1,90,2|0,3:2|0:0,0:0:0:0:
245,93,251162,2,0,P|205:112|163:128,2,90,2|0|0,3:2|0:0|3:0,0:0:0:0:
344,44,251828,1,0,0:0:0:0:
443,172,252051,2,0,P|389:158|351:154,1,90,2|0,3:2|0:0,0:0:0:0:
237,240,252495,6,0,P|250:294|256:339,1,90,2|0,3:2|0:0,0:0:0:0:
158,143,252940,2,0,P|142:196|132:242,1,90,2|0,3:2|0:0,0:0:0:0:
283,77,253384,2,0,P|310:136|348:214,1,135,2|0,3:2|0:0,0:0:0:0:
340,199,253828,2,0,P|391:192|444:189,1,90,2|0,3:2|0:0,0:0:0:0:
376,308,254273,1,2,3:2:0:0:
271,334,254495,1,0,0:0:0:0:
165,310,254717,6,0,P|114:302|61:299,1,90,2|0,3:2|0:0,0:0:0:0:
293,204,255162,2,0,P|224:218|187:228,1,90,0|2,3:0|0:2,0:0:0:0:
426,132,255606,2,0,P|372:120|330:110,1,90,0|2,3:0|0:0,0:0:0:0:
180,26,256051,5,0,3:0:0:0:
137,130,256273,1,2,3:2:0:0:
253,122,256495,5,0,3:0:0:0:
270,237,256717,1,2,3:2:0:0:
391,216,256940,5,0,3:0:0:0:
348,346,257162,1,2,3:2:0:0:
207,295,257384,5,0,3:0:0:0:
410,262,257606,1,2,3:2:0:0:
312,93,257828,5,0,3:0:0:0:
246,282,258051,1,2,3:2:0:0:
179,77,258273,5,0,3:0:0:0:
328,320,258495,1,2,3:2:0:0:
406,172,258717,5,0,3:0:0:0:
137,348,258940,1,2,3:2:0:0:
209,36,259162,1,8,0:0:0:0:
209,36,259606,6,0,L|202:73,7,36,0|0|0|0|0|0|0|0,3:0|0:0|0:0|0:0|0:0|0:0|0:0|0:0,0:0:0:0:
202,71,263162,6,0,L|255:67,1,45,0|0,3:0|0:0,0:0:0:0:
318,169,263606,2,0,L|265:165,1,45,0|0,3:0|0:0,0:0:0:0:
95,165,264051,6,0,L|148:161,1,45,0|0,3:0|0:0,0:0:0:0:
248,285,264495,2,0,L|195:281,1,45,0|0,3:0|0:0,0:0:0:0:
226,84,264940,6,0,L|279:80,1,45,0|0,3:0|0:0,0:0:0:0:
381,252,265384,2,0,L|328:248,1,45,0|0,3:0|0:0,0:0:0:0:
145,116,265828,6,0,L|198:112,1,45,0|0,3:0|0:0,0:0:0:0:
356,361,266273,2,0,L|303:357,1,45,0|0,3:0|0:0,0:0:0:0:
223,95,266717,5,0,3:0:0:0:
282,255,266940,1,0,3:0:0:0:
298,62,267162,5,0,3:0:0:0:
197,277,267384,1,0,3:0:0:0:
194,54,267606,5,0,3:0:0:0:
293,297,267828,1,0,3:0:0:0:
168,188,268051,6,0,L|130:193,1,33.7500012874604,0|0,3:0|3:0,0:0:0:0:
357,241,268273,2,0,L|395:246,1,33.7500012874604,0|0,3:0|3:0,0:0:0:0:
255,369,268495,6,0,B|232:335|276:276|276:276|243:229|243:229|264:207|269:158,1,225
291,61,269828,6,0,P|316:105|206:77,1,270,10|0,0:0|0:0,0:0:0:0:
256,109,270273,6,0,B|278:139|376:110|376:110|310:220|402:296,1,310.500005922318,4|0,3:2|0:0,0:0:0:0:
423,198,270717,6,0,P|362:192|295:275,1,161.999995056153,4|0,3:2|0:0,0:0:0:0:
268,343,271162,5,2,1:2:0:0:
406,316,271310,1,2,1:2:0:0:
209,275,271458,1,2,1:2:0:0:
356,154,271606,5,2,1:2:0:0:
297,258,271754,1,2,1:2:0:0:
298,68,271903,1,2,1:2:0:0:
181,173,272051,5,2,3:2:0:0:
376,185,272199,1,2,1:2:0:0:
251,273,272347,1,2,1:2:0:0:
298,127,272495,5,2,1:2:0:0:
342,274,272643,1,2,1:2:0:0:
176,246,272791,1,2,1:2:0:0:
199,105,272940,5,10,1:2:0:0:
256,303,273088,1,2,1:2:0:0:
95,161,273236,1,2,1:2:0:0:
263,194,273384,5,2,1:2:0:0:
74,257,273532,1,2,1:2:0:0:
139,48,273680,1,2,1:2:0:0:
405,78,273828,6,0,B|396:124|362:147|362:147|386:213|386:213|276:250|303:369,1,315,4|0,3:2|0:0,0:0:0:0:
391,315,274717,5,10,1:2:0:0:
260,211,274866,1,2,1:2:0:0:
197,302,275014,1,2,1:2:0:0:
355,207,275162,5,2,1:2:0:0:
210,128,275310,1,2,1:2:0:0:
287,295,275458,1,2,1:2:0:0:
130,247,275606,5,2,3:2:0:0:
246,145,275754,1,2,1:2:0:0:
322,263,275903,1,2,1:2:0:0:
135,283,276051,5,2,1:2:0:0:
239,159,276199,1,2,1:2:0:0:
363,242,276347,1,2,1:2:0:0:
268,360,276495,5,10,1:2:0:0:
216,191,276643,1,2,1:2:0:0:
381,267,276791,1,2,1:2:0:0:
166,308,276940,5,2,1:2:0:0:
292,149,277088,1,2,1:2:0:0:
310,361,277236,1,2,1:2:0:0:
512,284,277384,6,0,B|472:278|472:278|446:281|446:281|413:263|413:263|337:269,1,161.999995056153,0|0,3:0|0:0,0:0:0:0:
354,355,277828,6,0,L|386:351,1,22.5,0|0,3:0|0:0,0:0:0:0:
504,202,278051,6,0,L|472:198,1,22.5,0|0,3:0|0:0,0:0:0:0:
309,78,278273,5,2,1:2:0:0:
366,178,278421,1,2,1:2:0:0:
403,25,278569,1,2,1:2:0:0:
246,180,278717,5,2,1:2:0:0:
395,206,278866,1,2,1:2:0:0:
292,57,279014,1,2,1:2:0:0:
145,287,279162,6,0,B|183:286|209:268|209:268|252:285|252:285|300:263,1,161.999995056153,0|0,3:0|0:0,0:0:0:0:
256,199,279606,6,0,L|251:161,1,22.5,0|0,3:0|0:0,0:0:0:0:
212,360,279828,6,0,L|209:382,1,22.5,0|0,3:0|0:0,0:0:0:0:
134,208,280051,5,10,1:2:0:0:
212,360,280199,1,2,1:2:0:0:
91,319,280347,1,2,1:2:0:0:
245,247,280495,5,2,1:2:0:0:
117,335,280643,1,2,1:2:0:0:
29,260,280791,1,2,1:2:0:0:
90,20,280940,6,0,P|112:90|130:207,1,161.999995056153,0|0,3:0|0:0,0:0:0:0:
256,164,281384,5,2,1:2:0:0:
219,250,281532,1,2,1:2:0:0:
182,336,281680,1,2,1:2:0:0:
376,376,281828,6,0,P|354:306|336:189,1,161.999995056153,8|0,0:0|0:0,0:0:0:0:
208,233,282273,5,2,1:2:0:0:
246,144,282421,1,2,1:2:0:0:
285,54,282569,1,2,1:2:0:0:
495,96,282717,6,0,P|425:118|308:136,1,161.999995056153,0|0,3:0|0:0,0:0:0:0:
360,268,283162,5,2,3:2:0:0:
265,228,283310,1,2,1:2:0:0:
171,187,283458,1,2,1:2:0:0:
55,336,283606,6,0,P|125:314|242:296,1,161.999995056153,8|0,0:0|0:0,0:0:0:0:
199,179,284051,5,2,1:2:0:0:
300,222,284199,1,2,1:2:0:0:
402,266,284347,2,0,L|434:280,1,17.9999994506836,2|0,1:2|3:0,0:0:0:0:
486,144,284495,6,0,P|452:166|492:73,1,310.500005922318,0|0,3:0|0:0,0:0:0:0:
437,105,284940,6,0,B|362:140|358:70|263:112,1,161.999995056153,0|0,3:0|0:0,0:0:0:0:
174,65,285384,5,2,1:2:0:0:
318,188,285532,1,2,1:2:0:0:
82,137,285680,1,2,1:2:0:0:
275,74,285828,5,2,1:2:0:0:
184,205,285977,1,2,1:2:0:0:
165,22,286125,1,2,1:2:0:0:
61,182,286273,5,2,3:2:0:0:
278,175,286421,1,2,1:2:0:0:
112,263,286569,1,2,1:2:0:0:
201,120,286717,5,2,1:2:0:0:
256,300,286866,1,2,1:2:0:0:
362,228,287014,1,2,1:2:0:0:
154,247,287162,5,10,1:2:0:0:
310,105,287310,1,2,1:2:0:0:
342,314,287458,1,2,1:2:0:0:
261,193,287606,5,2,1:2:0:0:
454,240,287754,1,2,1:2:0:0:
343,363,287903,1,2,1:2:0:0:
132,296,288051,6,0,B|153:262|150:219|150:219|175:181|175:181|101:132|142:46|212:55,1,315,0|0,3:2|0:0,0:0:0:0:
314,77,288940,5,10,1:2:0:0:
286,224,289088,1,2,1:2:0:0:
419,141,289236,1,2,1:2:0:0:
193,171,289384,5,2,1:2:0:0:
405,223,289532,1,2,1:2:0:0:
162,271,289680,1,2,1:2:0:0:
300,252,289828,5,2,3:2:0:0:
220,363,289977,1,2,1:2:0:0:
194,193,290125,1,2,1:2:0:0:
334,333,290273,5,2,1:2:0:0:
172,269,290421,1,2,1:2:0:0:
253,151,290569,1,2,1:2:0:0:
429,228,290717,5,10,1:2:0:0:
285,287,290866,1,2,1:2:0:0:
337,107,291014,1,2,1:2:0:0:
506,256,291162,5,2,1:2:0:0:
336,188,291310,1,2,1:2:0:0:
445,94,291458,1,2,1:2:0:0:
370,299,291606,6,0,B|335:297|316:262|316:262|294:292|259:293,1,135,2|0,3:2|0:0,0:0:0:0:
191,216,292051,6,0,L|229:210,1,22.5,0|0,3:0|0:0,0:0:0:0:
118,323,292273,6,0,L|140:326,1,22.5,0|0,3:0|0:0,0:0:0:0:
288,99,292495,5,10,1:2:0:0:
213,212,292643,1,2,1:2:0:0:
184,50,292791,1,2,1:2:0:0:
315,183,292940,5,2,1:2:0:0:
185,137,293088,1,2,1:2:0:0:
381,70,293236,1,2,1:2:0:0:
439,313,293384,6,0,B|408:297|408:297|379:303|379:303|355:284|355:284|316:286,1,135,2|0,3:2|0:0,0:0:0:0:
217,356,293828,6,0,P|226:336|236:318,1,22.5,0|0,3:0|0:0,0:0:0:0:
219,214,294051,6,0,P|223:224|228:234,1,22.5,0|0,3:0|0:0,0:0:0:0:
244,99,294273,5,10,1:2:0:0:
94,190,294421,1,2,1:2:0:0:
313,191,294569,1,2,1:2:0:0:
144,106,294717,5,2,1:2:0:0:
204,232,294866,1,2,1:2:0:0:
270,43,295014,1,2,1:2:0:0:
468,188,295162,6,0,P|434:230|331:230,1,135,2|0,3:2|0:0,0:0:0:0:
254,180,295606,5,2,1:2:0:0:
383,159,295754,1,2,1:2:0:0:
209,285,295903,1,2,1:2:0:0:
356,40,296051,6,0,P|389:82|366:182,1,135,10|0,1:2|0:0,0:0:0:0:
269,228,296495,5,2,1:2:0:0:
309,112,296643,1,2,1:2:0:0:
362,324,296791,1,2,1:2:0:0:
188,91,296940,6,0,P|240:77|323:137,1,135,2|0,3:2|0:0,0:0:0:0:
370,244,297384,5,2,3:2:0:0:
238,162,297532,1,2,1:2:0:0:
484,225,297680,1,2,1:2:0:0:
191,276,297828,6,0,P|189:221|266:154,1,135,10|0,1:2|0:0,0:0:0:0:
378,189,298273,5,2,3:2:0:0:
172,288,298421,1,2,1:2:0:0:
223,74,298569,1,2,3:2:0:0:
357,266,298717,6,0,P|314:252|279:243,1,80.9999975280763,2|0,3:2|0:0,0:0:0:0:
146,169,299162,2,0,P|169:230|199:303,1,121.499996292114,2|0,0:0|0:0,0:0:0:0:
240,363,299606,5,10,1:2:0:0:
396,212,299754,1,2,1:2:0:0:
363,332,299903,1,2,1:2:0:0:
221,106,300051,6,0,P|235:69|321:78,1,135,0|0,3:0|0:0,0:0:0:0:
327,108,300495,6,0,B|253:89|253:89|200:116|200:116|137:73|72:102,1,270,4|0,3:2|0:0,0:0:0:0:
147,233,300940,6,0,P|160:193|97:230,1,161.999995056153,4|0,3:2|0:0,0:0:0:0:
124,309,301384,5,10,1:2:0:0:
273,235,301532,1,2,1:2:0:0:
335,355,301680,1,2,1:2:0:0:
206,295,301828,5,2,1:2:0:0:
345,178,301977,1,2,1:2:0:0:
432,300,302125,1,2,1:2:0:0:
251,198,302273,6,0,P|237:156|233:115,1,80.9999975280763,2|0,3:2|0:0,0:0:0:0:
386,64,302717,2,0,P|362:119|345:177,1,121.499996292114,2|0,0:2|0:0,0:0:0:0:
359,269,303162,5,10,1:2:0:0:
478,232,303310,1,2,1:2:0:0:
381,370,303458,1,2,1:2:0:0:
246,228,303606,6,0,B|210:222|210:222|168:229|168:229|146:218|84:225,1,135,0|0,3:0|0:0,0:0:0:0:
42,178,304051,6,0,B|89:167|144:93|144:93|100:189|113:222,1,270,4|0,3:2|0:0,0:0:0:0:
143,314,304495,6,0,B|193:308|246:264|246:264|230:289|239:333,1,161.999995056153,4|0,3:2|0:0,0:0:0:0:
320,311,304940,5,2,1:2:0:0:
66,369,305088,1,2,1:2:0:0:
166,211,305236,1,2,1:2:0:0:
241,346,305384,5,2,1:2:0:0:
90,274,305532,1,2,1:2:0:0:
202,125,305680,1,2,1:2:0:0:
466,253,305828,6,0,B|435:247|399:227|399:227|378:239|378:239|350:220|304:226,1,161.999995056153,0|0,3:0|0:0,0:0:0:0:
197,246,306273,6,0,P|210:220|221:201,1,26.9999991760254,0|0,3:0|0:0,0:0:0:0:
355,121,306495,6,0,P|361:132|367:145,1,26.9999991760254,0|0,3:0|0:0,0:0:0:0:
109,313,306717,5,2,1:2:0:0:
222,191,306866,1,2,1:2:0:0:
288,312,307014,1,2,1:2:0:0:
127,227,307162,5,2,1:2:0:0:
286,141,307310,1,2,1:2:0:0:
258,293,307458,1,2,1:2:0:0:
53,85,307606,6,0,B|76:101|116:101|116:101|142:122|142:122|170:119|201:137,1,161.999995056153,0|0,3:0|0:0,0:0:0:0:
268,209,308051,6,0,P|280:186|284:174,1,26.9999991760254,0|0,3:0|0:0,0:0:0:0:
189,336,308273,6,0,P|182:324|176:312,1,26.9999991760254,0|0,3:0|0:0,0:0:0:0:
347,280,308495,5,10,1:2:0:0:
189,336,308643,1,2,1:2:0:0:
280,185,308791,1,2,1:2:0:0:
407,350,308940,5,2,1:2:0:0:
283,273,309088,1,2,1:2:0:0:
508,272,309236,1,2,1:2:0:0:
394,75,309384,6,0,P|370:134|359:234,1,161.999995056153,0|0,3:0|0:0,0:0:0:0:
412,316,309828,5,2,1:2:0:0:
317,351,309977,1,2,1:2:0:0:
218,330,310125,1,2,1:2:0:0:
255,172,310273,6,0,P|284:247|291:328,1,161.999995056153,8|0,0:0|0:0,0:0:0:0:
192,252,310717,5,2,1:2:0:0:
308,292,310866,1,2,1:2:0:0:
409,223,311014,1,2,1:2:0:0:
229,95,311162,6,0,P|201:170|192:260,1,161.999995056153,0|0,3:0|0:0,0:0:0:0:
333,173,311606,5,2,1:2:0:0:
212,240,311754,1,2,1:2:0:0:
98,163,311903,1,2,1:2:0:0:
263,6,312051,6,0,P|291:81|298:161,1,161.999995056153,8|0,0:0|0:0,0:0:0:0:
236,265,312495,5,2,1:2:0:0:
399,202,312643,1,2,1:2:0:0:
194,99,312791,1,2,1:2:0:0:
90,314,312940,6,0,P|150:303|197:298,1,80.9999975280763,2|0,3:2|0:0,0:0:0:0:
299,227,313384,2,0,P|274:283|264:343,1,121.499996292114,2|0,0:0|0:0,0:0:0:0:
359,311,313828,5,10,1:2:0:0:
211,205,313977,1,2,1:2:0:0:
446,242,314125,1,2,1:2:0:0:
434,105,314273,6,0,B|408:121|378:152|378:152|352:127|323:124,1,135,0|0,3:0|0:0,0:0:0:0:
263,38,314717,6,0,P|297:86|152:119,1,270,4|0,3:2|0:0,0:0:0:0:
226,102,315162,6,0,B|244:88|254:41|254:41|241:93|263:154,1,161.999995056153,4|0,3:2|0:0,0:0:0:0:
337,217,315606,5,10,1:2:0:0:
203,295,315754,1,2,1:2:0:0:
413,325,315903,1,2,1:2:0:0:
419,157,316051,5,2,1:2:0:0:
324,308,316199,1,2,1:2:0:0:
311,86,316347,1,2,1:2:0:0:
128,226,316495,6,0,P|184:218|225:216,1,90,2|0,3:2|0:0,0:0:0:0:
396,242,316940,2,0,P|333:240|315:301,1,135,2|0,0:0|0:0,0:0:0:0:
397,329,317384,5,10,1:2:0:0:
340,188,317532,1,2,1:2:0:0:
242,366,317680,1,2,1:2:0:0:
74,214,317828,6,0,B|110:218|156:240|156:240|223:214,1,135,0|0,3:0|0:0,0:0:0:0:
251,115,318273,6,0,B|205:93|183:52|183:52|230:164|197:230,1,270,4|0,3:2|0:0,0:0:0:0:
300,219,318717,6,0,B|313:208|335:170|335:170|320:236|344:281,1,161.999995056153,4|0,3:2|0:0,0:0:0:0:
421,313,319162,5,10,1:2:0:0:
251,316,319310,2,0,L|211:328,2,30,2|0|2,3:2|3:0|3:2,0:0:0:0:
422,208,319606,5,8,0:0:0:0:
340,365,319754,1,2,1:2:0:0:
292,158,319903,1,2,1:2:0:0:
55,225,320051,6,0,P|107:227|158:232,1,90,6|0,3:2|0:0,0:0:0:0:
384,160,320495,2,0,P|339:156|294:154,1,90,6|0,3:2|0:0,0:0:0:0:
386,39,320940,1,8,0:0:0:0:
480,256,321162,1,0,0:0:0:0:
480,256,321384,2,0,P|435:252|390:250,1,90
84,184,321828,6,0,P|119:237|143:271,1,90,4|0,3:2|0:0,0:0:0:0:
204,57,322273,2,0,P|211:131|218:169,1,90,4|0,3:2|0:0,0:0:0:0:
352,136,322717,1,8,0:0:0:0:
281,249,322940,1,0,0:0:0:0:
427,242,323162,2,0,P|467:211|503:188,1,90
359,357,323606,5,2,0:0:0:0:
359,357,323828,1,0,0:0:0:0:
261,255,324051,1,0,0:0:0:0:
208,343,324273,1,0,0:0:0:0:
365,244,324495,2,0,P|354:176|346:135,1,90,8|0,0:0|0:0,0:0:0:0:
227,70,324940,2,0,P|218:114|212:158,1,90
387,343,325384,5,0,3:0:0:0:
387,343,326495,5,0,3:0:0:0:
283,251,326717,2,0,L|295:172,1,45,8|0,0:0|0:0,0:0:0:0:
265,363,326940,1,0,3:0:0:0:
162,288,327162,6,0,P|116:287|69:300,1,90,4|0,3:2|0:0,0:0:0:0:
187,191,327606,1,2,3:2:0:0:
187,191,327828,1,0,0:0:0:0:
314,170,328051,2,0,P|305:224|299:268,1,90,8|0,0:0|0:0,0:0:0:0:
395,94,328495,1,2,0:2:0:0:
505,214,328717,2,0,P|452:203|400:194,1,90,0|0,0:0|3:0,0:0:0:0:
216,313,329162,6,0,P|281:269|399:303,1,180,2|0,0:0|0:0,0:0:0:0:
418,172,329828,2,0,L|407:115,1,45,8|0,0:0|0:0,0:0:0:0:
497,245,330051,1,0,0:0:0:0:
317,178,330273,2,0,P|280:114|266:38,1,135,2|0,0:0|0:0,0:0:0:0:
264,53,330717,6,0,L|336:45,1,45,0|0,3:0|0:0,0:0:0:0:
208,143,330940,2,0,L|163:147,1,45
61,69,331162,1,0,3:0:0:0:
115,235,331384,1,0,0:0:0:0:
354,154,331606,6,0,P|340:201|323:257,1,90,10|0,0:0|0:0,0:0:0:0:
190,35,332051,2,0,P|203:82|220:138,1,90,2|0,0:0|0:0,0:0:0:0:
69,278,332495,5,0,3:0:0:0:
106,273,332606,1,0,0:0:0:0:
143,268,332717,2,0,L|139:329,1,45,2|0,0:0|0:0,0:0:0:0:
239,330,332940,5,0,0:0:0:0:
239,330,333051,2,0,L|236:367,2,22.5,0|0|2,0:0|0:0|0:0,0:0:0:0:
326,261,333384,5,8,0:0:0:0:
415,325,333606,1,0,0:0:0:0:
454,184,333828,1,0,0:0:0:0:
289,242,334051,1,0,0:0:0:0:
337,58,334273,5,2,3:2:0:0:
337,58,334495,2,0,P|353:123|357:171,1,90,0|0,0:0|3:0,0:0:0:0:
305,282,334940,1,2,0:0:0:0:
126,167,335162,2,0,P|183:148|230:147,1,90,8|0,0:0|0:0,0:0:0:0:
391,303,335606,2,0,P|334:284|287:283,1,90,2|0,0:0|0:0,0:0:0:0:
212,145,336051,5,0,3:0:0:0:
387,122,336273,2,0,P|401:187|403:222,1,90,2|0,0:0|3:0,0:0:0:0:
302,274,336717,1,0,0:0:0:0:
257,68,336940,2,0,P|311:35|360:20,1,90,10|0,0:0|0:0,0:0:0:0:
199,173,337384,2,0,P|145:140|96:125,1,90,2|0,0:0|0:0,0:0:0:0:
134,288,337828,5,0,3:0:0:0:
134,288,338051,1,0,0:0:0:0:
244,247,338273,1,0,0:0:0:0:
304,345,338495,1,2,0:0:0:0:
467,226,338717,2,0,P|418:259|365:273,1,90,10|0,0:0|0:0,0:0:0:0:
300,224,339051,1,2,0:0:0:0:
300,224,339162,2,0,P|314:147|316:128,1,90,2|0,0:0|0:0,0:0:0:0:
183,269,339606,5,0,3:0:0:0:
183,269,339828,2,0,P|110:275|67:282,2,90
282,189,340495,1,8,0:0:0:0:
334,297,340717,1,0,0:0:0:0:
415,132,340940,1,0,0:0:0:0:
239,167,341162,1,0,0:0:0:0:
283,9,341384,6,0,P|299:50|314:93,1,90,0|0,3:0|0:0,0:0:0:0:
484,107,341828,2,0,P|467:148|452:191,1,90,2|0,3:2|0:0,0:0:0:0:
218,235,342273,2,0,P|276:243|330:249,1,90
452,191,342717,1,2,0:2:0:0:
419,349,342940,2,0,P|361:357|307:363,1,90,0|0,0:0|3:0,0:0:0:0:
124,181,343384,6,0,P|164:223|178:348,1,180,2|0,0:2|0:0,0:0:0:0:
32,357,344051,2,0,P|53:352|76:349,1,45,8|0,0:0|0:0,0:0:0:0:
180,339,344273,1,0,0:0:0:0:
242,217,344495,2,0,P|182:222|115:165,1,135,2|0,0:0|0:0,0:0:0:0:
207,95,344940,5,0,3:0:0:0:
207,95,345051,1,0,0:0:0:0:
207,95,345162,2,0,L|200:145,1,45
284,57,345384,2,0,L|291:107,1,45,0|0,3:0|0:0,0:0:0:0:
364,117,345606,2,0,L|357:167,1,45
287,222,345828,5,10,0:0:0:0:
436,208,346051,1,0,0:0:0:0:
290,101,346273,1,2,0:0:0:0:
232,299,346495,1,0,0:0:0:0:
117,172,346717,5,2,3:2:0:0:
117,172,346828,1,2,0:2:0:0:
117,172,346940,2,0,L|126:113,1,45,2|2,0:2|0:2,0:0:0:0:
203,244,347162,5,0,0:0:0:0:
203,244,347273,2,0,L|198:206,2,22.5,0|0|2,0:0|0:0|0:0,0:0:0:0:
321,272,347606,5,8,0:0:0:0:
180,343,347828,1,0,0:0:0:0:
355,242,348051,1,0,0:0:0:0:
324,378,348273,1,0,0:0:0:0:
468,301,348495,5,2,3:2:0:0:
371,150,348717,2,0,P|327:158|289:181,1,90,0|0,0:0|3:0,0:0:0:0:
476,199,349162,1,2,0:2:0:0:
233,103,349384,2,0,P|205:142|187:191,1,90,8|0,0:0|0:0,0:0:0:0:
138,340,349828,2,0,P|116:280|93:247,1,90,2|0,0:0|0:0,0:0:0:0:
254,281,350273,5,0,3:0:0:0:
206,92,350495,2,0,P|196:135|189:180,1,90,2|0,0:0|3:0,0:0:0:0:
333,201,350940,1,0,0:0:0:0:
396,34,351162,2,0,P|346:69|314:104,1,90,10|0,0:0|0:0,0:0:0:0:
135,179,351606,2,0,P|188:191|231:208,1,90,2|0,0:0|0:0,0:0:0:0:
346,278,352051,5,0,3:0:0:0:
346,278,352273,1,0,0:0:0:0:
251,338,352495,1,0,0:0:0:0:
440,351,352717,1,2,0:0:0:0:
411,188,352940,2,0,P|357:174|307:171,1,90,8|0,0:0|0:0,0:0:0:0:
231,122,353273,1,2,0:0:0:0:
231,122,353384,2,0,P|246:191|255:225,1,90,2|0,0:0|0:0,0:0:0:0:
175,328,353828,5,0,3:0:0:0:
78,258,354051,1,0,0:0:0:0:
223,226,354273,1,2,0:0:0:0:
133,148,354495,1,0,0:0:0:0:
335,63,354717,5,2,0:0:0:0:
226,134,354940,1,0,0:0:0:0:
332,258,355162,1,2,0:0:0:0:
332,258,355384,2,0,P|381:248|433:236,1,90
