osu file format v14

[General]
AudioFilename: audio140.mp3
AudioLeadIn: 0
PreviewTime: 167615
Countdown: 0
SampleSet: None
StackLeniency: 0.4
Mode: 3
LetterboxInBreaks: 0
SpecialStyle: 0
WidescreenStoryboard: 0

[Editor]
DistanceSpacing: 1.5
BeatDivisor: 4
GridSize: 4
TimelineZoom: 1.8

[Metadata]
Title:Eyes Half Closed
TitleUnicode:Eyes Half Closed
Artist:Crywolf
ArtistUnicode:Crywolf
Creator:Violet-Fox
Version:Daydreams 1.4x
Source:
Tags:
BeatmapID:1899054
BeatmapSetID:778303

[Difficulty]
HPDrainRate:9
CircleSize:4
OverallDifficulty:8
ApproachRate:9.6
SliderMultiplier:2
SliderTickRate:1

[Events]
//Background and Video events
0,0,"b44419204948a22c12d12e09e412ed62.jpg",0,0
//Break Periods
2,14839,23654
//Storyboard Layer 0 (Background)
//Storyboard Layer 1 (Fail)
//Storyboard Layer 2 (Pass)
//Storyboard Layer 3 (Foreground)
//Storyboard Sound Samples

[TimingPoints]
1306,317.460317460317,4,2,0,30,1,0
3529,-100,4,3,0,50,0,0
14639,-100,4,2,0,40,0,0
87020,-100,4,3,0,70,0,1
106703,-100,4,3,0,50,0,0
193687,-100,4,3,0,70,0,1
213369,-100,4,3,0,50,0,0
214004,-100,4,3,0,70,0,1
215909,-100,4,3,0,50,0,0
216544,-100,4,3,0,70,0,1
223529,-100,4,3,0,50,0,0
224163,-100,4,3,0,70,0,1
226068,-100,4,3,0,50,0,0
226703,-100,4,3,0,70,0,1
228608,-100,4,3,0,50,0,0
252259,-100,4,3,0,30,0,0
253369,-100,4,2,0,20,0,0

[HitObjects]
64,192,3529,5,0,0:0:0:0:
320,192,3529,1,0,0:0:0:0:
448,192,3529,1,0,0:0:0:0:
192,192,3687,1,0,0:0:0:0:
320,192,3687,1,0,0:0:0:0:
64,192,3846,1,0,0:0:0:0:
192,192,3846,1,0,0:0:0:0:
448,192,3846,1,0,0:0:0:0:
192,192,4163,1,0,0:0:0:0:
320,192,4322,1,0,0:0:0:0:
64,192,4481,1,0,0:0:0:0:
448,192,4481,1,0,0:0:0:0:
320,192,4481,1,0,0:0:0:0:
192,192,4639,1,0,0:0:0:0:
320,192,4798,1,0,0:0:0:0:
64,192,4957,1,0,0:0:0:0:
192,192,5116,1,0,0:0:0:0:
448,192,5274,1,0,0:0:0:0:
64,192,5274,1,0,0:0:0:0:
320,192,5433,1,0,0:0:0:0:
192,192,5591,1,0,0:0:0:0:
64,192,5751,128,0,5909:0:0:0:0:
320,192,5751,1,0,0:0:0:0:
448,192,5751,1,0,0:0:0:0:
448,192,5909,128,0,6068:0:0:0:0:
192,192,6068,128,0,6226:0:0:0:0:
320,192,6226,1,0,0:0:0:0:
64,192,6306,1,0,0:0:0:0:
448,192,6386,1,0,0:0:0:0:
320,192,6465,1,0,0:0:0:0:
192,192,6544,1,0,0:0:0:0:
448,192,6703,1,0,0:0:0:0:
64,192,6861,1,0,0:0:0:0:
192,192,7020,1,0,0:0:0:0:
320,192,7020,1,0,0:0:0:0:
448,192,7020,1,0,0:0:0:0:
320,192,7179,1,0,0:0:0:0:
192,192,7338,1,0,0:0:0:0:
64,192,7338,1,0,0:0:0:0:
448,192,7338,1,0,0:0:0:0:
64,192,7496,1,0,0:0:0:0:
192,192,7496,1,0,0:0:0:0:
320,192,7496,1,0,0:0:0:0:
448,192,7655,1,0,0:0:0:0:
320,192,7655,1,0,0:0:0:0:
192,192,7734,1,0,0:0:0:0:
320,192,7814,1,0,0:0:0:0:
448,192,7894,1,0,0:0:0:0:
64,192,7973,1,0,0:0:0:0:
192,192,8012,1,0,0:0:0:0:
320,192,8052,1,0,0:0:0:0:
448,192,8091,1,0,0:0:0:0:
64,192,8131,1,0,0:0:0:0:
192,192,8290,1,0,0:0:0:0:
448,192,8290,1,0,0:0:0:0:
320,192,8290,1,0,0:0:0:0:
192,192,8449,1,0,0:0:0:0:
64,192,8608,1,0,0:0:0:0:
320,192,8608,1,0,0:0:0:0:
448,192,8766,1,0,0:0:0:0:
320,192,8925,1,0,0:0:0:0:
192,192,8925,1,0,0:0:0:0:
64,192,8925,1,0,0:0:0:0:
64,192,9084,1,0,0:0:0:0:
448,192,9243,1,0,0:0:0:0:
320,192,9401,1,0,0:0:0:0:
64,192,9401,1,0,0:0:0:0:
192,192,9560,1,0,0:0:0:0:
448,192,9560,1,0,0:0:0:0:
320,192,9560,1,0,0:0:0:0:
448,192,9719,1,0,0:0:0:0:
192,192,9877,1,0,0:0:0:0:
64,192,9877,1,0,0:0:0:0:
320,192,10036,1,0,0:0:0:0:
448,192,10195,1,0,0:0:0:0:
64,192,10195,1,0,0:0:0:0:
192,192,10354,1,0,0:0:0:0:
448,192,10354,1,0,0:0:0:0:
320,192,10512,1,0,0:0:0:0:
192,192,10671,1,0,0:0:0:0:
448,192,10830,1,0,0:0:0:0:
320,192,10830,1,0,0:0:0:0:
64,192,10830,1,0,0:0:0:0:
192,192,10989,1,0,0:0:0:0:
320,192,11147,1,0,0:0:0:0:
448,192,11147,1,0,0:0:0:0:
448,192,11306,1,0,0:0:0:0:
192,192,11465,1,0,0:0:0:0:
320,192,11465,1,0,0:0:0:0:
64,192,11624,1,0,0:0:0:0:
192,192,11782,1,0,0:0:0:0:
320,192,11941,1,0,0:0:0:0:
448,192,12100,1,0,0:0:0:0:
192,192,12100,1,0,0:0:0:0:
64,192,12100,1,0,0:0:0:0:
320,192,12259,1,0,0:0:0:0:
64,192,12417,1,0,0:0:0:0:
192,192,12417,1,0,0:0:0:0:
320,192,12576,1,0,0:0:0:0:
448,192,12734,1,0,0:0:0:0:
192,192,12734,1,0,0:0:0:0:
64,192,12894,1,0,0:0:0:0:
448,192,13052,1,0,0:0:0:0:
192,192,13211,1,0,0:0:0:0:
320,192,13369,1,0,0:0:0:0:
448,192,13369,1,0,0:0:0:0:
64,192,13369,1,0,0:0:0:0:
192,192,13529,1,0,0:0:0:0:
448,192,13687,128,0,14004:0:0:0:0:
320,192,13687,128,0,14004:0:0:0:0:
64,192,14004,1,0,0:0:0:0:
192,192,14004,128,0,14639:0:0:0:0:
320,192,24163,5,0,0:0:0:0:
448,192,24163,1,0,0:0:0:0:
64,192,25433,1,0,0:0:0:0:
320,192,25433,1,0,0:0:0:0:
320,192,26703,1,0,0:0:0:0:
192,192,26703,1,0,0:0:0:0:
192,192,27973,1,0,0:0:0:0:
448,192,27973,1,0,0:0:0:0:
64,192,29243,1,0,0:0:0:0:
320,192,29243,1,0,0:0:0:0:
448,192,30512,1,0,0:0:0:0:
64,192,30512,1,0,0:0:0:0:
64,192,31782,1,0,0:0:0:0:
192,192,31782,128,0,34322:0:0:0:0:
64,192,34322,1,0,0:0:0:0:
320,192,34322,1,0,0:0:0:0:
448,192,34322,1,0,0:0:0:0:
192,192,34481,1,0,0:0:0:0:
320,192,34639,1,0,0:0:0:0:
448,192,34639,1,0,0:0:0:0:
64,192,34798,1,0,0:0:0:0:
192,192,34957,1,0,0:0:0:0:
448,192,34957,1,0,0:0:0:0:
320,192,34957,1,0,0:0:0:0:
64,192,35195,1,0,0:0:0:0:
192,192,35195,1,0,0:0:0:0:
448,192,35433,1,0,0:0:0:0:
192,192,35591,1,0,0:0:0:0:
64,192,35591,1,0,0:0:0:0:
448,192,35591,1,0,0:0:0:0:
64,192,35909,1,0,0:0:0:0:
320,192,35909,1,0,0:0:0:0:
192,192,36068,1,0,0:0:0:0:
320,192,36226,1,0,0:0:0:0:
192,192,36226,1,0,0:0:0:0:
64,192,36226,1,0,0:0:0:0:
448,192,36386,1,0,0:0:0:0:
64,192,36544,1,0,0:0:0:0:
192,192,36544,1,0,0:0:0:0:
192,192,36703,1,0,0:0:0:0:
64,192,36861,1,0,0:0:0:0:
320,192,36861,1,0,0:0:0:0:
448,192,36861,1,0,0:0:0:0:
192,192,37020,1,0,0:0:0:0:
320,192,37179,1,0,0:0:0:0:
448,192,37179,1,0,0:0:0:0:
64,192,37338,1,0,0:0:0:0:
192,192,37496,1,0,0:0:0:0:
320,192,37496,1,0,0:0:0:0:
448,192,37496,1,0,0:0:0:0:
192,192,37655,1,0,0:0:0:0:
448,192,37814,1,0,0:0:0:0:
320,192,37973,1,0,0:0:0:0:
64,192,38131,1,0,0:0:0:0:
192,192,38131,1,0,0:0:0:0:
448,192,38131,1,0,0:0:0:0:
192,192,38369,1,0,0:0:0:0:
320,192,38369,1,0,0:0:0:0:
448,192,38369,1,0,0:0:0:0:
64,192,38608,1,0,0:0:0:0:
192,192,38608,1,0,0:0:0:0:
320,192,38608,1,0,0:0:0:0:
64,192,38766,1,0,0:0:0:0:
320,192,38766,1,0,0:0:0:0:
448,192,38766,1,0,0:0:0:0:
192,192,38925,1,0,0:0:0:0:
448,192,39084,1,0,0:0:0:0:
320,192,39084,1,0,0:0:0:0:
64,192,39084,1,0,0:0:0:0:
64,192,39243,1,0,0:0:0:0:
192,192,39401,1,0,0:0:0:0:
448,192,39401,1,0,0:0:0:0:
320,192,39401,1,0,0:0:0:0:
320,192,39560,1,0,0:0:0:0:
192,192,39719,1,0,0:0:0:0:
64,192,39719,1,0,0:0:0:0:
320,192,39877,1,0,0:0:0:0:
448,192,40036,1,0,0:0:0:0:
192,192,40036,1,0,0:0:0:0:
64,192,40036,1,0,0:0:0:0:
320,192,40195,1,0,0:0:0:0:
64,192,40354,1,0,0:0:0:0:
192,192,40512,1,0,0:0:0:0:
320,192,40671,1,0,0:0:0:0:
448,192,40671,1,0,0:0:0:0:
64,192,40671,1,0,0:0:0:0:
320,192,40830,1,0,0:0:0:0:
64,192,40989,1,0,0:0:0:0:
192,192,40989,1,0,0:0:0:0:
448,192,41147,1,0,0:0:0:0:
320,192,41306,1,0,0:0:0:0:
192,192,41306,1,0,0:0:0:0:
64,192,41306,1,0,0:0:0:0:
448,192,41465,1,0,0:0:0:0:
320,192,41624,1,0,0:0:0:0:
192,192,41624,1,0,0:0:0:0:
64,192,41782,1,0,0:0:0:0:
320,192,41941,1,0,0:0:0:0:
448,192,41941,1,0,0:0:0:0:
64,192,41941,1,0,0:0:0:0:
192,192,42100,1,0,0:0:0:0:
448,192,42259,1,0,0:0:0:0:
64,192,42259,1,0,0:0:0:0:
320,192,42417,1,0,0:0:0:0:
64,192,42576,1,0,0:0:0:0:
192,192,42576,1,0,0:0:0:0:
448,192,42576,1,0,0:0:0:0:
320,192,42734,1,0,0:0:0:0:
192,192,42894,1,0,0:0:0:0:
64,192,42894,1,0,0:0:0:0:
448,192,43052,1,0,0:0:0:0:
320,192,43211,1,0,0:0:0:0:
192,192,43211,1,0,0:0:0:0:
64,192,43211,1,0,0:0:0:0:
192,192,43449,1,0,0:0:0:0:
320,192,43449,1,0,0:0:0:0:
448,192,43449,1,0,0:0:0:0:
64,192,43687,1,0,0:0:0:0:
192,192,43687,1,0,0:0:0:0:
448,192,43687,1,0,0:0:0:0:
448,192,43846,1,0,0:0:0:0:
320,192,43846,1,0,0:0:0:0:
64,192,43846,1,0,0:0:0:0:
320,192,44004,1,0,0:0:0:0:
448,192,44163,1,0,0:0:0:0:
64,192,44163,1,0,0:0:0:0:
192,192,44163,1,0,0:0:0:0:
192,192,44322,1,0,0:0:0:0:
64,192,44481,1,0,0:0:0:0:
320,192,44481,1,0,0:0:0:0:
448,192,44481,1,0,0:0:0:0:
448,192,44639,1,0,0:0:0:0:
192,192,44639,1,0,0:0:0:0:
320,192,44798,1,0,0:0:0:0:
64,192,44798,1,0,0:0:0:0:
448,192,44957,1,0,0:0:0:0:
192,192,45116,1,0,0:0:0:0:
320,192,45116,1,0,0:0:0:0:
64,192,45116,1,0,0:0:0:0:
192,192,45274,1,0,0:0:0:0:
448,192,45433,1,0,0:0:0:0:
320,192,45433,1,0,0:0:0:0:
64,192,45591,1,0,0:0:0:0:
192,192,45751,1,0,0:0:0:0:
320,192,45751,1,0,0:0:0:0:
448,192,45751,1,0,0:0:0:0:
320,192,45909,1,0,0:0:0:0:
64,192,46068,1,0,0:0:0:0:
192,192,46068,1,0,0:0:0:0:
320,192,46226,1,0,0:0:0:0:
448,192,46386,1,0,0:0:0:0:
192,192,46386,1,0,0:0:0:0:
64,192,46386,1,0,0:0:0:0:
320,192,46544,1,0,0:0:0:0:
448,192,46703,1,0,0:0:0:0:
64,192,46703,1,0,0:0:0:0:
192,192,46861,1,0,0:0:0:0:
320,192,47020,1,0,0:0:0:0:
448,192,47020,1,0,0:0:0:0:
64,192,47020,1,0,0:0:0:0:
320,192,47179,1,0,0:0:0:0:
448,192,47338,1,0,0:0:0:0:
192,192,47338,1,0,0:0:0:0:
64,192,47496,1,0,0:0:0:0:
64,192,47655,1,0,0:0:0:0:
192,192,47655,1,0,0:0:0:0:
448,192,47655,1,0,0:0:0:0:
320,192,47814,1,0,0:0:0:0:
192,192,47973,1,0,0:0:0:0:
64,192,47973,1,0,0:0:0:0:
320,192,48131,1,0,0:0:0:0:
448,192,48290,1,0,0:0:0:0:
192,192,48290,1,0,0:0:0:0:
64,192,48290,1,0,0:0:0:0:
64,192,48529,1,0,0:0:0:0:
320,192,48529,1,0,0:0:0:0:
448,192,48529,1,0,0:0:0:0:
64,192,48766,1,0,0:0:0:0:
192,192,48766,1,0,0:0:0:0:
320,192,48766,1,0,0:0:0:0:
448,192,48925,1,0,0:0:0:0:
320,192,48925,1,0,0:0:0:0:
192,192,48925,1,0,0:0:0:0:
448,192,49084,1,0,0:0:0:0:
64,192,49243,1,0,0:0:0:0:
192,192,49243,1,0,0:0:0:0:
320,192,49401,1,0,0:0:0:0:
64,192,49560,1,0,0:0:0:0:
448,192,49560,1,0,0:0:0:0:
192,192,49719,1,0,0:0:0:0:
320,192,49877,1,0,0:0:0:0:
64,192,50036,1,0,0:0:0:0:
448,192,50195,1,0,0:0:0:0:
192,192,50195,1,0,0:0:0:0:
320,192,50195,1,0,0:0:0:0:
192,192,50354,1,0,0:0:0:0:
320,192,50512,1,0,0:0:0:0:
448,192,50512,1,0,0:0:0:0:
64,192,50671,1,0,0:0:0:0:
192,192,50830,1,0,0:0:0:0:
320,192,50830,1,0,0:0:0:0:
448,192,50830,1,0,0:0:0:0:
64,192,51068,1,0,0:0:0:0:
448,192,51068,1,0,0:0:0:0:
320,192,51068,1,0,0:0:0:0:
64,192,51306,1,0,0:0:0:0:
192,192,51306,1,0,0:0:0:0:
448,192,51306,1,0,0:0:0:0:
320,192,51465,1,0,0:0:0:0:
192,192,51465,1,0,0:0:0:0:
64,192,51465,1,0,0:0:0:0:
320,192,51624,1,0,0:0:0:0:
192,192,51782,1,0,0:0:0:0:
64,192,52100,1,0,0:0:0:0:
320,192,52100,1,0,0:0:0:0:
448,192,52100,1,0,0:0:0:0:
192,192,52417,1,0,0:0:0:0:
64,192,52734,1,0,0:0:0:0:
192,192,52734,1,0,0:0:0:0:
448,192,52734,1,0,0:0:0:0:
320,192,53052,1,0,0:0:0:0:
64,192,53369,1,0,0:0:0:0:
192,192,53369,1,0,0:0:0:0:
320,192,53369,1,0,0:0:0:0:
448,192,53608,1,0,0:0:0:0:
320,192,53608,1,0,0:0:0:0:
192,192,53608,1,0,0:0:0:0:
64,192,53846,1,0,0:0:0:0:
192,192,53846,1,0,0:0:0:0:
448,192,53846,1,0,0:0:0:0:
448,192,54004,1,0,0:0:0:0:
320,192,54004,1,0,0:0:0:0:
64,192,54004,1,0,0:0:0:0:
192,192,54163,1,0,0:0:0:0:
64,192,54163,1,0,0:0:0:0:
448,192,54322,1,0,0:0:0:0:
320,192,54322,1,0,0:0:0:0:
192,192,54481,1,0,0:0:0:0:
448,192,54639,1,0,0:0:0:0:
64,192,54639,1,0,0:0:0:0:
320,192,55274,128,0,55433:0:0:0:0:
320,192,55512,1,0,0:0:0:0:
64,192,55591,1,0,0:0:0:0:
192,192,55591,1,0,0:0:0:0:
448,192,55591,1,0,0:0:0:0:
448,192,55751,1,0,0:0:0:0:
320,192,55751,1,0,0:0:0:0:
192,192,55751,1,0,0:0:0:0:
64,192,55909,1,0,0:0:0:0:
192,192,55909,1,0,0:0:0:0:
320,192,55909,1,0,0:0:0:0:
64,192,56068,1,0,0:0:0:0:
320,192,56226,1,0,0:0:0:0:
448,192,56386,1,0,0:0:0:0:
64,192,56386,1,0,0:0:0:0:
192,192,56544,1,0,0:0:0:0:
64,192,56544,1,0,0:0:0:0:
448,192,56544,1,0,0:0:0:0:
320,192,56703,1,0,0:0:0:0:
64,192,56861,1,0,0:0:0:0:
192,192,56861,1,0,0:0:0:0:
448,192,57020,1,0,0:0:0:0:
320,192,57020,1,0,0:0:0:0:
64,192,57179,1,0,0:0:0:0:
192,192,57179,1,0,0:0:0:0:
320,192,57179,1,0,0:0:0:0:
64,192,57338,1,0,0:0:0:0:
448,192,57338,1,0,0:0:0:0:
192,192,57496,1,0,0:0:0:0:
320,192,57655,1,0,0:0:0:0:
64,192,57814,1,0,0:0:0:0:
192,192,57814,1,0,0:0:0:0:
448,192,57814,1,0,0:0:0:0:
64,192,57973,1,0,0:0:0:0:
320,192,57973,1,0,0:0:0:0:
448,192,58131,1,0,0:0:0:0:
320,192,58131,1,0,0:0:0:0:
192,192,58131,1,0,0:0:0:0:
192,192,58290,1,0,0:0:0:0:
192,192,58369,1,0,0:0:0:0:
320,192,58449,1,0,0:0:0:0:
448,192,58449,1,0,0:0:0:0:
64,192,58449,1,0,0:0:0:0:
320,192,58608,1,0,0:0:0:0:
64,192,58766,1,0,0:0:0:0:
192,192,58766,1,0,0:0:0:0:
320,192,58925,1,0,0:0:0:0:
448,192,59084,1,0,0:0:0:0:
192,192,59084,1,0,0:0:0:0:
64,192,59084,1,0,0:0:0:0:
192,192,59243,1,0,0:0:0:0:
64,192,59401,1,0,0:0:0:0:
320,192,59401,1,0,0:0:0:0:
448,192,59401,1,0,0:0:0:0:
64,192,59560,1,0,0:0:0:0:
192,192,59560,1,0,0:0:0:0:
448,192,59719,1,0,0:0:0:0:
64,192,59719,1,0,0:0:0:0:
320,192,59798,1,0,0:0:0:0:
192,192,59877,1,0,0:0:0:0:
64,192,59957,1,0,0:0:0:0:
448,192,60036,1,0,0:0:0:0:
320,192,60076,1,0,0:0:0:0:
192,192,60116,1,0,0:0:0:0:
64,192,60155,1,0,0:0:0:0:
448,192,60195,1,0,0:0:0:0:
320,192,60354,1,0,0:0:0:0:
192,192,60354,1,0,0:0:0:0:
64,192,60354,1,0,0:0:0:0:
192,192,60512,1,0,0:0:0:0:
64,192,60671,1,0,0:0:0:0:
320,192,60671,1,0,0:0:0:0:
448,192,60671,1,0,0:0:0:0:
320,192,60830,1,0,0:0:0:0:
448,192,60989,1,0,0:0:0:0:
192,192,60989,1,0,0:0:0:0:
64,192,60989,1,0,0:0:0:0:
320,192,61147,1,0,0:0:0:0:
192,192,61306,1,0,0:0:0:0:
448,192,61465,1,0,0:0:0:0:
320,192,61465,1,0,0:0:0:0:
64,192,61624,1,0,0:0:0:0:
320,192,61624,1,0,0:0:0:0:
448,192,61624,1,0,0:0:0:0:
192,192,61782,1,0,0:0:0:0:
448,192,61941,1,0,0:0:0:0:
64,192,61941,1,0,0:0:0:0:
320,192,62100,1,0,0:0:0:0:
64,192,62259,1,0,0:0:0:0:
192,192,62259,1,0,0:0:0:0:
320,192,62259,1,0,0:0:0:0:
192,192,62417,1,0,0:0:0:0:
64,192,62417,1,0,0:0:0:0:
448,192,62576,1,0,0:0:0:0:
64,192,62734,1,0,0:0:0:0:
192,192,62894,1,0,0:0:0:0:
320,192,62894,1,0,0:0:0:0:
448,192,62894,1,0,0:0:0:0:
192,192,63052,1,0,0:0:0:0:
64,192,63211,1,0,0:0:0:0:
192,192,63211,1,0,0:0:0:0:
320,192,63211,1,0,0:0:0:0:
320,192,63369,1,0,0:0:0:0:
448,192,63529,1,0,0:0:0:0:
192,192,63529,1,0,0:0:0:0:
64,192,63687,1,0,0:0:0:0:
320,192,63846,1,0,0:0:0:0:
448,192,63846,1,0,0:0:0:0:
192,192,64004,1,0,0:0:0:0:
64,192,64004,1,0,0:0:0:0:
320,192,64163,1,0,0:0:0:0:
448,192,64163,1,0,0:0:0:0:
64,192,64163,1,0,0:0:0:0:
192,192,64322,1,0,0:0:0:0:
320,192,64481,1,0,0:0:0:0:
448,192,64481,1,0,0:0:0:0:
64,192,64639,1,0,0:0:0:0:
192,192,64639,1,0,0:0:0:0:
320,192,64798,1,0,0:0:0:0:
448,192,64798,1,0,0:0:0:0:
192,192,64957,1,0,0:0:0:0:
448,192,65116,1,0,0:0:0:0:
320,192,65274,1,0,0:0:0:0:
64,192,65433,1,0,0:0:0:0:
192,192,65433,1,0,0:0:0:0:
448,192,65433,1,0,0:0:0:0:
320,192,65591,1,0,0:0:0:0:
64,192,65751,128,0,66068:0:0:0:0:
192,192,65751,128,0,66068:0:0:0:0:
448,192,66068,1,0,0:0:0:0:
320,192,66386,1,0,0:0:0:0:
64,192,66544,1,0,0:0:0:0:
448,192,66703,1,0,0:0:0:0:
192,192,66861,1,0,0:0:0:0:
320,192,67020,1,0,0:0:0:0:
64,192,67179,1,0,0:0:0:0:
192,192,67338,1,0,0:0:0:0:
320,192,67496,1,0,0:0:0:0:
448,192,67655,1,0,0:0:0:0:
64,192,67814,1,0,0:0:0:0:
192,192,67973,1,0,0:0:0:0:
448,192,68131,1,0,0:0:0:0:
320,192,68290,1,0,0:0:0:0:
192,192,68449,1,0,0:0:0:0:
64,192,68608,1,0,0:0:0:0:
448,192,68766,1,0,0:0:0:0:
320,192,68925,1,0,0:0:0:0:
192,192,69084,1,0,0:0:0:0:
64,192,69243,1,0,0:0:0:0:
320,192,69401,1,0,0:0:0:0:
448,192,69560,1,0,0:0:0:0:
192,192,69719,1,0,0:0:0:0:
64,192,69877,1,0,0:0:0:0:
448,192,70036,1,0,0:0:0:0:
64,192,70195,1,0,0:0:0:0:
320,192,70354,1,0,0:0:0:0:
192,192,70512,1,0,0:0:0:0:
64,192,70671,1,0,0:0:0:0:
448,192,70830,1,0,0:0:0:0:
192,192,70989,1,0,0:0:0:0:
320,192,71147,1,0,0:0:0:0:
64,192,71306,1,0,0:0:0:0:
192,192,71465,1,0,0:0:0:0:
320,192,71624,1,0,0:0:0:0:
64,192,71782,1,0,0:0:0:0:
320,192,71941,1,0,0:0:0:0:
448,192,72100,1,0,0:0:0:0:
64,192,72259,1,0,0:0:0:0:
192,192,72417,1,0,0:0:0:0:
448,192,72576,1,0,0:0:0:0:
192,192,72734,1,0,0:0:0:0:
64,192,72894,1,0,0:0:0:0:
320,192,73052,1,0,0:0:0:0:
448,192,73211,1,0,0:0:0:0:
192,192,73369,1,0,0:0:0:0:
448,192,73529,1,0,0:0:0:0:
64,192,73687,1,0,0:0:0:0:
320,192,73846,1,0,0:0:0:0:
192,192,74004,1,0,0:0:0:0:
448,192,74163,1,0,0:0:0:0:
64,192,74322,1,0,0:0:0:0:
320,192,74481,1,0,0:0:0:0:
192,192,74639,1,0,0:0:0:0:
448,192,74798,1,0,0:0:0:0:
64,192,74957,1,0,0:0:0:0:
320,192,75116,1,0,0:0:0:0:
192,192,75274,1,0,0:0:0:0:
448,192,75433,1,0,0:0:0:0:
64,192,75591,1,0,0:0:0:0:
192,192,75751,1,0,0:0:0:0:
320,192,75909,1,0,0:0:0:0:
192,192,76068,1,0,0:0:0:0:
448,192,76226,1,0,0:0:0:0:
320,192,76226,1,0,0:0:0:0:
64,192,76226,1,0,0:0:0:0:
64,192,76861,1,0,0:0:0:0:
192,192,76861,1,0,0:0:0:0:
448,192,76861,1,0,0:0:0:0:
192,192,77496,1,0,0:0:0:0:
320,192,77496,1,0,0:0:0:0:
448,192,77496,1,0,0:0:0:0:
64,192,78131,1,0,0:0:0:0:
192,192,78131,1,0,0:0:0:0:
320,192,78131,1,0,0:0:0:0:
64,192,78766,1,0,0:0:0:0:
320,192,78766,1,0,0:0:0:0:
448,192,78766,1,0,0:0:0:0:
64,192,79401,1,0,0:0:0:0:
192,192,79401,1,0,0:0:0:0:
448,192,79401,1,0,0:0:0:0:
192,192,80036,1,0,0:0:0:0:
320,192,80036,1,0,0:0:0:0:
448,192,80036,1,0,0:0:0:0:
64,192,80671,1,0,0:0:0:0:
192,192,80671,1,0,0:0:0:0:
320,192,80671,1,0,0:0:0:0:
448,192,81306,1,0,0:0:0:0:
320,192,81306,1,0,0:0:0:0:
64,192,81306,1,0,0:0:0:0:
64,192,81624,1,0,0:0:0:0:
192,192,81624,1,0,0:0:0:0:
448,192,81624,1,0,0:0:0:0:
192,192,81941,1,0,0:0:0:0:
320,192,81941,1,0,0:0:0:0:
448,192,81941,1,0,0:0:0:0:
64,192,82259,1,0,0:0:0:0:
192,192,82259,1,0,0:0:0:0:
320,192,82259,1,0,0:0:0:0:
64,192,82576,1,0,0:0:0:0:
320,192,82576,1,0,0:0:0:0:
448,192,82576,1,0,0:0:0:0:
64,192,82894,1,0,0:0:0:0:
192,192,82894,1,0,0:0:0:0:
448,192,82894,1,0,0:0:0:0:
192,192,83211,1,0,0:0:0:0:
320,192,83211,1,0,0:0:0:0:
448,192,83211,1,0,0:0:0:0:
64,192,83529,1,0,0:0:0:0:
192,192,83529,1,0,0:0:0:0:
320,192,83529,1,0,0:0:0:0:
64,192,83846,1,0,0:0:0:0:
320,192,83846,1,0,0:0:0:0:
448,192,83846,1,0,0:0:0:0:
64,192,84004,1,0,0:0:0:0:
192,192,84004,1,0,0:0:0:0:
448,192,84004,1,0,0:0:0:0:
448,192,84163,1,0,0:0:0:0:
320,192,84163,1,0,0:0:0:0:
64,192,84163,1,0,0:0:0:0:
64,192,84322,1,0,0:0:0:0:
192,192,84322,1,0,0:0:0:0:
448,192,84322,1,0,0:0:0:0:
192,192,84481,1,0,0:0:0:0:
320,192,84481,1,0,0:0:0:0:
448,192,84481,1,0,0:0:0:0:
64,192,84639,1,0,0:0:0:0:
192,192,84639,1,0,0:0:0:0:
320,192,84639,1,0,0:0:0:0:
448,192,84798,1,0,0:0:0:0:
320,192,84798,1,0,0:0:0:0:
192,192,84798,1,0,0:0:0:0:
64,192,84957,1,0,0:0:0:0:
192,192,84957,1,0,0:0:0:0:
320,192,84957,1,0,0:0:0:0:
64,192,85116,1,0,0:0:0:0:
320,192,85116,1,0,0:0:0:0:
448,192,85116,1,0,0:0:0:0:
448,192,85274,1,0,0:0:0:0:
192,192,85274,1,0,0:0:0:0:
64,192,85274,1,0,0:0:0:0:
448,192,85433,1,0,0:0:0:0:
320,192,85433,1,0,0:0:0:0:
64,192,85433,1,0,0:0:0:0:
64,192,85591,1,0,0:0:0:0:
192,192,85591,1,0,0:0:0:0:
448,192,85591,1,0,0:0:0:0:
192,192,85751,1,0,0:0:0:0:
320,192,85751,1,0,0:0:0:0:
448,192,85751,1,0,0:0:0:0:
320,192,85909,1,0,0:0:0:0:
192,192,85909,1,0,0:0:0:0:
64,192,85909,1,0,0:0:0:0:
448,192,86068,1,0,0:0:0:0:
320,192,86068,1,0,0:0:0:0:
192,192,86068,1,0,0:0:0:0:
64,192,86068,1,0,0:0:0:0:
64,192,86386,1,0,0:0:0:0:
320,192,86386,1,0,0:0:0:0:
448,192,86386,1,0,0:0:0:0:
64,192,86703,1,0,0:0:0:0:
192,192,86703,1,0,0:0:0:0:
448,192,86703,1,0,0:0:0:0:
64,192,87020,1,0,0:0:0:0:
192,192,87020,1,0,0:0:0:0:
320,192,87020,1,0,0:0:0:0:
448,192,87020,1,0,0:0:0:0:
64,192,87126,1,0,0:0:0:0:
192,192,87126,1,0,0:0:0:0:
448,192,87232,1,0,0:0:0:0:
320,192,87232,1,0,0:0:0:0:
64,192,87338,1,0,0:0:0:0:
192,192,87338,1,0,0:0:0:0:
448,192,87444,1,0,0:0:0:0:
192,192,87444,1,0,0:0:0:0:
320,192,87549,1,0,0:0:0:0:
64,192,87655,1,0,0:0:0:0:
192,192,87655,1,0,0:0:0:0:
448,192,87655,1,0,0:0:0:0:
64,192,87761,1,0,0:0:0:0:
448,192,87761,1,0,0:0:0:0:
320,192,87867,1,0,0:0:0:0:
192,192,87867,1,0,0:0:0:0:
64,192,87973,1,0,0:0:0:0:
192,192,87973,1,0,0:0:0:0:
448,192,88079,1,0,0:0:0:0:
320,192,88079,1,0,0:0:0:0:
192,192,88184,1,0,0:0:0:0:
192,192,88290,1,0,0:0:0:0:
320,192,88290,1,0,0:0:0:0:
448,192,88290,1,0,0:0:0:0:
64,192,88290,1,0,0:0:0:0:
64,192,88396,1,0,0:0:0:0:
192,192,88396,1,0,0:0:0:0:
192,192,88502,1,0,0:0:0:0:
320,192,88502,1,0,0:0:0:0:
448,192,88608,1,0,0:0:0:0:
64,192,88608,1,0,0:0:0:0:
192,192,88714,1,0,0:0:0:0:
320,192,88714,1,0,0:0:0:0:
448,192,88819,1,0,0:0:0:0:
320,192,88819,1,0,0:0:0:0:
448,192,88925,128,0,89454:0:0:0:0:
320,192,88925,128,0,89454:0:0:0:0:
192,192,88925,128,0,89454:0:0:0:0:
64,192,88925,128,0,89454:0:0:0:0:
64,192,89560,1,0,0:0:0:0:
320,192,89560,1,0,0:0:0:0:
192,192,89560,1,0,0:0:0:0:
448,192,89560,1,0,0:0:0:0:
448,192,89666,1,0,0:0:0:0:
320,192,89666,1,0,0:0:0:0:
64,192,89771,1,0,0:0:0:0:
192,192,89771,1,0,0:0:0:0:
448,192,89877,1,0,0:0:0:0:
64,192,89877,1,0,0:0:0:0:
192,192,89984,1,0,0:0:0:0:
320,192,89984,1,0,0:0:0:0:
192,192,90089,1,0,0:0:0:0:
64,192,90195,1,0,0:0:0:0:
448,192,90195,1,0,0:0:0:0:
320,192,90195,1,0,0:0:0:0:
64,192,90301,1,0,0:0:0:0:
320,192,90301,1,0,0:0:0:0:
192,192,90406,1,0,0:0:0:0:
448,192,90406,1,0,0:0:0:0:
64,192,90512,1,0,0:0:0:0:
192,192,90512,1,0,0:0:0:0:
448,192,90619,1,0,0:0:0:0:
320,192,90619,1,0,0:0:0:0:
192,192,90724,1,0,0:0:0:0:
64,192,90830,1,0,0:0:0:0:
192,192,90830,1,0,0:0:0:0:
320,192,90830,1,0,0:0:0:0:
448,192,90830,1,0,0:0:0:0:
320,192,90936,1,0,0:0:0:0:
448,192,90936,1,0,0:0:0:0:
64,192,91041,1,0,0:0:0:0:
192,192,91041,1,0,0:0:0:0:
192,192,91147,1,0,0:0:0:0:
320,192,91147,1,0,0:0:0:0:
448,192,91253,1,0,0:0:0:0:
64,192,91253,1,0,0:0:0:0:
320,192,91359,1,0,0:0:0:0:
448,192,91359,1,0,0:0:0:0:
192,192,91465,128,0,91703:0:0:0:0:
64,192,91465,128,0,91703:0:0:0:0:
448,192,91465,128,0,91703:0:0:0:0:
64,192,91782,1,0,0:0:0:0:
192,192,91782,1,0,0:0:0:0:
448,192,91782,1,0,0:0:0:0:
64,192,91941,1,0,0:0:0:0:
192,192,91941,1,0,0:0:0:0:
448,192,91941,1,0,0:0:0:0:
64,192,92100,1,0,0:0:0:0:
192,192,92100,1,0,0:0:0:0:
448,192,92100,1,0,0:0:0:0:
320,192,92100,1,0,0:0:0:0:
64,192,92206,1,0,0:0:0:0:
192,192,92206,1,0,0:0:0:0:
448,192,92311,1,0,0:0:0:0:
192,192,92311,1,0,0:0:0:0:
448,192,92417,1,0,0:0:0:0:
320,192,92417,1,0,0:0:0:0:
64,192,92523,1,0,0:0:0:0:
320,192,92523,1,0,0:0:0:0:
192,192,92629,1,0,0:0:0:0:
64,192,92629,1,0,0:0:0:0:
448,192,92734,128,0,92973:0:0:0:0:
320,192,92734,128,0,92973:0:0:0:0:
192,192,92734,128,0,92973:0:0:0:0:
192,192,93052,1,0,0:0:0:0:
320,192,93052,1,0,0:0:0:0:
448,192,93052,1,0,0:0:0:0:
192,192,93211,1,0,0:0:0:0:
320,192,93211,1,0,0:0:0:0:
448,192,93211,1,0,0:0:0:0:
64,192,93369,1,0,0:0:0:0:
192,192,93369,1,0,0:0:0:0:
320,192,93369,1,0,0:0:0:0:
448,192,93369,1,0,0:0:0:0:
64,192,93476,1,0,0:0:0:0:
192,192,93476,1,0,0:0:0:0:
320,192,93581,1,0,0:0:0:0:
448,192,93581,1,0,0:0:0:0:
64,192,93687,1,0,0:0:0:0:
320,192,93687,1,0,0:0:0:0:
448,192,93793,1,0,0:0:0:0:
192,192,93793,1,0,0:0:0:0:
64,192,93899,1,0,0:0:0:0:
448,192,93899,1,0,0:0:0:0:
448,192,94004,128,0,94216:0:0:0:0:
192,192,94004,128,0,94216:0:0:0:0:
64,192,94004,128,0,94216:0:0:0:0:
192,192,94322,1,0,0:0:0:0:
64,192,94322,1,0,0:0:0:0:
64,192,94428,1,0,0:0:0:0:
192,192,94428,1,0,0:0:0:0:
64,192,94534,1,0,0:0:0:0:
192,192,94534,1,0,0:0:0:0:
192,192,94639,128,0,94851:0:0:0:0:
320,192,94639,128,0,94851:0:0:0:0:
448,192,94639,128,0,94851:0:0:0:0:
64,192,94639,128,0,94851:0:0:0:0:
320,192,94957,1,0,0:0:0:0:
448,192,94957,1,0,0:0:0:0:
448,192,95063,1,0,0:0:0:0:
320,192,95063,1,0,0:0:0:0:
320,192,95169,1,0,0:0:0:0:
448,192,95169,1,0,0:0:0:0:
64,192,95274,128,0,95486:0:0:0:0:
192,192,95274,128,0,95486:0:0:0:0:
448,192,95274,128,0,95486:0:0:0:0:
64,192,95591,1,0,0:0:0:0:
192,192,95591,1,0,0:0:0:0:
448,192,95591,1,0,0:0:0:0:
192,192,95698,1,0,0:0:0:0:
64,192,95698,1,0,0:0:0:0:
64,192,95804,1,0,0:0:0:0:
192,192,95804,1,0,0:0:0:0:
64,192,95909,128,0,96121:0:0:0:0:
320,192,95909,128,0,96121:0:0:0:0:
448,192,95909,128,0,96121:0:0:0:0:
192,192,95909,1,0,0:0:0:0:
320,192,96226,1,0,0:0:0:0:
448,192,96226,1,0,0:0:0:0:
448,192,96333,1,0,0:0:0:0:
320,192,96333,1,0,0:0:0:0:
320,192,96439,1,0,0:0:0:0:
448,192,96439,1,0,0:0:0:0:
64,192,96544,128,0,96861:0:0:0:0:
192,192,96544,128,0,96861:0:0:0:0:
448,192,96861,128,0,97074:0:0:0:0:
320,192,96861,128,0,97074:0:0:0:0:
64,192,97179,1,0,0:0:0:0:
192,192,97179,1,0,0:0:0:0:
448,192,97179,1,0,0:0:0:0:
320,192,97179,1,0,0:0:0:0:
192,192,97285,1,0,0:0:0:0:
320,192,97285,1,0,0:0:0:0:
448,192,97391,1,0,0:0:0:0:
64,192,97391,1,0,0:0:0:0:
64,192,97496,1,0,0:0:0:0:
192,192,97496,1,0,0:0:0:0:
448,192,97602,1,0,0:0:0:0:
320,192,97602,1,0,0:0:0:0:
64,192,97708,1,0,0:0:0:0:
320,192,97814,1,0,0:0:0:0:
192,192,97814,1,0,0:0:0:0:
448,192,97814,1,0,0:0:0:0:
320,192,97920,1,0,0:0:0:0:
64,192,97920,1,0,0:0:0:0:
448,192,98026,1,0,0:0:0:0:
320,192,98026,1,0,0:0:0:0:
64,192,98131,1,0,0:0:0:0:
192,192,98131,1,0,0:0:0:0:
448,192,98237,1,0,0:0:0:0:
320,192,98237,1,0,0:0:0:0:
320,192,98343,1,0,0:0:0:0:
448,192,98449,1,0,0:0:0:0:
320,192,98449,1,0,0:0:0:0:
192,192,98449,1,0,0:0:0:0:
64,192,98449,1,0,0:0:0:0:
64,192,98555,1,0,0:0:0:0:
192,192,98555,1,0,0:0:0:0:
448,192,98661,1,0,0:0:0:0:
320,192,98661,1,0,0:0:0:0:
320,192,98766,1,0,0:0:0:0:
192,192,98766,1,0,0:0:0:0:
64,192,98872,1,0,0:0:0:0:
448,192,98872,1,0,0:0:0:0:
320,192,98978,1,0,0:0:0:0:
192,192,98978,1,0,0:0:0:0:
448,192,99084,128,0,99613:0:0:0:0:
320,192,99084,128,0,99613:0:0:0:0:
192,192,99084,128,0,99613:0:0:0:0:
64,192,99084,128,0,99613:0:0:0:0:
448,192,99719,1,0,0:0:0:0:
320,192,99719,1,0,0:0:0:0:
192,192,99719,1,0,0:0:0:0:
64,192,99719,1,0,0:0:0:0:
448,192,99824,1,0,0:0:0:0:
320,192,99824,1,0,0:0:0:0:
320,192,99931,1,0,0:0:0:0:
192,192,99931,1,0,0:0:0:0:
64,192,100036,1,0,0:0:0:0:
448,192,100036,1,0,0:0:0:0:
192,192,100142,1,0,0:0:0:0:
64,192,100142,1,0,0:0:0:0:
448,192,100248,1,0,0:0:0:0:
320,192,100354,1,0,0:0:0:0:
192,192,100354,1,0,0:0:0:0:
64,192,100354,1,0,0:0:0:0:
192,192,100459,1,0,0:0:0:0:
320,192,100459,1,0,0:0:0:0:
64,192,100565,1,0,0:0:0:0:
192,192,100565,1,0,0:0:0:0:
448,192,100671,1,0,0:0:0:0:
320,192,100671,1,0,0:0:0:0:
64,192,100777,1,0,0:0:0:0:
448,192,100777,1,0,0:0:0:0:
320,192,100883,1,0,0:0:0:0:
64,192,100989,1,0,0:0:0:0:
192,192,100989,1,0,0:0:0:0:
320,192,100989,1,0,0:0:0:0:
448,192,100989,1,0,0:0:0:0:
64,192,101094,1,0,0:0:0:0:
192,192,101094,1,0,0:0:0:0:
448,192,101200,1,0,0:0:0:0:
192,192,101200,1,0,0:0:0:0:
64,192,101306,1,0,0:0:0:0:
320,192,101306,1,0,0:0:0:0:
448,192,101412,1,0,0:0:0:0:
320,192,101412,1,0,0:0:0:0:
64,192,101518,1,0,0:0:0:0:
192,192,101518,1,0,0:0:0:0:
192,192,101624,128,0,101861:0:0:0:0:
320,192,101624,128,0,101861:0:0:0:0:
448,192,101624,128,0,101861:0:0:0:0:
192,192,101941,1,0,0:0:0:0:
320,192,101941,1,0,0:0:0:0:
448,192,101941,1,0,0:0:0:0:
192,192,102100,1,0,0:0:0:0:
320,192,102100,1,0,0:0:0:0:
448,192,102100,1,0,0:0:0:0:
64,192,102259,1,0,0:0:0:0:
320,192,102259,1,0,0:0:0:0:
448,192,102259,1,0,0:0:0:0:
192,192,102259,1,0,0:0:0:0:
64,192,102364,1,0,0:0:0:0:
192,192,102364,1,0,0:0:0:0:
320,192,102470,1,0,0:0:0:0:
192,192,102470,1,0,0:0:0:0:
448,192,102576,1,0,0:0:0:0:
64,192,102576,1,0,0:0:0:0:
64,192,102681,1,0,0:0:0:0:
192,192,102681,1,0,0:0:0:0:
448,192,102788,1,0,0:0:0:0:
320,192,102788,1,0,0:0:0:0:
64,192,102894,128,0,103131:0:0:0:0:
192,192,102894,128,0,103131:0:0:0:0:
320,192,102894,128,0,103131:0:0:0:0:
320,192,103211,1,0,0:0:0:0:
192,192,103211,1,0,0:0:0:0:
64,192,103211,1,0,0:0:0:0:
64,192,103369,1,0,0:0:0:0:
192,192,103369,1,0,0:0:0:0:
320,192,103369,1,0,0:0:0:0:
448,192,103529,1,0,0:0:0:0:
192,192,103529,1,0,0:0:0:0:
320,192,103529,1,0,0:0:0:0:
64,192,103529,1,0,0:0:0:0:
448,192,103634,1,0,0:0:0:0:
320,192,103634,1,0,0:0:0:0:
64,192,103740,1,0,0:0:0:0:
192,192,103740,1,0,0:0:0:0:
320,192,103846,1,0,0:0:0:0:
192,192,103846,1,0,0:0:0:0:
448,192,103951,1,0,0:0:0:0:
64,192,103951,1,0,0:0:0:0:
448,192,104057,1,0,0:0:0:0:
320,192,104057,1,0,0:0:0:0:
64,192,104163,128,0,104375:0:0:0:0:
192,192,104163,128,0,104375:0:0:0:0:
320,192,104163,128,0,104375:0:0:0:0:
192,192,104481,1,0,0:0:0:0:
64,192,104481,1,0,0:0:0:0:
64,192,104586,1,0,0:0:0:0:
192,192,104586,1,0,0:0:0:0:
192,192,104692,1,0,0:0:0:0:
64,192,104692,1,0,0:0:0:0:
320,192,104798,128,0,105010:0:0:0:0:
448,192,104798,128,0,105010:0:0:0:0:
64,192,105116,1,0,0:0:0:0:
192,192,105116,1,0,0:0:0:0:
64,192,105221,1,0,0:0:0:0:
192,192,105221,1,0,0:0:0:0:
64,192,105327,1,0,0:0:0:0:
192,192,105327,1,0,0:0:0:0:
448,192,105433,1,0,0:0:0:0:
64,192,105433,1,0,0:0:0:0:
320,192,105433,1,0,0:0:0:0:
192,192,105591,1,0,0:0:0:0:
64,192,105751,1,0,0:0:0:0:
448,192,105909,1,0,0:0:0:0:
192,192,106068,1,0,0:0:0:0:
448,192,106226,1,0,0:0:0:0:
320,192,106226,1,0,0:0:0:0:
64,192,106226,1,0,0:0:0:0:
64,192,106386,1,0,0:0:0:0:
192,192,106386,1,0,0:0:0:0:
448,192,106386,1,0,0:0:0:0:
320,192,106386,1,0,0:0:0:0:
64,192,106703,1,0,0:0:0:0:
192,192,106703,1,0,0:0:0:0:
320,192,106703,1,0,0:0:0:0:
448,192,106703,1,0,0:0:0:0:
320,192,106861,1,0,0:0:0:0:
64,192,107020,1,0,0:0:0:0:
192,192,107020,1,0,0:0:0:0:
320,192,107179,1,0,0:0:0:0:
448,192,107338,1,0,0:0:0:0:
192,192,107338,1,0,0:0:0:0:
64,192,107338,1,0,0:0:0:0:
320,192,107338,1,0,0:0:0:0:
320,192,107496,1,0,0:0:0:0:
64,192,107655,1,0,0:0:0:0:
192,192,107655,1,0,0:0:0:0:
320,192,107814,1,0,0:0:0:0:
448,192,107814,1,0,0:0:0:0:
192,192,107973,1,0,0:0:0:0:
320,192,107973,1,0,0:0:0:0:
448,192,108131,1,0,0:0:0:0:
64,192,108131,1,0,0:0:0:0:
320,192,108290,1,0,0:0:0:0:
64,192,108449,1,0,0:0:0:0:
192,192,108608,1,0,0:0:0:0:
320,192,108608,1,0,0:0:0:0:
448,192,108608,1,0,0:0:0:0:
64,192,108608,1,0,0:0:0:0:
320,192,108766,1,0,0:0:0:0:
64,192,108925,1,0,0:0:0:0:
192,192,108925,1,0,0:0:0:0:
448,192,109084,1,0,0:0:0:0:
64,192,109243,1,0,0:0:0:0:
192,192,109243,1,0,0:0:0:0:
320,192,109322,1,0,0:0:0:0:
448,192,109401,1,0,0:0:0:0:
64,192,109560,1,0,0:0:0:0:
192,192,109560,1,0,0:0:0:0:
448,192,109560,1,0,0:0:0:0:
320,192,109719,1,0,0:0:0:0:
448,192,109877,1,0,0:0:0:0:
192,192,109877,1,0,0:0:0:0:
64,192,109877,1,0,0:0:0:0:
320,192,109877,1,0,0:0:0:0:
192,192,110036,1,0,0:0:0:0:
64,192,110195,1,0,0:0:0:0:
320,192,110195,1,0,0:0:0:0:
192,192,110354,1,0,0:0:0:0:
64,192,110512,1,0,0:0:0:0:
448,192,110512,1,0,0:0:0:0:
320,192,110591,1,0,0:0:0:0:
192,192,110671,1,0,0:0:0:0:
64,192,110751,1,0,0:0:0:0:
448,192,110830,1,0,0:0:0:0:
320,192,110869,1,0,0:0:0:0:
192,192,110909,1,0,0:0:0:0:
64,192,110949,1,0,0:0:0:0:
448,192,110989,1,0,0:0:0:0:
64,192,111147,1,0,0:0:0:0:
192,192,111147,1,0,0:0:0:0:
448,192,111147,1,0,0:0:0:0:
320,192,111147,1,0,0:0:0:0:
192,192,111306,1,0,0:0:0:0:
320,192,111465,1,0,0:0:0:0:
64,192,111465,1,0,0:0:0:0:
192,192,111624,1,0,0:0:0:0:
192,192,111703,1,0,0:0:0:0:
64,192,111782,1,0,0:0:0:0:
320,192,111782,1,0,0:0:0:0:
448,192,111782,1,0,0:0:0:0:
320,192,111941,1,0,0:0:0:0:
192,192,112100,1,0,0:0:0:0:
64,192,112100,1,0,0:0:0:0:
448,192,112100,1,0,0:0:0:0:
448,192,112259,1,0,0:0:0:0:
320,192,112259,1,0,0:0:0:0:
448,192,112417,1,0,0:0:0:0:
192,192,112417,1,0,0:0:0:0:
64,192,112417,1,0,0:0:0:0:
320,192,112417,1,0,0:0:0:0:
320,192,112576,1,0,0:0:0:0:
64,192,112734,1,0,0:0:0:0:
192,192,112734,1,0,0:0:0:0:
448,192,112894,1,0,0:0:0:0:
320,192,113052,1,0,0:0:0:0:
192,192,113052,1,0,0:0:0:0:
64,192,113052,1,0,0:0:0:0:
64,192,113211,1,0,0:0:0:0:
192,192,113211,1,0,0:0:0:0:
320,192,113369,1,0,0:0:0:0:
448,192,113369,1,0,0:0:0:0:
64,192,113369,1,0,0:0:0:0:
192,192,113529,1,0,0:0:0:0:
192,192,113687,1,0,0:0:0:0:
320,192,113687,1,0,0:0:0:0:
448,192,113687,1,0,0:0:0:0:
64,192,113687,1,0,0:0:0:0:
192,192,113846,1,0,0:0:0:0:
320,192,114004,1,0,0:0:0:0:
448,192,114004,1,0,0:0:0:0:
192,192,114163,1,0,0:0:0:0:
64,192,114322,1,0,0:0:0:0:
320,192,114322,1,0,0:0:0:0:
448,192,114322,1,0,0:0:0:0:
320,192,114481,1,0,0:0:0:0:
64,192,114639,1,0,0:0:0:0:
192,192,114639,1,0,0:0:0:0:
448,192,114798,1,0,0:0:0:0:
320,192,114798,1,0,0:0:0:0:
64,192,114957,1,0,0:0:0:0:
320,192,114957,1,0,0:0:0:0:
192,192,114957,1,0,0:0:0:0:
448,192,114957,1,0,0:0:0:0:
320,192,115116,1,0,0:0:0:0:
320,192,115195,1,0,0:0:0:0:
192,192,115274,1,0,0:0:0:0:
64,192,115274,1,0,0:0:0:0:
448,192,115433,1,0,0:0:0:0:
320,192,115591,1,0,0:0:0:0:
64,192,115591,1,0,0:0:0:0:
192,192,115591,1,0,0:0:0:0:
192,192,115751,1,0,0:0:0:0:
448,192,115751,1,0,0:0:0:0:
64,192,115909,1,0,0:0:0:0:
192,192,115909,1,0,0:0:0:0:
320,192,116068,1,0,0:0:0:0:
448,192,116068,1,0,0:0:0:0:
64,192,116226,1,0,0:0:0:0:
320,192,116226,1,0,0:0:0:0:
448,192,116226,1,0,0:0:0:0:
192,192,116226,1,0,0:0:0:0:
192,192,116386,1,0,0:0:0:0:
64,192,116544,1,0,0:0:0:0:
192,192,116544,1,0,0:0:0:0:
320,192,116544,1,0,0:0:0:0:
320,192,116703,1,0,0:0:0:0:
448,192,116861,1,0,0:0:0:0:
320,192,116861,1,0,0:0:0:0:
192,192,116861,1,0,0:0:0:0:
192,192,117020,1,0,0:0:0:0:
64,192,117179,1,0,0:0:0:0:
448,192,117179,1,0,0:0:0:0:
320,192,117179,1,0,0:0:0:0:
448,192,117338,1,0,0:0:0:0:
320,192,117496,1,0,0:0:0:0:
448,192,117496,1,0,0:0:0:0:
64,192,117496,1,0,0:0:0:0:
192,192,117496,1,0,0:0:0:0:
192,192,117655,1,0,0:0:0:0:
320,192,117814,1,0,0:0:0:0:
448,192,117814,1,0,0:0:0:0:
64,192,117973,1,0,0:0:0:0:
192,192,117973,1,0,0:0:0:0:
64,192,118131,1,0,0:0:0:0:
320,192,118131,1,0,0:0:0:0:
448,192,118131,1,0,0:0:0:0:
192,192,118290,1,0,0:0:0:0:
448,192,118290,1,0,0:0:0:0:
320,192,118449,1,0,0:0:0:0:
64,192,118608,1,0,0:0:0:0:
64,192,118766,1,0,0:0:0:0:
192,192,118766,1,0,0:0:0:0:
320,192,118766,1,0,0:0:0:0:
448,192,118766,1,0,0:0:0:0:
320,192,118925,1,0,0:0:0:0:
448,192,118925,1,0,0:0:0:0:
64,192,119084,1,0,0:0:0:0:
192,192,119084,1,0,0:0:0:0:
320,192,119243,1,0,0:0:0:0:
448,192,119401,1,0,0:0:0:0:
192,192,119401,1,0,0:0:0:0:
64,192,119401,1,0,0:0:0:0:
320,192,119481,1,0,0:0:0:0:
192,192,119560,1,0,0:0:0:0:
64,192,119719,1,0,0:0:0:0:
320,192,119719,1,0,0:0:0:0:
448,192,119719,1,0,0:0:0:0:
192,192,119877,1,0,0:0:0:0:
192,192,120036,1,0,0:0:0:0:
320,192,120036,1,0,0:0:0:0:
64,192,120036,1,0,0:0:0:0:
448,192,120036,1,0,0:0:0:0:
448,192,120195,1,0,0:0:0:0:
320,192,120195,1,0,0:0:0:0:
64,192,120354,1,0,0:0:0:0:
448,192,120354,1,0,0:0:0:0:
192,192,120512,1,0,0:0:0:0:
320,192,120512,1,0,0:0:0:0:
64,192,120671,1,0,0:0:0:0:
448,192,120671,1,0,0:0:0:0:
192,192,120751,1,0,0:0:0:0:
320,192,120830,1,0,0:0:0:0:
448,192,120909,1,0,0:0:0:0:
64,192,120989,1,0,0:0:0:0:
192,192,121029,1,0,0:0:0:0:
320,192,121068,1,0,0:0:0:0:
448,192,121108,1,0,0:0:0:0:
64,192,121147,1,0,0:0:0:0:
64,192,121306,1,0,0:0:0:0:
320,192,121306,1,0,0:0:0:0:
448,192,121306,1,0,0:0:0:0:
192,192,121306,1,0,0:0:0:0:
320,192,121465,1,0,0:0:0:0:
192,192,121465,1,0,0:0:0:0:
64,192,121624,1,0,0:0:0:0:
448,192,121624,1,0,0:0:0:0:
192,192,121782,1,0,0:0:0:0:
192,192,121861,1,0,0:0:0:0:
64,192,121941,1,0,0:0:0:0:
320,192,121941,1,0,0:0:0:0:
448,192,121941,1,0,0:0:0:0:
448,192,122100,1,0,0:0:0:0:
320,192,122100,1,0,0:0:0:0:
192,192,122179,1,0,0:0:0:0:
64,192,122259,1,0,0:0:0:0:
448,192,122338,1,0,0:0:0:0:
320,192,122417,1,0,0:0:0:0:
192,192,122417,1,0,0:0:0:0:
448,192,122576,1,0,0:0:0:0:
320,192,122576,1,0,0:0:0:0:
64,192,122576,1,0,0:0:0:0:
192,192,122576,1,0,0:0:0:0:
320,192,122734,1,0,0:0:0:0:
64,192,122894,1,0,0:0:0:0:
448,192,122894,1,0,0:0:0:0:
192,192,123052,1,0,0:0:0:0:
192,192,123211,1,0,0:0:0:0:
320,192,123211,1,0,0:0:0:0:
448,192,123211,1,0,0:0:0:0:
64,192,123369,1,0,0:0:0:0:
320,192,123369,1,0,0:0:0:0:
64,192,123529,1,0,0:0:0:0:
192,192,123529,1,0,0:0:0:0:
448,192,123529,1,0,0:0:0:0:
320,192,123687,1,0,0:0:0:0:
448,192,123846,1,0,0:0:0:0:
320,192,123846,1,0,0:0:0:0:
192,192,123846,1,0,0:0:0:0:
64,192,123846,1,0,0:0:0:0:
192,192,124004,1,0,0:0:0:0:
320,192,124163,1,0,0:0:0:0:
448,192,124163,1,0,0:0:0:0:
64,192,124322,1,0,0:0:0:0:
192,192,124481,128,0,124798:0:0:0:0:
320,192,124798,1,0,0:0:0:0:
64,192,124957,1,0,0:0:0:0:
448,192,124957,1,0,0:0:0:0:
448,192,125116,1,0,0:0:0:0:
320,192,125116,1,0,0:0:0:0:
192,192,125116,1,0,0:0:0:0:
64,192,125116,1,0,0:0:0:0:
320,192,125274,1,0,0:0:0:0:
320,192,125354,1,0,0:0:0:0:
192,192,125433,1,0,0:0:0:0:
64,192,125433,1,0,0:0:0:0:
448,192,125591,1,0,0:0:0:0:
192,192,125591,1,0,0:0:0:0:
64,192,125751,1,0,0:0:0:0:
320,192,125751,1,0,0:0:0:0:
448,192,125751,1,0,0:0:0:0:
192,192,125909,1,0,0:0:0:0:
448,192,126068,1,0,0:0:0:0:
64,192,126226,1,0,0:0:0:0:
192,192,126386,1,0,0:0:0:0:
320,192,126544,1,0,0:0:0:0:
192,192,126703,128,0,127020:0:0:0:0:
448,192,127020,1,0,0:0:0:0:
320,192,127020,1,0,0:0:0:0:
64,192,127179,1,0,0:0:0:0:
448,192,127338,1,0,0:0:0:0:
192,192,127496,1,0,0:0:0:0:
448,192,127655,1,0,0:0:0:0:
64,192,127655,1,0,0:0:0:0:
320,192,127655,1,0,0:0:0:0:
192,192,127814,1,0,0:0:0:0:
320,192,127973,1,0,0:0:0:0:
448,192,127973,1,0,0:0:0:0:
192,192,128131,1,0,0:0:0:0:
64,192,128290,1,0,0:0:0:0:
320,192,128290,1,0,0:0:0:0:
448,192,128449,1,0,0:0:0:0:
192,192,128608,1,0,0:0:0:0:
320,192,128766,1,0,0:0:0:0:
64,192,128925,1,0,0:0:0:0:
192,192,128925,1,0,0:0:0:0:
448,192,128925,1,0,0:0:0:0:
192,192,129084,1,0,0:0:0:0:
320,192,129243,1,0,0:0:0:0:
64,192,129401,1,0,0:0:0:0:
192,192,129560,1,0,0:0:0:0:
448,192,129560,1,0,0:0:0:0:
320,192,129719,1,0,0:0:0:0:
64,192,129877,1,0,0:0:0:0:
192,192,129877,1,0,0:0:0:0:
448,192,130036,1,0,0:0:0:0:
320,192,130195,1,0,0:0:0:0:
192,192,130195,1,0,0:0:0:0:
64,192,130195,1,0,0:0:0:0:
192,192,130354,1,0,0:0:0:0:
320,192,130512,1,0,0:0:0:0:
64,192,130671,1,0,0:0:0:0:
192,192,130830,1,0,0:0:0:0:
320,192,130830,1,0,0:0:0:0:
448,192,130830,1,0,0:0:0:0:
64,192,131068,1,0,0:0:0:0:
192,192,131068,1,0,0:0:0:0:
320,192,131068,1,0,0:0:0:0:
64,192,131306,1,0,0:0:0:0:
320,192,131306,1,0,0:0:0:0:
448,192,131306,1,0,0:0:0:0:
448,192,131465,1,0,0:0:0:0:
192,192,131465,1,0,0:0:0:0:
64,192,131465,1,0,0:0:0:0:
320,192,131624,1,0,0:0:0:0:
192,192,131782,1,0,0:0:0:0:
448,192,131782,1,0,0:0:0:0:
64,192,131941,1,0,0:0:0:0:
320,192,132100,1,0,0:0:0:0:
448,192,132100,1,0,0:0:0:0:
192,192,132259,1,0,0:0:0:0:
64,192,132417,1,0,0:0:0:0:
320,192,132576,1,0,0:0:0:0:
448,192,132734,1,0,0:0:0:0:
192,192,132734,1,0,0:0:0:0:
64,192,132734,1,0,0:0:0:0:
192,192,132894,1,0,0:0:0:0:
320,192,133052,1,0,0:0:0:0:
448,192,133052,1,0,0:0:0:0:
64,192,133211,1,0,0:0:0:0:
192,192,133369,1,0,0:0:0:0:
448,192,133369,1,0,0:0:0:0:
320,192,133529,1,0,0:0:0:0:
64,192,133687,1,0,0:0:0:0:
192,192,133846,1,0,0:0:0:0:
64,192,134004,1,0,0:0:0:0:
448,192,134004,1,0,0:0:0:0:
320,192,134004,1,0,0:0:0:0:
320,192,134163,1,0,0:0:0:0:
64,192,134322,1,0,0:0:0:0:
448,192,134481,1,0,0:0:0:0:
192,192,134639,1,0,0:0:0:0:
64,192,134639,1,0,0:0:0:0:
320,192,134798,1,0,0:0:0:0:
64,192,134957,1,0,0:0:0:0:
448,192,135116,1,0,0:0:0:0:
64,192,135274,1,0,0:0:0:0:
192,192,135274,1,0,0:0:0:0:
320,192,135274,1,0,0:0:0:0:
192,192,135433,1,0,0:0:0:0:
448,192,135591,1,0,0:0:0:0:
320,192,135751,1,0,0:0:0:0:
64,192,135909,1,0,0:0:0:0:
192,192,135909,1,0,0:0:0:0:
448,192,135909,1,0,0:0:0:0:
448,192,136147,1,0,0:0:0:0:
320,192,136147,1,0,0:0:0:0:
64,192,136147,1,0,0:0:0:0:
64,192,136386,1,0,0:0:0:0:
192,192,136386,1,0,0:0:0:0:
320,192,136386,1,0,0:0:0:0:
448,192,136544,1,0,0:0:0:0:
320,192,136544,1,0,0:0:0:0:
192,192,136544,1,0,0:0:0:0:
64,192,136703,1,0,0:0:0:0:
320,192,136861,1,0,0:0:0:0:
448,192,136861,1,0,0:0:0:0:
192,192,137020,1,0,0:0:0:0:
64,192,137179,1,0,0:0:0:0:
448,192,137179,1,0,0:0:0:0:
320,192,137179,1,0,0:0:0:0:
448,192,137655,1,0,0:0:0:0:
320,192,137655,1,0,0:0:0:0:
64,192,137814,1,0,0:0:0:0:
192,192,137814,1,0,0:0:0:0:
320,192,137814,1,0,0:0:0:0:
192,192,137973,1,0,0:0:0:0:
448,192,138131,1,0,0:0:0:0:
320,192,138131,1,0,0:0:0:0:
64,192,138290,1,0,0:0:0:0:
192,192,138449,1,0,0:0:0:0:
448,192,138449,1,0,0:0:0:0:
320,192,138608,1,0,0:0:0:0:
64,192,138766,1,0,0:0:0:0:
192,192,138925,1,0,0:0:0:0:
448,192,139084,1,0,0:0:0:0:
320,192,139084,1,0,0:0:0:0:
64,192,139084,1,0,0:0:0:0:
320,192,139243,1,0,0:0:0:0:
64,192,139401,1,0,0:0:0:0:
448,192,139560,1,0,0:0:0:0:
320,192,139719,1,0,0:0:0:0:
192,192,139719,1,0,0:0:0:0:
64,192,139877,1,0,0:0:0:0:
448,192,140036,1,0,0:0:0:0:
192,192,140195,1,0,0:0:0:0:
320,192,140354,1,0,0:0:0:0:
64,192,140354,1,0,0:0:0:0:
448,192,140354,1,0,0:0:0:0:
320,192,140512,1,0,0:0:0:0:
64,192,140671,1,0,0:0:0:0:
192,192,140830,1,0,0:0:0:0:
64,192,140989,1,0,0:0:0:0:
320,192,140989,1,0,0:0:0:0:
448,192,140989,1,0,0:0:0:0:
448,192,141226,1,0,0:0:0:0:
192,192,141226,1,0,0:0:0:0:
64,192,141226,1,0,0:0:0:0:
192,192,141465,1,0,0:0:0:0:
320,192,141465,1,0,0:0:0:0:
448,192,141465,1,0,0:0:0:0:
64,192,141624,1,0,0:0:0:0:
192,192,141624,1,0,0:0:0:0:
320,192,141624,1,0,0:0:0:0:
448,192,141782,1,0,0:0:0:0:
192,192,141941,1,0,0:0:0:0:
64,192,141941,1,0,0:0:0:0:
320,192,142100,1,0,0:0:0:0:
448,192,142259,1,0,0:0:0:0:
192,192,142259,1,0,0:0:0:0:
64,192,142417,1,0,0:0:0:0:
320,192,142576,1,0,0:0:0:0:
192,192,142734,1,0,0:0:0:0:
64,192,142894,1,0,0:0:0:0:
192,192,142894,1,0,0:0:0:0:
320,192,142894,1,0,0:0:0:0:
320,192,143052,1,0,0:0:0:0:
64,192,143211,1,0,0:0:0:0:
192,192,143211,1,0,0:0:0:0:
448,192,143369,1,0,0:0:0:0:
448,192,143529,1,0,0:0:0:0:
320,192,143529,1,0,0:0:0:0:
192,192,143529,1,0,0:0:0:0:
192,192,143687,1,0,0:0:0:0:
320,192,143846,1,0,0:0:0:0:
64,192,144004,1,0,0:0:0:0:
192,192,144163,1,0,0:0:0:0:
320,192,144163,1,0,0:0:0:0:
448,192,144163,1,0,0:0:0:0:
320,192,144322,1,0,0:0:0:0:
64,192,144481,1,0,0:0:0:0:
192,192,144639,1,0,0:0:0:0:
320,192,144798,1,0,0:0:0:0:
448,192,144798,1,0,0:0:0:0:
64,192,144798,1,0,0:0:0:0:
192,192,144957,1,0,0:0:0:0:
448,192,145116,1,0,0:0:0:0:
320,192,145274,1,0,0:0:0:0:
448,192,145433,1,0,0:0:0:0:
192,192,145433,1,0,0:0:0:0:
64,192,145433,1,0,0:0:0:0:
192,192,145591,1,0,0:0:0:0:
64,192,145751,1,0,0:0:0:0:
448,192,145909,1,0,0:0:0:0:
320,192,146068,1,0,0:0:0:0:
192,192,146068,1,0,0:0:0:0:
64,192,146068,1,0,0:0:0:0:
192,192,146306,1,0,0:0:0:0:
320,192,146306,1,0,0:0:0:0:
448,192,146306,1,0,0:0:0:0:
64,192,146544,1,0,0:0:0:0:
192,192,146544,1,0,0:0:0:0:
448,192,146544,1,0,0:0:0:0:
448,192,146703,1,0,0:0:0:0:
320,192,146703,1,0,0:0:0:0:
64,192,146703,1,0,0:0:0:0:
192,192,146861,1,0,0:0:0:0:
448,192,147020,1,0,0:0:0:0:
320,192,147020,1,0,0:0:0:0:
192,192,147179,1,0,0:0:0:0:
192,192,147338,1,0,0:0:0:0:
320,192,147338,1,0,0:0:0:0:
448,192,147338,1,0,0:0:0:0:
64,192,147338,1,0,0:0:0:0:
320,192,147496,1,0,0:0:0:0:
64,192,147655,1,0,0:0:0:0:
192,192,147814,1,0,0:0:0:0:
320,192,147973,1,0,0:0:0:0:
448,192,147973,1,0,0:0:0:0:
64,192,147973,1,0,0:0:0:0:
64,192,148211,1,0,0:0:0:0:
192,192,148211,1,0,0:0:0:0:
448,192,148211,1,0,0:0:0:0:
192,192,148449,1,0,0:0:0:0:
320,192,148449,1,0,0:0:0:0:
448,192,148449,1,0,0:0:0:0:
64,192,148608,1,0,0:0:0:0:
192,192,148608,1,0,0:0:0:0:
320,192,148608,1,0,0:0:0:0:
320,192,148925,1,0,0:0:0:0:
448,192,148925,1,0,0:0:0:0:
64,192,149084,1,0,0:0:0:0:
192,192,149243,1,0,0:0:0:0:
320,192,149243,1,0,0:0:0:0:
448,192,149243,1,0,0:0:0:0:
320,192,149401,1,0,0:0:0:0:
64,192,149560,1,0,0:0:0:0:
448,192,149560,1,0,0:0:0:0:
192,192,149719,1,0,0:0:0:0:
320,192,149877,1,0,0:0:0:0:
448,192,149877,1,0,0:0:0:0:
64,192,149877,1,0,0:0:0:0:
192,192,150036,1,0,0:0:0:0:
448,192,150195,1,0,0:0:0:0:
64,192,150354,1,0,0:0:0:0:
320,192,150512,1,0,0:0:0:0:
192,192,150512,1,0,0:0:0:0:
448,192,150512,1,0,0:0:0:0:
192,192,150671,1,0,0:0:0:0:
320,192,150830,1,0,0:0:0:0:
64,192,150989,1,0,0:0:0:0:
448,192,151147,1,0,0:0:0:0:
320,192,151147,1,0,0:0:0:0:
192,192,151147,1,0,0:0:0:0:
64,192,151386,1,0,0:0:0:0:
192,192,151386,1,0,0:0:0:0:
320,192,151386,1,0,0:0:0:0:
448,192,151624,1,0,0:0:0:0:
320,192,151624,1,0,0:0:0:0:
64,192,151624,1,0,0:0:0:0:
64,192,151782,1,0,0:0:0:0:
192,192,151782,1,0,0:0:0:0:
448,192,151782,1,0,0:0:0:0:
320,192,151941,1,0,0:0:0:0:
64,192,152100,1,0,0:0:0:0:
192,192,152100,1,0,0:0:0:0:
320,192,152259,1,0,0:0:0:0:
448,192,152417,1,0,0:0:0:0:
192,192,152417,1,0,0:0:0:0:
64,192,152576,1,0,0:0:0:0:
320,192,152734,1,0,0:0:0:0:
192,192,152894,1,0,0:0:0:0:
64,192,153052,1,0,0:0:0:0:
320,192,153052,1,0,0:0:0:0:
448,192,153052,1,0,0:0:0:0:
320,192,153211,1,0,0:0:0:0:
64,192,153369,1,0,0:0:0:0:
192,192,153369,1,0,0:0:0:0:
448,192,153529,1,0,0:0:0:0:
320,192,153687,1,0,0:0:0:0:
64,192,153687,1,0,0:0:0:0:
192,192,153846,1,0,0:0:0:0:
448,192,154004,1,0,0:0:0:0:
320,192,154163,1,0,0:0:0:0:
192,192,154322,1,0,0:0:0:0:
64,192,154322,1,0,0:0:0:0:
448,192,154322,1,0,0:0:0:0:
320,192,154481,1,0,0:0:0:0:
64,192,154639,1,0,0:0:0:0:
192,192,154798,1,0,0:0:0:0:
320,192,154957,1,0,0:0:0:0:
448,192,154957,1,0,0:0:0:0:
192,192,155116,1,0,0:0:0:0:
64,192,155274,1,0,0:0:0:0:
448,192,155433,1,0,0:0:0:0:
320,192,155591,1,0,0:0:0:0:
192,192,155591,1,0,0:0:0:0:
64,192,155591,1,0,0:0:0:0:
192,192,155751,1,0,0:0:0:0:
320,192,155909,1,0,0:0:0:0:
64,192,156068,1,0,0:0:0:0:
192,192,156226,1,0,0:0:0:0:
448,192,156226,1,0,0:0:0:0:
320,192,156226,1,0,0:0:0:0:
64,192,156465,1,0,0:0:0:0:
192,192,156465,1,0,0:0:0:0:
320,192,156465,1,0,0:0:0:0:
448,192,156703,1,0,0:0:0:0:
320,192,156703,1,0,0:0:0:0:
64,192,156703,1,0,0:0:0:0:
64,192,156861,1,0,0:0:0:0:
192,192,156861,1,0,0:0:0:0:
448,192,156861,1,0,0:0:0:0:
320,192,157020,1,0,0:0:0:0:
448,192,157179,1,0,0:0:0:0:
64,192,157179,1,0,0:0:0:0:
192,192,157338,1,0,0:0:0:0:
320,192,157496,1,0,0:0:0:0:
448,192,157496,1,0,0:0:0:0:
64,192,157655,1,0,0:0:0:0:
320,192,157814,1,0,0:0:0:0:
192,192,157973,1,0,0:0:0:0:
448,192,158131,1,0,0:0:0:0:
320,192,158131,1,0,0:0:0:0:
64,192,158131,1,0,0:0:0:0:
320,192,158290,1,0,0:0:0:0:
64,192,158449,1,0,0:0:0:0:
192,192,158449,1,0,0:0:0:0:
192,192,158608,1,0,0:0:0:0:
320,192,158766,1,0,0:0:0:0:
448,192,158766,1,0,0:0:0:0:
192,192,158925,1,0,0:0:0:0:
320,192,159084,1,0,0:0:0:0:
64,192,159243,1,0,0:0:0:0:
192,192,159401,1,0,0:0:0:0:
320,192,159401,1,0,0:0:0:0:
448,192,159401,1,0,0:0:0:0:
320,192,159560,1,0,0:0:0:0:
64,192,159719,1,0,0:0:0:0:
192,192,159877,1,0,0:0:0:0:
320,192,160036,1,0,0:0:0:0:
448,192,160036,1,0,0:0:0:0:
64,192,160195,1,0,0:0:0:0:
320,192,160354,1,0,0:0:0:0:
192,192,160512,1,0,0:0:0:0:
64,192,160671,1,0,0:0:0:0:
320,192,160671,1,0,0:0:0:0:
448,192,160671,1,0,0:0:0:0:
320,192,160830,1,0,0:0:0:0:
64,192,160989,1,0,0:0:0:0:
448,192,161147,1,0,0:0:0:0:
320,192,161306,1,0,0:0:0:0:
192,192,161306,1,0,0:0:0:0:
64,192,161306,1,0,0:0:0:0:
192,192,161544,1,0,0:0:0:0:
320,192,161544,1,0,0:0:0:0:
64,192,161544,1,0,0:0:0:0:
64,192,161782,1,0,0:0:0:0:
192,192,161782,1,0,0:0:0:0:
448,192,161782,1,0,0:0:0:0:
448,192,161941,1,0,0:0:0:0:
320,192,161941,1,0,0:0:0:0:
64,192,161941,1,0,0:0:0:0:
192,192,162100,1,0,0:0:0:0:
320,192,162259,1,0,0:0:0:0:
64,192,162259,1,0,0:0:0:0:
448,192,162417,1,0,0:0:0:0:
320,192,162576,1,0,0:0:0:0:
192,192,162576,1,0,0:0:0:0:
192,192,162734,1,0,0:0:0:0:
64,192,162894,1,0,0:0:0:0:
320,192,163052,1,0,0:0:0:0:
64,192,163211,1,0,0:0:0:0:
192,192,163211,1,0,0:0:0:0:
448,192,163211,1,0,0:0:0:0:
192,192,163369,1,0,0:0:0:0:
448,192,163529,1,0,0:0:0:0:
320,192,163529,1,0,0:0:0:0:
64,192,163687,1,0,0:0:0:0:
192,192,163846,1,0,0:0:0:0:
320,192,163846,1,0,0:0:0:0:
448,192,163846,1,0,0:0:0:0:
64,192,164084,1,0,0:0:0:0:
192,192,164084,1,0,0:0:0:0:
320,192,164084,1,0,0:0:0:0:
448,192,164322,1,0,0:0:0:0:
320,192,164322,1,0,0:0:0:0:
64,192,164322,1,0,0:0:0:0:
64,192,164481,1,0,0:0:0:0:
192,192,164481,1,0,0:0:0:0:
448,192,164481,1,0,0:0:0:0:
320,192,164639,1,0,0:0:0:0:
64,192,164798,1,0,0:0:0:0:
192,192,164957,1,0,0:0:0:0:
448,192,165116,1,0,0:0:0:0:
320,192,165116,1,0,0:0:0:0:
320,192,165274,1,0,0:0:0:0:
64,192,165433,1,0,0:0:0:0:
448,192,165591,1,0,0:0:0:0:
320,192,165751,1,0,0:0:0:0:
192,192,165751,1,0,0:0:0:0:
64,192,165751,1,0,0:0:0:0:
192,192,165909,1,0,0:0:0:0:
448,192,166068,1,0,0:0:0:0:
192,192,166226,1,0,0:0:0:0:
64,192,166386,1,0,0:0:0:0:
320,192,166386,1,0,0:0:0:0:
448,192,166386,1,0,0:0:0:0:
64,192,166624,1,0,0:0:0:0:
448,192,166624,1,0,0:0:0:0:
192,192,166624,1,0,0:0:0:0:
192,192,166861,1,0,0:0:0:0:
320,192,166861,1,0,0:0:0:0:
448,192,166861,1,0,0:0:0:0:
320,192,167020,1,0,0:0:0:0:
192,192,167020,1,0,0:0:0:0:
64,192,167020,1,0,0:0:0:0:
448,192,167179,1,0,0:0:0:0:
64,192,167338,1,0,0:0:0:0:
192,192,167338,1,0,0:0:0:0:
320,192,167496,1,0,0:0:0:0:
320,192,167655,1,0,0:0:0:0:
448,192,167655,1,0,0:0:0:0:
64,192,167655,1,0,0:0:0:0:
192,192,168290,1,0,0:0:0:0:
320,192,168290,1,0,0:0:0:0:
448,192,168290,1,0,0:0:0:0:
64,192,168925,1,0,0:0:0:0:
192,192,168925,1,0,0:0:0:0:
448,192,168925,1,0,0:0:0:0:
64,192,169560,1,0,0:0:0:0:
192,192,169560,1,0,0:0:0:0:
320,192,169560,1,0,0:0:0:0:
320,192,170195,1,0,0:0:0:0:
448,192,170195,1,0,0:0:0:0:
64,192,170195,1,0,0:0:0:0:
192,192,170830,1,0,0:0:0:0:
320,192,170830,1,0,0:0:0:0:
448,192,170830,1,0,0:0:0:0:
64,192,171465,1,0,0:0:0:0:
192,192,171465,1,0,0:0:0:0:
448,192,171465,1,0,0:0:0:0:
64,192,172100,1,0,0:0:0:0:
192,192,172100,1,0,0:0:0:0:
320,192,172100,1,0,0:0:0:0:
64,192,172734,1,0,0:0:0:0:
448,192,172734,1,0,0:0:0:0:
320,192,172734,1,0,0:0:0:0:
448,192,173369,1,0,0:0:0:0:
320,192,173369,1,0,0:0:0:0:
192,192,173369,1,0,0:0:0:0:
448,192,174004,1,0,0:0:0:0:
192,192,174004,1,0,0:0:0:0:
64,192,174004,1,0,0:0:0:0:
320,192,174639,1,0,0:0:0:0:
192,192,174639,1,0,0:0:0:0:
64,192,174639,1,0,0:0:0:0:
320,192,175274,1,0,0:0:0:0:
448,192,175274,1,0,0:0:0:0:
64,192,175274,1,0,0:0:0:0:
192,192,175909,1,0,0:0:0:0:
320,192,175909,1,0,0:0:0:0:
448,192,175909,1,0,0:0:0:0:
64,192,176544,1,0,0:0:0:0:
192,192,176544,1,0,0:0:0:0:
448,192,176544,1,0,0:0:0:0:
64,192,177179,1,0,0:0:0:0:
192,192,177179,1,0,0:0:0:0:
320,192,177179,1,0,0:0:0:0:
64,192,177814,1,0,0:0:0:0:
320,192,177814,1,0,0:0:0:0:
448,192,177814,1,0,0:0:0:0:
192,192,178131,1,0,0:0:0:0:
320,192,178131,1,0,0:0:0:0:
448,192,178131,1,0,0:0:0:0:
64,192,178449,1,0,0:0:0:0:
192,192,178449,1,0,0:0:0:0:
448,192,178449,1,0,0:0:0:0:
64,192,178766,1,0,0:0:0:0:
192,192,178766,1,0,0:0:0:0:
320,192,178766,1,0,0:0:0:0:
64,192,179084,1,0,0:0:0:0:
320,192,179084,1,0,0:0:0:0:
448,192,179084,1,0,0:0:0:0:
192,192,179401,1,0,0:0:0:0:
320,192,179401,1,0,0:0:0:0:
448,192,179401,1,0,0:0:0:0:
64,192,179719,1,0,0:0:0:0:
192,192,179719,1,0,0:0:0:0:
448,192,179719,1,0,0:0:0:0:
64,192,180036,1,0,0:0:0:0:
192,192,180036,1,0,0:0:0:0:
320,192,180036,1,0,0:0:0:0:
448,192,180354,1,0,0:0:0:0:
320,192,180354,1,0,0:0:0:0:
64,192,180354,1,0,0:0:0:0:
448,192,180671,1,0,0:0:0:0:
320,192,180671,1,0,0:0:0:0:
192,192,180671,1,0,0:0:0:0:
448,192,180989,1,0,0:0:0:0:
192,192,180989,1,0,0:0:0:0:
64,192,180989,1,0,0:0:0:0:
320,192,181306,1,0,0:0:0:0:
192,192,181306,1,0,0:0:0:0:
64,192,181306,1,0,0:0:0:0:
64,192,181624,1,0,0:0:0:0:
320,192,181624,1,0,0:0:0:0:
448,192,181624,1,0,0:0:0:0:
192,192,181941,1,0,0:0:0:0:
320,192,181941,1,0,0:0:0:0:
448,192,181941,1,0,0:0:0:0:
64,192,182259,1,0,0:0:0:0:
192,192,182259,1,0,0:0:0:0:
448,192,182259,1,0,0:0:0:0:
64,192,182576,1,0,0:0:0:0:
192,192,182576,1,0,0:0:0:0:
320,192,182576,1,0,0:0:0:0:
64,192,182894,1,0,0:0:0:0:
320,192,182894,1,0,0:0:0:0:
448,192,182894,1,0,0:0:0:0:
64,192,183052,1,0,0:0:0:0:
192,192,183052,1,0,0:0:0:0:
448,192,183052,1,0,0:0:0:0:
448,192,183211,1,0,0:0:0:0:
320,192,183211,1,0,0:0:0:0:
64,192,183211,1,0,0:0:0:0:
64,192,183369,1,0,0:0:0:0:
192,192,183369,1,0,0:0:0:0:
448,192,183369,1,0,0:0:0:0:
448,192,183529,1,0,0:0:0:0:
320,192,183529,1,0,0:0:0:0:
192,192,183529,1,0,0:0:0:0:
64,192,183687,1,0,0:0:0:0:
192,192,183687,1,0,0:0:0:0:
320,192,183687,1,0,0:0:0:0:
448,192,183846,1,0,0:0:0:0:
320,192,183846,1,0,0:0:0:0:
192,192,183846,1,0,0:0:0:0:
64,192,184004,1,0,0:0:0:0:
192,192,184004,1,0,0:0:0:0:
320,192,184004,1,0,0:0:0:0:
64,192,184163,1,0,0:0:0:0:
320,192,184163,1,0,0:0:0:0:
448,192,184163,1,0,0:0:0:0:
64,192,184322,1,0,0:0:0:0:
192,192,184322,1,0,0:0:0:0:
448,192,184322,1,0,0:0:0:0:
448,192,184481,1,0,0:0:0:0:
320,192,184481,1,0,0:0:0:0:
64,192,184481,1,0,0:0:0:0:
64,192,184639,1,0,0:0:0:0:
192,192,184639,1,0,0:0:0:0:
448,192,184639,1,0,0:0:0:0:
448,192,184798,1,0,0:0:0:0:
320,192,184798,1,0,0:0:0:0:
192,192,184798,1,0,0:0:0:0:
64,192,184957,1,0,0:0:0:0:
192,192,184957,1,0,0:0:0:0:
320,192,184957,1,0,0:0:0:0:
448,192,185116,1,0,0:0:0:0:
320,192,185116,1,0,0:0:0:0:
192,192,185116,1,0,0:0:0:0:
64,192,185274,1,0,0:0:0:0:
192,192,185274,1,0,0:0:0:0:
320,192,185274,1,0,0:0:0:0:
64,192,185433,1,0,0:0:0:0:
192,192,185433,1,0,0:0:0:0:
320,192,185433,1,0,0:0:0:0:
448,192,185433,1,0,0:0:0:0:
320,192,187973,1,0,0:0:0:0:
448,192,187973,1,0,0:0:0:0:
64,192,188290,1,0,0:0:0:0:
320,192,188290,1,0,0:0:0:0:
64,192,188608,1,0,0:0:0:0:
192,192,188608,1,0,0:0:0:0:
448,192,188925,1,0,0:0:0:0:
192,192,188925,1,0,0:0:0:0:
64,192,189243,1,0,0:0:0:0:
320,192,189243,1,0,0:0:0:0:
192,192,189560,1,0,0:0:0:0:
320,192,189560,1,0,0:0:0:0:
192,192,189877,1,0,0:0:0:0:
448,192,189877,1,0,0:0:0:0:
64,192,190195,1,0,0:0:0:0:
192,192,190195,1,0,0:0:0:0:
448,192,190512,1,0,0:0:0:0:
320,192,190512,1,0,0:0:0:0:
192,192,190671,1,0,0:0:0:0:
320,192,190671,1,0,0:0:0:0:
64,192,190830,1,0,0:0:0:0:
448,192,190830,1,0,0:0:0:0:
192,192,190989,1,0,0:0:0:0:
64,192,190989,1,0,0:0:0:0:
192,192,191147,1,0,0:0:0:0:
448,192,191147,1,0,0:0:0:0:
64,192,191306,1,0,0:0:0:0:
320,192,191306,1,0,0:0:0:0:
448,192,191465,1,0,0:0:0:0:
320,192,191465,1,0,0:0:0:0:
64,192,191544,1,0,0:0:0:0:
192,192,191544,1,0,0:0:0:0:
320,192,191624,1,0,0:0:0:0:
448,192,191624,1,0,0:0:0:0:
64,192,191703,1,0,0:0:0:0:
192,192,191703,1,0,0:0:0:0:
320,192,191782,128,0,192576:0:0:0:0:
448,192,191782,128,0,192576:0:0:0:0:
64,192,191782,128,0,192576:0:0:0:0:
64,192,192734,1,0,0:0:0:0:
192,192,192734,1,0,0:0:0:0:
320,192,192734,1,0,0:0:0:0:
448,192,192734,1,0,0:0:0:0:
64,192,193052,1,0,0:0:0:0:
192,192,193052,1,0,0:0:0:0:
448,192,193052,1,0,0:0:0:0:
192,192,193369,1,0,0:0:0:0:
320,192,193369,1,0,0:0:0:0:
448,192,193369,1,0,0:0:0:0:
192,192,193687,1,0,0:0:0:0:
64,192,193687,1,0,0:0:0:0:
448,192,193687,1,0,0:0:0:0:
320,192,193793,1,0,0:0:0:0:
448,192,193793,1,0,0:0:0:0:
64,192,193899,1,0,0:0:0:0:
320,192,193899,1,0,0:0:0:0:
64,192,194004,1,0,0:0:0:0:
192,192,194004,1,0,0:0:0:0:
448,192,194110,1,0,0:0:0:0:
320,192,194110,1,0,0:0:0:0:
192,192,194216,1,0,0:0:0:0:
192,192,194322,1,0,0:0:0:0:
320,192,194322,1,0,0:0:0:0:
448,192,194322,1,0,0:0:0:0:
64,192,194428,1,0,0:0:0:0:
448,192,194428,1,0,0:0:0:0:
320,192,194534,1,0,0:0:0:0:
192,192,194534,1,0,0:0:0:0:
64,192,194639,1,0,0:0:0:0:
192,192,194639,1,0,0:0:0:0:
448,192,194745,1,0,0:0:0:0:
320,192,194745,1,0,0:0:0:0:
192,192,194851,1,0,0:0:0:0:
448,192,194957,1,0,0:0:0:0:
192,192,194957,1,0,0:0:0:0:
320,192,194957,1,0,0:0:0:0:
64,192,194957,1,0,0:0:0:0:
448,192,195063,1,0,0:0:0:0:
192,192,195063,1,0,0:0:0:0:
320,192,195169,1,0,0:0:0:0:
64,192,195169,1,0,0:0:0:0:
320,192,195274,1,0,0:0:0:0:
448,192,195274,1,0,0:0:0:0:
64,192,195380,1,0,0:0:0:0:
192,192,195380,1,0,0:0:0:0:
192,192,195486,1,0,0:0:0:0:
320,192,195486,1,0,0:0:0:0:
448,192,195591,128,0,196121:0:0:0:0:
320,192,195591,128,0,196121:0:0:0:0:
192,192,195591,128,0,196121:0:0:0:0:
64,192,195591,128,0,196121:0:0:0:0:
64,192,196226,1,0,0:0:0:0:
192,192,196226,1,0,0:0:0:0:
320,192,196226,1,0,0:0:0:0:
448,192,196226,1,0,0:0:0:0:
320,192,196333,1,0,0:0:0:0:
448,192,196333,1,0,0:0:0:0:
64,192,196439,1,0,0:0:0:0:
192,192,196439,1,0,0:0:0:0:
448,192,196544,1,0,0:0:0:0:
192,192,196544,1,0,0:0:0:0:
64,192,196650,1,0,0:0:0:0:
320,192,196650,1,0,0:0:0:0:
448,192,196756,1,0,0:0:0:0:
192,192,196861,1,0,0:0:0:0:
320,192,196861,1,0,0:0:0:0:
448,192,196861,1,0,0:0:0:0:
64,192,196967,1,0,0:0:0:0:
192,192,196967,1,0,0:0:0:0:
448,192,197074,1,0,0:0:0:0:
320,192,197074,1,0,0:0:0:0:
64,192,197179,1,0,0:0:0:0:
320,192,197179,1,0,0:0:0:0:
64,192,197285,1,0,0:0:0:0:
192,192,197285,1,0,0:0:0:0:
448,192,197391,1,0,0:0:0:0:
64,192,197496,1,0,0:0:0:0:
448,192,197496,1,0,0:0:0:0:
320,192,197496,1,0,0:0:0:0:
192,192,197496,1,0,0:0:0:0:
64,192,197602,1,0,0:0:0:0:
320,192,197602,1,0,0:0:0:0:
448,192,197708,1,0,0:0:0:0:
192,192,197708,1,0,0:0:0:0:
64,192,197814,1,0,0:0:0:0:
448,192,197814,1,0,0:0:0:0:
320,192,197920,1,0,0:0:0:0:
192,192,197920,1,0,0:0:0:0:
64,192,198026,1,0,0:0:0:0:
192,192,198026,1,0,0:0:0:0:
64,192,198131,128,0,198369:0:0:0:0:
320,192,198131,128,0,198369:0:0:0:0:
448,192,198131,128,0,198369:0:0:0:0:
448,192,198449,1,0,0:0:0:0:
320,192,198449,1,0,0:0:0:0:
64,192,198449,1,0,0:0:0:0:
64,192,198608,1,0,0:0:0:0:
320,192,198608,1,0,0:0:0:0:
448,192,198608,1,0,0:0:0:0:
192,192,198766,1,0,0:0:0:0:
320,192,198766,1,0,0:0:0:0:
64,192,198766,1,0,0:0:0:0:
448,192,198766,1,0,0:0:0:0:
448,192,198872,1,0,0:0:0:0:
320,192,198872,1,0,0:0:0:0:
64,192,198978,1,0,0:0:0:0:
192,192,198978,1,0,0:0:0:0:
448,192,199084,1,0,0:0:0:0:
192,192,199084,1,0,0:0:0:0:
64,192,199190,1,0,0:0:0:0:
320,192,199190,1,0,0:0:0:0:
448,192,199296,1,0,0:0:0:0:
320,192,199296,1,0,0:0:0:0:
64,192,199401,128,0,199639:0:0:0:0:
192,192,199401,128,0,199639:0:0:0:0:
448,192,199401,128,0,199639:0:0:0:0:
448,192,199719,1,0,0:0:0:0:
192,192,199719,1,0,0:0:0:0:
64,192,199719,1,0,0:0:0:0:
64,192,199877,1,0,0:0:0:0:
192,192,199877,1,0,0:0:0:0:
448,192,199877,1,0,0:0:0:0:
64,192,200036,1,0,0:0:0:0:
192,192,200036,1,0,0:0:0:0:
448,192,200036,1,0,0:0:0:0:
320,192,200036,1,0,0:0:0:0:
320,192,200142,1,0,0:0:0:0:
448,192,200142,1,0,0:0:0:0:
64,192,200248,1,0,0:0:0:0:
192,192,200248,1,0,0:0:0:0:
320,192,200354,1,0,0:0:0:0:
448,192,200354,1,0,0:0:0:0:
64,192,200459,1,0,0:0:0:0:
320,192,200459,1,0,0:0:0:0:
192,192,200565,1,0,0:0:0:0:
448,192,200671,128,0,200883:0:0:0:0:
320,192,200671,128,0,200883:0:0:0:0:
64,192,200671,128,0,200883:0:0:0:0:
64,192,200989,1,0,0:0:0:0:
192,192,200989,1,0,0:0:0:0:
192,192,201094,1,0,0:0:0:0:
64,192,201094,1,0,0:0:0:0:
64,192,201200,1,0,0:0:0:0:
192,192,201200,1,0,0:0:0:0:
64,192,201306,128,0,201518:0:0:0:0:
192,192,201306,128,0,201518:0:0:0:0:
320,192,201306,1,0,0:0:0:0:
448,192,201306,128,0,201518:0:0:0:0:
320,192,201624,1,0,0:0:0:0:
448,192,201624,1,0,0:0:0:0:
320,192,201729,1,0,0:0:0:0:
448,192,201729,1,0,0:0:0:0:
448,192,201835,1,0,0:0:0:0:
320,192,201835,1,0,0:0:0:0:
192,192,201941,128,0,202153:0:0:0:0:
320,192,201941,128,0,202153:0:0:0:0:
448,192,201941,128,0,202153:0:0:0:0:
64,192,202259,1,0,0:0:0:0:
192,192,202259,1,0,0:0:0:0:
192,192,202364,1,0,0:0:0:0:
64,192,202364,1,0,0:0:0:0:
64,192,202470,1,0,0:0:0:0:
192,192,202470,1,0,0:0:0:0:
192,192,202576,1,0,0:0:0:0:
64,192,202576,128,0,202788:0:0:0:0:
320,192,202576,128,0,202788:0:0:0:0:
448,192,202576,128,0,202788:0:0:0:0:
448,192,202894,1,0,0:0:0:0:
64,192,202894,1,0,0:0:0:0:
64,192,202999,1,0,0:0:0:0:
448,192,202999,1,0,0:0:0:0:
448,192,203105,1,0,0:0:0:0:
64,192,203105,1,0,0:0:0:0:
64,192,203211,1,0,0:0:0:0:
192,192,203211,1,0,0:0:0:0:
448,192,203211,1,0,0:0:0:0:
448,192,203529,1,0,0:0:0:0:
320,192,203529,1,0,0:0:0:0:
64,192,203529,1,0,0:0:0:0:
64,192,203846,1,0,0:0:0:0:
192,192,203846,1,0,0:0:0:0:
320,192,203846,1,0,0:0:0:0:
448,192,203846,1,0,0:0:0:0:
64,192,203951,1,0,0:0:0:0:
192,192,203951,1,0,0:0:0:0:
448,192,204057,1,0,0:0:0:0:
192,192,204057,1,0,0:0:0:0:
64,192,204163,1,0,0:0:0:0:
320,192,204163,1,0,0:0:0:0:
448,192,204269,1,0,0:0:0:0:
320,192,204269,1,0,0:0:0:0:
192,192,204375,1,0,0:0:0:0:
64,192,204481,1,0,0:0:0:0:
320,192,204481,1,0,0:0:0:0:
448,192,204481,1,0,0:0:0:0:
64,192,204586,1,0,0:0:0:0:
448,192,204586,1,0,0:0:0:0:
320,192,204692,1,0,0:0:0:0:
192,192,204692,1,0,0:0:0:0:
64,192,204798,1,0,0:0:0:0:
192,192,204798,1,0,0:0:0:0:
448,192,204904,1,0,0:0:0:0:
320,192,204904,1,0,0:0:0:0:
192,192,205010,1,0,0:0:0:0:
64,192,205116,1,0,0:0:0:0:
192,192,205116,1,0,0:0:0:0:
320,192,205116,1,0,0:0:0:0:
448,192,205116,1,0,0:0:0:0:
64,192,205221,1,0,0:0:0:0:
320,192,205221,1,0,0:0:0:0:
448,192,205327,1,0,0:0:0:0:
192,192,205327,1,0,0:0:0:0:
64,192,205433,1,0,0:0:0:0:
192,192,205433,1,0,0:0:0:0:
448,192,205539,1,0,0:0:0:0:
320,192,205539,1,0,0:0:0:0:
64,192,205645,1,0,0:0:0:0:
320,192,205645,1,0,0:0:0:0:
448,192,205751,128,0,206279:0:0:0:0:
320,192,205751,128,0,206279:0:0:0:0:
192,192,205751,128,0,206279:0:0:0:0:
64,192,205751,128,0,206279:0:0:0:0:
64,192,206386,1,0,0:0:0:0:
192,192,206386,1,0,0:0:0:0:
448,192,206386,1,0,0:0:0:0:
320,192,206386,1,0,0:0:0:0:
192,192,206491,1,0,0:0:0:0:
320,192,206491,1,0,0:0:0:0:
448,192,206597,1,0,0:0:0:0:
64,192,206597,1,0,0:0:0:0:
64,192,206703,1,0,0:0:0:0:
192,192,206703,1,0,0:0:0:0:
448,192,206809,1,0,0:0:0:0:
320,192,206809,1,0,0:0:0:0:
64,192,206914,1,0,0:0:0:0:
192,192,207020,1,0,0:0:0:0:
320,192,207020,1,0,0:0:0:0:
448,192,207020,1,0,0:0:0:0:
448,192,207126,1,0,0:0:0:0:
320,192,207126,1,0,0:0:0:0:
64,192,207232,1,0,0:0:0:0:
192,192,207232,1,0,0:0:0:0:
320,192,207338,1,0,0:0:0:0:
192,192,207338,1,0,0:0:0:0:
448,192,207444,1,0,0:0:0:0:
64,192,207444,1,0,0:0:0:0:
320,192,207549,1,0,0:0:0:0:
64,192,207655,1,0,0:0:0:0:
192,192,207655,1,0,0:0:0:0:
448,192,207655,1,0,0:0:0:0:
320,192,207655,1,0,0:0:0:0:
64,192,207761,1,0,0:0:0:0:
192,192,207761,1,0,0:0:0:0:
448,192,207867,1,0,0:0:0:0:
64,192,207867,1,0,0:0:0:0:
320,192,207973,1,0,0:0:0:0:
448,192,207973,1,0,0:0:0:0:
64,192,208079,1,0,0:0:0:0:
192,192,208079,1,0,0:0:0:0:
192,192,208184,1,0,0:0:0:0:
448,192,208184,1,0,0:0:0:0:
320,192,208290,128,0,208529:0:0:0:0:
192,192,208290,128,0,208529:0:0:0:0:
64,192,208290,128,0,208529:0:0:0:0:
64,192,208608,1,0,0:0:0:0:
192,192,208608,1,0,0:0:0:0:
320,192,208608,1,0,0:0:0:0:
320,192,208766,1,0,0:0:0:0:
192,192,208766,1,0,0:0:0:0:
64,192,208766,1,0,0:0:0:0:
64,192,208925,1,0,0:0:0:0:
192,192,208925,1,0,0:0:0:0:
320,192,208925,1,0,0:0:0:0:
448,192,208925,1,0,0:0:0:0:
448,192,209031,1,0,0:0:0:0:
320,192,209031,1,0,0:0:0:0:
64,192,209136,1,0,0:0:0:0:
192,192,209136,1,0,0:0:0:0:
320,192,209243,1,0,0:0:0:0:
448,192,209243,1,0,0:0:0:0:
64,192,209349,1,0,0:0:0:0:
320,192,209349,1,0,0:0:0:0:
192,192,209454,1,0,0:0:0:0:
448,192,209454,1,0,0:0:0:0:
192,192,209560,128,0,209798:0:0:0:0:
64,192,209560,128,0,209798:0:0:0:0:
448,192,209560,128,0,209798:0:0:0:0:
448,192,209877,1,0,0:0:0:0:
192,192,209877,1,0,0:0:0:0:
64,192,209877,1,0,0:0:0:0:
64,192,210036,1,0,0:0:0:0:
192,192,210036,1,0,0:0:0:0:
448,192,210036,1,0,0:0:0:0:
64,192,210195,1,0,0:0:0:0:
192,192,210195,1,0,0:0:0:0:
320,192,210195,1,0,0:0:0:0:
448,192,210195,1,0,0:0:0:0:
192,192,210301,1,0,0:0:0:0:
320,192,210301,1,0,0:0:0:0:
448,192,210406,1,0,0:0:0:0:
320,192,210406,1,0,0:0:0:0:
64,192,210512,1,0,0:0:0:0:
192,192,210512,1,0,0:0:0:0:
448,192,210619,1,0,0:0:0:0:
192,192,210619,1,0,0:0:0:0:
320,192,210724,1,0,0:0:0:0:
448,192,210724,1,0,0:0:0:0:
64,192,210830,128,0,211041:0:0:0:0:
320,192,210830,128,0,211041:0:0:0:0:
448,192,210830,128,0,211041:0:0:0:0:
64,192,211147,1,0,0:0:0:0:
192,192,211147,1,0,0:0:0:0:
192,192,211253,1,0,0:0:0:0:
64,192,211253,1,0,0:0:0:0:
64,192,211359,1,0,0:0:0:0:
192,192,211359,1,0,0:0:0:0:
192,192,211465,128,0,211676:0:0:0:0:
320,192,211465,128,0,211676:0:0:0:0:
448,192,211465,128,0,211676:0:0:0:0:
64,192,211782,1,0,0:0:0:0:
320,192,211782,1,0,0:0:0:0:
320,192,211888,1,0,0:0:0:0:
64,192,211888,1,0,0:0:0:0:
64,192,211994,1,0,0:0:0:0:
320,192,211994,1,0,0:0:0:0:
192,192,212100,128,0,212311:0:0:0:0:
64,192,212100,128,0,212311:0:0:0:0:
448,192,212100,128,0,212311:0:0:0:0:
320,192,212417,1,0,0:0:0:0:
448,192,212417,1,0,0:0:0:0:
448,192,212523,1,0,0:0:0:0:
320,192,212523,1,0,0:0:0:0:
320,192,212629,1,0,0:0:0:0:
448,192,212629,1,0,0:0:0:0:
320,192,212734,128,0,212946:0:0:0:0:
192,192,212734,128,0,212946:0:0:0:0:
64,192,212734,128,0,212946:0:0:0:0:
64,192,213052,1,0,0:0:0:0:
192,192,213052,1,0,0:0:0:0:
192,192,213158,1,0,0:0:0:0:
64,192,213158,1,0,0:0:0:0:
64,192,213264,1,0,0:0:0:0:
192,192,213264,1,0,0:0:0:0:
64,192,213369,1,0,0:0:0:0:
320,192,213369,1,0,0:0:0:0:
448,192,213369,1,0,0:0:0:0:
64,192,214004,1,0,0:0:0:0:
192,192,214004,1,0,0:0:0:0:
320,192,214004,1,0,0:0:0:0:
448,192,214004,1,0,0:0:0:0:
320,192,214110,1,0,0:0:0:0:
448,192,214110,1,0,0:0:0:0:
64,192,214216,1,0,0:0:0:0:
192,192,214216,1,0,0:0:0:0:
64,192,214322,128,0,214560:0:0:0:0:
320,192,214322,128,0,214560:0:0:0:0:
448,192,214322,128,0,214560:0:0:0:0:
192,192,214639,128,0,214877:0:0:0:0:
320,192,214639,128,0,214877:0:0:0:0:
448,192,214639,128,0,214877:0:0:0:0:
64,192,214957,128,0,215169:0:0:0:0:
192,192,214957,128,0,215169:0:0:0:0:
320,192,214957,128,0,215169:0:0:0:0:
64,192,215274,1,0,0:0:0:0:
192,192,215274,1,0,0:0:0:0:
320,192,215274,1,0,0:0:0:0:
448,192,215274,1,0,0:0:0:0:
448,192,215380,1,0,0:0:0:0:
320,192,215380,1,0,0:0:0:0:
64,192,215486,1,0,0:0:0:0:
192,192,215486,1,0,0:0:0:0:
448,192,215591,1,0,0:0:0:0:
64,192,215591,1,0,0:0:0:0:
192,192,215698,1,0,0:0:0:0:
320,192,215698,1,0,0:0:0:0:
448,192,215804,1,0,0:0:0:0:
320,192,215804,1,0,0:0:0:0:
64,192,215909,1,0,0:0:0:0:
192,192,215909,1,0,0:0:0:0:
448,192,215909,1,0,0:0:0:0:
64,192,216544,1,0,0:0:0:0:
192,192,216544,1,0,0:0:0:0:
320,192,216544,1,0,0:0:0:0:
448,192,216544,1,0,0:0:0:0:
192,192,216650,1,0,0:0:0:0:
320,192,216650,1,0,0:0:0:0:
448,192,216756,1,0,0:0:0:0:
64,192,216756,1,0,0:0:0:0:
192,192,216861,128,0,217100:0:0:0:0:
64,192,216861,128,0,217100:0:0:0:0:
320,192,216861,128,0,217100:0:0:0:0:
448,192,217179,128,0,217417:0:0:0:0:
192,192,217179,128,0,217417:0:0:0:0:
64,192,217179,128,0,217417:0:0:0:0:
64,192,217496,128,0,217734:0:0:0:0:
320,192,217496,128,0,217734:0:0:0:0:
448,192,217496,128,0,217734:0:0:0:0:
64,192,217814,1,0,0:0:0:0:
192,192,217814,1,0,0:0:0:0:
320,192,217814,1,0,0:0:0:0:
448,192,217814,1,0,0:0:0:0:
64,192,217920,1,0,0:0:0:0:
192,192,217920,1,0,0:0:0:0:
448,192,218026,1,0,0:0:0:0:
320,192,218026,1,0,0:0:0:0:
64,192,218131,1,0,0:0:0:0:
320,192,218131,1,0,0:0:0:0:
448,192,218237,1,0,0:0:0:0:
192,192,218237,1,0,0:0:0:0:
64,192,218343,1,0,0:0:0:0:
192,192,218343,1,0,0:0:0:0:
64,192,218449,128,0,218687:0:0:0:0:
320,192,218449,128,0,218687:0:0:0:0:
448,192,218449,128,0,218687:0:0:0:0:
64,192,218766,1,0,0:0:0:0:
320,192,218766,1,0,0:0:0:0:
448,192,218766,1,0,0:0:0:0:
64,192,218925,1,0,0:0:0:0:
320,192,218925,1,0,0:0:0:0:
448,192,218925,1,0,0:0:0:0:
64,192,219084,1,0,0:0:0:0:
192,192,219084,1,0,0:0:0:0:
320,192,219084,1,0,0:0:0:0:
448,192,219084,1,0,0:0:0:0:
64,192,219190,1,0,0:0:0:0:
192,192,219190,1,0,0:0:0:0:
448,192,219296,1,0,0:0:0:0:
192,192,219296,1,0,0:0:0:0:
320,192,219401,1,0,0:0:0:0:
64,192,219401,1,0,0:0:0:0:
448,192,219507,1,0,0:0:0:0:
320,192,219507,1,0,0:0:0:0:
64,192,219613,1,0,0:0:0:0:
448,192,219613,1,0,0:0:0:0:
64,192,219719,128,0,219957:0:0:0:0:
192,192,219719,128,0,219957:0:0:0:0:
320,192,219719,128,0,219957:0:0:0:0:
320,192,220036,1,0,0:0:0:0:
192,192,220036,1,0,0:0:0:0:
64,192,220036,1,0,0:0:0:0:
64,192,220195,1,0,0:0:0:0:
192,192,220195,1,0,0:0:0:0:
320,192,220195,1,0,0:0:0:0:
448,192,220354,1,0,0:0:0:0:
320,192,220354,1,0,0:0:0:0:
192,192,220354,1,0,0:0:0:0:
64,192,220354,1,0,0:0:0:0:
448,192,220459,1,0,0:0:0:0:
320,192,220459,1,0,0:0:0:0:
64,192,220565,1,0,0:0:0:0:
192,192,220565,1,0,0:0:0:0:
448,192,220671,1,0,0:0:0:0:
192,192,220671,1,0,0:0:0:0:
64,192,220777,1,0,0:0:0:0:
320,192,220777,1,0,0:0:0:0:
448,192,220883,1,0,0:0:0:0:
64,192,220883,1,0,0:0:0:0:
192,192,220989,128,0,221200:0:0:0:0:
320,192,220989,128,0,221200:0:0:0:0:
448,192,220989,128,0,221200:0:0:0:0:
320,192,221306,1,0,0:0:0:0:
448,192,221306,1,0,0:0:0:0:
448,192,221412,1,0,0:0:0:0:
320,192,221412,1,0,0:0:0:0:
320,192,221518,1,0,0:0:0:0:
448,192,221518,1,0,0:0:0:0:
64,192,221624,128,0,221835:0:0:0:0:
192,192,221624,128,0,221835:0:0:0:0:
320,192,221624,128,0,221835:0:0:0:0:
448,192,221624,1,0,0:0:0:0:
64,192,221941,1,0,0:0:0:0:
192,192,221941,1,0,0:0:0:0:
192,192,222047,1,0,0:0:0:0:
64,192,222047,1,0,0:0:0:0:
64,192,222153,1,0,0:0:0:0:
192,192,222153,1,0,0:0:0:0:
64,192,222259,128,0,222470:0:0:0:0:
320,192,222259,128,0,222470:0:0:0:0:
448,192,222259,128,0,222470:0:0:0:0:
320,192,222576,1,0,0:0:0:0:
448,192,222576,1,0,0:0:0:0:
448,192,222681,1,0,0:0:0:0:
320,192,222681,1,0,0:0:0:0:
320,192,222788,1,0,0:0:0:0:
448,192,222788,1,0,0:0:0:0:
192,192,222894,128,0,223105:0:0:0:0:
64,192,222894,128,0,223105:0:0:0:0:
448,192,222894,128,0,223105:0:0:0:0:
320,192,222894,1,0,0:0:0:0:
64,192,223211,1,0,0:0:0:0:
192,192,223211,1,0,0:0:0:0:
192,192,223316,1,0,0:0:0:0:
64,192,223316,1,0,0:0:0:0:
64,192,223422,1,0,0:0:0:0:
192,192,223422,1,0,0:0:0:0:
64,192,223529,1,0,0:0:0:0:
320,192,223529,1,0,0:0:0:0:
448,192,223529,1,0,0:0:0:0:
64,192,224163,1,0,0:0:0:0:
192,192,224163,1,0,0:0:0:0:
320,192,224163,1,0,0:0:0:0:
448,192,224163,1,0,0:0:0:0:
448,192,224269,1,0,0:0:0:0:
320,192,224269,1,0,0:0:0:0:
64,192,224375,1,0,0:0:0:0:
192,192,224375,1,0,0:0:0:0:
192,192,224481,128,0,224719:0:0:0:0:
320,192,224481,128,0,224719:0:0:0:0:
448,192,224481,128,0,224719:0:0:0:0:
64,192,224798,128,0,225036:0:0:0:0:
192,192,224798,128,0,225036:0:0:0:0:
448,192,224798,128,0,225036:0:0:0:0:
320,192,225116,128,0,225354:0:0:0:0:
192,192,225116,128,0,225354:0:0:0:0:
64,192,225116,128,0,225354:0:0:0:0:
448,192,225433,1,0,0:0:0:0:
320,192,225433,1,0,0:0:0:0:
64,192,225433,1,0,0:0:0:0:
192,192,225433,1,0,0:0:0:0:
448,192,225539,1,0,0:0:0:0:
320,192,225539,1,0,0:0:0:0:
64,192,225645,1,0,0:0:0:0:
192,192,225645,1,0,0:0:0:0:
448,192,225751,1,0,0:0:0:0:
64,192,225751,1,0,0:0:0:0:
320,192,225856,1,0,0:0:0:0:
192,192,225856,1,0,0:0:0:0:
64,192,225962,1,0,0:0:0:0:
192,192,225962,1,0,0:0:0:0:
448,192,226068,1,0,0:0:0:0:
320,192,226068,1,0,0:0:0:0:
192,192,226068,1,0,0:0:0:0:
448,192,226703,1,0,0:0:0:0:
320,192,226703,1,0,0:0:0:0:
192,192,226703,1,0,0:0:0:0:
64,192,226703,1,0,0:0:0:0:
64,192,226809,1,0,0:0:0:0:
192,192,226809,1,0,0:0:0:0:
448,192,226914,1,0,0:0:0:0:
320,192,226914,1,0,0:0:0:0:
64,192,227020,128,0,227259:0:0:0:0:
192,192,227020,128,0,227259:0:0:0:0:
320,192,227020,128,0,227259:0:0:0:0:
192,192,227338,128,0,227576:0:0:0:0:
320,192,227338,128,0,227576:0:0:0:0:
448,192,227338,128,0,227576:0:0:0:0:
64,192,227655,128,0,227894:0:0:0:0:
192,192,227655,128,0,227894:0:0:0:0:
448,192,227655,128,0,227894:0:0:0:0:
64,192,227973,1,0,0:0:0:0:
192,192,227973,1,0,0:0:0:0:
320,192,227973,1,0,0:0:0:0:
448,192,227973,1,0,0:0:0:0:
320,192,228079,1,0,0:0:0:0:
448,192,228079,1,0,0:0:0:0:
64,192,228184,1,0,0:0:0:0:
192,192,228184,1,0,0:0:0:0:
448,192,228290,1,0,0:0:0:0:
192,192,228290,1,0,0:0:0:0:
64,192,228290,1,0,0:0:0:0:
320,192,228290,1,0,0:0:0:0:
448,192,228396,1,0,0:0:0:0:
320,192,228396,1,0,0:0:0:0:
64,192,228502,1,0,0:0:0:0:
192,192,228502,1,0,0:0:0:0:
448,192,228608,1,0,0:0:0:0:
64,192,228608,1,0,0:0:0:0:
320,192,228608,1,0,0:0:0:0:
192,192,228925,1,0,0:0:0:0:
448,192,228925,1,0,0:0:0:0:
64,192,228925,1,0,0:0:0:0:
64,192,229243,1,0,0:0:0:0:
192,192,229243,1,0,0:0:0:0:
320,192,229243,1,0,0:0:0:0:
448,192,229243,1,0,0:0:0:0:
192,192,229877,1,0,0:0:0:0:
320,192,229877,1,0,0:0:0:0:
448,192,229877,1,0,0:0:0:0:
64,192,230195,1,0,0:0:0:0:
192,192,230195,1,0,0:0:0:0:
320,192,230195,1,0,0:0:0:0:
448,192,230512,1,0,0:0:0:0:
320,192,230512,1,0,0:0:0:0:
64,192,230512,1,0,0:0:0:0:
192,192,230512,1,0,0:0:0:0:
448,192,231782,1,0,0:0:0:0:
320,192,231782,1,0,0:0:0:0:
192,192,231782,1,0,0:0:0:0:
64,192,231782,1,0,0:0:0:0:
64,192,232417,1,0,0:0:0:0:
320,192,232417,1,0,0:0:0:0:
448,192,232417,1,0,0:0:0:0:
192,192,233211,1,0,0:0:0:0:
320,192,233211,1,0,0:0:0:0:
448,192,233369,1,0,0:0:0:0:
320,192,233369,1,0,0:0:0:0:
192,192,233369,1,0,0:0:0:0:
64,192,233369,1,0,0:0:0:0:
64,192,233529,1,0,0:0:0:0:
192,192,233529,1,0,0:0:0:0:
64,192,233687,1,0,0:0:0:0:
320,192,233687,1,0,0:0:0:0:
448,192,233687,1,0,0:0:0:0:
192,192,233846,1,0,0:0:0:0:
448,192,234004,1,0,0:0:0:0:
320,192,234004,1,0,0:0:0:0:
64,192,234004,1,0,0:0:0:0:
320,192,234163,1,0,0:0:0:0:
64,192,234163,1,0,0:0:0:0:
448,192,234322,1,0,0:0:0:0:
320,192,234322,1,0,0:0:0:0:
192,192,234322,1,0,0:0:0:0:
64,192,234322,1,0,0:0:0:0:
320,192,234481,1,0,0:0:0:0:
64,192,234639,1,0,0:0:0:0:
192,192,234798,1,0,0:0:0:0:
448,192,234798,1,0,0:0:0:0:
64,192,234957,1,0,0:0:0:0:
192,192,234957,1,0,0:0:0:0:
320,192,234957,1,0,0:0:0:0:
64,192,235116,1,0,0:0:0:0:
448,192,235116,1,0,0:0:0:0:
320,192,235274,1,0,0:0:0:0:
64,192,235433,1,0,0:0:0:0:
448,192,235591,1,0,0:0:0:0:
320,192,235591,1,0,0:0:0:0:
192,192,235591,1,0,0:0:0:0:
64,192,235591,1,0,0:0:0:0:
64,192,235751,1,0,0:0:0:0:
320,192,235751,1,0,0:0:0:0:
448,192,235909,1,0,0:0:0:0:
192,192,235909,1,0,0:0:0:0:
64,192,236068,1,0,0:0:0:0:
448,192,236226,1,0,0:0:0:0:
320,192,236226,1,0,0:0:0:0:
192,192,236306,1,0,0:0:0:0:
320,192,236386,1,0,0:0:0:0:
192,192,236544,1,0,0:0:0:0:
320,192,236544,1,0,0:0:0:0:
448,192,236544,1,0,0:0:0:0:
192,192,236703,1,0,0:0:0:0:
64,192,236861,1,0,0:0:0:0:
192,192,236861,1,0,0:0:0:0:
448,192,236861,1,0,0:0:0:0:
320,192,236861,1,0,0:0:0:0:
448,192,237020,1,0,0:0:0:0:
320,192,237020,1,0,0:0:0:0:
64,192,237179,1,0,0:0:0:0:
320,192,237179,1,0,0:0:0:0:
192,192,237338,1,0,0:0:0:0:
448,192,237496,1,0,0:0:0:0:
64,192,237496,1,0,0:0:0:0:
320,192,237576,1,0,0:0:0:0:
192,192,237655,1,0,0:0:0:0:
64,192,237734,1,0,0:0:0:0:
448,192,237814,1,0,0:0:0:0:
320,192,237854,1,0,0:0:0:0:
192,192,237894,1,0,0:0:0:0:
64,192,237933,1,0,0:0:0:0:
448,192,237973,1,0,0:0:0:0:
448,192,238131,1,0,0:0:0:0:
320,192,238131,1,0,0:0:0:0:
64,192,238131,1,0,0:0:0:0:
192,192,238131,1,0,0:0:0:0:
448,192,238290,1,0,0:0:0:0:
320,192,238290,1,0,0:0:0:0:
64,192,238449,1,0,0:0:0:0:
192,192,238449,1,0,0:0:0:0:
320,192,238608,1,0,0:0:0:0:
448,192,238766,1,0,0:0:0:0:
192,192,238766,1,0,0:0:0:0:
64,192,238766,1,0,0:0:0:0:
192,192,238925,1,0,0:0:0:0:
320,192,239084,1,0,0:0:0:0:
448,192,239084,1,0,0:0:0:0:
64,192,239243,1,0,0:0:0:0:
320,192,239243,1,0,0:0:0:0:
64,192,239401,1,0,0:0:0:0:
320,192,239401,1,0,0:0:0:0:
448,192,239401,1,0,0:0:0:0:
192,192,239401,1,0,0:0:0:0:
192,192,239560,1,0,0:0:0:0:
448,192,239719,1,0,0:0:0:0:
64,192,239719,1,0,0:0:0:0:
320,192,239719,1,0,0:0:0:0:
320,192,239877,1,0,0:0:0:0:
64,192,240036,1,0,0:0:0:0:
192,192,240036,1,0,0:0:0:0:
192,192,240195,1,0,0:0:0:0:
448,192,240195,1,0,0:0:0:0:
320,192,240195,1,0,0:0:0:0:
192,192,240354,1,0,0:0:0:0:
320,192,240354,1,0,0:0:0:0:
64,192,240354,1,0,0:0:0:0:
448,192,240512,1,0,0:0:0:0:
448,192,240671,1,0,0:0:0:0:
320,192,240671,1,0,0:0:0:0:
192,192,240671,1,0,0:0:0:0:
64,192,240671,1,0,0:0:0:0:
192,192,240830,1,0,0:0:0:0:
64,192,240989,1,0,0:0:0:0:
192,192,240989,1,0,0:0:0:0:
448,192,240989,1,0,0:0:0:0:
320,192,241147,1,0,0:0:0:0:
192,192,241306,1,0,0:0:0:0:
320,192,241306,1,0,0:0:0:0:
448,192,241306,1,0,0:0:0:0:
64,192,241465,1,0,0:0:0:0:
320,192,241624,1,0,0:0:0:0:
64,192,241782,1,0,0:0:0:0:
192,192,241782,1,0,0:0:0:0:
64,192,241941,1,0,0:0:0:0:
192,192,241941,1,0,0:0:0:0:
448,192,241941,1,0,0:0:0:0:
320,192,241941,1,0,0:0:0:0:
320,192,242100,1,0,0:0:0:0:
320,192,242179,1,0,0:0:0:0:
64,192,242259,1,0,0:0:0:0:
192,192,242259,1,0,0:0:0:0:
320,192,242417,1,0,0:0:0:0:
448,192,242417,1,0,0:0:0:0:
64,192,242576,1,0,0:0:0:0:
192,192,242576,1,0,0:0:0:0:
448,192,242576,1,0,0:0:0:0:
320,192,242734,1,0,0:0:0:0:
192,192,242734,1,0,0:0:0:0:
64,192,242894,1,0,0:0:0:0:
448,192,242894,1,0,0:0:0:0:
192,192,243052,1,0,0:0:0:0:
64,192,243052,1,0,0:0:0:0:
64,192,243211,1,0,0:0:0:0:
192,192,243211,1,0,0:0:0:0:
320,192,243211,1,0,0:0:0:0:
448,192,243211,1,0,0:0:0:0:
320,192,243369,1,0,0:0:0:0:
448,192,243369,1,0,0:0:0:0:
64,192,243529,1,0,0:0:0:0:
448,192,243529,1,0,0:0:0:0:
192,192,243687,1,0,0:0:0:0:
64,192,243846,1,0,0:0:0:0:
320,192,243846,1,0,0:0:0:0:
448,192,243846,1,0,0:0:0:0:
64,192,244163,1,0,0:0:0:0:
192,192,244163,1,0,0:0:0:0:
448,192,244163,1,0,0:0:0:0:
64,192,244322,1,0,0:0:0:0:
192,192,244322,1,0,0:0:0:0:
192,192,244481,1,0,0:0:0:0:
320,192,244481,1,0,0:0:0:0:
448,192,244481,1,0,0:0:0:0:
64,192,244481,1,0,0:0:0:0:
320,192,244639,1,0,0:0:0:0:
64,192,244798,1,0,0:0:0:0:
192,192,244798,1,0,0:0:0:0:
320,192,244957,1,0,0:0:0:0:
192,192,244957,1,0,0:0:0:0:
64,192,245116,1,0,0:0:0:0:
320,192,245116,1,0,0:0:0:0:
448,192,245116,1,0,0:0:0:0:
192,192,245274,1,0,0:0:0:0:
448,192,245274,1,0,0:0:0:0:
320,192,245433,1,0,0:0:0:0:
64,192,245591,1,0,0:0:0:0:
64,192,245751,1,0,0:0:0:0:
192,192,245751,1,0,0:0:0:0:
320,192,245751,1,0,0:0:0:0:
448,192,245751,1,0,0:0:0:0:
448,192,245909,1,0,0:0:0:0:
64,192,245909,1,0,0:0:0:0:
192,192,246068,1,0,0:0:0:0:
320,192,246068,1,0,0:0:0:0:
320,192,246226,1,0,0:0:0:0:
448,192,246226,1,0,0:0:0:0:
64,192,246386,1,0,0:0:0:0:
192,192,246386,1,0,0:0:0:0:
320,192,246465,1,0,0:0:0:0:
192,192,246544,1,0,0:0:0:0:
448,192,246703,1,0,0:0:0:0:
64,192,246703,1,0,0:0:0:0:
320,192,246703,1,0,0:0:0:0:
192,192,246861,1,0,0:0:0:0:
64,192,247020,1,0,0:0:0:0:
192,192,247020,1,0,0:0:0:0:
320,192,247020,1,0,0:0:0:0:
448,192,247020,1,0,0:0:0:0:
64,192,247179,1,0,0:0:0:0:
320,192,247179,1,0,0:0:0:0:
448,192,247338,1,0,0:0:0:0:
64,192,247338,1,0,0:0:0:0:
320,192,247496,1,0,0:0:0:0:
64,192,247496,1,0,0:0:0:0:
64,192,247655,1,0,0:0:0:0:
448,192,247655,1,0,0:0:0:0:
192,192,247734,1,0,0:0:0:0:
320,192,247814,1,0,0:0:0:0:
448,192,247894,1,0,0:0:0:0:
64,192,247973,1,0,0:0:0:0:
192,192,248012,1,0,0:0:0:0:
320,192,248052,1,0,0:0:0:0:
448,192,248091,1,0,0:0:0:0:
64,192,248131,1,0,0:0:0:0:
64,192,248290,1,0,0:0:0:0:
192,192,248290,1,0,0:0:0:0:
320,192,248290,1,0,0:0:0:0:
448,192,248290,1,0,0:0:0:0:
64,192,248449,1,0,0:0:0:0:
192,192,248449,1,0,0:0:0:0:
320,192,248608,1,0,0:0:0:0:
448,192,248608,1,0,0:0:0:0:
192,192,248766,1,0,0:0:0:0:
64,192,248925,1,0,0:0:0:0:
320,192,248925,1,0,0:0:0:0:
448,192,248925,1,0,0:0:0:0:
320,192,249084,1,0,0:0:0:0:
64,192,249243,1,0,0:0:0:0:
192,192,249243,1,0,0:0:0:0:
192,192,249401,1,0,0:0:0:0:
320,192,249401,1,0,0:0:0:0:
448,192,249401,1,0,0:0:0:0:
64,192,249560,1,0,0:0:0:0:
320,192,249560,1,0,0:0:0:0:
448,192,249560,1,0,0:0:0:0:
192,192,249560,1,0,0:0:0:0:
64,192,249719,1,0,0:0:0:0:
64,192,249877,1,0,0:0:0:0:
320,192,249877,1,0,0:0:0:0:
448,192,249877,1,0,0:0:0:0:
320,192,250036,1,0,0:0:0:0:
192,192,250195,1,0,0:0:0:0:
448,192,250195,1,0,0:0:0:0:
64,192,250354,1,0,0:0:0:0:
320,192,250354,1,0,0:0:0:0:
192,192,250354,1,0,0:0:0:0:
320,192,250512,1,0,0:0:0:0:
448,192,250512,1,0,0:0:0:0:
192,192,250671,1,0,0:0:0:0:
64,192,250830,1,0,0:0:0:0:
192,192,250830,1,0,0:0:0:0:
320,192,250830,1,0,0:0:0:0:
448,192,250830,1,0,0:0:0:0:
320,192,250989,1,0,0:0:0:0:
64,192,251147,1,0,0:0:0:0:
192,192,251147,1,0,0:0:0:0:
448,192,251306,1,0,0:0:0:0:
320,192,251465,1,0,0:0:0:0:
192,192,251465,1,0,0:0:0:0:
64,192,251465,1,0,0:0:0:0:
448,192,251782,1,0,0:0:0:0:
192,192,251782,1,0,0:0:0:0:
320,192,251941,1,0,0:0:0:0:
64,192,252100,1,0,0:0:0:0:
192,192,252100,1,0,0:0:0:0:
320,192,252100,1,0,0:0:0:0:
448,192,252100,1,0,0:0:0:0:
192,192,252259,1,0,0:0:0:0:
192,192,252338,1,0,0:0:0:0:
320,192,252417,1,0,0:0:0:0:
448,192,252417,1,0,0:0:0:0:
64,192,252576,1,0,0:0:0:0:
192,192,252734,1,0,0:0:0:0:
320,192,252734,1,0,0:0:0:0:
448,192,252734,1,0,0:0:0:0:
64,192,252894,1,0,0:0:0:0:
192,192,252894,1,0,0:0:0:0:
448,192,253052,1,0,0:0:0:0:
192,192,253052,1,0,0:0:0:0:
64,192,253211,1,0,0:0:0:0:
320,192,253211,1,0,0:0:0:0:
448,192,253369,1,0,0:0:0:0:
64,192,253369,1,0,0:0:0:0:
64,192,253529,1,0,0:0:0:0:
320,192,253529,1,0,0:0:0:0:
448,192,253687,1,0,0:0:0:0:
64,192,253687,1,0,0:0:0:0:
320,192,254004,1,0,0:0:0:0:
192,192,254004,1,0,0:0:0:0:
