osu file format v14

[General]
AudioFilename: audio130.mp3
AudioLeadIn: 0
PreviewTime: 180508
Countdown: 0
SampleSet: None
StackLeniency: 0.4
Mode: 3
LetterboxInBreaks: 0
SpecialStyle: 0
WidescreenStoryboard: 0

[Editor]
DistanceSpacing: 1.5
BeatDivisor: 4
GridSize: 4
TimelineZoom: 1.8

[Metadata]
Title:Eyes Half Closed
TitleUnicode:Eyes Half Closed
Artist:Crywolf
ArtistUnicode:Crywolf
Creator:Violet-Fox
Version:Daydreams 1.3x
Source:
Tags:
BeatmapID:1634721
BeatmapSetID:778303

[Difficulty]
HPDrainRate:9
CircleSize:4
OverallDifficulty:8
ApproachRate:9.6
SliderMultiplier:2
SliderTickRate:1

[Events]
//Background and Video events
0,0,"b44419204948a22c12d12e09e412ed62.jpg",0,0
//Break Periods
2,15962,25509
//Storyboard Layer 0 (Background)
//Storyboard Layer 1 (Fail)
//Storyboard Layer 2 (Pass)
//Storyboard Layer 3 (Foreground)
//Storyboard Sound Samples

[TimingPoints]
1404,341.880341880342,4,2,0,30,1,0
3797,-100,4,3,0,50,0,0
15762,-100,4,2,0,40,0,0
93711,-100,4,3,0,70,0,1
114908,-100,4,3,0,50,0,0
208583,-100,4,3,0,70,0,1
229779,-100,4,3,0,50,0,0
230463,-100,4,3,0,70,0,1
232515,-100,4,3,0,50,0,0
233198,-100,4,3,0,70,0,1
240720,-100,4,3,0,50,0,0
241403,-100,4,3,0,70,0,1
243455,-100,4,3,0,50,0,0
244138,-100,4,3,0,70,0,1
246190,-100,4,3,0,50,0,0
271660,-100,4,3,0,30,0,0
272856,-100,4,2,0,20,0,0

[HitObjects]
64,192,3797,5,0,0:0:0:0:
320,192,3797,1,0,0:0:0:0:
448,192,3797,1,0,0:0:0:0:
192,192,3968,1,0,0:0:0:0:
320,192,3968,1,0,0:0:0:0:
64,192,4138,1,0,0:0:0:0:
192,192,4138,1,0,0:0:0:0:
448,192,4138,1,0,0:0:0:0:
192,192,4480,1,0,0:0:0:0:
320,192,4652,1,0,0:0:0:0:
64,192,4822,1,0,0:0:0:0:
448,192,4822,1,0,0:0:0:0:
320,192,4822,1,0,0:0:0:0:
192,192,4993,1,0,0:0:0:0:
320,192,5164,1,0,0:0:0:0:
64,192,5335,1,0,0:0:0:0:
192,192,5506,1,0,0:0:0:0:
448,192,5677,1,0,0:0:0:0:
64,192,5677,1,0,0:0:0:0:
320,192,5848,1,0,0:0:0:0:
192,192,6018,1,0,0:0:0:0:
64,192,6190,128,0,6361:0:0:0:0:
320,192,6190,1,0,0:0:0:0:
448,192,6190,1,0,0:0:0:0:
448,192,6361,128,0,6532:0:0:0:0:
192,192,6532,128,0,6702:0:0:0:0:
320,192,6702,1,0,0:0:0:0:
64,192,6788,1,0,0:0:0:0:
448,192,6874,1,0,0:0:0:0:
320,192,6959,1,0,0:0:0:0:
192,192,7045,1,0,0:0:0:0:
448,192,7215,1,0,0:0:0:0:
64,192,7386,1,0,0:0:0:0:
192,192,7557,1,0,0:0:0:0:
320,192,7557,1,0,0:0:0:0:
448,192,7557,1,0,0:0:0:0:
320,192,7728,1,0,0:0:0:0:
192,192,7899,1,0,0:0:0:0:
64,192,7899,1,0,0:0:0:0:
448,192,7899,1,0,0:0:0:0:
64,192,8070,1,0,0:0:0:0:
192,192,8070,1,0,0:0:0:0:
320,192,8070,1,0,0:0:0:0:
448,192,8241,1,0,0:0:0:0:
320,192,8241,1,0,0:0:0:0:
192,192,8326,1,0,0:0:0:0:
320,192,8412,1,0,0:0:0:0:
448,192,8498,1,0,0:0:0:0:
64,192,8583,1,0,0:0:0:0:
192,192,8625,1,0,0:0:0:0:
320,192,8668,1,0,0:0:0:0:
448,192,8711,1,0,0:0:0:0:
64,192,8754,1,0,0:0:0:0:
192,192,8925,1,0,0:0:0:0:
448,192,8925,1,0,0:0:0:0:
320,192,8925,1,0,0:0:0:0:
192,192,9095,1,0,0:0:0:0:
64,192,9267,1,0,0:0:0:0:
320,192,9267,1,0,0:0:0:0:
448,192,9438,1,0,0:0:0:0:
320,192,9608,1,0,0:0:0:0:
192,192,9608,1,0,0:0:0:0:
64,192,9608,1,0,0:0:0:0:
64,192,9779,1,0,0:0:0:0:
448,192,9951,1,0,0:0:0:0:
320,192,10122,1,0,0:0:0:0:
64,192,10122,1,0,0:0:0:0:
192,192,10292,1,0,0:0:0:0:
448,192,10292,1,0,0:0:0:0:
320,192,10292,1,0,0:0:0:0:
448,192,10463,1,0,0:0:0:0:
192,192,10634,1,0,0:0:0:0:
64,192,10634,1,0,0:0:0:0:
320,192,10805,1,0,0:0:0:0:
448,192,10976,1,0,0:0:0:0:
64,192,10976,1,0,0:0:0:0:
192,192,11147,1,0,0:0:0:0:
448,192,11147,1,0,0:0:0:0:
320,192,11318,1,0,0:0:0:0:
192,192,11489,1,0,0:0:0:0:
448,192,11660,1,0,0:0:0:0:
320,192,11660,1,0,0:0:0:0:
64,192,11660,1,0,0:0:0:0:
192,192,11831,1,0,0:0:0:0:
320,192,12002,1,0,0:0:0:0:
448,192,12002,1,0,0:0:0:0:
448,192,12172,1,0,0:0:0:0:
192,192,12344,1,0,0:0:0:0:
320,192,12344,1,0,0:0:0:0:
64,192,12515,1,0,0:0:0:0:
192,192,12685,1,0,0:0:0:0:
320,192,12856,1,0,0:0:0:0:
448,192,13028,1,0,0:0:0:0:
192,192,13028,1,0,0:0:0:0:
64,192,13028,1,0,0:0:0:0:
320,192,13198,1,0,0:0:0:0:
64,192,13369,1,0,0:0:0:0:
192,192,13369,1,0,0:0:0:0:
320,192,13540,1,0,0:0:0:0:
448,192,13711,1,0,0:0:0:0:
192,192,13711,1,0,0:0:0:0:
64,192,13882,1,0,0:0:0:0:
448,192,14053,1,0,0:0:0:0:
192,192,14224,1,0,0:0:0:0:
320,192,14395,1,0,0:0:0:0:
448,192,14395,1,0,0:0:0:0:
64,192,14395,1,0,0:0:0:0:
192,192,14566,1,0,0:0:0:0:
448,192,14737,128,0,15078:0:0:0:0:
320,192,14737,128,0,15078:0:0:0:0:
64,192,15078,1,0,0:0:0:0:
192,192,15078,128,0,15762:0:0:0:0:
320,192,26018,5,0,0:0:0:0:
448,192,26018,1,0,0:0:0:0:
64,192,27386,1,0,0:0:0:0:
320,192,27386,1,0,0:0:0:0:
320,192,28754,1,0,0:0:0:0:
192,192,28754,1,0,0:0:0:0:
192,192,30122,1,0,0:0:0:0:
448,192,30122,1,0,0:0:0:0:
64,192,31489,1,0,0:0:0:0:
320,192,31489,1,0,0:0:0:0:
448,192,32856,1,0,0:0:0:0:
64,192,32856,1,0,0:0:0:0:
64,192,34224,1,0,0:0:0:0:
192,192,34224,128,0,36959:0:0:0:0:
64,192,36959,1,0,0:0:0:0:
320,192,36959,1,0,0:0:0:0:
448,192,36959,1,0,0:0:0:0:
192,192,37130,1,0,0:0:0:0:
320,192,37301,1,0,0:0:0:0:
448,192,37301,1,0,0:0:0:0:
64,192,37472,1,0,0:0:0:0:
192,192,37643,1,0,0:0:0:0:
448,192,37643,1,0,0:0:0:0:
320,192,37643,1,0,0:0:0:0:
64,192,37899,1,0,0:0:0:0:
192,192,37899,1,0,0:0:0:0:
448,192,38155,1,0,0:0:0:0:
192,192,38326,1,0,0:0:0:0:
64,192,38326,1,0,0:0:0:0:
448,192,38326,1,0,0:0:0:0:
64,192,38668,1,0,0:0:0:0:
320,192,38668,1,0,0:0:0:0:
192,192,38839,1,0,0:0:0:0:
320,192,39010,1,0,0:0:0:0:
192,192,39010,1,0,0:0:0:0:
64,192,39010,1,0,0:0:0:0:
448,192,39182,1,0,0:0:0:0:
64,192,39352,1,0,0:0:0:0:
192,192,39352,1,0,0:0:0:0:
192,192,39523,1,0,0:0:0:0:
64,192,39694,1,0,0:0:0:0:
320,192,39694,1,0,0:0:0:0:
448,192,39694,1,0,0:0:0:0:
192,192,39865,1,0,0:0:0:0:
320,192,40036,1,0,0:0:0:0:
448,192,40036,1,0,0:0:0:0:
64,192,40207,1,0,0:0:0:0:
192,192,40378,1,0,0:0:0:0:
320,192,40378,1,0,0:0:0:0:
448,192,40378,1,0,0:0:0:0:
192,192,40548,1,0,0:0:0:0:
448,192,40720,1,0,0:0:0:0:
320,192,40891,1,0,0:0:0:0:
64,192,41062,1,0,0:0:0:0:
192,192,41062,1,0,0:0:0:0:
448,192,41062,1,0,0:0:0:0:
192,192,41318,1,0,0:0:0:0:
320,192,41318,1,0,0:0:0:0:
448,192,41318,1,0,0:0:0:0:
64,192,41575,1,0,0:0:0:0:
192,192,41575,1,0,0:0:0:0:
320,192,41575,1,0,0:0:0:0:
64,192,41745,1,0,0:0:0:0:
320,192,41745,1,0,0:0:0:0:
448,192,41745,1,0,0:0:0:0:
192,192,41916,1,0,0:0:0:0:
448,192,42087,1,0,0:0:0:0:
320,192,42087,1,0,0:0:0:0:
64,192,42087,1,0,0:0:0:0:
64,192,42258,1,0,0:0:0:0:
192,192,42429,1,0,0:0:0:0:
448,192,42429,1,0,0:0:0:0:
320,192,42429,1,0,0:0:0:0:
320,192,42600,1,0,0:0:0:0:
192,192,42771,1,0,0:0:0:0:
64,192,42771,1,0,0:0:0:0:
320,192,42942,1,0,0:0:0:0:
448,192,43113,1,0,0:0:0:0:
192,192,43113,1,0,0:0:0:0:
64,192,43113,1,0,0:0:0:0:
320,192,43284,1,0,0:0:0:0:
64,192,43455,1,0,0:0:0:0:
192,192,43625,1,0,0:0:0:0:
320,192,43797,1,0,0:0:0:0:
448,192,43797,1,0,0:0:0:0:
64,192,43797,1,0,0:0:0:0:
320,192,43968,1,0,0:0:0:0:
64,192,44138,1,0,0:0:0:0:
192,192,44138,1,0,0:0:0:0:
448,192,44309,1,0,0:0:0:0:
320,192,44480,1,0,0:0:0:0:
192,192,44480,1,0,0:0:0:0:
64,192,44480,1,0,0:0:0:0:
448,192,44652,1,0,0:0:0:0:
320,192,44822,1,0,0:0:0:0:
192,192,44822,1,0,0:0:0:0:
64,192,44993,1,0,0:0:0:0:
320,192,45164,1,0,0:0:0:0:
448,192,45164,1,0,0:0:0:0:
64,192,45164,1,0,0:0:0:0:
192,192,45335,1,0,0:0:0:0:
448,192,45506,1,0,0:0:0:0:
64,192,45506,1,0,0:0:0:0:
320,192,45677,1,0,0:0:0:0:
64,192,45848,1,0,0:0:0:0:
192,192,45848,1,0,0:0:0:0:
448,192,45848,1,0,0:0:0:0:
320,192,46018,1,0,0:0:0:0:
192,192,46190,1,0,0:0:0:0:
64,192,46190,1,0,0:0:0:0:
448,192,46361,1,0,0:0:0:0:
320,192,46532,1,0,0:0:0:0:
192,192,46532,1,0,0:0:0:0:
64,192,46532,1,0,0:0:0:0:
192,192,46788,1,0,0:0:0:0:
320,192,46788,1,0,0:0:0:0:
448,192,46788,1,0,0:0:0:0:
64,192,47045,1,0,0:0:0:0:
192,192,47045,1,0,0:0:0:0:
448,192,47045,1,0,0:0:0:0:
448,192,47215,1,0,0:0:0:0:
320,192,47215,1,0,0:0:0:0:
64,192,47215,1,0,0:0:0:0:
320,192,47386,1,0,0:0:0:0:
448,192,47557,1,0,0:0:0:0:
64,192,47557,1,0,0:0:0:0:
192,192,47557,1,0,0:0:0:0:
192,192,47728,1,0,0:0:0:0:
64,192,47899,1,0,0:0:0:0:
320,192,47899,1,0,0:0:0:0:
448,192,47899,1,0,0:0:0:0:
448,192,48070,1,0,0:0:0:0:
192,192,48070,1,0,0:0:0:0:
320,192,48241,1,0,0:0:0:0:
64,192,48241,1,0,0:0:0:0:
448,192,48412,1,0,0:0:0:0:
192,192,48583,1,0,0:0:0:0:
320,192,48583,1,0,0:0:0:0:
64,192,48583,1,0,0:0:0:0:
192,192,48754,1,0,0:0:0:0:
448,192,48925,1,0,0:0:0:0:
320,192,48925,1,0,0:0:0:0:
64,192,49095,1,0,0:0:0:0:
192,192,49267,1,0,0:0:0:0:
320,192,49267,1,0,0:0:0:0:
448,192,49267,1,0,0:0:0:0:
320,192,49438,1,0,0:0:0:0:
64,192,49608,1,0,0:0:0:0:
192,192,49608,1,0,0:0:0:0:
320,192,49779,1,0,0:0:0:0:
448,192,49951,1,0,0:0:0:0:
192,192,49951,1,0,0:0:0:0:
64,192,49951,1,0,0:0:0:0:
320,192,50122,1,0,0:0:0:0:
448,192,50292,1,0,0:0:0:0:
64,192,50292,1,0,0:0:0:0:
192,192,50463,1,0,0:0:0:0:
320,192,50634,1,0,0:0:0:0:
448,192,50634,1,0,0:0:0:0:
64,192,50634,1,0,0:0:0:0:
320,192,50805,1,0,0:0:0:0:
448,192,50976,1,0,0:0:0:0:
192,192,50976,1,0,0:0:0:0:
64,192,51147,1,0,0:0:0:0:
64,192,51318,1,0,0:0:0:0:
192,192,51318,1,0,0:0:0:0:
448,192,51318,1,0,0:0:0:0:
320,192,51489,1,0,0:0:0:0:
192,192,51660,1,0,0:0:0:0:
64,192,51660,1,0,0:0:0:0:
320,192,51831,1,0,0:0:0:0:
448,192,52002,1,0,0:0:0:0:
192,192,52002,1,0,0:0:0:0:
64,192,52002,1,0,0:0:0:0:
64,192,52258,1,0,0:0:0:0:
320,192,52258,1,0,0:0:0:0:
448,192,52258,1,0,0:0:0:0:
64,192,52515,1,0,0:0:0:0:
192,192,52515,1,0,0:0:0:0:
320,192,52515,1,0,0:0:0:0:
448,192,52685,1,0,0:0:0:0:
320,192,52685,1,0,0:0:0:0:
192,192,52685,1,0,0:0:0:0:
448,192,52856,1,0,0:0:0:0:
64,192,53028,1,0,0:0:0:0:
192,192,53028,1,0,0:0:0:0:
320,192,53198,1,0,0:0:0:0:
64,192,53369,1,0,0:0:0:0:
448,192,53369,1,0,0:0:0:0:
192,192,53540,1,0,0:0:0:0:
320,192,53711,1,0,0:0:0:0:
64,192,53882,1,0,0:0:0:0:
448,192,54053,1,0,0:0:0:0:
192,192,54053,1,0,0:0:0:0:
320,192,54053,1,0,0:0:0:0:
192,192,54224,1,0,0:0:0:0:
320,192,54395,1,0,0:0:0:0:
448,192,54395,1,0,0:0:0:0:
64,192,54566,1,0,0:0:0:0:
192,192,54737,1,0,0:0:0:0:
320,192,54737,1,0,0:0:0:0:
448,192,54737,1,0,0:0:0:0:
64,192,54993,1,0,0:0:0:0:
448,192,54993,1,0,0:0:0:0:
320,192,54993,1,0,0:0:0:0:
64,192,55249,1,0,0:0:0:0:
192,192,55249,1,0,0:0:0:0:
448,192,55249,1,0,0:0:0:0:
320,192,55421,1,0,0:0:0:0:
192,192,55421,1,0,0:0:0:0:
64,192,55421,1,0,0:0:0:0:
320,192,55592,1,0,0:0:0:0:
192,192,55762,1,0,0:0:0:0:
64,192,56105,1,0,0:0:0:0:
320,192,56105,1,0,0:0:0:0:
448,192,56105,1,0,0:0:0:0:
192,192,56446,1,0,0:0:0:0:
64,192,56788,1,0,0:0:0:0:
192,192,56788,1,0,0:0:0:0:
448,192,56788,1,0,0:0:0:0:
320,192,57130,1,0,0:0:0:0:
64,192,57472,1,0,0:0:0:0:
192,192,57472,1,0,0:0:0:0:
320,192,57472,1,0,0:0:0:0:
448,192,57728,1,0,0:0:0:0:
320,192,57728,1,0,0:0:0:0:
192,192,57728,1,0,0:0:0:0:
64,192,57985,1,0,0:0:0:0:
192,192,57985,1,0,0:0:0:0:
448,192,57985,1,0,0:0:0:0:
448,192,58155,1,0,0:0:0:0:
320,192,58155,1,0,0:0:0:0:
64,192,58155,1,0,0:0:0:0:
192,192,58326,1,0,0:0:0:0:
64,192,58326,1,0,0:0:0:0:
448,192,58498,1,0,0:0:0:0:
320,192,58498,1,0,0:0:0:0:
192,192,58668,1,0,0:0:0:0:
448,192,58839,1,0,0:0:0:0:
64,192,58839,1,0,0:0:0:0:
320,192,59523,128,0,59694:0:0:0:0:
320,192,59779,1,0,0:0:0:0:
64,192,59865,1,0,0:0:0:0:
192,192,59865,1,0,0:0:0:0:
448,192,59865,1,0,0:0:0:0:
448,192,60036,1,0,0:0:0:0:
320,192,60036,1,0,0:0:0:0:
192,192,60036,1,0,0:0:0:0:
64,192,60207,1,0,0:0:0:0:
192,192,60207,1,0,0:0:0:0:
320,192,60207,1,0,0:0:0:0:
64,192,60378,1,0,0:0:0:0:
320,192,60548,1,0,0:0:0:0:
448,192,60720,1,0,0:0:0:0:
64,192,60720,1,0,0:0:0:0:
192,192,60891,1,0,0:0:0:0:
64,192,60891,1,0,0:0:0:0:
448,192,60891,1,0,0:0:0:0:
320,192,61062,1,0,0:0:0:0:
64,192,61232,1,0,0:0:0:0:
192,192,61232,1,0,0:0:0:0:
448,192,61403,1,0,0:0:0:0:
320,192,61403,1,0,0:0:0:0:
64,192,61575,1,0,0:0:0:0:
192,192,61575,1,0,0:0:0:0:
320,192,61575,1,0,0:0:0:0:
64,192,61745,1,0,0:0:0:0:
448,192,61745,1,0,0:0:0:0:
192,192,61916,1,0,0:0:0:0:
320,192,62087,1,0,0:0:0:0:
64,192,62258,1,0,0:0:0:0:
192,192,62258,1,0,0:0:0:0:
448,192,62258,1,0,0:0:0:0:
64,192,62429,1,0,0:0:0:0:
320,192,62429,1,0,0:0:0:0:
448,192,62600,1,0,0:0:0:0:
320,192,62600,1,0,0:0:0:0:
192,192,62600,1,0,0:0:0:0:
192,192,62771,1,0,0:0:0:0:
192,192,62856,1,0,0:0:0:0:
320,192,62942,1,0,0:0:0:0:
448,192,62942,1,0,0:0:0:0:
64,192,62942,1,0,0:0:0:0:
320,192,63113,1,0,0:0:0:0:
64,192,63284,1,0,0:0:0:0:
192,192,63284,1,0,0:0:0:0:
320,192,63455,1,0,0:0:0:0:
448,192,63625,1,0,0:0:0:0:
192,192,63625,1,0,0:0:0:0:
64,192,63625,1,0,0:0:0:0:
192,192,63797,1,0,0:0:0:0:
64,192,63968,1,0,0:0:0:0:
320,192,63968,1,0,0:0:0:0:
448,192,63968,1,0,0:0:0:0:
64,192,64138,1,0,0:0:0:0:
192,192,64138,1,0,0:0:0:0:
448,192,64309,1,0,0:0:0:0:
64,192,64309,1,0,0:0:0:0:
320,192,64395,1,0,0:0:0:0:
192,192,64480,1,0,0:0:0:0:
64,192,64566,1,0,0:0:0:0:
448,192,64652,1,0,0:0:0:0:
320,192,64694,1,0,0:0:0:0:
192,192,64737,1,0,0:0:0:0:
64,192,64779,1,0,0:0:0:0:
448,192,64822,1,0,0:0:0:0:
320,192,64993,1,0,0:0:0:0:
192,192,64993,1,0,0:0:0:0:
64,192,64993,1,0,0:0:0:0:
192,192,65164,1,0,0:0:0:0:
64,192,65335,1,0,0:0:0:0:
320,192,65335,1,0,0:0:0:0:
448,192,65335,1,0,0:0:0:0:
320,192,65506,1,0,0:0:0:0:
448,192,65677,1,0,0:0:0:0:
192,192,65677,1,0,0:0:0:0:
64,192,65677,1,0,0:0:0:0:
320,192,65848,1,0,0:0:0:0:
192,192,66018,1,0,0:0:0:0:
448,192,66190,1,0,0:0:0:0:
320,192,66190,1,0,0:0:0:0:
64,192,66361,1,0,0:0:0:0:
320,192,66361,1,0,0:0:0:0:
448,192,66361,1,0,0:0:0:0:
192,192,66532,1,0,0:0:0:0:
448,192,66702,1,0,0:0:0:0:
64,192,66702,1,0,0:0:0:0:
320,192,66874,1,0,0:0:0:0:
64,192,67045,1,0,0:0:0:0:
192,192,67045,1,0,0:0:0:0:
320,192,67045,1,0,0:0:0:0:
192,192,67215,1,0,0:0:0:0:
64,192,67215,1,0,0:0:0:0:
448,192,67386,1,0,0:0:0:0:
64,192,67557,1,0,0:0:0:0:
192,192,67728,1,0,0:0:0:0:
320,192,67728,1,0,0:0:0:0:
448,192,67728,1,0,0:0:0:0:
192,192,67899,1,0,0:0:0:0:
64,192,68070,1,0,0:0:0:0:
192,192,68070,1,0,0:0:0:0:
320,192,68070,1,0,0:0:0:0:
320,192,68241,1,0,0:0:0:0:
448,192,68412,1,0,0:0:0:0:
192,192,68412,1,0,0:0:0:0:
64,192,68583,1,0,0:0:0:0:
320,192,68754,1,0,0:0:0:0:
448,192,68754,1,0,0:0:0:0:
192,192,68925,1,0,0:0:0:0:
64,192,68925,1,0,0:0:0:0:
320,192,69095,1,0,0:0:0:0:
448,192,69095,1,0,0:0:0:0:
64,192,69095,1,0,0:0:0:0:
192,192,69267,1,0,0:0:0:0:
320,192,69438,1,0,0:0:0:0:
448,192,69438,1,0,0:0:0:0:
64,192,69608,1,0,0:0:0:0:
192,192,69608,1,0,0:0:0:0:
320,192,69779,1,0,0:0:0:0:
448,192,69779,1,0,0:0:0:0:
192,192,69951,1,0,0:0:0:0:
448,192,70122,1,0,0:0:0:0:
320,192,70292,1,0,0:0:0:0:
64,192,70463,1,0,0:0:0:0:
192,192,70463,1,0,0:0:0:0:
448,192,70463,1,0,0:0:0:0:
320,192,70634,1,0,0:0:0:0:
64,192,70805,128,0,71147:0:0:0:0:
192,192,70805,128,0,71147:0:0:0:0:
448,192,71147,1,0,0:0:0:0:
320,192,71489,1,0,0:0:0:0:
64,192,71660,1,0,0:0:0:0:
448,192,71831,1,0,0:0:0:0:
192,192,72002,1,0,0:0:0:0:
320,192,72172,1,0,0:0:0:0:
64,192,72344,1,0,0:0:0:0:
192,192,72515,1,0,0:0:0:0:
320,192,72685,1,0,0:0:0:0:
448,192,72856,1,0,0:0:0:0:
64,192,73028,1,0,0:0:0:0:
192,192,73198,1,0,0:0:0:0:
448,192,73369,1,0,0:0:0:0:
320,192,73540,1,0,0:0:0:0:
192,192,73711,1,0,0:0:0:0:
64,192,73882,1,0,0:0:0:0:
448,192,74053,1,0,0:0:0:0:
320,192,74224,1,0,0:0:0:0:
192,192,74395,1,0,0:0:0:0:
64,192,74566,1,0,0:0:0:0:
320,192,74737,1,0,0:0:0:0:
448,192,74908,1,0,0:0:0:0:
192,192,75078,1,0,0:0:0:0:
64,192,75249,1,0,0:0:0:0:
448,192,75421,1,0,0:0:0:0:
64,192,75592,1,0,0:0:0:0:
320,192,75762,1,0,0:0:0:0:
192,192,75933,1,0,0:0:0:0:
64,192,76105,1,0,0:0:0:0:
448,192,76275,1,0,0:0:0:0:
192,192,76446,1,0,0:0:0:0:
320,192,76617,1,0,0:0:0:0:
64,192,76788,1,0,0:0:0:0:
192,192,76959,1,0,0:0:0:0:
320,192,77130,1,0,0:0:0:0:
64,192,77301,1,0,0:0:0:0:
320,192,77472,1,0,0:0:0:0:
448,192,77643,1,0,0:0:0:0:
64,192,77814,1,0,0:0:0:0:
192,192,77985,1,0,0:0:0:0:
448,192,78155,1,0,0:0:0:0:
192,192,78326,1,0,0:0:0:0:
64,192,78498,1,0,0:0:0:0:
320,192,78668,1,0,0:0:0:0:
448,192,78839,1,0,0:0:0:0:
192,192,79010,1,0,0:0:0:0:
448,192,79182,1,0,0:0:0:0:
64,192,79352,1,0,0:0:0:0:
320,192,79523,1,0,0:0:0:0:
192,192,79694,1,0,0:0:0:0:
448,192,79865,1,0,0:0:0:0:
64,192,80036,1,0,0:0:0:0:
320,192,80207,1,0,0:0:0:0:
192,192,80378,1,0,0:0:0:0:
448,192,80548,1,0,0:0:0:0:
64,192,80720,1,0,0:0:0:0:
320,192,80891,1,0,0:0:0:0:
192,192,81062,1,0,0:0:0:0:
448,192,81232,1,0,0:0:0:0:
64,192,81403,1,0,0:0:0:0:
192,192,81575,1,0,0:0:0:0:
320,192,81745,1,0,0:0:0:0:
192,192,81916,1,0,0:0:0:0:
448,192,82087,1,0,0:0:0:0:
320,192,82087,1,0,0:0:0:0:
64,192,82087,1,0,0:0:0:0:
64,192,82771,1,0,0:0:0:0:
192,192,82771,1,0,0:0:0:0:
448,192,82771,1,0,0:0:0:0:
192,192,83455,1,0,0:0:0:0:
320,192,83455,1,0,0:0:0:0:
448,192,83455,1,0,0:0:0:0:
64,192,84138,1,0,0:0:0:0:
192,192,84138,1,0,0:0:0:0:
320,192,84138,1,0,0:0:0:0:
64,192,84822,1,0,0:0:0:0:
320,192,84822,1,0,0:0:0:0:
448,192,84822,1,0,0:0:0:0:
64,192,85506,1,0,0:0:0:0:
192,192,85506,1,0,0:0:0:0:
448,192,85506,1,0,0:0:0:0:
192,192,86190,1,0,0:0:0:0:
320,192,86190,1,0,0:0:0:0:
448,192,86190,1,0,0:0:0:0:
64,192,86874,1,0,0:0:0:0:
192,192,86874,1,0,0:0:0:0:
320,192,86874,1,0,0:0:0:0:
448,192,87557,1,0,0:0:0:0:
320,192,87557,1,0,0:0:0:0:
64,192,87557,1,0,0:0:0:0:
64,192,87899,1,0,0:0:0:0:
192,192,87899,1,0,0:0:0:0:
448,192,87899,1,0,0:0:0:0:
192,192,88241,1,0,0:0:0:0:
320,192,88241,1,0,0:0:0:0:
448,192,88241,1,0,0:0:0:0:
64,192,88583,1,0,0:0:0:0:
192,192,88583,1,0,0:0:0:0:
320,192,88583,1,0,0:0:0:0:
64,192,88925,1,0,0:0:0:0:
320,192,88925,1,0,0:0:0:0:
448,192,88925,1,0,0:0:0:0:
64,192,89267,1,0,0:0:0:0:
192,192,89267,1,0,0:0:0:0:
448,192,89267,1,0,0:0:0:0:
192,192,89608,1,0,0:0:0:0:
320,192,89608,1,0,0:0:0:0:
448,192,89608,1,0,0:0:0:0:
64,192,89951,1,0,0:0:0:0:
192,192,89951,1,0,0:0:0:0:
320,192,89951,1,0,0:0:0:0:
64,192,90292,1,0,0:0:0:0:
320,192,90292,1,0,0:0:0:0:
448,192,90292,1,0,0:0:0:0:
64,192,90463,1,0,0:0:0:0:
192,192,90463,1,0,0:0:0:0:
448,192,90463,1,0,0:0:0:0:
448,192,90634,1,0,0:0:0:0:
320,192,90634,1,0,0:0:0:0:
64,192,90634,1,0,0:0:0:0:
64,192,90805,1,0,0:0:0:0:
192,192,90805,1,0,0:0:0:0:
448,192,90805,1,0,0:0:0:0:
192,192,90976,1,0,0:0:0:0:
320,192,90976,1,0,0:0:0:0:
448,192,90976,1,0,0:0:0:0:
64,192,91147,1,0,0:0:0:0:
192,192,91147,1,0,0:0:0:0:
320,192,91147,1,0,0:0:0:0:
448,192,91318,1,0,0:0:0:0:
320,192,91318,1,0,0:0:0:0:
192,192,91318,1,0,0:0:0:0:
64,192,91489,1,0,0:0:0:0:
192,192,91489,1,0,0:0:0:0:
320,192,91489,1,0,0:0:0:0:
64,192,91660,1,0,0:0:0:0:
320,192,91660,1,0,0:0:0:0:
448,192,91660,1,0,0:0:0:0:
448,192,91831,1,0,0:0:0:0:
192,192,91831,1,0,0:0:0:0:
64,192,91831,1,0,0:0:0:0:
448,192,92002,1,0,0:0:0:0:
320,192,92002,1,0,0:0:0:0:
64,192,92002,1,0,0:0:0:0:
64,192,92172,1,0,0:0:0:0:
192,192,92172,1,0,0:0:0:0:
448,192,92172,1,0,0:0:0:0:
192,192,92344,1,0,0:0:0:0:
320,192,92344,1,0,0:0:0:0:
448,192,92344,1,0,0:0:0:0:
320,192,92515,1,0,0:0:0:0:
192,192,92515,1,0,0:0:0:0:
64,192,92515,1,0,0:0:0:0:
448,192,92685,1,0,0:0:0:0:
320,192,92685,1,0,0:0:0:0:
192,192,92685,1,0,0:0:0:0:
64,192,92685,1,0,0:0:0:0:
64,192,93028,1,0,0:0:0:0:
320,192,93028,1,0,0:0:0:0:
448,192,93028,1,0,0:0:0:0:
64,192,93369,1,0,0:0:0:0:
192,192,93369,1,0,0:0:0:0:
448,192,93369,1,0,0:0:0:0:
64,192,93711,1,0,0:0:0:0:
192,192,93711,1,0,0:0:0:0:
320,192,93711,1,0,0:0:0:0:
448,192,93711,1,0,0:0:0:0:
64,192,93825,1,0,0:0:0:0:
192,192,93825,1,0,0:0:0:0:
448,192,93939,1,0,0:0:0:0:
320,192,93939,1,0,0:0:0:0:
64,192,94053,1,0,0:0:0:0:
192,192,94053,1,0,0:0:0:0:
448,192,94167,1,0,0:0:0:0:
192,192,94167,1,0,0:0:0:0:
320,192,94281,1,0,0:0:0:0:
64,192,94395,1,0,0:0:0:0:
192,192,94395,1,0,0:0:0:0:
448,192,94395,1,0,0:0:0:0:
64,192,94509,1,0,0:0:0:0:
448,192,94509,1,0,0:0:0:0:
320,192,94623,1,0,0:0:0:0:
192,192,94623,1,0,0:0:0:0:
64,192,94737,1,0,0:0:0:0:
192,192,94737,1,0,0:0:0:0:
448,192,94851,1,0,0:0:0:0:
320,192,94851,1,0,0:0:0:0:
192,192,94965,1,0,0:0:0:0:
192,192,95078,1,0,0:0:0:0:
320,192,95078,1,0,0:0:0:0:
448,192,95078,1,0,0:0:0:0:
64,192,95078,1,0,0:0:0:0:
64,192,95192,1,0,0:0:0:0:
192,192,95192,1,0,0:0:0:0:
192,192,95307,1,0,0:0:0:0:
320,192,95307,1,0,0:0:0:0:
448,192,95421,1,0,0:0:0:0:
64,192,95421,1,0,0:0:0:0:
192,192,95535,1,0,0:0:0:0:
320,192,95535,1,0,0:0:0:0:
448,192,95648,1,0,0:0:0:0:
320,192,95648,1,0,0:0:0:0:
448,192,95762,128,0,96332:0:0:0:0:
320,192,95762,128,0,96332:0:0:0:0:
192,192,95762,128,0,96332:0:0:0:0:
64,192,95762,128,0,96332:0:0:0:0:
64,192,96446,1,0,0:0:0:0:
320,192,96446,1,0,0:0:0:0:
192,192,96446,1,0,0:0:0:0:
448,192,96446,1,0,0:0:0:0:
448,192,96560,1,0,0:0:0:0:
320,192,96560,1,0,0:0:0:0:
64,192,96674,1,0,0:0:0:0:
192,192,96674,1,0,0:0:0:0:
448,192,96788,1,0,0:0:0:0:
64,192,96788,1,0,0:0:0:0:
192,192,96902,1,0,0:0:0:0:
320,192,96902,1,0,0:0:0:0:
192,192,97016,1,0,0:0:0:0:
64,192,97130,1,0,0:0:0:0:
448,192,97130,1,0,0:0:0:0:
320,192,97130,1,0,0:0:0:0:
64,192,97244,1,0,0:0:0:0:
320,192,97244,1,0,0:0:0:0:
192,192,97358,1,0,0:0:0:0:
448,192,97358,1,0,0:0:0:0:
64,192,97472,1,0,0:0:0:0:
192,192,97472,1,0,0:0:0:0:
448,192,97586,1,0,0:0:0:0:
320,192,97586,1,0,0:0:0:0:
192,192,97700,1,0,0:0:0:0:
64,192,97814,1,0,0:0:0:0:
192,192,97814,1,0,0:0:0:0:
320,192,97814,1,0,0:0:0:0:
448,192,97814,1,0,0:0:0:0:
320,192,97928,1,0,0:0:0:0:
448,192,97928,1,0,0:0:0:0:
64,192,98042,1,0,0:0:0:0:
192,192,98042,1,0,0:0:0:0:
192,192,98155,1,0,0:0:0:0:
320,192,98155,1,0,0:0:0:0:
448,192,98269,1,0,0:0:0:0:
64,192,98269,1,0,0:0:0:0:
320,192,98384,1,0,0:0:0:0:
448,192,98384,1,0,0:0:0:0:
192,192,98498,128,0,98754:0:0:0:0:
64,192,98498,128,0,98754:0:0:0:0:
448,192,98498,128,0,98754:0:0:0:0:
64,192,98839,1,0,0:0:0:0:
192,192,98839,1,0,0:0:0:0:
448,192,98839,1,0,0:0:0:0:
64,192,99010,1,0,0:0:0:0:
192,192,99010,1,0,0:0:0:0:
448,192,99010,1,0,0:0:0:0:
64,192,99182,1,0,0:0:0:0:
192,192,99182,1,0,0:0:0:0:
448,192,99182,1,0,0:0:0:0:
320,192,99182,1,0,0:0:0:0:
64,192,99295,1,0,0:0:0:0:
192,192,99295,1,0,0:0:0:0:
448,192,99409,1,0,0:0:0:0:
192,192,99409,1,0,0:0:0:0:
448,192,99523,1,0,0:0:0:0:
320,192,99523,1,0,0:0:0:0:
64,192,99637,1,0,0:0:0:0:
320,192,99637,1,0,0:0:0:0:
192,192,99751,1,0,0:0:0:0:
64,192,99751,1,0,0:0:0:0:
448,192,99865,128,0,100122:0:0:0:0:
320,192,99865,128,0,100122:0:0:0:0:
192,192,99865,128,0,100122:0:0:0:0:
192,192,100207,1,0,0:0:0:0:
320,192,100207,1,0,0:0:0:0:
448,192,100207,1,0,0:0:0:0:
192,192,100378,1,0,0:0:0:0:
320,192,100378,1,0,0:0:0:0:
448,192,100378,1,0,0:0:0:0:
64,192,100548,1,0,0:0:0:0:
192,192,100548,1,0,0:0:0:0:
320,192,100548,1,0,0:0:0:0:
448,192,100548,1,0,0:0:0:0:
64,192,100663,1,0,0:0:0:0:
192,192,100663,1,0,0:0:0:0:
320,192,100777,1,0,0:0:0:0:
448,192,100777,1,0,0:0:0:0:
64,192,100891,1,0,0:0:0:0:
320,192,100891,1,0,0:0:0:0:
448,192,101005,1,0,0:0:0:0:
192,192,101005,1,0,0:0:0:0:
64,192,101118,1,0,0:0:0:0:
448,192,101118,1,0,0:0:0:0:
448,192,101232,128,0,101461:0:0:0:0:
192,192,101232,128,0,101461:0:0:0:0:
64,192,101232,128,0,101461:0:0:0:0:
192,192,101575,1,0,0:0:0:0:
64,192,101575,1,0,0:0:0:0:
64,192,101688,1,0,0:0:0:0:
192,192,101688,1,0,0:0:0:0:
64,192,101802,1,0,0:0:0:0:
192,192,101802,1,0,0:0:0:0:
192,192,101916,128,0,102144:0:0:0:0:
320,192,101916,128,0,102144:0:0:0:0:
448,192,101916,128,0,102144:0:0:0:0:
64,192,101916,128,0,102144:0:0:0:0:
320,192,102258,1,0,0:0:0:0:
448,192,102258,1,0,0:0:0:0:
448,192,102372,1,0,0:0:0:0:
320,192,102372,1,0,0:0:0:0:
320,192,102486,1,0,0:0:0:0:
448,192,102486,1,0,0:0:0:0:
64,192,102600,128,0,102828:0:0:0:0:
192,192,102600,128,0,102828:0:0:0:0:
448,192,102600,128,0,102828:0:0:0:0:
64,192,102942,1,0,0:0:0:0:
192,192,102942,1,0,0:0:0:0:
448,192,102942,1,0,0:0:0:0:
192,192,103056,1,0,0:0:0:0:
64,192,103056,1,0,0:0:0:0:
64,192,103170,1,0,0:0:0:0:
192,192,103170,1,0,0:0:0:0:
64,192,103284,128,0,103512:0:0:0:0:
320,192,103284,128,0,103512:0:0:0:0:
448,192,103284,128,0,103512:0:0:0:0:
192,192,103284,1,0,0:0:0:0:
320,192,103625,1,0,0:0:0:0:
448,192,103625,1,0,0:0:0:0:
448,192,103740,1,0,0:0:0:0:
320,192,103740,1,0,0:0:0:0:
320,192,103854,1,0,0:0:0:0:
448,192,103854,1,0,0:0:0:0:
64,192,103968,128,0,104309:0:0:0:0:
192,192,103968,128,0,104309:0:0:0:0:
448,192,104309,128,0,104538:0:0:0:0:
320,192,104309,128,0,104538:0:0:0:0:
64,192,104652,1,0,0:0:0:0:
192,192,104652,1,0,0:0:0:0:
448,192,104652,1,0,0:0:0:0:
320,192,104652,1,0,0:0:0:0:
192,192,104765,1,0,0:0:0:0:
320,192,104765,1,0,0:0:0:0:
448,192,104879,1,0,0:0:0:0:
64,192,104879,1,0,0:0:0:0:
64,192,104993,1,0,0:0:0:0:
192,192,104993,1,0,0:0:0:0:
448,192,105107,1,0,0:0:0:0:
320,192,105107,1,0,0:0:0:0:
64,192,105221,1,0,0:0:0:0:
320,192,105335,1,0,0:0:0:0:
192,192,105335,1,0,0:0:0:0:
448,192,105335,1,0,0:0:0:0:
320,192,105449,1,0,0:0:0:0:
64,192,105449,1,0,0:0:0:0:
448,192,105563,1,0,0:0:0:0:
320,192,105563,1,0,0:0:0:0:
64,192,105677,1,0,0:0:0:0:
192,192,105677,1,0,0:0:0:0:
448,192,105791,1,0,0:0:0:0:
320,192,105791,1,0,0:0:0:0:
320,192,105905,1,0,0:0:0:0:
448,192,106018,1,0,0:0:0:0:
320,192,106018,1,0,0:0:0:0:
192,192,106018,1,0,0:0:0:0:
64,192,106018,1,0,0:0:0:0:
64,192,106133,1,0,0:0:0:0:
192,192,106133,1,0,0:0:0:0:
448,192,106247,1,0,0:0:0:0:
320,192,106247,1,0,0:0:0:0:
320,192,106361,1,0,0:0:0:0:
192,192,106361,1,0,0:0:0:0:
64,192,106475,1,0,0:0:0:0:
448,192,106475,1,0,0:0:0:0:
320,192,106588,1,0,0:0:0:0:
192,192,106588,1,0,0:0:0:0:
448,192,106702,128,0,107272:0:0:0:0:
320,192,106702,128,0,107272:0:0:0:0:
192,192,106702,128,0,107272:0:0:0:0:
64,192,106702,128,0,107272:0:0:0:0:
448,192,107386,1,0,0:0:0:0:
320,192,107386,1,0,0:0:0:0:
192,192,107386,1,0,0:0:0:0:
64,192,107386,1,0,0:0:0:0:
448,192,107500,1,0,0:0:0:0:
320,192,107500,1,0,0:0:0:0:
320,192,107615,1,0,0:0:0:0:
192,192,107615,1,0,0:0:0:0:
64,192,107728,1,0,0:0:0:0:
448,192,107728,1,0,0:0:0:0:
192,192,107842,1,0,0:0:0:0:
64,192,107842,1,0,0:0:0:0:
448,192,107956,1,0,0:0:0:0:
320,192,108070,1,0,0:0:0:0:
192,192,108070,1,0,0:0:0:0:
64,192,108070,1,0,0:0:0:0:
192,192,108184,1,0,0:0:0:0:
320,192,108184,1,0,0:0:0:0:
64,192,108298,1,0,0:0:0:0:
192,192,108298,1,0,0:0:0:0:
448,192,108412,1,0,0:0:0:0:
320,192,108412,1,0,0:0:0:0:
64,192,108526,1,0,0:0:0:0:
448,192,108526,1,0,0:0:0:0:
320,192,108640,1,0,0:0:0:0:
64,192,108754,1,0,0:0:0:0:
192,192,108754,1,0,0:0:0:0:
320,192,108754,1,0,0:0:0:0:
448,192,108754,1,0,0:0:0:0:
64,192,108868,1,0,0:0:0:0:
192,192,108868,1,0,0:0:0:0:
448,192,108982,1,0,0:0:0:0:
192,192,108982,1,0,0:0:0:0:
64,192,109095,1,0,0:0:0:0:
320,192,109095,1,0,0:0:0:0:
448,192,109210,1,0,0:0:0:0:
320,192,109210,1,0,0:0:0:0:
64,192,109324,1,0,0:0:0:0:
192,192,109324,1,0,0:0:0:0:
192,192,109438,128,0,109694:0:0:0:0:
320,192,109438,128,0,109694:0:0:0:0:
448,192,109438,128,0,109694:0:0:0:0:
192,192,109779,1,0,0:0:0:0:
320,192,109779,1,0,0:0:0:0:
448,192,109779,1,0,0:0:0:0:
192,192,109951,1,0,0:0:0:0:
320,192,109951,1,0,0:0:0:0:
448,192,109951,1,0,0:0:0:0:
64,192,110122,1,0,0:0:0:0:
320,192,110122,1,0,0:0:0:0:
448,192,110122,1,0,0:0:0:0:
192,192,110122,1,0,0:0:0:0:
64,192,110235,1,0,0:0:0:0:
192,192,110235,1,0,0:0:0:0:
320,192,110349,1,0,0:0:0:0:
192,192,110349,1,0,0:0:0:0:
448,192,110463,1,0,0:0:0:0:
64,192,110463,1,0,0:0:0:0:
64,192,110577,1,0,0:0:0:0:
192,192,110577,1,0,0:0:0:0:
448,192,110692,1,0,0:0:0:0:
320,192,110692,1,0,0:0:0:0:
64,192,110805,128,0,111062:0:0:0:0:
192,192,110805,128,0,111062:0:0:0:0:
320,192,110805,128,0,111062:0:0:0:0:
320,192,111147,1,0,0:0:0:0:
192,192,111147,1,0,0:0:0:0:
64,192,111147,1,0,0:0:0:0:
64,192,111318,1,0,0:0:0:0:
192,192,111318,1,0,0:0:0:0:
320,192,111318,1,0,0:0:0:0:
448,192,111489,1,0,0:0:0:0:
192,192,111489,1,0,0:0:0:0:
320,192,111489,1,0,0:0:0:0:
64,192,111489,1,0,0:0:0:0:
448,192,111603,1,0,0:0:0:0:
320,192,111603,1,0,0:0:0:0:
64,192,111717,1,0,0:0:0:0:
192,192,111717,1,0,0:0:0:0:
320,192,111831,1,0,0:0:0:0:
192,192,111831,1,0,0:0:0:0:
448,192,111945,1,0,0:0:0:0:
64,192,111945,1,0,0:0:0:0:
448,192,112058,1,0,0:0:0:0:
320,192,112058,1,0,0:0:0:0:
64,192,112172,128,0,112401:0:0:0:0:
192,192,112172,128,0,112401:0:0:0:0:
320,192,112172,128,0,112401:0:0:0:0:
192,192,112515,1,0,0:0:0:0:
64,192,112515,1,0,0:0:0:0:
64,192,112628,1,0,0:0:0:0:
192,192,112628,1,0,0:0:0:0:
192,192,112742,1,0,0:0:0:0:
64,192,112742,1,0,0:0:0:0:
320,192,112856,128,0,113085:0:0:0:0:
448,192,112856,128,0,113085:0:0:0:0:
64,192,113198,1,0,0:0:0:0:
192,192,113198,1,0,0:0:0:0:
64,192,113312,1,0,0:0:0:0:
192,192,113312,1,0,0:0:0:0:
64,192,113426,1,0,0:0:0:0:
192,192,113426,1,0,0:0:0:0:
448,192,113540,1,0,0:0:0:0:
64,192,113540,1,0,0:0:0:0:
320,192,113540,1,0,0:0:0:0:
192,192,113711,1,0,0:0:0:0:
64,192,113882,1,0,0:0:0:0:
448,192,114053,1,0,0:0:0:0:
192,192,114224,1,0,0:0:0:0:
448,192,114395,1,0,0:0:0:0:
320,192,114395,1,0,0:0:0:0:
64,192,114395,1,0,0:0:0:0:
64,192,114566,1,0,0:0:0:0:
192,192,114566,1,0,0:0:0:0:
448,192,114566,1,0,0:0:0:0:
320,192,114566,1,0,0:0:0:0:
64,192,114908,1,0,0:0:0:0:
192,192,114908,1,0,0:0:0:0:
320,192,114908,1,0,0:0:0:0:
448,192,114908,1,0,0:0:0:0:
320,192,115078,1,0,0:0:0:0:
64,192,115249,1,0,0:0:0:0:
192,192,115249,1,0,0:0:0:0:
320,192,115421,1,0,0:0:0:0:
448,192,115592,1,0,0:0:0:0:
192,192,115592,1,0,0:0:0:0:
64,192,115592,1,0,0:0:0:0:
320,192,115592,1,0,0:0:0:0:
320,192,115762,1,0,0:0:0:0:
64,192,115933,1,0,0:0:0:0:
192,192,115933,1,0,0:0:0:0:
320,192,116105,1,0,0:0:0:0:
448,192,116105,1,0,0:0:0:0:
192,192,116275,1,0,0:0:0:0:
320,192,116275,1,0,0:0:0:0:
448,192,116446,1,0,0:0:0:0:
64,192,116446,1,0,0:0:0:0:
320,192,116617,1,0,0:0:0:0:
64,192,116788,1,0,0:0:0:0:
192,192,116959,1,0,0:0:0:0:
320,192,116959,1,0,0:0:0:0:
448,192,116959,1,0,0:0:0:0:
64,192,116959,1,0,0:0:0:0:
320,192,117130,1,0,0:0:0:0:
64,192,117301,1,0,0:0:0:0:
192,192,117301,1,0,0:0:0:0:
448,192,117472,1,0,0:0:0:0:
64,192,117643,1,0,0:0:0:0:
192,192,117643,1,0,0:0:0:0:
320,192,117728,1,0,0:0:0:0:
448,192,117814,1,0,0:0:0:0:
64,192,117985,1,0,0:0:0:0:
192,192,117985,1,0,0:0:0:0:
448,192,117985,1,0,0:0:0:0:
320,192,118155,1,0,0:0:0:0:
448,192,118326,1,0,0:0:0:0:
192,192,118326,1,0,0:0:0:0:
64,192,118326,1,0,0:0:0:0:
320,192,118326,1,0,0:0:0:0:
192,192,118498,1,0,0:0:0:0:
64,192,118668,1,0,0:0:0:0:
320,192,118668,1,0,0:0:0:0:
192,192,118839,1,0,0:0:0:0:
64,192,119010,1,0,0:0:0:0:
448,192,119010,1,0,0:0:0:0:
320,192,119095,1,0,0:0:0:0:
192,192,119182,1,0,0:0:0:0:
64,192,119267,1,0,0:0:0:0:
448,192,119352,1,0,0:0:0:0:
320,192,119395,1,0,0:0:0:0:
192,192,119438,1,0,0:0:0:0:
64,192,119480,1,0,0:0:0:0:
448,192,119523,1,0,0:0:0:0:
64,192,119694,1,0,0:0:0:0:
192,192,119694,1,0,0:0:0:0:
448,192,119694,1,0,0:0:0:0:
320,192,119694,1,0,0:0:0:0:
192,192,119865,1,0,0:0:0:0:
320,192,120036,1,0,0:0:0:0:
64,192,120036,1,0,0:0:0:0:
192,192,120207,1,0,0:0:0:0:
192,192,120292,1,0,0:0:0:0:
64,192,120378,1,0,0:0:0:0:
320,192,120378,1,0,0:0:0:0:
448,192,120378,1,0,0:0:0:0:
320,192,120548,1,0,0:0:0:0:
192,192,120720,1,0,0:0:0:0:
64,192,120720,1,0,0:0:0:0:
448,192,120720,1,0,0:0:0:0:
448,192,120891,1,0,0:0:0:0:
320,192,120891,1,0,0:0:0:0:
448,192,121062,1,0,0:0:0:0:
192,192,121062,1,0,0:0:0:0:
64,192,121062,1,0,0:0:0:0:
320,192,121062,1,0,0:0:0:0:
320,192,121232,1,0,0:0:0:0:
64,192,121403,1,0,0:0:0:0:
192,192,121403,1,0,0:0:0:0:
448,192,121575,1,0,0:0:0:0:
320,192,121745,1,0,0:0:0:0:
192,192,121745,1,0,0:0:0:0:
64,192,121745,1,0,0:0:0:0:
64,192,121916,1,0,0:0:0:0:
192,192,121916,1,0,0:0:0:0:
320,192,122087,1,0,0:0:0:0:
448,192,122087,1,0,0:0:0:0:
64,192,122087,1,0,0:0:0:0:
192,192,122258,1,0,0:0:0:0:
192,192,122429,1,0,0:0:0:0:
320,192,122429,1,0,0:0:0:0:
448,192,122429,1,0,0:0:0:0:
64,192,122429,1,0,0:0:0:0:
192,192,122600,1,0,0:0:0:0:
320,192,122771,1,0,0:0:0:0:
448,192,122771,1,0,0:0:0:0:
192,192,122942,1,0,0:0:0:0:
64,192,123113,1,0,0:0:0:0:
320,192,123113,1,0,0:0:0:0:
448,192,123113,1,0,0:0:0:0:
320,192,123284,1,0,0:0:0:0:
64,192,123455,1,0,0:0:0:0:
192,192,123455,1,0,0:0:0:0:
448,192,123625,1,0,0:0:0:0:
320,192,123625,1,0,0:0:0:0:
64,192,123797,1,0,0:0:0:0:
320,192,123797,1,0,0:0:0:0:
192,192,123797,1,0,0:0:0:0:
448,192,123797,1,0,0:0:0:0:
320,192,123968,1,0,0:0:0:0:
320,192,124053,1,0,0:0:0:0:
192,192,124138,1,0,0:0:0:0:
64,192,124138,1,0,0:0:0:0:
448,192,124309,1,0,0:0:0:0:
320,192,124480,1,0,0:0:0:0:
64,192,124480,1,0,0:0:0:0:
192,192,124480,1,0,0:0:0:0:
192,192,124652,1,0,0:0:0:0:
448,192,124652,1,0,0:0:0:0:
64,192,124822,1,0,0:0:0:0:
192,192,124822,1,0,0:0:0:0:
320,192,124993,1,0,0:0:0:0:
448,192,124993,1,0,0:0:0:0:
64,192,125164,1,0,0:0:0:0:
320,192,125164,1,0,0:0:0:0:
448,192,125164,1,0,0:0:0:0:
192,192,125164,1,0,0:0:0:0:
192,192,125335,1,0,0:0:0:0:
64,192,125506,1,0,0:0:0:0:
192,192,125506,1,0,0:0:0:0:
320,192,125506,1,0,0:0:0:0:
320,192,125677,1,0,0:0:0:0:
448,192,125848,1,0,0:0:0:0:
320,192,125848,1,0,0:0:0:0:
192,192,125848,1,0,0:0:0:0:
192,192,126018,1,0,0:0:0:0:
64,192,126190,1,0,0:0:0:0:
448,192,126190,1,0,0:0:0:0:
320,192,126190,1,0,0:0:0:0:
448,192,126361,1,0,0:0:0:0:
320,192,126532,1,0,0:0:0:0:
448,192,126532,1,0,0:0:0:0:
64,192,126532,1,0,0:0:0:0:
192,192,126532,1,0,0:0:0:0:
192,192,126702,1,0,0:0:0:0:
320,192,126874,1,0,0:0:0:0:
448,192,126874,1,0,0:0:0:0:
64,192,127045,1,0,0:0:0:0:
192,192,127045,1,0,0:0:0:0:
64,192,127215,1,0,0:0:0:0:
320,192,127215,1,0,0:0:0:0:
448,192,127215,1,0,0:0:0:0:
192,192,127386,1,0,0:0:0:0:
448,192,127386,1,0,0:0:0:0:
320,192,127557,1,0,0:0:0:0:
64,192,127728,1,0,0:0:0:0:
64,192,127899,1,0,0:0:0:0:
192,192,127899,1,0,0:0:0:0:
320,192,127899,1,0,0:0:0:0:
448,192,127899,1,0,0:0:0:0:
320,192,128070,1,0,0:0:0:0:
448,192,128070,1,0,0:0:0:0:
64,192,128241,1,0,0:0:0:0:
192,192,128241,1,0,0:0:0:0:
320,192,128412,1,0,0:0:0:0:
448,192,128583,1,0,0:0:0:0:
192,192,128583,1,0,0:0:0:0:
64,192,128583,1,0,0:0:0:0:
320,192,128668,1,0,0:0:0:0:
192,192,128754,1,0,0:0:0:0:
64,192,128925,1,0,0:0:0:0:
320,192,128925,1,0,0:0:0:0:
448,192,128925,1,0,0:0:0:0:
192,192,129095,1,0,0:0:0:0:
192,192,129267,1,0,0:0:0:0:
320,192,129267,1,0,0:0:0:0:
64,192,129267,1,0,0:0:0:0:
448,192,129267,1,0,0:0:0:0:
448,192,129438,1,0,0:0:0:0:
320,192,129438,1,0,0:0:0:0:
64,192,129608,1,0,0:0:0:0:
448,192,129608,1,0,0:0:0:0:
192,192,129779,1,0,0:0:0:0:
320,192,129779,1,0,0:0:0:0:
64,192,129951,1,0,0:0:0:0:
448,192,129951,1,0,0:0:0:0:
192,192,130036,1,0,0:0:0:0:
320,192,130122,1,0,0:0:0:0:
448,192,130207,1,0,0:0:0:0:
64,192,130292,1,0,0:0:0:0:
192,192,130335,1,0,0:0:0:0:
320,192,130378,1,0,0:0:0:0:
448,192,130421,1,0,0:0:0:0:
64,192,130463,1,0,0:0:0:0:
64,192,130634,1,0,0:0:0:0:
320,192,130634,1,0,0:0:0:0:
448,192,130634,1,0,0:0:0:0:
192,192,130634,1,0,0:0:0:0:
320,192,130805,1,0,0:0:0:0:
192,192,130805,1,0,0:0:0:0:
64,192,130976,1,0,0:0:0:0:
448,192,130976,1,0,0:0:0:0:
192,192,131147,1,0,0:0:0:0:
192,192,131232,1,0,0:0:0:0:
64,192,131318,1,0,0:0:0:0:
320,192,131318,1,0,0:0:0:0:
448,192,131318,1,0,0:0:0:0:
448,192,131489,1,0,0:0:0:0:
320,192,131489,1,0,0:0:0:0:
192,192,131575,1,0,0:0:0:0:
64,192,131660,1,0,0:0:0:0:
448,192,131745,1,0,0:0:0:0:
320,192,131831,1,0,0:0:0:0:
192,192,131831,1,0,0:0:0:0:
448,192,132002,1,0,0:0:0:0:
320,192,132002,1,0,0:0:0:0:
64,192,132002,1,0,0:0:0:0:
192,192,132002,1,0,0:0:0:0:
320,192,132172,1,0,0:0:0:0:
64,192,132344,1,0,0:0:0:0:
448,192,132344,1,0,0:0:0:0:
192,192,132515,1,0,0:0:0:0:
192,192,132685,1,0,0:0:0:0:
320,192,132685,1,0,0:0:0:0:
448,192,132685,1,0,0:0:0:0:
64,192,132856,1,0,0:0:0:0:
320,192,132856,1,0,0:0:0:0:
64,192,133028,1,0,0:0:0:0:
192,192,133028,1,0,0:0:0:0:
448,192,133028,1,0,0:0:0:0:
320,192,133198,1,0,0:0:0:0:
448,192,133369,1,0,0:0:0:0:
320,192,133369,1,0,0:0:0:0:
192,192,133369,1,0,0:0:0:0:
64,192,133369,1,0,0:0:0:0:
192,192,133540,1,0,0:0:0:0:
320,192,133711,1,0,0:0:0:0:
448,192,133711,1,0,0:0:0:0:
64,192,133882,1,0,0:0:0:0:
192,192,134053,128,0,134395:0:0:0:0:
320,192,134395,1,0,0:0:0:0:
64,192,134566,1,0,0:0:0:0:
448,192,134566,1,0,0:0:0:0:
448,192,134737,1,0,0:0:0:0:
320,192,134737,1,0,0:0:0:0:
192,192,134737,1,0,0:0:0:0:
64,192,134737,1,0,0:0:0:0:
320,192,134908,1,0,0:0:0:0:
320,192,134993,1,0,0:0:0:0:
192,192,135078,1,0,0:0:0:0:
64,192,135078,1,0,0:0:0:0:
448,192,135249,1,0,0:0:0:0:
192,192,135249,1,0,0:0:0:0:
64,192,135421,1,0,0:0:0:0:
320,192,135421,1,0,0:0:0:0:
448,192,135421,1,0,0:0:0:0:
192,192,135592,1,0,0:0:0:0:
448,192,135762,1,0,0:0:0:0:
64,192,135933,1,0,0:0:0:0:
192,192,136105,1,0,0:0:0:0:
320,192,136275,1,0,0:0:0:0:
192,192,136446,128,0,136788:0:0:0:0:
448,192,136788,1,0,0:0:0:0:
320,192,136788,1,0,0:0:0:0:
64,192,136959,1,0,0:0:0:0:
448,192,137130,1,0,0:0:0:0:
192,192,137301,1,0,0:0:0:0:
448,192,137472,1,0,0:0:0:0:
64,192,137472,1,0,0:0:0:0:
320,192,137472,1,0,0:0:0:0:
192,192,137643,1,0,0:0:0:0:
320,192,137814,1,0,0:0:0:0:
448,192,137814,1,0,0:0:0:0:
192,192,137985,1,0,0:0:0:0:
64,192,138155,1,0,0:0:0:0:
320,192,138155,1,0,0:0:0:0:
448,192,138326,1,0,0:0:0:0:
192,192,138498,1,0,0:0:0:0:
320,192,138668,1,0,0:0:0:0:
64,192,138839,1,0,0:0:0:0:
192,192,138839,1,0,0:0:0:0:
448,192,138839,1,0,0:0:0:0:
192,192,139010,1,0,0:0:0:0:
320,192,139182,1,0,0:0:0:0:
64,192,139352,1,0,0:0:0:0:
192,192,139523,1,0,0:0:0:0:
448,192,139523,1,0,0:0:0:0:
320,192,139694,1,0,0:0:0:0:
64,192,139865,1,0,0:0:0:0:
192,192,139865,1,0,0:0:0:0:
448,192,140036,1,0,0:0:0:0:
320,192,140207,1,0,0:0:0:0:
192,192,140207,1,0,0:0:0:0:
64,192,140207,1,0,0:0:0:0:
192,192,140378,1,0,0:0:0:0:
320,192,140548,1,0,0:0:0:0:
64,192,140720,1,0,0:0:0:0:
192,192,140891,1,0,0:0:0:0:
320,192,140891,1,0,0:0:0:0:
448,192,140891,1,0,0:0:0:0:
64,192,141147,1,0,0:0:0:0:
192,192,141147,1,0,0:0:0:0:
320,192,141147,1,0,0:0:0:0:
64,192,141403,1,0,0:0:0:0:
320,192,141403,1,0,0:0:0:0:
448,192,141403,1,0,0:0:0:0:
448,192,141575,1,0,0:0:0:0:
192,192,141575,1,0,0:0:0:0:
64,192,141575,1,0,0:0:0:0:
320,192,141745,1,0,0:0:0:0:
192,192,141916,1,0,0:0:0:0:
448,192,141916,1,0,0:0:0:0:
64,192,142087,1,0,0:0:0:0:
320,192,142258,1,0,0:0:0:0:
448,192,142258,1,0,0:0:0:0:
192,192,142429,1,0,0:0:0:0:
64,192,142600,1,0,0:0:0:0:
320,192,142771,1,0,0:0:0:0:
448,192,142942,1,0,0:0:0:0:
192,192,142942,1,0,0:0:0:0:
64,192,142942,1,0,0:0:0:0:
192,192,143113,1,0,0:0:0:0:
320,192,143284,1,0,0:0:0:0:
448,192,143284,1,0,0:0:0:0:
64,192,143455,1,0,0:0:0:0:
192,192,143625,1,0,0:0:0:0:
448,192,143625,1,0,0:0:0:0:
320,192,143797,1,0,0:0:0:0:
64,192,143968,1,0,0:0:0:0:
192,192,144138,1,0,0:0:0:0:
64,192,144309,1,0,0:0:0:0:
448,192,144309,1,0,0:0:0:0:
320,192,144309,1,0,0:0:0:0:
320,192,144480,1,0,0:0:0:0:
64,192,144652,1,0,0:0:0:0:
448,192,144822,1,0,0:0:0:0:
192,192,144993,1,0,0:0:0:0:
64,192,144993,1,0,0:0:0:0:
320,192,145164,1,0,0:0:0:0:
64,192,145335,1,0,0:0:0:0:
448,192,145506,1,0,0:0:0:0:
64,192,145677,1,0,0:0:0:0:
192,192,145677,1,0,0:0:0:0:
320,192,145677,1,0,0:0:0:0:
192,192,145848,1,0,0:0:0:0:
448,192,146018,1,0,0:0:0:0:
320,192,146190,1,0,0:0:0:0:
64,192,146361,1,0,0:0:0:0:
192,192,146361,1,0,0:0:0:0:
448,192,146361,1,0,0:0:0:0:
448,192,146617,1,0,0:0:0:0:
320,192,146617,1,0,0:0:0:0:
64,192,146617,1,0,0:0:0:0:
64,192,146874,1,0,0:0:0:0:
192,192,146874,1,0,0:0:0:0:
320,192,146874,1,0,0:0:0:0:
448,192,147045,1,0,0:0:0:0:
320,192,147045,1,0,0:0:0:0:
192,192,147045,1,0,0:0:0:0:
64,192,147215,1,0,0:0:0:0:
320,192,147386,1,0,0:0:0:0:
448,192,147386,1,0,0:0:0:0:
192,192,147557,1,0,0:0:0:0:
64,192,147728,1,0,0:0:0:0:
448,192,147728,1,0,0:0:0:0:
320,192,147728,1,0,0:0:0:0:
448,192,148241,1,0,0:0:0:0:
320,192,148241,1,0,0:0:0:0:
64,192,148412,1,0,0:0:0:0:
192,192,148412,1,0,0:0:0:0:
320,192,148412,1,0,0:0:0:0:
192,192,148583,1,0,0:0:0:0:
448,192,148754,1,0,0:0:0:0:
320,192,148754,1,0,0:0:0:0:
64,192,148925,1,0,0:0:0:0:
192,192,149095,1,0,0:0:0:0:
448,192,149095,1,0,0:0:0:0:
320,192,149267,1,0,0:0:0:0:
64,192,149438,1,0,0:0:0:0:
192,192,149608,1,0,0:0:0:0:
448,192,149779,1,0,0:0:0:0:
320,192,149779,1,0,0:0:0:0:
64,192,149779,1,0,0:0:0:0:
320,192,149951,1,0,0:0:0:0:
64,192,150122,1,0,0:0:0:0:
448,192,150292,1,0,0:0:0:0:
320,192,150463,1,0,0:0:0:0:
192,192,150463,1,0,0:0:0:0:
64,192,150634,1,0,0:0:0:0:
448,192,150805,1,0,0:0:0:0:
192,192,150976,1,0,0:0:0:0:
320,192,151147,1,0,0:0:0:0:
64,192,151147,1,0,0:0:0:0:
448,192,151147,1,0,0:0:0:0:
320,192,151318,1,0,0:0:0:0:
64,192,151489,1,0,0:0:0:0:
192,192,151660,1,0,0:0:0:0:
64,192,151831,1,0,0:0:0:0:
320,192,151831,1,0,0:0:0:0:
448,192,151831,1,0,0:0:0:0:
448,192,152087,1,0,0:0:0:0:
192,192,152087,1,0,0:0:0:0:
64,192,152087,1,0,0:0:0:0:
192,192,152344,1,0,0:0:0:0:
320,192,152344,1,0,0:0:0:0:
448,192,152344,1,0,0:0:0:0:
64,192,152515,1,0,0:0:0:0:
192,192,152515,1,0,0:0:0:0:
320,192,152515,1,0,0:0:0:0:
448,192,152685,1,0,0:0:0:0:
192,192,152856,1,0,0:0:0:0:
64,192,152856,1,0,0:0:0:0:
320,192,153028,1,0,0:0:0:0:
448,192,153198,1,0,0:0:0:0:
192,192,153198,1,0,0:0:0:0:
64,192,153369,1,0,0:0:0:0:
320,192,153540,1,0,0:0:0:0:
192,192,153711,1,0,0:0:0:0:
64,192,153882,1,0,0:0:0:0:
192,192,153882,1,0,0:0:0:0:
320,192,153882,1,0,0:0:0:0:
320,192,154053,1,0,0:0:0:0:
64,192,154224,1,0,0:0:0:0:
192,192,154224,1,0,0:0:0:0:
448,192,154395,1,0,0:0:0:0:
448,192,154566,1,0,0:0:0:0:
320,192,154566,1,0,0:0:0:0:
192,192,154566,1,0,0:0:0:0:
192,192,154737,1,0,0:0:0:0:
320,192,154908,1,0,0:0:0:0:
64,192,155078,1,0,0:0:0:0:
192,192,155249,1,0,0:0:0:0:
320,192,155249,1,0,0:0:0:0:
448,192,155249,1,0,0:0:0:0:
320,192,155421,1,0,0:0:0:0:
64,192,155592,1,0,0:0:0:0:
192,192,155762,1,0,0:0:0:0:
320,192,155933,1,0,0:0:0:0:
448,192,155933,1,0,0:0:0:0:
64,192,155933,1,0,0:0:0:0:
192,192,156105,1,0,0:0:0:0:
448,192,156275,1,0,0:0:0:0:
320,192,156446,1,0,0:0:0:0:
448,192,156617,1,0,0:0:0:0:
192,192,156617,1,0,0:0:0:0:
64,192,156617,1,0,0:0:0:0:
192,192,156788,1,0,0:0:0:0:
64,192,156959,1,0,0:0:0:0:
448,192,157130,1,0,0:0:0:0:
320,192,157301,1,0,0:0:0:0:
192,192,157301,1,0,0:0:0:0:
64,192,157301,1,0,0:0:0:0:
192,192,157557,1,0,0:0:0:0:
320,192,157557,1,0,0:0:0:0:
448,192,157557,1,0,0:0:0:0:
64,192,157814,1,0,0:0:0:0:
192,192,157814,1,0,0:0:0:0:
448,192,157814,1,0,0:0:0:0:
448,192,157985,1,0,0:0:0:0:
320,192,157985,1,0,0:0:0:0:
64,192,157985,1,0,0:0:0:0:
192,192,158155,1,0,0:0:0:0:
448,192,158326,1,0,0:0:0:0:
320,192,158326,1,0,0:0:0:0:
192,192,158498,1,0,0:0:0:0:
192,192,158668,1,0,0:0:0:0:
320,192,158668,1,0,0:0:0:0:
448,192,158668,1,0,0:0:0:0:
64,192,158668,1,0,0:0:0:0:
320,192,158839,1,0,0:0:0:0:
64,192,159010,1,0,0:0:0:0:
192,192,159182,1,0,0:0:0:0:
320,192,159352,1,0,0:0:0:0:
448,192,159352,1,0,0:0:0:0:
64,192,159352,1,0,0:0:0:0:
64,192,159608,1,0,0:0:0:0:
192,192,159608,1,0,0:0:0:0:
448,192,159608,1,0,0:0:0:0:
192,192,159865,1,0,0:0:0:0:
320,192,159865,1,0,0:0:0:0:
448,192,159865,1,0,0:0:0:0:
64,192,160036,1,0,0:0:0:0:
192,192,160036,1,0,0:0:0:0:
320,192,160036,1,0,0:0:0:0:
320,192,160378,1,0,0:0:0:0:
448,192,160378,1,0,0:0:0:0:
64,192,160548,1,0,0:0:0:0:
192,192,160720,1,0,0:0:0:0:
320,192,160720,1,0,0:0:0:0:
448,192,160720,1,0,0:0:0:0:
320,192,160891,1,0,0:0:0:0:
64,192,161062,1,0,0:0:0:0:
448,192,161062,1,0,0:0:0:0:
192,192,161232,1,0,0:0:0:0:
320,192,161403,1,0,0:0:0:0:
448,192,161403,1,0,0:0:0:0:
64,192,161403,1,0,0:0:0:0:
192,192,161575,1,0,0:0:0:0:
448,192,161745,1,0,0:0:0:0:
64,192,161916,1,0,0:0:0:0:
320,192,162087,1,0,0:0:0:0:
192,192,162087,1,0,0:0:0:0:
448,192,162087,1,0,0:0:0:0:
192,192,162258,1,0,0:0:0:0:
320,192,162429,1,0,0:0:0:0:
64,192,162600,1,0,0:0:0:0:
448,192,162771,1,0,0:0:0:0:
320,192,162771,1,0,0:0:0:0:
192,192,162771,1,0,0:0:0:0:
64,192,163028,1,0,0:0:0:0:
192,192,163028,1,0,0:0:0:0:
320,192,163028,1,0,0:0:0:0:
448,192,163284,1,0,0:0:0:0:
320,192,163284,1,0,0:0:0:0:
64,192,163284,1,0,0:0:0:0:
64,192,163455,1,0,0:0:0:0:
192,192,163455,1,0,0:0:0:0:
448,192,163455,1,0,0:0:0:0:
320,192,163625,1,0,0:0:0:0:
64,192,163797,1,0,0:0:0:0:
192,192,163797,1,0,0:0:0:0:
320,192,163968,1,0,0:0:0:0:
448,192,164138,1,0,0:0:0:0:
192,192,164138,1,0,0:0:0:0:
64,192,164309,1,0,0:0:0:0:
320,192,164480,1,0,0:0:0:0:
192,192,164652,1,0,0:0:0:0:
64,192,164822,1,0,0:0:0:0:
320,192,164822,1,0,0:0:0:0:
448,192,164822,1,0,0:0:0:0:
320,192,164993,1,0,0:0:0:0:
64,192,165164,1,0,0:0:0:0:
192,192,165164,1,0,0:0:0:0:
448,192,165335,1,0,0:0:0:0:
320,192,165506,1,0,0:0:0:0:
64,192,165506,1,0,0:0:0:0:
192,192,165677,1,0,0:0:0:0:
448,192,165848,1,0,0:0:0:0:
320,192,166018,1,0,0:0:0:0:
192,192,166190,1,0,0:0:0:0:
64,192,166190,1,0,0:0:0:0:
448,192,166190,1,0,0:0:0:0:
320,192,166361,1,0,0:0:0:0:
64,192,166532,1,0,0:0:0:0:
192,192,166702,1,0,0:0:0:0:
320,192,166874,1,0,0:0:0:0:
448,192,166874,1,0,0:0:0:0:
192,192,167045,1,0,0:0:0:0:
64,192,167215,1,0,0:0:0:0:
448,192,167386,1,0,0:0:0:0:
320,192,167557,1,0,0:0:0:0:
192,192,167557,1,0,0:0:0:0:
64,192,167557,1,0,0:0:0:0:
192,192,167728,1,0,0:0:0:0:
320,192,167899,1,0,0:0:0:0:
64,192,168070,1,0,0:0:0:0:
192,192,168241,1,0,0:0:0:0:
448,192,168241,1,0,0:0:0:0:
320,192,168241,1,0,0:0:0:0:
64,192,168498,1,0,0:0:0:0:
192,192,168498,1,0,0:0:0:0:
320,192,168498,1,0,0:0:0:0:
448,192,168754,1,0,0:0:0:0:
320,192,168754,1,0,0:0:0:0:
64,192,168754,1,0,0:0:0:0:
64,192,168925,1,0,0:0:0:0:
192,192,168925,1,0,0:0:0:0:
448,192,168925,1,0,0:0:0:0:
320,192,169095,1,0,0:0:0:0:
448,192,169267,1,0,0:0:0:0:
64,192,169267,1,0,0:0:0:0:
192,192,169438,1,0,0:0:0:0:
320,192,169608,1,0,0:0:0:0:
448,192,169608,1,0,0:0:0:0:
64,192,169779,1,0,0:0:0:0:
320,192,169951,1,0,0:0:0:0:
192,192,170122,1,0,0:0:0:0:
448,192,170292,1,0,0:0:0:0:
320,192,170292,1,0,0:0:0:0:
64,192,170292,1,0,0:0:0:0:
320,192,170463,1,0,0:0:0:0:
64,192,170634,1,0,0:0:0:0:
192,192,170634,1,0,0:0:0:0:
192,192,170805,1,0,0:0:0:0:
320,192,170976,1,0,0:0:0:0:
448,192,170976,1,0,0:0:0:0:
192,192,171147,1,0,0:0:0:0:
320,192,171318,1,0,0:0:0:0:
64,192,171489,1,0,0:0:0:0:
192,192,171660,1,0,0:0:0:0:
320,192,171660,1,0,0:0:0:0:
448,192,171660,1,0,0:0:0:0:
320,192,171831,1,0,0:0:0:0:
64,192,172002,1,0,0:0:0:0:
192,192,172172,1,0,0:0:0:0:
320,192,172344,1,0,0:0:0:0:
448,192,172344,1,0,0:0:0:0:
64,192,172515,1,0,0:0:0:0:
320,192,172685,1,0,0:0:0:0:
192,192,172856,1,0,0:0:0:0:
64,192,173028,1,0,0:0:0:0:
320,192,173028,1,0,0:0:0:0:
448,192,173028,1,0,0:0:0:0:
320,192,173198,1,0,0:0:0:0:
64,192,173369,1,0,0:0:0:0:
448,192,173540,1,0,0:0:0:0:
320,192,173711,1,0,0:0:0:0:
192,192,173711,1,0,0:0:0:0:
64,192,173711,1,0,0:0:0:0:
192,192,173968,1,0,0:0:0:0:
320,192,173968,1,0,0:0:0:0:
64,192,173968,1,0,0:0:0:0:
64,192,174224,1,0,0:0:0:0:
192,192,174224,1,0,0:0:0:0:
448,192,174224,1,0,0:0:0:0:
448,192,174395,1,0,0:0:0:0:
320,192,174395,1,0,0:0:0:0:
64,192,174395,1,0,0:0:0:0:
192,192,174566,1,0,0:0:0:0:
320,192,174737,1,0,0:0:0:0:
64,192,174737,1,0,0:0:0:0:
448,192,174908,1,0,0:0:0:0:
320,192,175078,1,0,0:0:0:0:
192,192,175078,1,0,0:0:0:0:
192,192,175249,1,0,0:0:0:0:
64,192,175421,1,0,0:0:0:0:
320,192,175592,1,0,0:0:0:0:
64,192,175762,1,0,0:0:0:0:
192,192,175762,1,0,0:0:0:0:
448,192,175762,1,0,0:0:0:0:
192,192,175933,1,0,0:0:0:0:
448,192,176105,1,0,0:0:0:0:
320,192,176105,1,0,0:0:0:0:
64,192,176275,1,0,0:0:0:0:
192,192,176446,1,0,0:0:0:0:
320,192,176446,1,0,0:0:0:0:
448,192,176446,1,0,0:0:0:0:
64,192,176702,1,0,0:0:0:0:
192,192,176702,1,0,0:0:0:0:
320,192,176702,1,0,0:0:0:0:
448,192,176959,1,0,0:0:0:0:
320,192,176959,1,0,0:0:0:0:
64,192,176959,1,0,0:0:0:0:
64,192,177130,1,0,0:0:0:0:
192,192,177130,1,0,0:0:0:0:
448,192,177130,1,0,0:0:0:0:
320,192,177301,1,0,0:0:0:0:
64,192,177472,1,0,0:0:0:0:
192,192,177643,1,0,0:0:0:0:
448,192,177814,1,0,0:0:0:0:
320,192,177814,1,0,0:0:0:0:
320,192,177985,1,0,0:0:0:0:
64,192,178155,1,0,0:0:0:0:
448,192,178326,1,0,0:0:0:0:
320,192,178498,1,0,0:0:0:0:
192,192,178498,1,0,0:0:0:0:
64,192,178498,1,0,0:0:0:0:
192,192,178668,1,0,0:0:0:0:
448,192,178839,1,0,0:0:0:0:
192,192,179010,1,0,0:0:0:0:
64,192,179182,1,0,0:0:0:0:
320,192,179182,1,0,0:0:0:0:
448,192,179182,1,0,0:0:0:0:
64,192,179438,1,0,0:0:0:0:
448,192,179438,1,0,0:0:0:0:
192,192,179438,1,0,0:0:0:0:
192,192,179694,1,0,0:0:0:0:
320,192,179694,1,0,0:0:0:0:
448,192,179694,1,0,0:0:0:0:
320,192,179865,1,0,0:0:0:0:
192,192,179865,1,0,0:0:0:0:
64,192,179865,1,0,0:0:0:0:
448,192,180036,1,0,0:0:0:0:
64,192,180207,1,0,0:0:0:0:
192,192,180207,1,0,0:0:0:0:
320,192,180378,1,0,0:0:0:0:
320,192,180548,1,0,0:0:0:0:
448,192,180548,1,0,0:0:0:0:
64,192,180548,1,0,0:0:0:0:
192,192,181232,1,0,0:0:0:0:
320,192,181232,1,0,0:0:0:0:
448,192,181232,1,0,0:0:0:0:
64,192,181916,1,0,0:0:0:0:
192,192,181916,1,0,0:0:0:0:
448,192,181916,1,0,0:0:0:0:
64,192,182600,1,0,0:0:0:0:
192,192,182600,1,0,0:0:0:0:
320,192,182600,1,0,0:0:0:0:
320,192,183284,1,0,0:0:0:0:
448,192,183284,1,0,0:0:0:0:
64,192,183284,1,0,0:0:0:0:
192,192,183968,1,0,0:0:0:0:
320,192,183968,1,0,0:0:0:0:
448,192,183968,1,0,0:0:0:0:
64,192,184652,1,0,0:0:0:0:
192,192,184652,1,0,0:0:0:0:
448,192,184652,1,0,0:0:0:0:
64,192,185335,1,0,0:0:0:0:
192,192,185335,1,0,0:0:0:0:
320,192,185335,1,0,0:0:0:0:
64,192,186018,1,0,0:0:0:0:
448,192,186018,1,0,0:0:0:0:
320,192,186018,1,0,0:0:0:0:
448,192,186702,1,0,0:0:0:0:
320,192,186702,1,0,0:0:0:0:
192,192,186702,1,0,0:0:0:0:
448,192,187386,1,0,0:0:0:0:
192,192,187386,1,0,0:0:0:0:
64,192,187386,1,0,0:0:0:0:
320,192,188070,1,0,0:0:0:0:
192,192,188070,1,0,0:0:0:0:
64,192,188070,1,0,0:0:0:0:
320,192,188754,1,0,0:0:0:0:
448,192,188754,1,0,0:0:0:0:
64,192,188754,1,0,0:0:0:0:
192,192,189438,1,0,0:0:0:0:
320,192,189438,1,0,0:0:0:0:
448,192,189438,1,0,0:0:0:0:
64,192,190122,1,0,0:0:0:0:
192,192,190122,1,0,0:0:0:0:
448,192,190122,1,0,0:0:0:0:
64,192,190805,1,0,0:0:0:0:
192,192,190805,1,0,0:0:0:0:
320,192,190805,1,0,0:0:0:0:
64,192,191489,1,0,0:0:0:0:
320,192,191489,1,0,0:0:0:0:
448,192,191489,1,0,0:0:0:0:
192,192,191831,1,0,0:0:0:0:
320,192,191831,1,0,0:0:0:0:
448,192,191831,1,0,0:0:0:0:
64,192,192172,1,0,0:0:0:0:
192,192,192172,1,0,0:0:0:0:
448,192,192172,1,0,0:0:0:0:
64,192,192515,1,0,0:0:0:0:
192,192,192515,1,0,0:0:0:0:
320,192,192515,1,0,0:0:0:0:
64,192,192856,1,0,0:0:0:0:
320,192,192856,1,0,0:0:0:0:
448,192,192856,1,0,0:0:0:0:
192,192,193198,1,0,0:0:0:0:
320,192,193198,1,0,0:0:0:0:
448,192,193198,1,0,0:0:0:0:
64,192,193540,1,0,0:0:0:0:
192,192,193540,1,0,0:0:0:0:
448,192,193540,1,0,0:0:0:0:
64,192,193882,1,0,0:0:0:0:
192,192,193882,1,0,0:0:0:0:
320,192,193882,1,0,0:0:0:0:
448,192,194224,1,0,0:0:0:0:
320,192,194224,1,0,0:0:0:0:
64,192,194224,1,0,0:0:0:0:
448,192,194566,1,0,0:0:0:0:
320,192,194566,1,0,0:0:0:0:
192,192,194566,1,0,0:0:0:0:
448,192,194908,1,0,0:0:0:0:
192,192,194908,1,0,0:0:0:0:
64,192,194908,1,0,0:0:0:0:
320,192,195249,1,0,0:0:0:0:
192,192,195249,1,0,0:0:0:0:
64,192,195249,1,0,0:0:0:0:
64,192,195592,1,0,0:0:0:0:
320,192,195592,1,0,0:0:0:0:
448,192,195592,1,0,0:0:0:0:
192,192,195933,1,0,0:0:0:0:
320,192,195933,1,0,0:0:0:0:
448,192,195933,1,0,0:0:0:0:
64,192,196275,1,0,0:0:0:0:
192,192,196275,1,0,0:0:0:0:
448,192,196275,1,0,0:0:0:0:
64,192,196617,1,0,0:0:0:0:
192,192,196617,1,0,0:0:0:0:
320,192,196617,1,0,0:0:0:0:
64,192,196959,1,0,0:0:0:0:
320,192,196959,1,0,0:0:0:0:
448,192,196959,1,0,0:0:0:0:
64,192,197130,1,0,0:0:0:0:
192,192,197130,1,0,0:0:0:0:
448,192,197130,1,0,0:0:0:0:
448,192,197301,1,0,0:0:0:0:
320,192,197301,1,0,0:0:0:0:
64,192,197301,1,0,0:0:0:0:
64,192,197472,1,0,0:0:0:0:
192,192,197472,1,0,0:0:0:0:
448,192,197472,1,0,0:0:0:0:
448,192,197643,1,0,0:0:0:0:
320,192,197643,1,0,0:0:0:0:
192,192,197643,1,0,0:0:0:0:
64,192,197814,1,0,0:0:0:0:
192,192,197814,1,0,0:0:0:0:
320,192,197814,1,0,0:0:0:0:
448,192,197985,1,0,0:0:0:0:
320,192,197985,1,0,0:0:0:0:
192,192,197985,1,0,0:0:0:0:
64,192,198155,1,0,0:0:0:0:
192,192,198155,1,0,0:0:0:0:
320,192,198155,1,0,0:0:0:0:
64,192,198326,1,0,0:0:0:0:
320,192,198326,1,0,0:0:0:0:
448,192,198326,1,0,0:0:0:0:
64,192,198498,1,0,0:0:0:0:
192,192,198498,1,0,0:0:0:0:
448,192,198498,1,0,0:0:0:0:
448,192,198668,1,0,0:0:0:0:
320,192,198668,1,0,0:0:0:0:
64,192,198668,1,0,0:0:0:0:
64,192,198839,1,0,0:0:0:0:
192,192,198839,1,0,0:0:0:0:
448,192,198839,1,0,0:0:0:0:
448,192,199010,1,0,0:0:0:0:
320,192,199010,1,0,0:0:0:0:
192,192,199010,1,0,0:0:0:0:
64,192,199182,1,0,0:0:0:0:
192,192,199182,1,0,0:0:0:0:
320,192,199182,1,0,0:0:0:0:
448,192,199352,1,0,0:0:0:0:
320,192,199352,1,0,0:0:0:0:
192,192,199352,1,0,0:0:0:0:
64,192,199523,1,0,0:0:0:0:
192,192,199523,1,0,0:0:0:0:
320,192,199523,1,0,0:0:0:0:
64,192,199694,1,0,0:0:0:0:
192,192,199694,1,0,0:0:0:0:
320,192,199694,1,0,0:0:0:0:
448,192,199694,1,0,0:0:0:0:
320,192,202429,1,0,0:0:0:0:
448,192,202429,1,0,0:0:0:0:
64,192,202771,1,0,0:0:0:0:
320,192,202771,1,0,0:0:0:0:
64,192,203113,1,0,0:0:0:0:
192,192,203113,1,0,0:0:0:0:
448,192,203455,1,0,0:0:0:0:
192,192,203455,1,0,0:0:0:0:
64,192,203797,1,0,0:0:0:0:
320,192,203797,1,0,0:0:0:0:
192,192,204138,1,0,0:0:0:0:
320,192,204138,1,0,0:0:0:0:
192,192,204480,1,0,0:0:0:0:
448,192,204480,1,0,0:0:0:0:
64,192,204822,1,0,0:0:0:0:
192,192,204822,1,0,0:0:0:0:
448,192,205164,1,0,0:0:0:0:
320,192,205164,1,0,0:0:0:0:
192,192,205335,1,0,0:0:0:0:
320,192,205335,1,0,0:0:0:0:
64,192,205506,1,0,0:0:0:0:
448,192,205506,1,0,0:0:0:0:
192,192,205677,1,0,0:0:0:0:
64,192,205677,1,0,0:0:0:0:
192,192,205848,1,0,0:0:0:0:
448,192,205848,1,0,0:0:0:0:
64,192,206018,1,0,0:0:0:0:
320,192,206018,1,0,0:0:0:0:
448,192,206190,1,0,0:0:0:0:
320,192,206190,1,0,0:0:0:0:
64,192,206275,1,0,0:0:0:0:
192,192,206275,1,0,0:0:0:0:
320,192,206361,1,0,0:0:0:0:
448,192,206361,1,0,0:0:0:0:
64,192,206446,1,0,0:0:0:0:
192,192,206446,1,0,0:0:0:0:
320,192,206532,128,0,207386:0:0:0:0:
448,192,206532,128,0,207386:0:0:0:0:
64,192,206532,128,0,207386:0:0:0:0:
64,192,207557,1,0,0:0:0:0:
192,192,207557,1,0,0:0:0:0:
320,192,207557,1,0,0:0:0:0:
448,192,207557,1,0,0:0:0:0:
64,192,207899,1,0,0:0:0:0:
192,192,207899,1,0,0:0:0:0:
448,192,207899,1,0,0:0:0:0:
192,192,208241,1,0,0:0:0:0:
320,192,208241,1,0,0:0:0:0:
448,192,208241,1,0,0:0:0:0:
192,192,208583,1,0,0:0:0:0:
64,192,208583,1,0,0:0:0:0:
448,192,208583,1,0,0:0:0:0:
320,192,208697,1,0,0:0:0:0:
448,192,208697,1,0,0:0:0:0:
64,192,208811,1,0,0:0:0:0:
320,192,208811,1,0,0:0:0:0:
64,192,208925,1,0,0:0:0:0:
192,192,208925,1,0,0:0:0:0:
448,192,209038,1,0,0:0:0:0:
320,192,209038,1,0,0:0:0:0:
192,192,209153,1,0,0:0:0:0:
192,192,209267,1,0,0:0:0:0:
320,192,209267,1,0,0:0:0:0:
448,192,209267,1,0,0:0:0:0:
64,192,209381,1,0,0:0:0:0:
448,192,209381,1,0,0:0:0:0:
320,192,209495,1,0,0:0:0:0:
192,192,209495,1,0,0:0:0:0:
64,192,209608,1,0,0:0:0:0:
192,192,209608,1,0,0:0:0:0:
448,192,209722,1,0,0:0:0:0:
320,192,209722,1,0,0:0:0:0:
192,192,209836,1,0,0:0:0:0:
448,192,209951,1,0,0:0:0:0:
192,192,209951,1,0,0:0:0:0:
320,192,209951,1,0,0:0:0:0:
64,192,209951,1,0,0:0:0:0:
448,192,210065,1,0,0:0:0:0:
192,192,210065,1,0,0:0:0:0:
320,192,210178,1,0,0:0:0:0:
64,192,210178,1,0,0:0:0:0:
320,192,210292,1,0,0:0:0:0:
448,192,210292,1,0,0:0:0:0:
64,192,210406,1,0,0:0:0:0:
192,192,210406,1,0,0:0:0:0:
192,192,210520,1,0,0:0:0:0:
320,192,210520,1,0,0:0:0:0:
448,192,210634,128,0,211204:0:0:0:0:
320,192,210634,128,0,211204:0:0:0:0:
192,192,210634,128,0,211204:0:0:0:0:
64,192,210634,128,0,211204:0:0:0:0:
64,192,211318,1,0,0:0:0:0:
192,192,211318,1,0,0:0:0:0:
320,192,211318,1,0,0:0:0:0:
448,192,211318,1,0,0:0:0:0:
320,192,211432,1,0,0:0:0:0:
448,192,211432,1,0,0:0:0:0:
64,192,211546,1,0,0:0:0:0:
192,192,211546,1,0,0:0:0:0:
448,192,211660,1,0,0:0:0:0:
192,192,211660,1,0,0:0:0:0:
64,192,211774,1,0,0:0:0:0:
320,192,211774,1,0,0:0:0:0:
448,192,211888,1,0,0:0:0:0:
192,192,212002,1,0,0:0:0:0:
320,192,212002,1,0,0:0:0:0:
448,192,212002,1,0,0:0:0:0:
64,192,212115,1,0,0:0:0:0:
192,192,212115,1,0,0:0:0:0:
448,192,212230,1,0,0:0:0:0:
320,192,212230,1,0,0:0:0:0:
64,192,212344,1,0,0:0:0:0:
320,192,212344,1,0,0:0:0:0:
64,192,212458,1,0,0:0:0:0:
192,192,212458,1,0,0:0:0:0:
448,192,212572,1,0,0:0:0:0:
64,192,212685,1,0,0:0:0:0:
448,192,212685,1,0,0:0:0:0:
320,192,212685,1,0,0:0:0:0:
192,192,212685,1,0,0:0:0:0:
64,192,212799,1,0,0:0:0:0:
320,192,212799,1,0,0:0:0:0:
448,192,212913,1,0,0:0:0:0:
192,192,212913,1,0,0:0:0:0:
64,192,213028,1,0,0:0:0:0:
448,192,213028,1,0,0:0:0:0:
320,192,213142,1,0,0:0:0:0:
192,192,213142,1,0,0:0:0:0:
64,192,213255,1,0,0:0:0:0:
192,192,213255,1,0,0:0:0:0:
64,192,213369,128,0,213625:0:0:0:0:
320,192,213369,128,0,213625:0:0:0:0:
448,192,213369,128,0,213625:0:0:0:0:
448,192,213711,1,0,0:0:0:0:
320,192,213711,1,0,0:0:0:0:
64,192,213711,1,0,0:0:0:0:
64,192,213882,1,0,0:0:0:0:
320,192,213882,1,0,0:0:0:0:
448,192,213882,1,0,0:0:0:0:
192,192,214053,1,0,0:0:0:0:
320,192,214053,1,0,0:0:0:0:
64,192,214053,1,0,0:0:0:0:
448,192,214053,1,0,0:0:0:0:
448,192,214167,1,0,0:0:0:0:
320,192,214167,1,0,0:0:0:0:
64,192,214281,1,0,0:0:0:0:
192,192,214281,1,0,0:0:0:0:
448,192,214395,1,0,0:0:0:0:
192,192,214395,1,0,0:0:0:0:
64,192,214509,1,0,0:0:0:0:
320,192,214509,1,0,0:0:0:0:
448,192,214623,1,0,0:0:0:0:
320,192,214623,1,0,0:0:0:0:
64,192,214737,128,0,214993:0:0:0:0:
192,192,214737,128,0,214993:0:0:0:0:
448,192,214737,128,0,214993:0:0:0:0:
448,192,215078,1,0,0:0:0:0:
192,192,215078,1,0,0:0:0:0:
64,192,215078,1,0,0:0:0:0:
64,192,215249,1,0,0:0:0:0:
192,192,215249,1,0,0:0:0:0:
448,192,215249,1,0,0:0:0:0:
64,192,215421,1,0,0:0:0:0:
192,192,215421,1,0,0:0:0:0:
448,192,215421,1,0,0:0:0:0:
320,192,215421,1,0,0:0:0:0:
320,192,215535,1,0,0:0:0:0:
448,192,215535,1,0,0:0:0:0:
64,192,215648,1,0,0:0:0:0:
192,192,215648,1,0,0:0:0:0:
320,192,215762,1,0,0:0:0:0:
448,192,215762,1,0,0:0:0:0:
64,192,215876,1,0,0:0:0:0:
320,192,215876,1,0,0:0:0:0:
192,192,215990,1,0,0:0:0:0:
448,192,216105,128,0,216332:0:0:0:0:
320,192,216105,128,0,216332:0:0:0:0:
64,192,216105,128,0,216332:0:0:0:0:
64,192,216446,1,0,0:0:0:0:
192,192,216446,1,0,0:0:0:0:
192,192,216560,1,0,0:0:0:0:
64,192,216560,1,0,0:0:0:0:
64,192,216674,1,0,0:0:0:0:
192,192,216674,1,0,0:0:0:0:
64,192,216788,128,0,217016:0:0:0:0:
192,192,216788,128,0,217016:0:0:0:0:
320,192,216788,1,0,0:0:0:0:
448,192,216788,128,0,217016:0:0:0:0:
320,192,217130,1,0,0:0:0:0:
448,192,217130,1,0,0:0:0:0:
320,192,217244,1,0,0:0:0:0:
448,192,217244,1,0,0:0:0:0:
448,192,217358,1,0,0:0:0:0:
320,192,217358,1,0,0:0:0:0:
192,192,217472,128,0,217700:0:0:0:0:
320,192,217472,128,0,217700:0:0:0:0:
448,192,217472,128,0,217700:0:0:0:0:
64,192,217814,1,0,0:0:0:0:
192,192,217814,1,0,0:0:0:0:
192,192,217928,1,0,0:0:0:0:
64,192,217928,1,0,0:0:0:0:
64,192,218042,1,0,0:0:0:0:
192,192,218042,1,0,0:0:0:0:
192,192,218155,1,0,0:0:0:0:
64,192,218155,128,0,218384:0:0:0:0:
320,192,218155,128,0,218384:0:0:0:0:
448,192,218155,128,0,218384:0:0:0:0:
448,192,218498,1,0,0:0:0:0:
64,192,218498,1,0,0:0:0:0:
64,192,218612,1,0,0:0:0:0:
448,192,218612,1,0,0:0:0:0:
448,192,218725,1,0,0:0:0:0:
64,192,218725,1,0,0:0:0:0:
64,192,218839,1,0,0:0:0:0:
192,192,218839,1,0,0:0:0:0:
448,192,218839,1,0,0:0:0:0:
448,192,219182,1,0,0:0:0:0:
320,192,219182,1,0,0:0:0:0:
64,192,219182,1,0,0:0:0:0:
64,192,219523,1,0,0:0:0:0:
192,192,219523,1,0,0:0:0:0:
320,192,219523,1,0,0:0:0:0:
448,192,219523,1,0,0:0:0:0:
64,192,219637,1,0,0:0:0:0:
192,192,219637,1,0,0:0:0:0:
448,192,219751,1,0,0:0:0:0:
192,192,219751,1,0,0:0:0:0:
64,192,219865,1,0,0:0:0:0:
320,192,219865,1,0,0:0:0:0:
448,192,219979,1,0,0:0:0:0:
320,192,219979,1,0,0:0:0:0:
192,192,220093,1,0,0:0:0:0:
64,192,220207,1,0,0:0:0:0:
320,192,220207,1,0,0:0:0:0:
448,192,220207,1,0,0:0:0:0:
64,192,220321,1,0,0:0:0:0:
448,192,220321,1,0,0:0:0:0:
320,192,220435,1,0,0:0:0:0:
192,192,220435,1,0,0:0:0:0:
64,192,220548,1,0,0:0:0:0:
192,192,220548,1,0,0:0:0:0:
448,192,220663,1,0,0:0:0:0:
320,192,220663,1,0,0:0:0:0:
192,192,220777,1,0,0:0:0:0:
64,192,220891,1,0,0:0:0:0:
192,192,220891,1,0,0:0:0:0:
320,192,220891,1,0,0:0:0:0:
448,192,220891,1,0,0:0:0:0:
64,192,221005,1,0,0:0:0:0:
320,192,221005,1,0,0:0:0:0:
448,192,221118,1,0,0:0:0:0:
192,192,221118,1,0,0:0:0:0:
64,192,221232,1,0,0:0:0:0:
192,192,221232,1,0,0:0:0:0:
448,192,221346,1,0,0:0:0:0:
320,192,221346,1,0,0:0:0:0:
64,192,221461,1,0,0:0:0:0:
320,192,221461,1,0,0:0:0:0:
448,192,221575,128,0,222144:0:0:0:0:
320,192,221575,128,0,222144:0:0:0:0:
192,192,221575,128,0,222144:0:0:0:0:
64,192,221575,128,0,222144:0:0:0:0:
64,192,222258,1,0,0:0:0:0:
192,192,222258,1,0,0:0:0:0:
448,192,222258,1,0,0:0:0:0:
320,192,222258,1,0,0:0:0:0:
192,192,222372,1,0,0:0:0:0:
320,192,222372,1,0,0:0:0:0:
448,192,222486,1,0,0:0:0:0:
64,192,222486,1,0,0:0:0:0:
64,192,222600,1,0,0:0:0:0:
192,192,222600,1,0,0:0:0:0:
448,192,222714,1,0,0:0:0:0:
320,192,222714,1,0,0:0:0:0:
64,192,222828,1,0,0:0:0:0:
192,192,222942,1,0,0:0:0:0:
320,192,222942,1,0,0:0:0:0:
448,192,222942,1,0,0:0:0:0:
448,192,223056,1,0,0:0:0:0:
320,192,223056,1,0,0:0:0:0:
64,192,223170,1,0,0:0:0:0:
192,192,223170,1,0,0:0:0:0:
320,192,223284,1,0,0:0:0:0:
192,192,223284,1,0,0:0:0:0:
448,192,223398,1,0,0:0:0:0:
64,192,223398,1,0,0:0:0:0:
320,192,223512,1,0,0:0:0:0:
64,192,223625,1,0,0:0:0:0:
192,192,223625,1,0,0:0:0:0:
448,192,223625,1,0,0:0:0:0:
320,192,223625,1,0,0:0:0:0:
64,192,223740,1,0,0:0:0:0:
192,192,223740,1,0,0:0:0:0:
448,192,223854,1,0,0:0:0:0:
64,192,223854,1,0,0:0:0:0:
320,192,223968,1,0,0:0:0:0:
448,192,223968,1,0,0:0:0:0:
64,192,224082,1,0,0:0:0:0:
192,192,224082,1,0,0:0:0:0:
192,192,224195,1,0,0:0:0:0:
448,192,224195,1,0,0:0:0:0:
320,192,224309,128,0,224566:0:0:0:0:
192,192,224309,128,0,224566:0:0:0:0:
64,192,224309,128,0,224566:0:0:0:0:
64,192,224652,1,0,0:0:0:0:
192,192,224652,1,0,0:0:0:0:
320,192,224652,1,0,0:0:0:0:
320,192,224822,1,0,0:0:0:0:
192,192,224822,1,0,0:0:0:0:
64,192,224822,1,0,0:0:0:0:
64,192,224993,1,0,0:0:0:0:
192,192,224993,1,0,0:0:0:0:
320,192,224993,1,0,0:0:0:0:
448,192,224993,1,0,0:0:0:0:
448,192,225107,1,0,0:0:0:0:
320,192,225107,1,0,0:0:0:0:
64,192,225221,1,0,0:0:0:0:
192,192,225221,1,0,0:0:0:0:
320,192,225335,1,0,0:0:0:0:
448,192,225335,1,0,0:0:0:0:
64,192,225449,1,0,0:0:0:0:
320,192,225449,1,0,0:0:0:0:
192,192,225563,1,0,0:0:0:0:
448,192,225563,1,0,0:0:0:0:
192,192,225677,128,0,225933:0:0:0:0:
64,192,225677,128,0,225933:0:0:0:0:
448,192,225677,128,0,225933:0:0:0:0:
448,192,226018,1,0,0:0:0:0:
192,192,226018,1,0,0:0:0:0:
64,192,226018,1,0,0:0:0:0:
64,192,226190,1,0,0:0:0:0:
192,192,226190,1,0,0:0:0:0:
448,192,226190,1,0,0:0:0:0:
64,192,226361,1,0,0:0:0:0:
192,192,226361,1,0,0:0:0:0:
320,192,226361,1,0,0:0:0:0:
448,192,226361,1,0,0:0:0:0:
192,192,226475,1,0,0:0:0:0:
320,192,226475,1,0,0:0:0:0:
448,192,226588,1,0,0:0:0:0:
320,192,226588,1,0,0:0:0:0:
64,192,226702,1,0,0:0:0:0:
192,192,226702,1,0,0:0:0:0:
448,192,226817,1,0,0:0:0:0:
192,192,226817,1,0,0:0:0:0:
320,192,226931,1,0,0:0:0:0:
448,192,226931,1,0,0:0:0:0:
64,192,227045,128,0,227272:0:0:0:0:
320,192,227045,128,0,227272:0:0:0:0:
448,192,227045,128,0,227272:0:0:0:0:
64,192,227386,1,0,0:0:0:0:
192,192,227386,1,0,0:0:0:0:
192,192,227500,1,0,0:0:0:0:
64,192,227500,1,0,0:0:0:0:
64,192,227615,1,0,0:0:0:0:
192,192,227615,1,0,0:0:0:0:
192,192,227728,128,0,227956:0:0:0:0:
320,192,227728,128,0,227956:0:0:0:0:
448,192,227728,128,0,227956:0:0:0:0:
64,192,228070,1,0,0:0:0:0:
320,192,228070,1,0,0:0:0:0:
320,192,228184,1,0,0:0:0:0:
64,192,228184,1,0,0:0:0:0:
64,192,228298,1,0,0:0:0:0:
320,192,228298,1,0,0:0:0:0:
192,192,228412,128,0,228640:0:0:0:0:
64,192,228412,128,0,228640:0:0:0:0:
448,192,228412,128,0,228640:0:0:0:0:
320,192,228754,1,0,0:0:0:0:
448,192,228754,1,0,0:0:0:0:
448,192,228868,1,0,0:0:0:0:
320,192,228868,1,0,0:0:0:0:
320,192,228982,1,0,0:0:0:0:
448,192,228982,1,0,0:0:0:0:
320,192,229095,128,0,229324:0:0:0:0:
192,192,229095,128,0,229324:0:0:0:0:
64,192,229095,128,0,229324:0:0:0:0:
64,192,229438,1,0,0:0:0:0:
192,192,229438,1,0,0:0:0:0:
192,192,229552,1,0,0:0:0:0:
64,192,229552,1,0,0:0:0:0:
64,192,229665,1,0,0:0:0:0:
192,192,229665,1,0,0:0:0:0:
64,192,229779,1,0,0:0:0:0:
320,192,229779,1,0,0:0:0:0:
448,192,229779,1,0,0:0:0:0:
64,192,230463,1,0,0:0:0:0:
192,192,230463,1,0,0:0:0:0:
320,192,230463,1,0,0:0:0:0:
448,192,230463,1,0,0:0:0:0:
320,192,230577,1,0,0:0:0:0:
448,192,230577,1,0,0:0:0:0:
64,192,230692,1,0,0:0:0:0:
192,192,230692,1,0,0:0:0:0:
64,192,230805,128,0,231062:0:0:0:0:
320,192,230805,128,0,231062:0:0:0:0:
448,192,230805,128,0,231062:0:0:0:0:
192,192,231147,128,0,231403:0:0:0:0:
320,192,231147,128,0,231403:0:0:0:0:
448,192,231147,128,0,231403:0:0:0:0:
64,192,231489,128,0,231717:0:0:0:0:
192,192,231489,128,0,231717:0:0:0:0:
320,192,231489,128,0,231717:0:0:0:0:
64,192,231831,1,0,0:0:0:0:
192,192,231831,1,0,0:0:0:0:
320,192,231831,1,0,0:0:0:0:
448,192,231831,1,0,0:0:0:0:
448,192,231945,1,0,0:0:0:0:
320,192,231945,1,0,0:0:0:0:
64,192,232058,1,0,0:0:0:0:
192,192,232058,1,0,0:0:0:0:
448,192,232172,1,0,0:0:0:0:
64,192,232172,1,0,0:0:0:0:
192,192,232287,1,0,0:0:0:0:
320,192,232287,1,0,0:0:0:0:
448,192,232401,1,0,0:0:0:0:
320,192,232401,1,0,0:0:0:0:
64,192,232515,1,0,0:0:0:0:
192,192,232515,1,0,0:0:0:0:
448,192,232515,1,0,0:0:0:0:
64,192,233198,1,0,0:0:0:0:
192,192,233198,1,0,0:0:0:0:
320,192,233198,1,0,0:0:0:0:
448,192,233198,1,0,0:0:0:0:
192,192,233312,1,0,0:0:0:0:
320,192,233312,1,0,0:0:0:0:
448,192,233426,1,0,0:0:0:0:
64,192,233426,1,0,0:0:0:0:
192,192,233540,128,0,233797:0:0:0:0:
64,192,233540,128,0,233797:0:0:0:0:
320,192,233540,128,0,233797:0:0:0:0:
448,192,233882,128,0,234138:0:0:0:0:
192,192,233882,128,0,234138:0:0:0:0:
64,192,233882,128,0,234138:0:0:0:0:
64,192,234224,128,0,234480:0:0:0:0:
320,192,234224,128,0,234480:0:0:0:0:
448,192,234224,128,0,234480:0:0:0:0:
64,192,234566,1,0,0:0:0:0:
192,192,234566,1,0,0:0:0:0:
320,192,234566,1,0,0:0:0:0:
448,192,234566,1,0,0:0:0:0:
64,192,234680,1,0,0:0:0:0:
192,192,234680,1,0,0:0:0:0:
448,192,234794,1,0,0:0:0:0:
320,192,234794,1,0,0:0:0:0:
64,192,234908,1,0,0:0:0:0:
320,192,234908,1,0,0:0:0:0:
448,192,235022,1,0,0:0:0:0:
192,192,235022,1,0,0:0:0:0:
64,192,235135,1,0,0:0:0:0:
192,192,235135,1,0,0:0:0:0:
64,192,235249,128,0,235506:0:0:0:0:
320,192,235249,128,0,235506:0:0:0:0:
448,192,235249,128,0,235506:0:0:0:0:
64,192,235592,1,0,0:0:0:0:
320,192,235592,1,0,0:0:0:0:
448,192,235592,1,0,0:0:0:0:
64,192,235762,1,0,0:0:0:0:
320,192,235762,1,0,0:0:0:0:
448,192,235762,1,0,0:0:0:0:
64,192,235933,1,0,0:0:0:0:
192,192,235933,1,0,0:0:0:0:
320,192,235933,1,0,0:0:0:0:
448,192,235933,1,0,0:0:0:0:
64,192,236048,1,0,0:0:0:0:
192,192,236048,1,0,0:0:0:0:
448,192,236162,1,0,0:0:0:0:
192,192,236162,1,0,0:0:0:0:
320,192,236275,1,0,0:0:0:0:
64,192,236275,1,0,0:0:0:0:
448,192,236389,1,0,0:0:0:0:
320,192,236389,1,0,0:0:0:0:
64,192,236503,1,0,0:0:0:0:
448,192,236503,1,0,0:0:0:0:
64,192,236617,128,0,236874:0:0:0:0:
192,192,236617,128,0,236874:0:0:0:0:
320,192,236617,128,0,236874:0:0:0:0:
320,192,236959,1,0,0:0:0:0:
192,192,236959,1,0,0:0:0:0:
64,192,236959,1,0,0:0:0:0:
64,192,237130,1,0,0:0:0:0:
192,192,237130,1,0,0:0:0:0:
320,192,237130,1,0,0:0:0:0:
448,192,237301,1,0,0:0:0:0:
320,192,237301,1,0,0:0:0:0:
192,192,237301,1,0,0:0:0:0:
64,192,237301,1,0,0:0:0:0:
448,192,237415,1,0,0:0:0:0:
320,192,237415,1,0,0:0:0:0:
64,192,237528,1,0,0:0:0:0:
192,192,237528,1,0,0:0:0:0:
448,192,237643,1,0,0:0:0:0:
192,192,237643,1,0,0:0:0:0:
64,192,237757,1,0,0:0:0:0:
320,192,237757,1,0,0:0:0:0:
448,192,237871,1,0,0:0:0:0:
64,192,237871,1,0,0:0:0:0:
192,192,237985,128,0,238212:0:0:0:0:
320,192,237985,128,0,238212:0:0:0:0:
448,192,237985,128,0,238212:0:0:0:0:
320,192,238326,1,0,0:0:0:0:
448,192,238326,1,0,0:0:0:0:
448,192,238441,1,0,0:0:0:0:
320,192,238441,1,0,0:0:0:0:
320,192,238555,1,0,0:0:0:0:
448,192,238555,1,0,0:0:0:0:
64,192,238668,128,0,238896:0:0:0:0:
192,192,238668,128,0,238896:0:0:0:0:
320,192,238668,128,0,238896:0:0:0:0:
448,192,238668,1,0,0:0:0:0:
64,192,239010,1,0,0:0:0:0:
192,192,239010,1,0,0:0:0:0:
192,192,239125,1,0,0:0:0:0:
64,192,239125,1,0,0:0:0:0:
64,192,239238,1,0,0:0:0:0:
192,192,239238,1,0,0:0:0:0:
64,192,239352,128,0,239580:0:0:0:0:
320,192,239352,128,0,239580:0:0:0:0:
448,192,239352,128,0,239580:0:0:0:0:
320,192,239694,1,0,0:0:0:0:
448,192,239694,1,0,0:0:0:0:
448,192,239808,1,0,0:0:0:0:
320,192,239808,1,0,0:0:0:0:
320,192,239922,1,0,0:0:0:0:
448,192,239922,1,0,0:0:0:0:
192,192,240036,128,0,240264:0:0:0:0:
64,192,240036,128,0,240264:0:0:0:0:
448,192,240036,128,0,240264:0:0:0:0:
320,192,240036,1,0,0:0:0:0:
64,192,240378,1,0,0:0:0:0:
192,192,240378,1,0,0:0:0:0:
192,192,240492,1,0,0:0:0:0:
64,192,240492,1,0,0:0:0:0:
64,192,240605,1,0,0:0:0:0:
192,192,240605,1,0,0:0:0:0:
64,192,240720,1,0,0:0:0:0:
320,192,240720,1,0,0:0:0:0:
448,192,240720,1,0,0:0:0:0:
64,192,241403,1,0,0:0:0:0:
192,192,241403,1,0,0:0:0:0:
320,192,241403,1,0,0:0:0:0:
448,192,241403,1,0,0:0:0:0:
448,192,241518,1,0,0:0:0:0:
320,192,241518,1,0,0:0:0:0:
64,192,241632,1,0,0:0:0:0:
192,192,241632,1,0,0:0:0:0:
192,192,241745,128,0,242002:0:0:0:0:
320,192,241745,128,0,242002:0:0:0:0:
448,192,241745,128,0,242002:0:0:0:0:
64,192,242087,128,0,242344:0:0:0:0:
192,192,242087,128,0,242344:0:0:0:0:
448,192,242087,128,0,242344:0:0:0:0:
320,192,242429,128,0,242685:0:0:0:0:
192,192,242429,128,0,242685:0:0:0:0:
64,192,242429,128,0,242685:0:0:0:0:
448,192,242771,1,0,0:0:0:0:
320,192,242771,1,0,0:0:0:0:
64,192,242771,1,0,0:0:0:0:
192,192,242771,1,0,0:0:0:0:
448,192,242885,1,0,0:0:0:0:
320,192,242885,1,0,0:0:0:0:
64,192,242999,1,0,0:0:0:0:
192,192,242999,1,0,0:0:0:0:
448,192,243113,1,0,0:0:0:0:
64,192,243113,1,0,0:0:0:0:
320,192,243227,1,0,0:0:0:0:
192,192,243227,1,0,0:0:0:0:
64,192,243341,1,0,0:0:0:0:
192,192,243341,1,0,0:0:0:0:
448,192,243455,1,0,0:0:0:0:
320,192,243455,1,0,0:0:0:0:
192,192,243455,1,0,0:0:0:0:
448,192,244138,1,0,0:0:0:0:
320,192,244138,1,0,0:0:0:0:
192,192,244138,1,0,0:0:0:0:
64,192,244138,1,0,0:0:0:0:
64,192,244252,1,0,0:0:0:0:
192,192,244252,1,0,0:0:0:0:
448,192,244366,1,0,0:0:0:0:
320,192,244366,1,0,0:0:0:0:
64,192,244480,128,0,244737:0:0:0:0:
192,192,244480,128,0,244737:0:0:0:0:
320,192,244480,128,0,244737:0:0:0:0:
192,192,244822,128,0,245078:0:0:0:0:
320,192,244822,128,0,245078:0:0:0:0:
448,192,244822,128,0,245078:0:0:0:0:
64,192,245164,128,0,245421:0:0:0:0:
192,192,245164,128,0,245421:0:0:0:0:
448,192,245164,128,0,245421:0:0:0:0:
64,192,245506,1,0,0:0:0:0:
192,192,245506,1,0,0:0:0:0:
320,192,245506,1,0,0:0:0:0:
448,192,245506,1,0,0:0:0:0:
320,192,245620,1,0,0:0:0:0:
448,192,245620,1,0,0:0:0:0:
64,192,245734,1,0,0:0:0:0:
192,192,245734,1,0,0:0:0:0:
448,192,245848,1,0,0:0:0:0:
192,192,245848,1,0,0:0:0:0:
64,192,245848,1,0,0:0:0:0:
320,192,245848,1,0,0:0:0:0:
448,192,245962,1,0,0:0:0:0:
320,192,245962,1,0,0:0:0:0:
64,192,246076,1,0,0:0:0:0:
192,192,246076,1,0,0:0:0:0:
448,192,246190,1,0,0:0:0:0:
64,192,246190,1,0,0:0:0:0:
320,192,246190,1,0,0:0:0:0:
192,192,246532,1,0,0:0:0:0:
448,192,246532,1,0,0:0:0:0:
64,192,246532,1,0,0:0:0:0:
64,192,246874,1,0,0:0:0:0:
192,192,246874,1,0,0:0:0:0:
320,192,246874,1,0,0:0:0:0:
448,192,246874,1,0,0:0:0:0:
192,192,247557,1,0,0:0:0:0:
320,192,247557,1,0,0:0:0:0:
448,192,247557,1,0,0:0:0:0:
64,192,247899,1,0,0:0:0:0:
192,192,247899,1,0,0:0:0:0:
320,192,247899,1,0,0:0:0:0:
448,192,248241,1,0,0:0:0:0:
320,192,248241,1,0,0:0:0:0:
64,192,248241,1,0,0:0:0:0:
192,192,248241,1,0,0:0:0:0:
448,192,249608,1,0,0:0:0:0:
320,192,249608,1,0,0:0:0:0:
192,192,249608,1,0,0:0:0:0:
64,192,249608,1,0,0:0:0:0:
64,192,250292,1,0,0:0:0:0:
320,192,250292,1,0,0:0:0:0:
448,192,250292,1,0,0:0:0:0:
192,192,251147,1,0,0:0:0:0:
320,192,251147,1,0,0:0:0:0:
448,192,251318,1,0,0:0:0:0:
320,192,251318,1,0,0:0:0:0:
192,192,251318,1,0,0:0:0:0:
64,192,251318,1,0,0:0:0:0:
64,192,251489,1,0,0:0:0:0:
192,192,251489,1,0,0:0:0:0:
64,192,251660,1,0,0:0:0:0:
320,192,251660,1,0,0:0:0:0:
448,192,251660,1,0,0:0:0:0:
192,192,251831,1,0,0:0:0:0:
448,192,252002,1,0,0:0:0:0:
320,192,252002,1,0,0:0:0:0:
64,192,252002,1,0,0:0:0:0:
320,192,252172,1,0,0:0:0:0:
64,192,252172,1,0,0:0:0:0:
448,192,252344,1,0,0:0:0:0:
320,192,252344,1,0,0:0:0:0:
192,192,252344,1,0,0:0:0:0:
64,192,252344,1,0,0:0:0:0:
320,192,252515,1,0,0:0:0:0:
64,192,252685,1,0,0:0:0:0:
192,192,252856,1,0,0:0:0:0:
448,192,252856,1,0,0:0:0:0:
64,192,253028,1,0,0:0:0:0:
192,192,253028,1,0,0:0:0:0:
320,192,253028,1,0,0:0:0:0:
64,192,253198,1,0,0:0:0:0:
448,192,253198,1,0,0:0:0:0:
320,192,253369,1,0,0:0:0:0:
64,192,253540,1,0,0:0:0:0:
448,192,253711,1,0,0:0:0:0:
320,192,253711,1,0,0:0:0:0:
192,192,253711,1,0,0:0:0:0:
64,192,253711,1,0,0:0:0:0:
64,192,253882,1,0,0:0:0:0:
320,192,253882,1,0,0:0:0:0:
448,192,254053,1,0,0:0:0:0:
192,192,254053,1,0,0:0:0:0:
64,192,254224,1,0,0:0:0:0:
448,192,254395,1,0,0:0:0:0:
320,192,254395,1,0,0:0:0:0:
192,192,254480,1,0,0:0:0:0:
320,192,254566,1,0,0:0:0:0:
192,192,254737,1,0,0:0:0:0:
320,192,254737,1,0,0:0:0:0:
448,192,254737,1,0,0:0:0:0:
192,192,254908,1,0,0:0:0:0:
64,192,255078,1,0,0:0:0:0:
192,192,255078,1,0,0:0:0:0:
448,192,255078,1,0,0:0:0:0:
320,192,255078,1,0,0:0:0:0:
448,192,255249,1,0,0:0:0:0:
320,192,255249,1,0,0:0:0:0:
64,192,255421,1,0,0:0:0:0:
320,192,255421,1,0,0:0:0:0:
192,192,255592,1,0,0:0:0:0:
448,192,255762,1,0,0:0:0:0:
64,192,255762,1,0,0:0:0:0:
320,192,255848,1,0,0:0:0:0:
192,192,255933,1,0,0:0:0:0:
64,192,256018,1,0,0:0:0:0:
448,192,256105,1,0,0:0:0:0:
320,192,256147,1,0,0:0:0:0:
192,192,256190,1,0,0:0:0:0:
64,192,256232,1,0,0:0:0:0:
448,192,256275,1,0,0:0:0:0:
448,192,256446,1,0,0:0:0:0:
320,192,256446,1,0,0:0:0:0:
64,192,256446,1,0,0:0:0:0:
192,192,256446,1,0,0:0:0:0:
448,192,256617,1,0,0:0:0:0:
320,192,256617,1,0,0:0:0:0:
64,192,256788,1,0,0:0:0:0:
192,192,256788,1,0,0:0:0:0:
320,192,256959,1,0,0:0:0:0:
448,192,257130,1,0,0:0:0:0:
192,192,257130,1,0,0:0:0:0:
64,192,257130,1,0,0:0:0:0:
192,192,257301,1,0,0:0:0:0:
320,192,257472,1,0,0:0:0:0:
448,192,257472,1,0,0:0:0:0:
64,192,257643,1,0,0:0:0:0:
320,192,257643,1,0,0:0:0:0:
64,192,257814,1,0,0:0:0:0:
320,192,257814,1,0,0:0:0:0:
448,192,257814,1,0,0:0:0:0:
192,192,257814,1,0,0:0:0:0:
192,192,257985,1,0,0:0:0:0:
448,192,258155,1,0,0:0:0:0:
64,192,258155,1,0,0:0:0:0:
320,192,258155,1,0,0:0:0:0:
320,192,258326,1,0,0:0:0:0:
64,192,258498,1,0,0:0:0:0:
192,192,258498,1,0,0:0:0:0:
192,192,258668,1,0,0:0:0:0:
448,192,258668,1,0,0:0:0:0:
320,192,258668,1,0,0:0:0:0:
192,192,258839,1,0,0:0:0:0:
320,192,258839,1,0,0:0:0:0:
64,192,258839,1,0,0:0:0:0:
448,192,259010,1,0,0:0:0:0:
448,192,259182,1,0,0:0:0:0:
320,192,259182,1,0,0:0:0:0:
192,192,259182,1,0,0:0:0:0:
64,192,259182,1,0,0:0:0:0:
192,192,259352,1,0,0:0:0:0:
64,192,259523,1,0,0:0:0:0:
192,192,259523,1,0,0:0:0:0:
448,192,259523,1,0,0:0:0:0:
320,192,259694,1,0,0:0:0:0:
192,192,259865,1,0,0:0:0:0:
320,192,259865,1,0,0:0:0:0:
448,192,259865,1,0,0:0:0:0:
64,192,260036,1,0,0:0:0:0:
320,192,260207,1,0,0:0:0:0:
64,192,260378,1,0,0:0:0:0:
192,192,260378,1,0,0:0:0:0:
64,192,260548,1,0,0:0:0:0:
192,192,260548,1,0,0:0:0:0:
448,192,260548,1,0,0:0:0:0:
320,192,260548,1,0,0:0:0:0:
320,192,260720,1,0,0:0:0:0:
320,192,260805,1,0,0:0:0:0:
64,192,260891,1,0,0:0:0:0:
192,192,260891,1,0,0:0:0:0:
320,192,261062,1,0,0:0:0:0:
448,192,261062,1,0,0:0:0:0:
64,192,261232,1,0,0:0:0:0:
192,192,261232,1,0,0:0:0:0:
448,192,261232,1,0,0:0:0:0:
320,192,261403,1,0,0:0:0:0:
192,192,261403,1,0,0:0:0:0:
64,192,261575,1,0,0:0:0:0:
448,192,261575,1,0,0:0:0:0:
192,192,261745,1,0,0:0:0:0:
64,192,261745,1,0,0:0:0:0:
64,192,261916,1,0,0:0:0:0:
192,192,261916,1,0,0:0:0:0:
320,192,261916,1,0,0:0:0:0:
448,192,261916,1,0,0:0:0:0:
320,192,262087,1,0,0:0:0:0:
448,192,262087,1,0,0:0:0:0:
64,192,262258,1,0,0:0:0:0:
448,192,262258,1,0,0:0:0:0:
192,192,262429,1,0,0:0:0:0:
64,192,262600,1,0,0:0:0:0:
320,192,262600,1,0,0:0:0:0:
448,192,262600,1,0,0:0:0:0:
64,192,262942,1,0,0:0:0:0:
192,192,262942,1,0,0:0:0:0:
448,192,262942,1,0,0:0:0:0:
64,192,263113,1,0,0:0:0:0:
192,192,263113,1,0,0:0:0:0:
192,192,263284,1,0,0:0:0:0:
320,192,263284,1,0,0:0:0:0:
448,192,263284,1,0,0:0:0:0:
64,192,263284,1,0,0:0:0:0:
320,192,263455,1,0,0:0:0:0:
64,192,263625,1,0,0:0:0:0:
192,192,263625,1,0,0:0:0:0:
320,192,263797,1,0,0:0:0:0:
192,192,263797,1,0,0:0:0:0:
64,192,263968,1,0,0:0:0:0:
320,192,263968,1,0,0:0:0:0:
448,192,263968,1,0,0:0:0:0:
192,192,264138,1,0,0:0:0:0:
448,192,264138,1,0,0:0:0:0:
320,192,264309,1,0,0:0:0:0:
64,192,264480,1,0,0:0:0:0:
64,192,264652,1,0,0:0:0:0:
192,192,264652,1,0,0:0:0:0:
320,192,264652,1,0,0:0:0:0:
448,192,264652,1,0,0:0:0:0:
448,192,264822,1,0,0:0:0:0:
64,192,264822,1,0,0:0:0:0:
192,192,264993,1,0,0:0:0:0:
320,192,264993,1,0,0:0:0:0:
320,192,265164,1,0,0:0:0:0:
448,192,265164,1,0,0:0:0:0:
64,192,265335,1,0,0:0:0:0:
192,192,265335,1,0,0:0:0:0:
320,192,265421,1,0,0:0:0:0:
192,192,265506,1,0,0:0:0:0:
448,192,265677,1,0,0:0:0:0:
64,192,265677,1,0,0:0:0:0:
320,192,265677,1,0,0:0:0:0:
192,192,265848,1,0,0:0:0:0:
64,192,266018,1,0,0:0:0:0:
192,192,266018,1,0,0:0:0:0:
320,192,266018,1,0,0:0:0:0:
448,192,266018,1,0,0:0:0:0:
64,192,266190,1,0,0:0:0:0:
320,192,266190,1,0,0:0:0:0:
448,192,266361,1,0,0:0:0:0:
64,192,266361,1,0,0:0:0:0:
320,192,266532,1,0,0:0:0:0:
64,192,266532,1,0,0:0:0:0:
64,192,266702,1,0,0:0:0:0:
448,192,266702,1,0,0:0:0:0:
192,192,266788,1,0,0:0:0:0:
320,192,266874,1,0,0:0:0:0:
448,192,266959,1,0,0:0:0:0:
64,192,267045,1,0,0:0:0:0:
192,192,267087,1,0,0:0:0:0:
320,192,267130,1,0,0:0:0:0:
448,192,267172,1,0,0:0:0:0:
64,192,267215,1,0,0:0:0:0:
64,192,267386,1,0,0:0:0:0:
192,192,267386,1,0,0:0:0:0:
320,192,267386,1,0,0:0:0:0:
448,192,267386,1,0,0:0:0:0:
64,192,267557,1,0,0:0:0:0:
192,192,267557,1,0,0:0:0:0:
320,192,267728,1,0,0:0:0:0:
448,192,267728,1,0,0:0:0:0:
192,192,267899,1,0,0:0:0:0:
64,192,268070,1,0,0:0:0:0:
320,192,268070,1,0,0:0:0:0:
448,192,268070,1,0,0:0:0:0:
320,192,268241,1,0,0:0:0:0:
64,192,268412,1,0,0:0:0:0:
192,192,268412,1,0,0:0:0:0:
192,192,268583,1,0,0:0:0:0:
320,192,268583,1,0,0:0:0:0:
448,192,268583,1,0,0:0:0:0:
64,192,268754,1,0,0:0:0:0:
320,192,268754,1,0,0:0:0:0:
448,192,268754,1,0,0:0:0:0:
192,192,268754,1,0,0:0:0:0:
64,192,268925,1,0,0:0:0:0:
64,192,269095,1,0,0:0:0:0:
320,192,269095,1,0,0:0:0:0:
448,192,269095,1,0,0:0:0:0:
320,192,269267,1,0,0:0:0:0:
192,192,269438,1,0,0:0:0:0:
448,192,269438,1,0,0:0:0:0:
64,192,269608,1,0,0:0:0:0:
320,192,269608,1,0,0:0:0:0:
192,192,269608,1,0,0:0:0:0:
320,192,269779,1,0,0:0:0:0:
448,192,269779,1,0,0:0:0:0:
192,192,269951,1,0,0:0:0:0:
64,192,270122,1,0,0:0:0:0:
192,192,270122,1,0,0:0:0:0:
320,192,270122,1,0,0:0:0:0:
448,192,270122,1,0,0:0:0:0:
320,192,270292,1,0,0:0:0:0:
64,192,270463,1,0,0:0:0:0:
192,192,270463,1,0,0:0:0:0:
448,192,270634,1,0,0:0:0:0:
320,192,270805,1,0,0:0:0:0:
192,192,270805,1,0,0:0:0:0:
64,192,270805,1,0,0:0:0:0:
448,192,271147,1,0,0:0:0:0:
192,192,271147,1,0,0:0:0:0:
320,192,271318,1,0,0:0:0:0:
64,192,271489,1,0,0:0:0:0:
192,192,271489,1,0,0:0:0:0:
320,192,271489,1,0,0:0:0:0:
448,192,271489,1,0,0:0:0:0:
192,192,271660,1,0,0:0:0:0:
192,192,271745,1,0,0:0:0:0:
320,192,271831,1,0,0:0:0:0:
448,192,271831,1,0,0:0:0:0:
64,192,272002,1,0,0:0:0:0:
192,192,272172,1,0,0:0:0:0:
320,192,272172,1,0,0:0:0:0:
448,192,272172,1,0,0:0:0:0:
64,192,272344,1,0,0:0:0:0:
192,192,272344,1,0,0:0:0:0:
448,192,272515,1,0,0:0:0:0:
192,192,272515,1,0,0:0:0:0:
64,192,272685,1,0,0:0:0:0:
320,192,272685,1,0,0:0:0:0:
448,192,272856,1,0,0:0:0:0:
64,192,272856,1,0,0:0:0:0:
64,192,273028,1,0,0:0:0:0:
320,192,273028,1,0,0:0:0:0:
448,192,273198,1,0,0:0:0:0:
64,192,273198,1,0,0:0:0:0:
320,192,273540,1,0,0:0:0:0:
192,192,273540,1,0,0:0:0:0:
