osu file format v14

[General]
AudioFilename: audio.mp3
AudioLeadIn: 0
PreviewTime: 120960
Countdown: 0
SampleSet: Soft
StackLeniency: 0.7
Mode: 0
LetterboxInBreaks: 0
WidescreenStoryboard: 1

[Editor]
DistanceSpacing: 1.1
BeatDivisor: 4
GridSize: 4
TimelineZoom: 1.75

[Metadata]
Title:Eyes Half Closed
TitleUnicode:Eyes Half Closed
Artist:Crywolf
ArtistUnicode:Crywolf
Creator:L3NNy
Version:Just Close Your Eyes...
Source:
Tags:widow oblivion chillstep dubstep electro electronic english angels ep Ashleyy
BeatmapID:2192665
BeatmapSetID:1049043

[Difficulty]
HPDrainRate:5
CircleSize:4
OverallDifficulty:8
ApproachRate:9.1
SliderMultiplier:2
SliderTickRate:1

[Events]
//Background and Video events
0,0,"eyeshalfclosed.jpg",0,0
//Break Periods
2,103381,106153
//Storyboard Layer 0 (Background)
//Storyboard Layer 1 (Fail)
//Storyboard Layer 2 (Pass)
//Storyboard Layer 3 (Foreground)
//Storyboard Layer 4 (Overlay)
//Storyboard Sound Samples

[TimingPoints]
1849,444.444444444444,4,2,1,60,1,0
5404,-111.111111111111,4,2,1,75,0,0
19182,-200,4,2,1,75,0,0
19626,-153.846153846154,4,2,1,55,0,0
33848,-153.846153846154,4,2,1,60,0,0
48070,-125,4,2,1,68,0,0
78293,-111.111111111111,4,2,1,75,0,0
92515,-111.111111111111,4,2,1,60,0,0
92959,-142.857142857143,4,2,1,60,0,0
106737,-142.857142857143,4,2,1,68,0,0
120960,-76.9230769230769,4,2,1,95,0,1
124515,-100,4,2,1,95,0,1
125404,-76.9230769230769,4,2,1,95,0,1
138737,-100,4,2,1,95,0,1
139626,-76.9230769230769,4,2,1,95,0,1
147626,-76.9230769230769,4,2,1,95,0,0
149404,-100,4,2,1,75,0,0
174293,-142.857142857143,4,2,1,75,0,0
177848,-142.857142857143,4,2,1,68,0,0
259404,-142.857142857143,4,2,1,55,0,0
259626,-142.857142857143,4,2,1,55,0,0
263182,-117.647058823529,4,2,1,62,0,0
268515,-175.438596491228,4,2,1,62,0,0
270293,-76.9230769230769,4,2,1,95,0,1
273848,-100,4,2,1,95,0,1
274737,-76.9230769230769,4,2,1,95,0,1
288070,-100,4,2,1,95,0,1
288959,-76.9230769230769,4,2,1,95,0,1
298737,-100,4,2,1,95,0,0
299626,-76.9230769230769,4,2,1,95,0,1
302293,-200,4,2,1,95,0,0
303182,-76.9230769230769,4,2,1,95,0,1
312960,-133.333333333333,4,2,1,95,0,0
313848,-76.9230769230769,4,2,1,95,0,1
316515,-200,4,2,1,95,0,0
317404,-76.9230769230769,4,2,1,95,0,1
320071,-100,4,2,1,70,0,0
323626,-142.857142857143,4,2,1,70,0,0
325404,-166.666666666667,4,2,1,70,0,0
327182,-100,4,2,1,75,0,0
352070,-142.857142857143,4,2,1,75,0,0
353848,-142.857142857143,4,2,1,60,0,0
355626,-142.857142857143,4,2,1,50,0,0
358293,-172.413793103448,4,2,1,40,0,0
378737,-172.413793103448,4,2,1,30,0,0
385848,-172.413793103448,4,2,1,25,0,0
391182,-172.413793103448,4,2,1,18,0,0
394737,-200,4,2,1,18,0,0

[Colours]
Combo1 : 255,128,64
Combo2 : 128,128,255
Combo3 : 255,255,128
Combo4 : 32,255,255

[HitObjects]
256,192,1849,12,8,4960,0:0:0:0:
213,111,5182,5,0,1:0:0:0:
42,88,5404,6,0,B|159:66|90:138|231:108,1,179.999994506836,2|0,1:2|0:0,0:0:0:0:
287,60,6071,1,2,0:2:0:0:
336,215,6293,2,0,L|326:304,1,89.9999972534181,8|0,0:0|0:0,0:0:0:0:
414,170,6737,1,2,0:2:0:0:
476,234,6959,1,2,0:2:0:0:
335,136,7182,5,0,1:0:0:0:
335,136,7404,2,0,L|354:322,1,179.999994506836
237,155,8070,1,10,0:2:0:0:
181,226,8293,1,2,0:2:0:0:
81,81,8515,2,0,P|87:130|90:185,1,89.9999972534181,0|0,1:0|0:0,0:0:0:0:
64,249,8848,1,0,0:0:0:0:
64,249,8959,6,0,P|58:298|58:324,1,44.999998626709,0|0,1:0|0:0,0:0:0:0:
66,374,9182,1,0,0:0:0:0:
162,259,9404,2,0,P|210:245|259:246,1,89.9999972534181
442,351,9848,1,10,0:2:0:0:
499,268,10071,1,2,0:2:0:0:
349,375,10293,1,10,0:2:0:0:
447,169,10515,1,2,1:2:0:0:
266,290,10737,5,0,1:0:0:0:
245,301,10848,1,0,0:0:0:0:
222,304,10959,1,0,0:0:0:0:
199,302,11070,1,0,0:0:0:0:
177,295,11182,1,0,1:0:0:0:
177,295,11293,2,0,L|178:317,2,22.4999993133545
228,102,11626,1,10,0:2:0:0:
134,179,11848,1,2,0:2:0:0:
320,227,12070,2,0,P|369:217|414:213,1,89.9999972534181,2|2,1:2|0:2,0:0:0:0:
448,234,12404,1,2,0:0:0:0:
448,234,12515,5,2,1:2:0:0:
487,153,12737,1,0,0:0:0:0:
445,73,12959,1,0,0:0:0:0:
426,240,13182,1,2,0:2:0:0:
465,159,13404,1,8,0:0:0:0:
423,79,13626,1,0,0:0:0:0:
320,227,13848,2,0,P|331:270|337:324,1,89.9999972534181,2|0,1:2|0:0,0:0:0:0:
250,103,14293,5,0,1:0:0:0:
426,240,14515,2,0,P|436:152|456:58,1,179.999994506836,2|0,0:2|0:0,0:0:0:0:
302,243,15182,2,0,P|313:286|319:340,1,89.9999972534181,10|0,0:2|0:0,0:0:0:0:
360,100,15626,1,2,0:2:0:0:
426,240,15848,1,2,0:2:0:0:
271,144,16070,6,0,B|171:119|197:192|80:164,1,179.999994506836,0|0,1:0|0:0,0:0:0:0:
238,248,16737,1,2,0:2:0:0:
50,59,16959,2,0,P|63:111|66:168,1,89.9999972534181,10|0,0:2|0:0,0:0:0:0:
29,338,17404,1,2,1:2:0:0:
97,167,17626,2,0,P|143:145|196:144,1,89.9999972534181,2|0,0:2|1:0,0:0:0:0:
374,208,18070,5,0,0:0:0:0:
257,151,18293,1,0,0:0:0:0:
271,274,18515,1,0,0:0:0:0:
412,102,18737,1,10,0:2:0:0:
438,286,18959,1,2,0:2:0:0:
240,165,19182,2,0,P|203:163|162:180,1,75,2|0,0:2|0:0,0:0:0:0:
168,177,19626,6,0,B|181:139|181:139|166:67,2,97.4999955368044
76,177,20515,5,2,2:2:0:0:
109,32,20848,5,2,2:2:0:0:
76,177,21182,5,2,2:2:0:0:
122,255,21404,6,0,P|113:303|104:387,1,129.999994049073,2|2,2:2|2:2,0:0:0:0:
188,349,22070,2,0,P|223:335|265:333,1,64.9999970245363,2|0,2:2|0:0,0:0:0:0:
334,365,22515,2,0,P|369:379|411:381,1,64.9999970245363,2|2,2:2|2:2,0:0:0:0:
475,338,22959,1,0,0:0:0:0:
475,338,23070,1,0,0:0:0:0:
475,338,23182,6,0,P|472:299|474:247,1,64.9999970245363
498,186,23626,2,0,B|427:160|445:216|354:187,1,129.999994049073,2|0,2:2|0:0,0:0:0:0:
293,145,24293,1,2,2:2:0:0:
293,145,24515,2,0,P|253:156|217:157,1,64.9999970245363,0|2,0:0|2:2,0:0:0:0:
140,139,24959,6,0,P|153:96|135:47,1,97.4999955368044,2|0,2:2|0:0,0:0:0:0:
104,17,25404,1,0,0:0:0:0:
39,144,25626,2,0,P|21:188|34:234,1,97.4999955368044,2|0,2:2|0:0,0:0:0:0:
64,269,26070,2,0,P|127:260|206:257,1,129.999994049073,2|0,2:2|0:0,0:0:0:0:
235,273,26626,1,0,0:0:0:0:
235,273,26737,5,0,0:0:0:0:
235,273,27182,1,2,2:2:0:0:
295,205,27404,2,0,P|334:191|378:190,1,64.9999970245363,2|0,2:2|0:0,0:0:0:0:
435,234,27848,1,0,0:0:0:0:
435,234,28070,1,0,0:0:0:0:
392,109,28293,1,2,2:2:0:0:
367,273,28515,6,0,P|415:265|463:261,1,97.4999955368044,2|2,2:2|2:2,0:0:0:0:
506,277,28960,1,0,0:0:0:0:
485,158,29182,2,0,P|446:144|400:142,1,64.9999970245363,2|0,2:2|0:0,0:0:0:0:
357,188,29626,2,0,P|318:202|272:204,1,64.9999970245363,2|0,2:2|0:0,0:0:0:0:
221,180,30070,1,2,2:2:0:0:
221,180,30182,1,2,0:0:0:0:
221,180,30293,6,0,P|107:148|101:269,1,259.999988098145,2|0,0:0|0:0,0:0:0:0:
156,318,31404,2,0,P|207:309|229:309,1,64.9999970245363
302,347,31848,1,0,0:0:0:0:
302,347,32070,6,0,P|353:356|375:356,1,64.9999970245363
491,278,32515,2,0,P|458:280|427:288,1,64.9999970245363
366,356,32959,2,0,P|373:293|375:212,1,129.999994049073
308,165,33626,1,0,0:0:0:0:
280,29,33848,6,0,P|224:45|142:47,1,129.999994049073,0|0,2:0|0:0,0:0:0:0:
68,12,34515,1,0,0:0:0:0:
24,92,34737,2,0,P|31:133|34:168,1,64.9999970245363,2|0,2:2|0:0,0:0:0:0:
81,233,35182,2,0,P|74:274|71:309,1,64.9999970245363,0|2,0:0|2:2,0:0:0:0:
23,374,35626,6,0,P|77:332|150:332,1,129.999994049073,2|0,2:2|0:0,0:0:0:0:
218,367,36293,2,0,P|281:361|331:321,1,129.999994049073,2|0,2:2|0:0,0:0:0:0:
277,248,36959,2,0,P|268:213|266:179,1,64.9999970245363,2|0,2:2|0:0,0:0:0:0:
281,141,37293,1,0,0:0:0:0:
281,141,37404,6,0,P|245:151|226:68,1,129.999994049073
271,10,38070,2,0,P|306:18|351:19,1,64.9999970245363
440,73,38515,2,0,P|407:75|376:82,1,64.9999970245363
294,121,38959,1,2,2:2:0:0:
192,39,39182,6,0,P|141:49|76:56,1,97.4999955368044,2|0,2:2|0:0,0:0:0:0:
59,30,39626,1,0,0:0:0:0:
11,162,39848,2,0,P|59:168|107:177,1,97.4999955368044,2|0,2:2|0:0,0:0:0:0:
150,193,40293,2,0,P|131:241|126:323,1,129.999994049073,2|0,2:2|0:0,0:0:0:0:
142,360,40848,1,0,0:0:0:0:
142,360,40959,6,0,P|185:347|228:348,1,64.9999970245363
295,374,41404,1,2,2:2:0:0:
357,307,41626,2,0,P|365:269|365:234,1,64.9999970245363,2|0,2:2|0:0,0:0:0:0:
298,182,42070,2,0,P|290:144|290:109,1,64.9999970245363
335,39,42515,1,2,2:2:0:0:
335,39,42737,6,0,P|279:23|236:24,1,97.4999955368044,2|2,2:2|2:2,0:0:0:0:
195,35,43182,1,0,0:0:0:0:
147,112,43404,2,0,P|101:127|65:129,1,64.9999970245363,2|0,2:2|0:0,0:0:0:0:
3,194,43848,2,0,P|35:199|65:210,1,64.9999970245363,2|0,2:2|0:0,0:0:0:0:
126,278,44293,1,2,2:2:0:0:
126,278,44404,1,2,0:0:0:0:
126,278,44515,6,0,B|241:243|196:323|321:283,1,194.999991073609,2|0,0:0|0:0,0:0:0:0:
394,242,45404,1,0,0:0:0:0:
315,196,45626,1,0,0:0:0:0:
313,285,45848,1,0,0:0:0:0:
394,242,46070,1,0,0:0:0:0:
315,196,46293,6,0,P|306:163|309:116,2,64.9999970245363
394,242,46959,1,0,0:0:0:0:
313,285,47182,2,0,P|248:270|173:263,1,129.999994049073
100,297,47848,1,0,0:0:0:0:
25,140,48070,6,0,P|99:106|194:103,1,160,0|0,1:0|0:0,0:0:0:0:
247,152,48737,1,0,0:0:0:0:
323,46,48959,2,0,B|360:28|360:28|446:48,2,120,10|2|2,0:0|0:0|0:0,0:0:0:0:
463,156,49848,6,0,P|468:103|493:-3,1,160,2|2,1:2|0:0,0:0:0:0:
370,142,50515,1,0,0:0:0:0:
370,142,50737,2,0,P|380:179|388:227,1,80,8|0,0:0|0:0,0:0:0:0:
449,341,51182,2,0,P|455:301|466:262,1,80,2|0,0:0|0:0,0:0:0:0:
338,365,51626,6,0,P|278:363|249:276,1,160,0|0,1:0|0:0,0:0:0:0:
298,206,52293,1,0,0:0:0:0:
192,88,52515,2,0,B|150:66|150:66|21:86,1,160,8|0,0:0|0:0,0:0:0:0:
136,150,53182,1,0,0:0:0:0:
229,18,53404,6,0,B|276:11|276:11|344:44,2,120,2|2|2,1:2|1:2|1:2,0:0:0:0:
136,150,54293,1,8,0:0:0:0:
81,268,54515,2,0,P|89:308|92:360,1,80,2|0,0:0|1:0,0:0:0:0:
136,150,54959,1,2,0:0:0:0:
264,250,55182,6,0,P|326:230|439:223,1,160,0|2,1:0|0:0,0:0:0:0:
486,348,55848,2,0,P|441:336|396:336,1,80,2|8,0:0|0:0,0:0:0:0:
248,356,56293,2,0,P|287:353|326:342,1,80,2|0,0:0|0:0,0:0:0:0:
420,221,56737,1,2,0:0:0:0:
252,171,56959,6,0,P|262:226|264:270,1,80,0|0,1:0|0:0,0:0:0:0:
211,94,57404,1,2,0:0:0:0:
359,115,57626,2,0,P|362:75|370:36,1,80,2|8,0:0|0:0,0:0:0:0:
231,178,58070,2,0,P|238:217|242:256,1,80,2|0,0:0|0:0,0:0:0:0:
193,70,58515,1,2,0:0:0:0:
320,182,58737,5,0,1:0:0:0:
156,150,58959,2,0,B|70:154|109:190|6:200,1,160,2|0,0:0|0:0,0:0:0:0:
152,262,59626,2,0,L|144:345,1,80,8|0,0:0|0:0,0:0:0:0:
232,165,60070,2,0,L|240:248,1,80
311,363,60515,6,0,B|330:324|330:324|320:283|320:283|337:227,2,120,2|0|2,1:2|1:0|1:2,0:0:0:0:
389,375,61404,2,0,P|325:363|286:363,1,80,8|0,0:0|0:0,0:0:0:0:
252,263,61848,2,0,P|291:259|330:250,1,80,2|0,1:2|0:0,0:0:0:0:
506,356,62293,6,0,P|471:293|490:200,1,160,0|0,1:0|0:0,0:0:0:0:
509,127,62959,1,0,0:0:0:0:
318,19,63182,2,0,P|260:27|176:31,2,120,10|2|2,0:0|0:0|0:0,0:0:0:0:
197,147,64070,6,0,P|134:134|15:127,1,160,2|2,1:2|0:0,0:0:0:0:
88,53,64737,1,0,0:0:0:0:
120,214,64959,2,0,P|112:266|109:316,1,80,8|0,0:0|0:0,0:0:0:0:
124,335,65293,2,0,B|218:297|181:365|301:334,1,160,2|0,0:0|0:0,0:0:0:0:
316,316,65848,6,0,P|356:297|412:296,1,80,0|0,1:0|0:0,0:0:0:0:
505,216,66293,2,0,P|465:211|429:193,1,80,2|0,0:0|0:0,0:0:0:0:
305,58,66737,2,0,P|265:62|229:80,1,80,8|0,0:0|0:0,0:0:0:0:
229,79,67070,1,0,0:0:0:0:
229,79,67182,1,0,0:0:0:0:
154,35,67404,1,2,0:0:0:0:
89,197,67626,6,0,B|121:177|121:177|213:199,2,120,2|2|2,1:2|1:2|1:2,0:0:0:0:
23,267,68515,1,8,0:0:0:0:
183,323,68737,2,0,P|235:311|284:307,1,80,2|0,0:0|1:0,0:0:0:0:
90,363,69182,1,2,0:0:0:0:
307,378,69404,6,0,P|295:329|291:210,1,160,0|0,1:0|0:0,0:0:0:0:
226,368,70070,1,0,0:0:0:0:
378,263,70293,2,0,P|423:248|463:249,1,80,8|0,0:0|0:0,0:0:0:0:
290,219,70737,2,0,P|250:217|212:203,1,80
396,145,71182,6,0,P|403:103|391:28,2,120,2|0|2,1:2|0:0|0:0,0:0:0:0:
290,219,72070,2,0,B|185:223|243:172|107:181,1,160,8|2,0:0|0:0,0:0:0:0:
268,132,72737,1,2,0:0:0:0:
120,264,72959,6,0,P|111:193|91:96,1,160,0|2,1:0|0:0,0:0:0:0:
43,33,73626,1,0,0:0:0:0:
212,65,73848,1,8,0:0:0:0:
212,65,74070,2,0,P|258:56|296:51,1,80,2|0,0:0|0:0,0:0:0:0:
135,14,74515,1,0,0:0:0:0:
194,189,74737,6,0,B|207:151|207:151|191:73,2,120,0|0|0,1:0|1:0|1:0,0:0:0:0:
302,155,75626,2,0,P|345:143|403:135,1,80,8|0,2:0|0:0,0:0:0:0:
194,189,76070,2,0,P|151:177|14:157,1,160,0|0,1:0|0:0,0:0:0:0:
37,158,77848,5,8,0:0:0:0:
169,15,78070,1,0,1:0:0:0:
4,71,78293,6,0,B|131:60|59:118|183:121,1,179.999994506836,2|0,1:2|0:0,0:0:0:0:
37,158,78959,1,2,0:2:0:0:
207,105,79182,2,0,L|199:208,1,89.9999972534181,8|0,0:0|0:0,0:0:0:0:
172,24,79626,1,2,0:2:0:0:
270,13,79848,1,2,0:2:0:0:
374,152,80070,5,0,1:0:0:0:
374,152,80293,2,0,P|448:164|465:60,1,179.999994506836
270,13,80959,1,10,0:2:0:0:
207,105,81182,1,2,0:2:0:0:
269,195,81404,2,0,P|257:246|252:294,1,89.9999972534181,0|0,1:0|0:0,0:0:0:0:
263,331,81737,1,0,0:0:0:0:
263,331,81848,5,0,1:0:0:0:
218,308,81959,1,0,0:0:0:0:
169,316,82070,1,0,0:0:0:0:
269,195,82293,2,0,L|363:205,1,89.9999972534181
150,104,82737,1,10,0:2:0:0:
111,195,82960,1,2,0:2:0:0:
254,76,83182,1,10,0:2:0:0:
284,281,83404,1,2,1:2:0:0:
111,195,83626,5,0,1:0:0:0:
78,189,83737,1,0,0:0:0:0:
46,201,83848,1,0,0:0:0:0:
25,226,83959,1,0,0:0:0:0:
20,259,84070,1,0,1:0:0:0:
20,259,84182,2,0,L|23:293,2,22.4999993133545
115,194,84515,2,0,P|165:186|213:188,1,89.9999972534181,10|2,0:2|0:2,0:0:0:0:
314,313,84960,2,0,P|269:313|224:305,1,89.9999972534181,2|2,1:2|0:2,0:0:0:0:
178,286,85293,1,2,0:0:0:0:
178,286,85404,5,2,1:2:0:0:
204,186,85626,1,0,0:0:0:0:
162,93,85848,1,0,0:0:0:0:
154,291,86070,1,2,0:2:0:0:
180,191,86292,1,8,0:0:0:0:
138,98,86514,1,0,0:0:0:0:
276,212,86737,2,0,P|322:204|376:200,1,89.9999972534181,2|0,1:2|0:0,0:0:0:0:
243,316,87182,5,0,1:0:0:0:
415,120,87404,2,0,P|394:190|380:297,1,179.999994506836,2|0,0:2|0:0,0:0:0:0:
256,99,88070,2,0,P|207:84|156:86,1,89.9999972534181,10|0,0:2|0:0,0:0:0:0:
415,120,88515,1,2,0:2:0:0:
321,3,88737,1,2,0:2:0:0:
285,205,88959,6,0,P|295:258|299:319,1,89.9999972534181,0|0,1:0|0:0,0:0:0:0:
229,74,89404,1,0,0:0:0:0:
371,194,89626,1,2,0:2:0:0:
182,160,89848,2,0,P|127:170|73:172,1,89.9999972534181,10|0,0:2|0:0,0:0:0:0:
309,118,90293,1,2,1:2:0:0:
209,306,90515,2,0,P|253:297|297:293,1,89.9999972534181,2|0,0:2|1:0,0:0:0:0:
182,160,90959,5,0,0:0:0:0:
136,247,91182,1,0,0:0:0:0:
192,331,91404,1,0,0:0:0:0:
177,136,91626,1,10,0:2:0:0:
40,276,91848,1,2,0:2:0:0:
290,181,92070,2,0,B|415:167|334:242|494:236,1,179.999994506836,2|0,2:2|0:0,0:0:0:0:
453,235,92959,6,0,P|446:189|445:157,1,69.9999978637696,2|2,0:0|0:0,0:0:0:0:
496,108,93404,2,0,P|450:132|362:107,1,139.999995727539,2|2,0:0|0:0,0:0:0:0:
318,50,94070,1,0,0:0:0:0:
272,112,94293,6,0,P|236:126|186:129,1,69.9999978637696,2|2,0:0|0:0,0:0:0:0:
155,70,94737,2,0,P|171:124|185:283,1,209.999993591309,2|0,0:0|0:0,0:0:0:0:
138,337,95626,2,0,P|194:309|278:313,1,139.999995727539,2|0,0:0|0:0,0:0:0:0:
270,310,96515,6,0,P|305:327|343:332,1,69.9999978637696,2|2,0:0|0:0,0:0:0:0:
397,377,96959,2,0,B|376:341|376:341|399:242,1,139.999995727539,2|2,0:0|0:0,0:0:0:0:
476,369,97848,1,2,0:0:0:0:
476,369,98070,1,2,0:0:0:0:
476,369,98293,2,0,L|505:229,1,139.999995727539,2|0,0:0|0:0,0:0:0:0:
461,91,98960,2,0,L|466:163,1,69.9999978637696
473,263,99404,6,0,P|431:240|390:237,1,69.9999978637696,2|0,0:0|0:0,0:0:0:0:
350,285,99848,2,0,P|308:308|267:311,1,69.9999978637696,2|0,0:0|0:0,0:0:0:0:
219,272,100293,2,0,P|177:249|136:246,1,69.9999978637696,2|0,0:0|0:0,0:0:0:0:
96,294,100737,2,0,P|54:317|13:320,1,69.9999978637696,2|0,0:0|0:0,0:0:0:0:
37,243,101182,6,0,P|45:196|42:161,1,69.9999978637696,2|0,0:0|0:0,0:0:0:0:
79,39,101626,2,0,P|78:74|86:109,1,69.9999978637696,2|0,0:0|0:0,0:0:0:0:
126,174,102070,2,0,P|162:159|206:159,1,69.9999978637696,2|0,0:0|0:0,0:0:0:0:
253,204,102515,2,0,P|289:219|333:219,1,69.9999978637696,2|0,0:0|0:0,0:0:0:0:
382,176,102959,2,0,P|418:161|462:161,1,69.9999978637696,2|0,0:0|0:0,0:0:0:0:
448,159,106737,5,0,1:0:0:0:
347,185,107626,1,0,1:0:0:0:
374,286,108515,1,2,1:2:0:0:
475,259,109404,1,0,1:0:0:0:
448,159,110293,5,0,1:0:0:0:
347,185,111182,1,0,1:0:0:0:
374,286,112071,1,0,1:0:0:0:
475,259,112960,1,0,1:0:0:0:
123,52,113848,5,0,1:0:0:0:
123,52,114293,1,0,1:0:0:0:
24,150,114737,1,0,1:0:0:0:
24,150,115182,1,0,1:0:0:0:
122,248,115626,1,0,1:0:0:0:
122,248,116071,1,0,1:0:0:0:
220,149,116515,1,0,1:0:0:0:
220,149,116960,1,0,1:0:0:0:
123,52,117404,5,0,1:0:0:0:
24,150,117626,1,0,1:0:0:0:
122,248,117848,1,0,1:0:0:0:
220,149,118070,1,0,1:0:0:0:
123,52,118293,5,0,1:0:0:0:
40,164,118515,1,0,1:0:0:0:
152,245,118737,1,0,1:0:0:0:
233,132,118959,1,0,1:0:0:0:
123,52,119182,5,0,1:0:0:0:
59,175,119404,1,0,1:0:0:0:
182,238,119626,1,0,1:0:0:0:
245,114,119848,1,0,1:0:0:0:
123,52,120071,5,0,1:0:0:0:
152,245,120293,1,0,1:0:0:0:
220,26,120515,1,8,2:0:0:0:
220,26,120960,6,0,B|330:14|268:73|416:58,1,173.333325398763,0|0,1:0|0:0,0:0:0:0:
479,94,121404,2,0,B|369:82|431:141|283:126,1,173.333325398763,0|0,1:0|0:0,0:0:0:0:
206,111,121848,5,8,0:0:0:0:
206,111,121996,2,0,P|219:156|226:206,1,86.6666626993817,2|2,3:0|3:0,0:0:0:0:
264,371,122293,1,2,3:0:0:0:
264,371,122441,2,0,P|271:319|286:280,1,86.6666626993817,2|2,3:0|3:0,0:0:0:0:
313,128,122737,5,0,1:0:0:0:
313,128,122886,2,0,P|356:134|395:154,1,86.6666626993817,2|2,3:0|3:0,0:0:0:0:
364,261,123182,1,2,3:0:0:0:
364,261,123330,2,0,P|325:280|282:286,1,86.6666626993817,2|2,3:0|3:0,0:0:0:0:
155,264,123626,6,0,P|163:210|165:157,1,86.6666626993817,8|2,0:0|3:0,0:0:0:0:
165,41,123922,1,2,3:0:0:0:
265,151,124070,2,0,P|268:194|275:237,1,86.6666626993817,2|2,3:0|3:0,0:0:0:0:
265,14,124366,1,2,3:0:0:0:
403,142,124515,6,0,B|322:113|266:151|266:151|218:138|218:138|160:197|52:157,1,333.333333333333,0|0,1:0|0:0,0:0:0:0:
130,50,125404,6,0,P|182:26|246:22,1,86.6666626993817,8|2,0:0|3:0,0:0:0:0:
334,52,125700,1,2,3:0:0:0:
218,138,125848,1,2,3:0:0:0:
354,78,125996,1,2,3:0:0:0:
210,21,126145,1,2,3:0:0:0:
311,164,126293,6,0,L|306:272,1,86.6666626993817,0|2,1:0|3:0,0:0:0:0:
334,52,126589,1,2,3:0:0:0:
218,138,126737,2,0,L|223:246,1,86.6666626993817,2|2,3:0|3:0,0:0:0:0:
195,26,127033,1,2,3:0:0:0:
311,164,127182,6,0,P|360:154|400:148,1,86.6666626993817,8|2,0:0|3:0,0:0:0:0:
508,195,127478,1,2,3:0:0:0:
436,79,127626,1,2,3:0:0:0:
415,238,127774,1,2,3:0:0:0:
510,110,127922,1,2,3:0:0:0:
311,164,128070,6,0,P|232:141|134:134,1,173.333325398763,0|0,1:0|0:0,0:0:0:0:
32,187,128515,1,0,1:0:0:0:
32,187,128737,1,0,1:0:0:0:
156,300,128959,6,0,P|194:318|246:318,1,86.6666626993817,8|2,0:0|3:0,0:0:0:0:
120,214,129256,1,2,3:0:0:0:
234,119,129404,2,0,P|272:101|324:101,1,86.6666626993817,2|2,3:0|3:0,0:0:0:0:
140,189,129700,1,2,3:0:0:0:
309,227,129848,6,0,P|376:212|487:200,1,173.333325398763,0|0,1:0|0:0,0:0:0:0:
385,296,130293,1,0,1:0:0:0:
385,296,130515,1,0,1:0:0:0:
334,119,130737,6,0,P|337:70|335:17,1,86.6666626993817,8|2,0:0|3:0,0:0:0:0:
286,200,131033,1,2,3:0:0:0:
418,93,131182,2,0,P|417:136|420:179,1,86.6666626993817,2|2,3:0|3:0,0:0:0:0:
336,32,131478,1,2,3:0:0:0:
286,200,131626,6,0,B|234:225|234:225|109:203,1,173.333325398763,2|0,1:3|0:0,0:0:0:0:
44,110,132070,1,2,3:0:0:0:
29,237,132219,1,2,3:0:0:0:
134,109,132367,1,2,3:0:0:0:
186,294,132515,6,0,P|196:212|221:83,1,173.333325398763,10|0,0:2|0:0,0:0:0:0:
104,287,132959,1,2,3:0:0:0:
278,228,133108,1,2,3:0:0:0:
95,184,133256,1,2,3:0:0:0:
308,111,133404,6,0,B|414:95|368:161|488:152,1,173.333325398763,2|0,1:3|0:0,0:0:0:0:
334,203,133848,1,2,1:3:0:0:
450,70,133996,1,2,3:0:0:0:
440,258,134145,1,2,3:0:0:0:
280,131,134293,6,0,P|302:220|313:306,1,173.333325398763,8|0,0:0|0:0,0:0:0:0:
381,119,134737,1,2,1:3:0:0:
221,219,134885,1,2,3:0:0:0:
433,179,135033,1,2,1:3:0:0:
199,103,135182,6,0,B|104:73|130:138|29:111,1,173.333325398763,0|0,1:0|0:0,0:0:0:0:
221,219,135626,2,0,B|316:189|290:254|391:227,1,173.333325398763,0|0,1:0|0:0,0:0:0:0:
270,373,136070,6,0,B|278:331|278:331|262:291,1,86.6666626993817,8|2,0:0|3:0,0:0:0:0:
155,175,136367,1,2,3:0:0:0:
109,356,136515,2,0,P|150:347|207:343,1,86.6666626993817,2|2,3:0|3:0,0:0:0:0:
29,268,136811,1,2,3:0:0:0:
221,219,136959,6,0,P|262:228|319:232,1,86.6666626993817,0|2,1:0|3:0,0:0:0:0:
194,343,137256,1,2,3:0:0:0:
155,175,137404,1,2,3:0:0:0:
109,356,137552,1,2,3:0:0:0:
221,219,137700,1,2,3:0:0:0:
303,379,137848,6,0,P|310:326|321:281,1,86.6666626993817,8|2,0:0|3:0,0:0:0:0:
380,146,138145,1,2,3:0:0:0:
421,307,138293,1,2,3:0:0:0:
355,135,138441,1,2,3:0:0:0:
508,220,138589,1,2,3:0:0:0:
317,293,138737,6,0,B|244:325|188:298|188:298|199:256|199:256|118:213|22:266,1,333.333333333333,0|0,1:0|0:0,0:0:0:0:
277,205,139626,6,0,P|292:166|286:101,1,86.6666626993817,8|2,0:0|3:0,0:0:0:0:
224,4,139922,1,2,3:0:0:0:
195,225,140070,2,0,P|180:186|186:121,1,86.6666626993817,2|2,3:0|3:0,0:0:0:0:
248,24,140366,1,2,3:0:0:0:
375,164,140515,6,0,P|390:125|384:60,1,86.6666626993817,0|2,1:0|3:0,0:0:0:0:
277,205,140811,1,2,3:0:0:0:
457,168,140959,1,2,3:0:0:0:
263,178,141108,1,2,3:0:0:0:
468,249,141256,1,2,3:0:0:0:
299,87,141404,6,0,L|197:95,1,86.6666626993817,8|2,0:0|3:0,0:0:0:0:
375,164,141700,1,2,3:0:0:0:
172,238,141848,2,0,L|70:230,1,86.6666626993817,2|2,3:0|3:0,0:0:0:0:
212,93,142145,1,2,3:0:0:0:
282,315,142293,6,0,P|283:247|383:198,1,173.333325398763,0|0,1:0|0:0,0:0:0:0:
210,352,142737,1,0,1:0:0:0:
210,352,142959,1,0,1:0:0:0:
191,123,143182,6,0,P|138:110|78:114,1,86.6666626993817,8|2,0:0|3:0,0:0:0:0:
263,61,143478,1,2,3:0:0:0:
126,193,143626,2,0,P|73:206|13:202,1,86.6666626993817,2|2,3:0|3:0,0:0:0:0:
198,255,143922,1,2,3:0:0:0:
3,116,144070,6,0,P|11:166|26:321,1,173.333325398763,0|0,1:0|0:0,0:0:0:0:
88,89,144515,1,0,1:0:0:0:
88,89,144737,1,0,1:0:0:0:
198,255,144959,6,0,P|251:239|315:235,1,86.6666626993817,8|2,0:0|3:0,0:0:0:0:
430,302,145256,1,2,3:0:0:0:
297,131,145404,2,0,P|305:186|306:231,1,86.6666626993817,2|2,3:0|3:0,0:0:0:0:
281,384,145700,1,2,3:0:0:0:
198,255,145848,6,0,B|308:226|260:303|391:267,1,173.333325398763,0|0,1:0|0:0,0:0:0:0:
157,336,146293,1,2,1:3:0:0:
151,172,146441,1,2,3:0:0:0:
135,353,146589,1,2,3:0:0:0:
247,133,146737,6,0,B|137:104|185:181|54:145,1,173.333325398763,0|0,1:0|0:0,0:0:0:0:
209,218,147182,1,8,0:0:0:0:
113,72,147330,1,2,3:0:0:0:
102,261,147478,1,2,3:0:0:0:
247,133,147626,1,0,1:0:0:0:
247,133,148737,5,0,1:0:0:0:
410,237,148959,1,8,0:0:0:0:
410,237,149404,6,0,B|332:238|332:238|308:259|308:259|199:259,1,200,2|0,1:2|1:0,0:0:0:0:
112,149,150070,1,2,0:2:0:0:
211,49,150293,2,0,B|301:49|301:49|325:70|325:70|403:71,1,200,8|2,0:0|0:2,0:0:0:0:
507,148,150959,1,2,0:2:0:0:
410,237,151182,6,0,P|421:286|426:347,1,100,0|2,1:0|0:2,0:0:0:0:
342,152,151626,1,0,0:0:0:0:
286,242,151848,1,0,0:0:0:0:
151,73,152071,1,10,0:2:0:0:
205,286,152293,1,2,0:2:0:0:
267,62,152515,2,0,P|314:39|378:38,1,100,2|0,0:2|0:0,0:0:0:0:
138,197,152959,5,0,1:0:0:0:
108,193,153070,1,0,0:0:0:0:
78,189,153182,1,0,0:0:0:0:
256,42,153404,2,0,P|303:19|367:18,1,100,0|0,1:0|0:0,0:0:0:0:
481,208,153848,1,10,0:2:0:0:
254,143,154071,1,2,0:2:0:0:
494,183,154293,1,2,0:2:0:0:
267,248,154515,1,2,0:2:0:0:
416,76,154737,5,0,1:0:0:0:
414,110,154848,1,0,0:0:0:0:
412,144,154959,1,0,0:0:0:0:
410,178,155070,2,0,P|418:216|421:255,1,50
399,345,155293,2,0,L|361:340,2,25
267,248,155626,1,10,0:2:0:0:
487,295,155848,1,2,0:2:0:0:
254,352,156071,2,0,P|248:291|238:244,1,100,2|2,0:2|0:2,0:0:0:0:
223,222,156404,1,2,0:0:0:0:
223,222,156515,5,2,1:2:0:0:
304,134,156737,1,0,0:0:0:0:
411,186,156959,1,0,1:0:0:0:
227,240,157182,1,2,0:2:0:0:
308,152,157404,1,8,0:0:0:0:
415,204,157626,1,0,0:0:0:0:
225,112,157848,2,0,P|179:97|125:99,1,100,2|0,0:2|0:0,0:0:0:0:
322,38,158293,5,0,1:0:0:0:
254,220,158515,1,2,0:2:0:0:
254,220,158737,2,0,P|261:281|264:343,1,100,0|0,1:0|0:0,0:0:0:0:
438,125,159182,2,0,P|431:186|428:248,1,100,10|0,0:2|0:0,0:0:0:0:
234,70,159626,1,2,0:2:0:0:
362,276,159848,1,2,0:2:0:0:
126,164,160070,6,0,B|262:149|181:224|328:212,1,200,0|0,1:0|0:0,0:0:0:0:
154,268,160737,1,2,0:2:0:0:
288,127,160960,2,0,P|341:109|412:104,1,100,10|0,0:2|0:0,0:0:0:0:
422,118,161293,1,2,0:0:0:0:
422,118,161404,1,2,0:2:0:0:
250,31,161626,2,0,P|197:13|126:8,1,100,2|0,0:2|1:0,0:0:0:0:
42,169,162070,5,0,0:0:0:0:
155,184,162293,1,0,0:0:0:0:
252,127,162515,1,0,0:0:0:0:
25,163,162737,1,10,0:2:0:0:
279,236,162959,1,2,0:2:0:0:
99,362,163182,2,0,L|0:354,1,100,2|0,0:2|0:0,0:0:0:0:
230,320,163626,6,0,P|257:246|250:122,1,200,2|0,1:2|1:0,0:0:0:0:
53,264,164293,1,2,0:2:0:0:
251,126,164515,2,0,B|386:118|312:182|450:180,1,200,8|2,0:0|0:2,0:0:0:0:
282,235,165182,1,2,0:2:0:0:
414,91,165404,5,0,1:0:0:0:
425,303,165626,1,0,0:0:0:0:
330,151,165848,1,0,0:0:0:0:
335,257,166070,1,0,0:0:0:0:
443,94,166293,1,10,0:2:0:0:
454,306,166515,1,2,0:2:0:0:
330,151,166737,2,0,P|277:133|218:132,1,100,2|0,0:2|0:0,0:0:0:0:
55,278,167182,5,0,1:0:0:0:
55,278,167293,1,0,0:0:0:0:
55,278,167404,1,0,0:0:0:0:
136,102,167626,2,0,P|126:163|120:232,1,100,0|0,1:0|0:0,0:0:0:0:
34,36,168070,1,10,0:2:0:0:
222,96,168293,1,2,0:2:0:0:
16,133,168515,1,2,0:2:0:0:
235,62,168737,1,2,0:2:0:0:
84,219,168959,5,0,1:0:0:0:
118,199,169070,1,0,0:0:0:0:
157,190,169182,1,0,0:0:0:0:
196,192,169293,2,0,L|251:194,1,50
318,149,169515,2,0,L|357:150,2,25
103,90,169848,1,10,0:2:0:0:
286,219,170071,1,2,0:2:0:0:
173,24,170293,2,0,P|239:22|312:21,1,100,2|2,0:2|0:2,0:0:0:0:
312,25,170626,1,0,0:0:0:0:
312,25,170737,5,0,1:0:0:0:
348,40,170848,1,0,0:0:0:0:
387,37,170959,1,0,1:0:0:0:
425,24,171071,2,0,L|440:19,1,16.6666666666667
461,35,171182,2,0,P|453:80|451:122,1,50,4|4,3:0|3:0,0:0:0:0:
495,210,171404,2,0,P|491:185|486:160,1,50,6|4,3:2|3:0,0:0:0:0:
373,264,171626,2,0,P|315:246|268:242,1,100,8|0,0:0|0:0,0:0:0:0:
408,363,172070,2,0,P|457:356|504:341,1,100,2|0,0:2|0:0,0:0:0:0:
308,332,172515,5,0,1:0:0:0:
434,173,172737,1,2,0:2:0:0:
434,173,172959,2,0,P|422:220|416:281,1,100,0|0,1:0|0:0,0:0:0:0:
251,108,173404,2,0,P|263:155|269:216,1,100,10|0,0:2|0:0,0:0:0:0:
422,71,173848,1,2,0:2:0:0:
262,17,174070,1,2,0:2:0:0:
262,17,174293,6,0,P|210:36|118:43,1,139.999995727539
47,13,174959,1,2,0:2:0:0:
24,94,175182,2,0,P|29:130|31:175,1,69.9999978637696,10|0,0:2|0:0,0:0:0:0:
29,205,175515,1,2,0:0:0:0:
29,205,175626,1,2,0:2:0:0:
106,172,175848,1,2,0:2:0:0:
170,225,176070,5,0,1:0:0:0:
191,222,176182,1,0,0:0:0:0:
212,220,176293,1,0,0:0:0:0:
269,158,176515,2,0,P|316:142|352:142,1,69.9999978637696
392,202,176959,2,0,P|439:218|475:218,1,69.9999978637696,2|2,0:2|0:2,0:0:0:0:
512,154,177404,2,0,P|501:211|495:301,1,139.999995727539,2|0,0:2|1:0,0:0:0:0:
382,78,178737,6,0,P|344:60|270:60,1,104.999996795654,10|2,0:0|0:0,0:0:0:0:
247,81,179182,2,0,P|208:98|164:100,1,69.9999978637696,0|2,1:0|0:0,0:0:0:0:
61,38,179626,2,0,P|80:97|89:182,1,139.999995727539,2|2,1:2|0:0,0:0:0:0:
153,30,180293,2,0,P|184:15|218:9,1,69.9999978637696,2|8,0:0|0:0,0:0:0:0:
321,119,180737,2,0,P|305:38|386:77,1,209.999993591309,2|0,0:0|1:0,0:0:0:0:
385,73,181848,6,0,P|379:126|375:218,1,139.999995727539,2|8,0:0|0:0,0:0:0:0:
395,294,182515,1,0,0:0:0:0:
395,294,182737,2,0,P|360:305|313:305,1,69.9999978637696,0|2,0:0|0:0,0:0:0:0:
223,238,183182,6,0,P|184:207|111:209,2,104.999996795654,2|2|2,1:2|1:2|1:2,0:0:0:0:
312,271,184070,1,8,0:0:0:0:
205,163,184293,1,2,0:0:0:0:
205,163,184515,2,0,P|135:141|72:203,1,139.999995727539,0|0,1:0|1:0,0:0:0:0:
392,239,185404,6,0,P|406:199|406:156,1,69.9999978637696,2|0,0:0|0:0,0:0:0:0:
325,30,185848,1,8,0:0:0:0:
384,90,186070,1,0,0:0:0:0:
434,22,186293,1,0,1:0:0:0:
384,90,186515,1,2,0:0:0:0:
266,90,186737,6,0,P|202:82|142:80,1,104.999996795654,2|2,1:2|0:0,0:0:0:0:
122,96,187182,1,0,0:0:0:0:
22,22,187404,2,0,P|31:69|37:120,1,69.9999978637696,2|8,0:0|0:0,0:0:0:0:
173,235,187848,2,0,P|178:200|185:166,1,69.9999978637696,2|0,0:0|0:0,0:0:0:0:
12,37,188293,2,0,P|21:84|27:135,1,69.9999978637696,2|0,0:0|1:0,0:0:0:0:
148,228,188737,6,0,P|159:149|175:71,1,139.999995727539,2|0,0:0|0:0,0:0:0:0:
20,190,189404,2,0,L|27:268,1,69.9999978637696,8|0,0:0|0:0,0:0:0:0:
137,194,189848,2,0,L|130:272,1,69.9999978637696
279,363,190293,6,0,P|305:337|388:341,2,104.999996795654,0|0|0,1:0|1:0|1:0,0:0:0:0:
469,294,191182,2,0,P|460:246|457:210,1,69.9999978637696,8|0,0:0|0:0,0:0:0:0:
415,92,191626,2,0,P|410:126|403:161,1,69.9999978637696,0|0,1:0|0:0,0:0:0:0:
346,284,192070,6,0,P|294:248|208:248,1,139.999995727539,0|0,1:0|0:0,0:0:0:0:
151,294,192737,1,2,0:0:0:0:
36,223,192959,2,0,B|51:168|51:168|32:124,1,104.999996795654,8|2,0:0|0:0,0:0:0:0:
2,96,193404,2,0,P|11:52|21:24,1,69.9999978637696,0|2,1:0|0:0,0:0:0:0:
137,209,193848,6,0,B|281:217|202:156|351:171,1,209.999993591309,2|2,1:2|0:0,0:0:0:0:
427,53,194737,2,0,P|411:93|408:135,1,69.9999978637696,8|0,0:0|0:0,0:0:0:0:
456,187,195182,2,0,P|472:227|475:269,1,69.9999978637696,2|0,0:0|0:0,0:0:0:0:
420,363,195626,6,0,P|337:338|264:338,1,139.999995727539,0|0,1:0|0:0,0:0:0:0:
206,368,196293,1,0,0:0:0:0:
329,234,196515,2,0,P|246:259|173:259,1,139.999995727539,8|0,0:0|0:0,0:0:0:0:
115,226,197182,1,2,0:0:0:0:
275,135,197404,6,0,P|284:73|305:20,2,104.999996795654,2|2|2,1:2|1:2|1:2,0:0:0:0:
124,13,198293,1,8,0:0:0:0:
275,135,198515,1,2,0:0:0:0:
275,135,198737,2,0,P|329:125|366:122,1,69.9999978637696,0|0,1:0|0:0,0:0:0:0:
458,259,199182,6,0,B|436:220|436:220|459:114,1,139.999995727539,0|2,1:0|0:0,0:0:0:0:
503,57,199848,1,2,0:0:0:0:
356,18,200070,2,0,B|270:13|316:56|208:49,1,139.999995727539,8|0,0:0|1:0,0:0:0:0:
147,11,200737,1,2,0:0:0:0:
69,126,200959,6,0,P|61:80|43:21,2,104.999996795654,2|2|2,1:2|0:0|0:0,0:0:0:0:
28,265,201848,1,8,0:0:0:0:
28,265,202071,2,0,P|56:249|114:242,1,69.9999978637696,2|0,0:0|0:0,0:0:0:0:
240,288,202515,1,2,0:0:0:0:
240,288,202737,6,0,P|298:287|304:152,1,209.999993591309,0|0,1:0|0:0,0:0:0:0:
201,105,203626,2,0,B|329:72|278:156|406:119,1,209.999993591309,8|0,0:0|0:0,0:0:0:0:
505,32,204515,6,0,P|456:18|371:20,2,104.999996795654,0|0|0,1:0|1:0|1:0,0:0:0:0:
353,207,205404,2,0,P|304:197|255:194,1,69.9999978637696,8|0,0:0|0:0,0:0:0:0:
442,282,205848,2,0,P|476:277|510:269,1,69.9999978637696,0|0,1:0|0:0,0:0:0:0:
305,281,206293,5,0,1:0:0:0:
395,194,206515,1,0,0:0:0:0:
308,104,206737,1,0,0:0:0:0:
218,191,206959,1,0,0:0:0:0:
388,119,207182,2,0,P|442:120|495:169,1,104.999996795654,10|2,0:0|0:0,0:0:0:0:
509,180,207626,1,0,1:0:0:0:
361,41,207848,1,2,0:0:0:0:
276,226,208070,6,0,P|274:157|261:56,1,139.999995727539,2|2,1:2|0:0,0:0:0:0:
361,165,208737,2,0,P|391:171|430:173,1,69.9999978637696,0|8,0:0|0:0,0:0:0:0:
276,226,209182,2,0,P|246:232|207:234,1,69.9999978637696,2|0,0:0|0:0,0:0:0:0:
361,165,209626,1,2,0:0:0:0:
361,165,209848,6,0,P|369:208|377:309,1,139.999995727539,0|0,1:0|0:0,0:0:0:0:
292,250,210515,1,0,0:0:0:0:
411,375,210737,2,0,P|415:305|426:236,1,139.999995727539,8|0,0:0|0:0,0:0:0:0:
475,167,211404,1,2,0:0:0:0:
388,253,211626,6,0,P|341:276|269:283,2,104.999996795654,2|2|2,1:2|1:2|1:2,0:0:0:0:
240,171,212515,1,8,0:0:0:0:
388,253,212737,2,0,P|428:246|478:243,1,69.9999978637696,2|0,0:0|1:0,0:0:0:0:
257,284,213182,1,2,0:0:0:0:
341,189,213404,6,0,P|354:239|368:341,1,139.999995727539,0|2,1:0|0:0,0:0:0:0:
426,127,214070,2,0,P|456:114|496:112,1,69.9999978637696,2|8,0:0|0:0,0:0:0:0:
341,189,214515,2,0,P|306:187|274:173,1,69.9999978637696,2|2,0:0|1:2,0:0:0:0:
508,232,214959,6,0,P|500:279|495:322,1,69.9999978637696,2|0,0:0|1:0,0:0:0:0:
398,384,215404,2,0,P|393:349|387:314,1,69.9999978637696,0|2,0:0|0:0,0:0:0:0:
341,189,215848,2,0,P|295:204|259:205,1,69.9999978637696,2|8,0:0|0:0,0:0:0:0:
219,318,216293,2,0,P|253:322|286:334,1,69.9999978637696,2|0,0:0|0:0,0:0:0:0:
144,225,216737,6,0,P|132:196|131:151,1,69.9999978637696,2|0,0:0|1:0,0:0:0:0:
183,75,217182,1,0,0:0:0:0:
183,75,217404,2,0,B|108:85|157:116|39:131,2,139.999995727539,2|8|0,0:0|0:0|0:0,0:0:0:0:
281,113,218515,1,2,1:2:0:0:
296,8,218737,6,0,P|244:27|174:32,2,104.999996795654,0|0|2,1:0|1:0|1:2,0:0:0:0:
414,61,219626,2,0,L|494:69,1,69.9999978637696,8|0,0:0|0:0,0:0:0:0:
321,166,220070,6,0,P|330:116|333:19,1,139.999995727539,2|0,1:2|1:0,0:0:0:0:
428,144,220737,1,0,0:0:0:0:
428,144,220959,2,0,L|508:152,1,69.9999978637696
302,52,221404,2,0,L|182:63,1,104.999996795654,10|2,0:0|0:0,0:0:0:0:
165,89,221848,2,0,P|128:102|88:105,1,69.9999978637696,0|2,1:0|0:0,0:0:0:0:
20,245,222293,6,0,P|79:229|175:220,1,139.999995727539,2|2,1:2|0:0,0:0:0:0:
228,288,222959,2,0,P|262:297|298:297,1,69.9999978637696,0|8,0:0|0:0,0:0:0:0:
350,219,223404,2,0,P|384:210|420:210,1,69.9999978637696,2|0,0:0|0:0,0:0:0:0:
477,284,223848,1,2,0:0:0:0:
477,284,224070,6,0,P|459:220|457:142,1,139.999995727539,0|0,1:0|0:0,0:0:0:0:
475,43,224737,1,0,0:0:0:0:
373,17,224959,2,0,L|217:22,1,139.999995727539,8|0,0:0|0:0,0:0:0:0:
165,85,225626,1,2,0:0:0:0:
328,99,225848,6,0,P|335:65|396:23,2,104.999996795654,2|2|2,1:2|1:2|1:2,0:0:0:0:
401,219,226737,1,8,0:0:0:0:
253,254,226959,2,0,P|218:251|184:242,1,69.9999978637696,2|0,0:0|1:0,0:0:0:0:
360,293,227404,6,0,P|371:334|374:373,1,69.9999978637696,2|0,0:0|1:0,0:0:0:0:
278,171,227848,2,0,P|266:98|333:43,1,139.999995727539,2|0,0:0|0:0,0:0:0:0:
409,124,228515,2,0,P|443:135|478:135,1,69.9999978637696,8|0,0:0|0:0,0:0:0:0:
306,51,228959,2,0,P|272:40|237:40,1,69.9999978637696,0|0,1:0|0:0,0:0:0:0:
144,122,229404,6,0,P|91:138|29:127,1,104.999996795654,2|2,1:2|0:0,0:0:0:0:
14,115,229848,1,0,0:0:0:0:
83,34,230070,1,2,0:0:0:0:
286,142,230293,2,0,L|280:230,1,69.9999978637696,8|2,0:0|0:0,0:0:0:0:
175,130,230737,2,0,L|186:303,1,139.999995727539,2|0,0:0|1:0,0:0:0:0:
184,269,231626,6,0,P|230:245|339:237,1,139.999995727539,2|8,0:0|0:0,0:0:0:0:
401,198,232293,2,0,P|331:192|268:162,1,139.999995727539,2|0,0:0|0:0,0:0:0:0:
380,283,232959,6,0,P|364:334|354:386,2,104.999996795654,0|0|2,1:0|1:0|1:2,0:0:0:0:
420,191,233848,2,0,P|462:182|498:184,1,69.9999978637696,8|0,0:0|0:0,0:0:0:0:
271,224,234293,2,0,P|238:169|270:99,1,139.999995727539,2|0,1:2|1:0,0:0:0:0:
330,22,235626,5,2,1:2:0:0:
409,86,236515,1,2,1:2:0:0:
346,168,237404,1,0,1:0:0:0:
265,103,238293,5,2,1:2:0:0:
249,204,239182,1,2,1:2:0:0:
147,190,240071,1,2,1:2:0:0:
163,88,240960,1,0,1:0:0:0:
249,204,241848,5,0,1:0:0:0:
344,168,242737,1,0,1:0:0:0:
383,263,243626,1,0,1:0:0:0:
287,300,244515,1,0,1:0:0:0:
383,263,245404,5,0,1:0:0:0:
483,283,246293,1,0,1:0:0:0:
464,384,247182,1,0,1:0:0:0:
363,361,248071,1,0,1:0:0:0:
354,179,248959,5,0,1:0:0:0:
354,179,249404,1,2,1:2:0:0:
235,105,249848,1,2,1:2:0:0:
235,105,250293,1,2,1:2:0:0:
116,179,250737,1,2,1:2:0:0:
116,179,251182,1,2,1:2:0:0:
235,253,251625,1,0,1:0:0:0:
235,253,252070,1,2,1:2:0:0:
235,105,252515,5,0,1:0:0:0:
235,105,252960,1,2,1:2:0:0:
161,224,253404,1,2,1:2:0:0:
161,224,253849,1,2,1:2:0:0:
235,343,254293,1,2,1:2:0:0:
235,343,254738,1,2,1:2:0:0:
309,224,255181,1,0,1:0:0:0:
309,224,255626,1,0,1:0:0:0:
309,224,256071,5,0,1:0:0:0:
471,262,256293,1,0,1:2:0:0:
307,243,256515,1,0,1:0:0:0:
469,282,256738,1,2,1:2:0:0:
290,222,256959,5,0,1:0:0:0:
252,384,257182,1,2,1:2:0:0:
270,220,257404,1,0,1:0:0:0:
232,383,257627,1,2,1:2:0:0:
311,205,257848,5,0,1:0:0:0:
148,167,258070,1,2,1:2:0:0:
312,185,258292,1,0,1:0:0:0:
150,147,258515,1,2,1:2:0:0:
329,225,258737,5,0,1:0:0:0:
368,63,258960,1,2,1:2:0:0:
348,259,259182,2,0,P|334:311|327:350,1,69.9999978637696,8|2,2:0|0:0,0:0:0:0:
300,120,259626,1,0,1:0:0:0:
256,192,259848,12,2,262737,0:0:0:0:
347,110,263182,6,0,L|256:121,1,85.0000016212464,2|2,1:2|0:0,0:0:0:0:
112,46,263626,2,0,L|203:57,1,85.0000016212464,2|2,1:2|0:0,0:0:0:0:
316,195,264070,2,0,L|225:206,1,85.0000016212464,2|2,1:2|0:0,0:0:0:0:
81,131,264514,2,0,L|172:142,1,85.0000016212464,2|2,1:2|0:0,0:0:0:0:
400,180,264959,5,2,1:2:0:0:
376,289,265182,1,2,0:0:0:0:
292,86,265404,5,2,1:2:0:0:
316,195,265627,1,2,0:0:0:0:
141,250,265848,5,2,1:2:0:0:
165,141,266071,1,2,0:0:0:0:
249,344,266293,5,2,1:2:0:0:
225,235,266516,1,2,0:0:0:0:
84,334,266737,5,2,1:2:0:0:
55,313,266848,1,2,0:0:0:0:
38,282,266959,1,2,0:0:0:0:
36,247,267070,1,2,0:0:0:0:
48,214,267181,1,2,1:2:0:0:
73,189,267292,1,2,0:0:0:0:
107,178,267403,1,2,0:0:0:0:
140,166,267515,1,2,0:0:0:0:
165,141,267626,1,2,1:2:0:0:
177,108,267737,1,2,0:0:0:0:
175,73,267848,1,2,0:0:0:0:
158,43,267959,1,2,0:0:0:0:
130,22,268070,5,2,1:2:0:0:
135,106,268181,1,0,1:0:0:0:
141,191,268292,1,0,1:0:0:0:
146,276,268403,1,0,1:0:0:0:
146,276,268515,6,0,B|315:208|248:348|424:284,1,284.999996520996
219,366,269848,1,8,2:0:0:0:
219,366,270293,6,0,B|186:316|186:316|215:167,1,173.333325398763,0|0,1:0|0:0,0:0:0:0:
108,80,270737,2,0,B|141:130|141:130|112:279,1,173.333325398763,0|0,1:0|0:0,0:0:0:0:
240,108,271182,5,8,2:0:0:0:
240,108,271330,2,0,P|293:94|344:93,1,86.6666626993817,2|2,3:0|3:0,0:0:0:0:
494,205,271626,1,2,3:0:0:0:
494,205,271774,2,0,P|441:191|390:190,1,86.6666626993817,2|2,3:0|3:0,0:0:0:0:
236,219,272070,6,0,P|248:270|254:324,1,86.6666626993817,0|2,1:0|3:0,0:0:0:0:
297,140,272367,1,2,3:0:0:0:
156,167,272515,2,0,P|144:218|138:272,1,86.6666626993817,2|2,3:0|3:0,0:0:0:0:
95,88,272812,1,2,3:0:0:0:
288,165,272959,6,0,P|338:155|400:150,1,86.6666626993817,8|2,2:0|3:0,0:0:0:0:
511,215,273256,1,2,3:0:0:0:
416,89,273404,1,2,3:0:0:0:
410,257,273552,1,2,3:0:0:0:
456,106,273700,1,2,3:0:0:0:
509,350,273848,6,0,B|422:323|371:359|371:359|340:345|340:345|274:390|187:355,1,333.333333333333,0|0,1:0|0:0,0:0:0:0:
89,265,274737,6,0,B|104:309|104:309|88:356,1,86.6666626993817,8|2,2:0|3:0,0:0:0:0:
193,233,275033,1,2,3:0:0:0:
30,191,275182,2,0,B|17:152|17:152|32:108,1,86.6666626993817,2|2,3:0|3:0,0:0:0:0:
83,11,275478,1,2,3:0:0:0:
110,153,275626,5,0,1:0:0:0:
57,24,275774,1,2,3:0:0:0:
30,191,275922,1,2,3:0:0:0:
158,59,276070,2,0,P|208:44|257:46,1,86.6666626993817,2|2,3:0|3:0,0:0:0:0:
376,108,276367,1,2,3:0:0:0:
222,186,276515,5,8,2:0:0:0:
406,208,276663,1,2,3:0:0:0:
274,79,276811,1,2,3:0:0:0:
313,274,276959,1,2,3:0:0:0:
396,82,277108,1,2,3:0:0:0:
473,280,277256,1,2,3:0:0:0:
307,166,277404,6,0,B|210:164|249:223|141:225,1,173.333325398763,0|0,1:0|0:0,0:0:0:0:
295,260,277848,1,0,1:0:0:0:
295,260,278070,1,0,1:0:0:0:
110,121,278293,6,0,P|120:169|125:217,1,86.6666626993817,8|2,2:0|3:0,0:0:0:0:
212,38,278589,1,2,3:0:0:0:
247,207,278737,2,0,P|237:255|232:303,1,86.6666626993817,2|2,3:0|3:0,0:0:0:0:
110,121,279033,1,2,3:0:0:0:
320,83,279182,6,0,P|400:78|459:150,1,173.333325398763,0|0,1:0|0:0,0:0:0:0:
366,167,279626,1,0,1:0:0:0:
366,167,279848,1,0,1:0:0:0:
212,38,280070,6,0,P|170:25|113:26,1,86.6666626993817,8|2,2:0|3:0,0:0:0:0:
19,124,280367,1,2,3:0:0:0:
214,131,280515,2,0,P|202:179|195:243,1,86.6666626993817,2|2,3:0|3:0,0:0:0:0:
127,23,280811,1,2,3:0:0:0:
91,251,280959,6,0,B|192:217|153:298|278:258,1,173.333325398763,0|0,1:0|0:0,0:0:0:0:
400,158,281404,1,2,3:0:0:0:
221,190,281552,1,2,3:0:0:0:
420,244,281700,1,2,3:0:0:0:
257,116,281848,6,0,B|167:88|187:157|86:133,1,173.333325398763,8|0,2:0|0:0,0:0:0:0:
221,190,282293,1,2,3:0:0:0:
123,43,282441,1,2,3:0:0:0:
107,243,282589,1,2,3:0:0:0:
257,116,282737,6,0,P|247:185|238:293,1,173.333325398763,0|0,1:0|0:0,0:0:0:0:
181,96,283182,1,0,1:0:0:0:
337,207,283330,1,2,3:0:0:0:
135,163,283478,1,2,3:0:0:0:
334,82,283626,6,0,P|413:85|458:174,1,173.333325398763,8|0,2:0|0:0,0:0:0:0:
385,336,284070,1,0,1:0:0:0:
375,155,284219,1,2,3:0:0:0:
475,345,284367,1,2,3:0:0:0:
302,204,284515,6,0,B|225:199|225:199|212:206|212:206|130:199,1,173.333325398763,0|0,1:0|0:0,0:0:0:0:
19,349,284959,2,0,B|100:342|100:342|113:349|113:349|190:344,1,173.333325398763,0|0,1:0|0:0,0:0:0:0:
67,136,285404,5,8,2:0:0:0:
67,136,285552,2,0,P|46:175|46:235,1,86.6666626993817,2|2,3:0|3:0,0:0:0:0:
175,316,285848,1,2,3:0:0:0:
175,316,285996,2,0,P|170:273|150:235,1,86.6666626993817,2|2,3:0|3:0,0:0:0:0:
58,50,286293,5,0,1:0:0:0:
224,140,286441,2,0,P|267:128|335:116,1,86.6666626993817,2|2,3:0|3:0,0:0:0:0:
139,8,286737,1,2,3:0:0:0:
131,210,286885,1,2,3:0:0:0:
221,48,287033,1,2,3:0:0:0:
315,229,287182,6,0,P|355:250|414:253,1,86.6666626993817,8|2,2:0|3:0,0:0:0:0:
507,103,287478,1,2,3:0:0:0:
380,173,287626,1,2,3:0:0:0:
507,259,287774,1,2,3:0:0:0:
417,85,287922,1,2,3:0:0:0:
332,319,288070,6,0,B|408:126|256:205|340:0,1,333.333333333333,0|0,1:0|0:0,0:0:0:0:
236,196,288959,6,0,P|196:214|151:215,1,86.6666626993817,8|2,2:0|3:0,0:0:0:0:
27,122,289256,1,2,3:0:0:0:
102,295,289404,1,2,3:0:0:0:
121,90,289552,1,2,3:0:0:0:
11,241,289700,1,2,3:0:0:0:
181,141,289848,6,0,P|220:123|263:121,1,86.6666626993817,0|2,1:0|3:0,0:0:0:0:
421,199,290145,1,2,3:0:0:0:
212,260,290293,2,0,P|251:277|294:279,1,86.6666626993817,2|2,3:0|3:0,0:0:0:0:
451,219,290590,1,2,3:0:0:0:
330,81,290737,5,8,2:0:0:0:
376,280,290885,1,2,3:0:0:0:
355,96,291033,1,2,3:0:0:0:
252,238,291182,1,2,3:0:0:0:
266,26,291330,1,2,3:0:0:0:
277,223,291478,1,2,3:0:0:0:
92,31,291626,6,0,B|127:82|127:82|108:198,1,173.333325398763,0|0,1:0|0:0,0:0:0:0:
33,104,292070,1,0,1:0:0:0:
33,104,292293,1,0,1:0:0:0:
195,207,292515,6,0,P|245:195|294:190,1,86.6666626993817,8|2,2:0|3:0,0:0:0:0:
117,147,292811,1,2,3:0:0:0:
242,282,292959,2,0,P|292:294|341:299,1,86.6666626993817,2|2,3:0|3:0,0:0:0:0:
164,342,293255,1,2,3:0:0:0:
291,207,293404,6,0,B|401:184|354:253|475:235,1,173.333325398763,0|0,1:0|0:0,0:0:0:0:
326,298,293848,1,0,1:0:0:0:
326,298,294070,1,0,1:0:0:0:
435,144,294293,6,0,L|425:40,1,86.6666626993817,8|2,2:0|3:0,0:0:0:0:
335,191,294589,1,2,3:0:0:0:
354,23,294737,1,2,3:0:0:0:
363,207,294885,1,2,3:0:0:0:
326,7,295033,1,2,3:0:0:0:
391,223,295182,6,0,B|284:220|349:272|202:274,1,173.333325398763,0|0,1:0|0:0,0:0:0:0:
373,317,295626,1,2,3:0:0:0:
252,174,295774,1,2,3:0:0:0:
304,365,295922,1,2,3:0:0:0:
345,159,296070,6,0,P|320:108|212:88,1,173.333325398763,8|0,2:0|0:0,0:0:0:0:
91,224,296515,1,2,3:0:0:0:
252,174,296663,1,2,3:0:0:0:
69,130,296811,1,2,3:0:0:0:
229,272,296959,6,0,P|294:245|409:232,1,173.333325398763,0|0,1:0|0:0,0:0:0:0:
295,352,297404,1,0,1:0:0:0:
358,141,297552,1,2,3:0:0:0:
325,373,297700,1,2,3:0:0:0:
242,118,297848,6,0,P|177:91|62:78,1,173.333325398763,8|0,2:0|0:0,0:0:0:0:
280,32,298293,1,2,3:0:0:0:
89,158,298441,1,2,3:0:0:0:
307,44,298589,1,2,3:0:0:0:
199,202,298737,6,0,L|192:307,2,100,2|2|2,1:2|0:0|0:0,0:0:0:0:
199,202,299626,6,0,P|241:182|296:177,1,86.6666626993817,8|2,2:0|3:0,0:0:0:0:
435,219,299922,1,2,3:0:0:0:
305,72,300070,2,0,P|314:153|321:259,1,173.333325398763,0|0,1:0|0:0,0:0:0:0:
196,53,300515,6,0,P|119:28|66:97,1,173.333325398763,0|0,1:0|0:0,0:0:0:0:
214,142,300959,2,0,P|162:205|85:181,1,173.333325398763,0|0,1:0|0:0,0:0:0:0:
305,72,301404,6,0,L|410:83,1,86.6666626993817,8|2,2:0|3:0,0:0:0:0:
485,234,301700,1,2,3:0:0:0:
333,161,301848,1,2,3:0:0:0:
457,145,301996,1,2,3:0:0:0:
305,72,302144,1,2,3:0:0:0:
361,250,302293,6,0,L|354:299,2,50,2|2|2,1:2|0:0|0:0,0:0:0:0:
361,250,303182,6,0,B|324:227|324:227|273:229,1,86.6666626993817,8|2,2:0|3:0,0:0:0:0:
93,272,303478,1,2,3:0:0:0:
245,330,303626,2,0,P|257:267|255:136,1,173.333325398763,0|0,1:0|0:0,0:0:0:0:
157,55,304070,6,0,P|238:23|324:15,1,173.333325398763,0|0,1:0|0:0,0:0:0:0:
177,132,304515,2,0,P|263:124|343:92,1,173.333325398763,0|0,1:0|0:0,0:0:0:0:
95,113,304959,6,0,P|104:168|107:210,1,86.6666626993817,8|2,2:0|3:0,0:0:0:0:
159,22,305256,1,2,3:0:0:0:
29,175,305404,1,2,3:0:0:0:
128,5,305552,1,2,3:0:0:0:
194,181,305700,1,2,3:0:0:0:
9,55,305848,6,0,B|125:46|53:114|180:105,1,173.333325398763,0|0,1:0|0:0,0:0:0:0:
27,147,306293,1,0,1:0:0:0:
27,147,306515,1,0,1:0:0:0:
234,54,306737,6,0,P|280:40|338:39,1,86.6666626993817,8|2,2:0|3:0,0:0:0:0:
478,98,307033,1,2,3:0:0:0:
255,168,307182,2,0,P|301:182|359:183,1,86.6666626993817,2|2,3:0|3:0,0:0:0:0:
499,124,307478,1,2,3:0:0:0:
391,285,307626,6,0,P|377:212|375:96,1,173.333325398763,0|0,1:0|0:0,0:0:0:0:
303,277,308070,1,0,1:0:0:0:
303,277,308293,1,0,1:0:0:0:
318,37,308515,6,0,L|222:48,1,86.6666626993817,8|2,2:0|3:0,0:0:0:0:
26,92,308811,1,2,3:0:0:0:
217,133,308959,1,2,3:0:0:0:
20,69,309108,1,2,3:0:0:0:
220,20,309256,1,2,3:0:0:0:
119,205,309404,6,0,B|90:159|90:159|122:31,1,173.333325398763,0|0,1:0|0:0,0:0:0:0:
33,221,309848,1,2,3:0:0:0:
218,101,309996,1,2,3:0:0:0:
5,132,310145,1,2,3:0:0:0:
250,214,310293,6,0,B|355:187|304:264|437:229,1,173.333325398763,8|0,2:0|0:0,0:0:0:0:
246,126,310737,1,2,3:0:0:0:
439,99,310885,1,2,3:0:0:0:
250,214,311033,1,2,3:0:0:0:
443,187,311182,6,0,B|401:227|401:227|413:360,1,173.333325398763,0|0,1:0|0:0,0:0:0:0:
365,144,311626,1,0,1:0:0:0:
324,336,311774,1,2,3:0:0:0:
443,187,311922,1,2,3:0:0:0:
246,293,312070,6,0,P|185:294|141:195,1,173.333325398763,8|0,2:0|0:0,0:0:0:0:
205,37,312515,1,2,3:0:0:0:
216,219,312663,1,2,3:0:0:0:
112,55,312811,1,2,3:0:0:0:
309,201,312960,6,0,L|383:189,2,75.0000028610231,2|2|2,1:2|0:0|0:0,0:0:0:0:
309,201,313848,6,0,P|326:258|331:313,1,86.6666626993817,8|2,2:0|3:0,0:0:0:0:
366,114,314145,1,2,3:0:0:0:
271,339,314293,2,0,P|336:309|458:305,1,173.333325398763,0|0,1:0|0:0,0:0:0:0:
211,217,314737,6,0,P|179:133|246:84,1,173.333325398763,0|0,1:0|0:0,0:0:0:0:
288,234,315182,2,0,P|345:175|310:102,1,173.333325398763,0|0,1:0|0:0,0:0:0:0:
233,300,315626,6,0,P|189:318|133:322,1,86.6666626993817,8|2,2:0|3:0,0:0:0:0:
5,238,315922,1,2,3:0:0:0:
95,375,316070,1,2,3:0:0:0:
77,184,316219,1,2,3:0:0:0:
9,366,316367,1,2,3:0:0:0:
170,228,316515,6,0,P|192:219|220:217,2,50,2|2|2,1:2|0:0|0:0,0:0:0:0:
170,228,317404,6,0,P|160:183|163:127,1,86.6666626993817,8|2,2:0|3:0,0:0:0:0:
203,12,317700,1,2,3:0:0:0:
101,279,317848,2,0,P|196:252|307:243,1,173.333325398763,0|0,1:0|0:0,0:0:0:0:
423,352,318293,6,0,B|390:259|458:286|418:173,1,173.333325398763,0|0,1:0|0:0,0:0:0:0:
443,348,318737,2,0,B|410:255|478:282|438:169,1,173.333325398763,0|0,1:0|0:0,0:0:0:0:
320,73,319182,2,0,L|310:143,1,43.3333313496908,10|0,0:0|0:0,0:0:0:0:
226,199,319330,2,0,L|231:156,1,43.3333313496908,2|0,3:0|1:0,0:0:0:0:
337,51,319478,1,2,3:0:0:0:
201,52,319626,5,8,2:0:0:0:
318,198,319774,1,2,3:0:0:0:
183,31,319923,1,2,3:0:0:0:
335,218,320071,6,0,L|343:318,1,100,0|0,1:0|0:0,0:0:0:0:
220,182,320515,2,0,L|228:82,1,100,0|0,1:0|0:0,0:0:0:0:
350,232,320959,2,0,L|358:332,1,100,8|0,2:0|0:0,0:0:0:0:
202,187,321404,2,0,L|210:87,1,100
253,339,321848,6,0,P|194:320|129:316,1,100,0|0,1:0|0:0,0:0:0:0:
31,129,322293,2,0,P|80:122|127:105,1,100,0|0,1:0|0:0,0:0:0:0:
252,357,322737,2,0,P|193:338|128:334,1,100,8|0,2:0|0:0,0:0:0:0:
30,147,323182,2,0,P|79:140|126:123,1,100
314,27,323626,6,0,P|301:74|298:119,1,69.9999978637696
286,266,324070,2,0,P|280:231|270:198,1,69.9999978637696
290,26,324515,2,0,P|277:73|274:118,1,69.9999978637696,8|0,2:0|0:0,0:0:0:0:
262,265,324959,2,0,P|256:230|246:197,1,69.9999978637696
184,36,325404,6,0,P|148:28|114:29,4,59.9999981689454,0|0|0|0|0,1:0|0:0|0:0|0:0|0:0,0:0:0:0:
317,131,326515,1,0,1:0:0:0:
139,116,326737,1,8,2:0:0:0:
346,54,326959,1,0,1:0:0:0:
90,40,327182,6,0,P|107:133|118:257,1,200,2|0,1:2|1:0,0:0:0:0:
28,190,327848,1,2,0:2:0:0:
116,333,328070,2,0,P|198:309|314:297,1,200,8|2,2:0|0:2,0:0:0:0:
395,352,328737,1,2,0:2:0:0:
469,171,328959,6,0,P|458:122|460:64,1,100,0|2,1:0|0:2,0:0:0:0:
390,233,329404,1,0,0:0:0:0:
330,152,329626,1,0,0:0:0:0:
260,363,329848,1,10,2:2:0:0:
221,140,330070,1,2,0:2:0:0:
356,312,330293,2,0,P|397:329|459:331,1,100,2|0,0:2|0:0,0:0:0:0:
213,245,330737,5,0,1:0:0:0:
173,251,330848,1,0,0:0:0:0:
133,257,330959,1,0,0:0:0:0:
346,147,331182,2,0,P|387:130|449:128,1,100,0|0,1:0|0:0,0:0:0:0:
279,304,331626,1,10,2:2:0:0:
257,87,331849,1,2,0:2:0:0:
361,271,332071,1,2,2:2:0:0:
383,54,332293,1,2,0:2:0:0:
233,203,332515,5,0,1:0:0:0:
197,221,332626,1,0,0:0:0:0:
158,217,332737,1,0,0:0:0:0:
127,193,332848,2,0,P|94:179|60:177,1,50
16,275,333070,2,0,L|42:268,2,25
187,133,333404,1,10,2:2:0:0:
205,359,333626,1,2,0:2:0:0:
289,133,333848,2,0,P|340:118|395:118,1,100,2|2,0:2|0:2,0:0:0:0:
429,142,334182,1,0,0:0:0:0:
429,142,334293,5,2,1:2:0:0:
358,45,334515,1,0,0:0:0:0:
241,71,334737,1,0,1:0:0:0:
424,160,334959,1,2,0:2:0:0:
353,63,335181,1,8,2:0:0:0:
236,89,335403,1,0,0:0:0:0:
362,220,335626,2,0,P|351:276|344:327,1,100,2|0,0:2|0:0,0:0:0:0:
424,160,336070,5,0,1:0:0:0:
275,379,336293,1,2,0:2:0:0:
275,379,336515,2,0,P|267:329|257:280,1,100,0|0,1:0|0:0,0:0:0:0:
424,160,336960,2,0,P|414:209|406:258,1,100,10|0,2:2|0:0,0:0:0:0:
296,92,337404,1,2,0:2:0:0:
384,291,337626,1,2,0:2:0:0:
209,154,337848,6,0,B|83:154|156:205|18:210,1,200,0|0,1:0|0:0,0:0:0:0:
187,264,338515,1,2,0:2:0:0:
53,121,338737,2,0,P|72:185|77:245,1,100,10|0,2:2|0:0,0:0:0:0:
74,267,339070,1,0,0:0:0:0:
74,267,339182,1,2,0:2:0:0:
212,128,339404,2,0,P|193:192|188:252,1,100,2|0,0:2|1:0,0:0:0:0:
318,79,339848,5,0,0:0:0:0:
218,115,340070,1,0,0:0:0:0:
136,34,340293,1,0,0:0:0:0:
330,62,340515,1,10,2:2:0:0:
134,14,340737,1,2,0:2:0:0:
395,125,340959,2,0,P|344:176|272:168,1,150,2|0,0:2|0:0,0:0:0:0:
305,64,341404,6,0,B|432:40|365:114|500:81,1,200,2|0,1:2|1:0,0:0:0:0:
344,168,342070,1,2,0:2:0:0:
252,3,342293,2,0,P|264:50|276:133,1,100,8|0,2:0|0:0,0:0:0:0:
238,261,342737,1,2,0:2:0:0:
181,114,342959,1,2,0:2:0:0:
346,204,343182,6,0,P|400:193|450:189,1,100,0|2,1:0|0:2,0:0:0:0:
238,261,343626,2,0,P|188:256|139:246,1,100
373,314,344070,1,10,2:2:0:0:
251,153,344293,1,2,0:2:0:0:
434,54,344515,2,0,P|421:112|419:186,1,100,2|0,0:2|0:0,0:0:0:0:
474,361,344959,5,0,1:0:0:0:
437,343,345070,1,0,0:0:0:0:
396,343,345182,1,0,0:0:0:0:
203,370,345404,2,0,P|214:315|214:249,1,100,0|0,1:0|0:0,0:0:0:0:
173,77,345848,1,10,2:2:0:0:
126,268,346071,1,2,0:2:0:0:
277,101,346293,1,2,0:2:0:0:
324,292,346515,1,2,0:2:0:0:
136,169,346737,5,0,1:0:0:0:
97,161,346848,1,0,0:0:0:0:
59,174,346959,1,0,0:0:0:0:
32,202,347070,2,0,P|39:268|38:298,1,50
29,366,347293,2,0,L|53:362,2,25
207,278,347626,1,10,2:2:0:0:
32,202,347848,1,2,0:2:0:0:
243,124,348071,2,0,P|295:135|355:138,1,100,2|2,0:2|0:2,0:0:0:0:
388,119,348404,1,2,0:0:0:0:
388,119,348515,5,2,1:2:0:0:
306,31,348737,1,0,0:0:0:0:
191,66,348959,1,0,1:0:0:0:
382,140,349182,1,2,0:2:0:0:
300,52,349404,1,8,2:0:0:0:
185,87,349626,1,0,0:0:0:0:
332,235,349848,2,0,P|386:224|446:221,1,100,2|0,0:2|0:0,0:0:0:0:
249,150,350293,5,0,1:0:0:0:
144,309,350515,1,2,0:2:0:0:
144,309,350737,2,0,P|90:320|30:323,1,100,0|0,1:0|0:0,0:0:0:0:
69,105,351182,2,0,P|81:158|85:220,1,100,10|0,2:2|0:0,0:0:0:0:
141,29,351626,1,2,0:2:0:0:
200,193,351848,1,2,0:2:0:0:
257,66,352070,6,2,P|308:44|395:74,1,139.999995727539,0|0,1:0|0:0,0:2:0:0:
448,123,352737,1,2,0:2:0:0:
385,178,352960,2,0,L|392:254,1,69.9999978637696,10|0,2:2|0:0,0:0:0:0:
391,247,353293,1,2,0:0:0:0:
391,247,353404,1,2,0:2:0:0:
451,315,353626,1,2,0:2:0:0:
389,372,353848,5,0,1:0:0:0:
323,319,354070,1,0,0:0:0:0:
254,367,354293,1,0,0:0:0:0:
181,325,354515,1,0,0:0:0:0:
111,371,354737,1,2,0:2:0:0:
169,292,354960,1,2,0:2:0:0:
105,216,355182,2,0,P|77:156|80:78,1,139.999995727539,2|0,0:2|0:0,0:0:0:0:
256,192,355737,12,0,357404,0:0:0:0:
155,86,358293,6,0,P|110:68|65:67,2,77.3333356933594,2|0|0,0:0|0:0|0:0,0:0:0:0:
232,223,359182,2,0,P|291:207|355:200,1,116.000003540039,2|2,0:0|0:0,0:0:0:0:
403,257,359848,2,0,P|390:211|394:135,1,116.000003540039,2|0,0:0|0:0,0:0:0:0:
470,120,360515,6,0,B|279:51|332:196|129:125,1,348.000010620117,2|0,0:0|0:0,0:0:0:0:
134,127,362737,5,2,0:0:0:0:
134,127,363404,1,0,0:0:0:0:
72,74,363626,2,0,P|82:116|94:203,1,116.000003540039,2|2,0:0|0:0,0:0:0:0:
188,368,364515,6,0,P|195:310|208:254,1,116.000003540039
372,194,365404,2,0,P|293:192|341:81,1,232.000007080078
326,81,367182,1,0,0:0:0:0:
326,81,368070,6,0,P|249:48|195:117,1,174.000005310059
187,187,368959,1,0,0:0:0:0:
187,187,369070,1,0,0:0:0:0:
187,187,369182,2,0,L|70:174,1,116.000003540039
24,254,369848,6,0,L|212:274,1,174.000005310059
254,215,370737,2,0,L|442:235,1,174.000005310059
484,176,371626,5,0,0:0:0:0:
484,176,372515,1,0,0:0:0:0:
484,176,373182,5,2,0:0:0:0:
419,127,373404,2,0,P|426:87|429:33,2,87.0000026550294,2|2|2,0:0|0:0|0:0,0:0:0:0:
351,275,374515,1,2,0:0:0:0:
287,125,374959,1,2,0:0:0:0:
287,125,375404,2,0,P|211:159|152:87,1,174.000005310059,2|0,0:0|0:0,0:0:0:0:
153,102,376959,5,0,0:0:0:0:
153,102,377404,2,0,P|199:91|223:94,1,58.0000017700196,2|2,0:0|0:0,0:0:0:0:
267,147,377848,2,0,P|299:172|379:177,1,116.000003540039,0|2,0:0|0:0,0:0:0:0:
486,63,378737,6,0,L|493:212,1,145.000004425049
391,382,379626,2,0,L|395:266,1,116.000003540039,0|2,0:0|0:0,0:0:0:0:
337,74,380515,1,2,0:0:0:0:
337,74,381404,2,0,P|298:57|250:52,2,77.3333356933594
133,14,382293,6,0,B|180:122|180:122|135:231,1,232.000007080078
136,227,384070,2,0,P|211:207|316:204,1,174.000005310059
317,283,384959,2,0,P|256:301|203:303,1,116.000003540039
168,294,385515,1,0,0:0:0:0:
168,294,385626,2,0,P|178:325|181:340,1,29.0000008850098
74,276,385848,5,0,0:0:0:0:
379,229,386737,1,0,0:0:0:0:
65,249,387626,1,0,0:0:0:0:
374,202,388515,1,0,0:0:0:0:
87,66,389404,6,0,P|146:33|210:46,1,116.000003540039
233,194,390293,2,0,P|174:227|110:214,1,116.000003540039
315,48,391182,6,0,P|394:35|417:123,1,174.000005310059
343,128,392070,1,0,0:0:0:0:
343,128,392959,5,0,0:0:0:0:
76,56,393848,1,0,0:0:0:0:
76,56,394737,6,0,P|92:101|86:159,1,100
35,314,395626,2,0,P|56:305|96:303,1,50
114,318,395959,1,0,0:0:0:0:
114,318,396070,1,0,0:0:0:0:
328,369,396515,6,0,P|321:323|330:267,1,100
392,145,397404,2,0,P|399:99|390:43,1,100
252,23,398293,6,0,L|173:31,2,75
320,63,399182,2,0,L|301:200,1,133.333333333333
