osu file format v14

[General]
AudioFilename: Crywolf - Eyes Half Closed.mp3
AudioLeadIn: 0
PreviewTime: 119268
Countdown: 0
SampleSet: Soft
StackLeniency: 0.5
Mode: 0
LetterboxInBreaks: 0
WidescreenStoryboard: 0

[Editor]
Bookmarks: 3705,17927,32149,46372,60594,74816,76594,90816,105038,119261,133483,147705,161927,176149,190372,204594,218816,233038,247261,257927,268594,282816,297927,312149,318372,325483,339705,352149
DistanceSpacing: 0.7
BeatDivisor: 6
GridSize: 4
TimelineZoom: 1.5

[Metadata]
Title:Eyes Half Closed
TitleUnicode:Eyes Half Closed
Artist:Crywolf
ArtistUnicode:Crywolf
Creator:Emboriar
Version:Lament
Source:
Tags:
BeatmapID:1738511
BeatmapSetID:829812

[Difficulty]
HPDrainRate:6
CircleSize:4
OverallDifficulty:8.5
ApproachRate:9.3
SliderMultiplier:1.5
SliderTickRate:1

[Events]
//Background and Video events
0,0,"parallel.jpg",0,0
//Break Periods
2,18126,31594
//Storyboard Layer 0 (Background)
//Storyboard Layer 1 (Fail)
//Storyboard Layer 2 (Pass)
//Storyboard Layer 3 (Foreground)
//Storyboard Sound Samples

[TimingPoints]
148,444.444444444444,4,2,1,70,1,0
3703,-100,4,2,1,70,0,0
9147,-100,4,2,3,70,0,0
9481,-100,4,2,1,70,0,0
9592,-100,4,2,2,70,0,0
9703,-100,4,2,3,70,0,0
9925,-100,4,2,1,70,0,0
17481,-75.187969924812,4,2,1,70,0,0
17925,-75.187969924812,4,2,1,50,0,0
32147,-166.666666666667,4,2,1,50,0,0
46370,-100,4,2,1,70,0,0
82036,-100,4,2,3,70,0,0
82370,-100,4,2,1,70,0,0
82481,-100,4,2,2,70,0,0
82592,-100,4,2,3,70,0,0
82814,-100,4,2,1,70,0,0
90370,-75.187969924812,4,2,1,70,0,0
90814,-125,4,2,1,65,0,0
105036,-200,4,2,1,70,0,0
112147,-200,4,2,1,75,0,0
115703,-200,4,2,1,80,0,0
116592,-133.333333333333,4,2,1,80,0,0
117481,-100,4,2,1,80,0,0
118370,-80,4,2,1,80,0,0
118814,-36.4298724954463,4,2,1,90,0,1
119259,-100,4,2,1,90,0,0
120147,-100,4,2,1,90,0,1
122814,-200,4,2,1,90,0,0
123703,-100,4,2,1,90,0,1
126370,-100,4,2,1,90,0,0
127259,-100,4,2,1,90,0,1
128147,-100,4,2,1,90,0,0
129036,-100,4,2,1,90,0,1
129925,-100,4,2,1,90,0,0
130370,-100,4,2,1,90,0,1
130814,-100,4,2,1,90,0,0
131259,-100,4,2,1,90,0,1
131703,-100,4,2,1,90,0,0
132147,-50,4,2,1,90,0,1
132592,-100,4,2,1,90,0,0
133036,-50,4,2,1,90,0,1
133481,-100,4,2,1,90,0,0
134370,-100,4,2,1,90,0,1
137036,-200,4,2,1,90,0,0
137925,-100,4,2,1,90,0,1
140592,-100,4,2,1,90,0,0
141481,-100,4,2,1,90,0,1
142370,-100,4,2,1,90,0,0
143259,-100,4,2,1,90,0,1
144147,-100,4,2,1,90,0,0
144592,-50,4,2,1,90,0,1
145036,-100,4,2,1,90,0,0
145481,-50,4,2,1,90,0,1
145925,-100,4,2,1,90,0,0
147036,-100,4,2,1,70,0,0
147703,-80,4,2,1,85,0,0
153147,-80,4,2,3,85,0,0
153481,-80,4,2,1,85,0,0
153592,-80,4,2,2,85,0,0
153703,-80,4,2,3,85,0,0
153925,-80,4,2,1,85,0,0
167370,-80,4,2,3,85,0,0
167703,-80,4,2,1,85,0,0
167814,-80,4,2,2,85,0,0
167925,-80,4,2,3,85,0,0
168147,-80,4,2,1,85,0,0
169036,-80,4,2,1,85,0,0
169481,-80,4,3,0,60,0,0
169925,-80,4,2,1,85,0,0
172592,-200,4,2,1,60,0,0
176147,-100,4,2,1,70,0,0
204592,-86.9565217391304,4,2,1,75,0,0
233036,-200,4,2,1,65,0,0
247259,-200,4,2,1,70,0,0
254370,-200,4,2,1,75,0,0
255259,-133.333333333333,4,2,1,75,0,0
256147,-100,4,2,1,75,0,0
257036,-80,4,2,1,75,0,0
257481,-36.3636363636364,4,2,1,80,0,0
257925,-36.3636363636364,4,2,1,75,0,0
261481,-200,4,2,1,75,0,0
265036,-100,4,2,1,80,0,0
266814,-200,4,2,1,60,0,0
268147,-36.3636363636364,4,2,1,90,0,1
268592,-100,4,2,1,90,0,0
269481,-100,4,2,1,90,0,1
272147,-200,4,2,1,90,0,0
273036,-100,4,2,1,90,0,1
275703,-100,4,2,1,90,0,0
276592,-100,4,2,1,90,0,1
277481,-100,4,2,1,90,0,0
278370,-100,4,2,1,90,0,1
279259,-100,4,2,1,90,0,0
279703,-100,4,2,1,90,0,1
280147,-100,4,2,1,90,0,0
280592,-100,4,2,1,90,0,1
281036,-100,4,2,1,90,0,0
281481,-50,4,2,1,90,0,1
281925,-100,4,2,1,90,0,0
282370,-50,4,2,1,90,0,1
282814,-100,4,2,1,90,0,0
283703,-100,4,2,1,90,0,1
286370,-200,4,2,1,90,0,0
287259,-100,4,2,1,90,0,1
289925,-100,4,2,1,90,0,0
290814,-100,4,2,1,90,0,1
291703,-100,4,2,1,90,0,0
292592,-100,4,2,1,90,0,1
293481,-100,4,2,1,90,0,0
293925,-100,4,2,1,90,0,1
294370,-100,4,2,1,90,0,0
294814,-100,4,2,1,90,0,1
295259,-100,4,2,1,90,0,0
295703,-50,4,2,1,90,0,1
296147,-100,4,2,1,90,0,0
296592,-50,4,2,1,90,0,1
297036,-100,4,2,1,60,0,0
297925,-100,4,2,1,90,0,1
298370,-100,4,2,1,90,0,0
298814,-100,4,2,1,90,0,0
299703,-100,4,2,1,90,0,1
300592,-100,4,2,1,60,0,0
301481,-100,4,2,1,90,0,1
301925,-100,4,2,1,90,0,0
303259,-100,4,2,1,90,0,1
304147,-100,4,2,1,90,0,0
305036,-100,4,2,1,90,0,1
305925,-100,4,2,1,90,0,0
306814,-100,4,2,1,90,0,1
307703,-100,4,2,1,90,0,0
308147,-100,4,2,1,90,0,1
308592,-100,4,2,1,90,0,0
309036,-100,4,2,1,90,0,1
309481,-100,4,2,1,90,0,0
309925,-50,4,2,1,90,0,1
310370,-100,4,2,1,90,0,0
310814,-50,4,2,1,90,0,1
311259,-100,4,2,1,60,0,0
312147,-100,4,2,1,90,0,1
312592,-100,4,2,1,90,0,0
313925,-100,4,2,1,90,0,1
314814,-100,4,2,1,60,0,0
315703,-100,4,2,1,90,0,1
316147,-100,4,2,1,90,0,0
317481,-50,4,2,1,90,0,1
318370,-100,4,2,1,70,0,0
325481,-80,4,2,1,85,0,0
330925,-80,4,2,3,85,0,0
331259,-80,4,2,1,85,0,0
331370,-80,4,2,2,85,0,0
331481,-80,4,2,3,85,0,0
331703,-80,4,2,1,85,0,0
345145,-80,4,2,3,85,0,0
345479,-80,4,2,1,85,0,0
345590,-80,4,2,2,85,0,0
345701,-80,4,2,3,85,0,0
345923,-80,4,2,1,85,0,0
350370,-80,4,2,2,70,0,0
352147,-80,4,2,1,70,0,0
353481,-89.2857142857143,4,2,1,60,0,0

[Colours]
Combo1 : 252,78,130
Combo2 : 94,14,226
Combo3 : 111,111,111
Combo4 : 182,108,255

[HitObjects]
256,192,149,12,0,3037,0:1:0:0:
87,72,3260,5,8,0:1:0:0:
116,251,3482,1,0,1:1:0:0:
158,34,3704,6,0,P|193:22|252:35,1,75,2|2,1:3|0:3,0:0:0:0:
291,75,4148,2,0,L|285:156,1,75,2|2,0:1|0:1,0:0:0:0:
347,21,4593,1,8,0:1:0:0:
347,21,4815,1,0,0:1:0:0:
448,78,5037,1,2,0:1:0:0:
370,94,5260,1,2,0:1:0:0:
498,260,5482,5,0,1:1:0:0:
441,198,5704,2,0,P|390:189|355:202,2,75,2|0|0,0:1|0:1|0:1,0:0:0:0:
384,350,6371,1,10,0:1:0:0:
401,269,6593,1,2,0:1:0:0:
380,368,6815,2,0,L|262:375,1,112.5,2|0,1:1|0:1,0:0:0:0:
197,330,7260,5,2,1:3:0:0:
201,308,7371,1,2,0:3:0:0:
205,286,7482,1,2,0:3:0:0:
272,239,7704,2,0,P|238:209|195:202,1,75,2|0,0:3|0:1,0:0:0:0:
58,211,8148,5,10,0:1:0:0:
129,182,8371,1,2,0:1:0:0:
92,357,8593,5,10,0:1:0:0:
90,115,8815,1,2,1:1:0:0:
230,133,9037,5,0,1:1:0:0:
209,129,9148,1,2,0:1:0:0:
188,121,9260,1,2,0:1:0:0:
171,105,9371,1,2,0:1:0:0:
159,87,9482,1,0,1:1:0:0:
154,65,9593,2,0,L|130:50,1,18.75,0|0,0:1|0:1,0:0:0:0:
160,47,9704,1,2,0:1:0:0:
312,37,9926,1,10,0:1:0:0:
235,59,10148,1,2,0:1:0:0:
369,202,10371,2,0,L|375:78,1,112.5,2|0,1:1|0:1,0:0:0:0:
429,32,10815,6,0,P|468:20|511:30,2,75,2|0|0,1:1|0:3|0:3,0:0:0:0:
490,174,11482,1,2,0:1:0:0:
417,49,11704,2,0,L|429:140,1,75,8|0,0:1|0:3,0:0:0:0:
354,292,12148,2,0,P|382:254|463:243,1,112.5,2|0,1:1|0:1,0:0:0:0:
506,284,12593,5,0,1:1:0:0:
506,284,12815,2,0,L|500:368,2,75,2|0|0,0:1|0:1|0:1,0:0:0:0:
443,155,13482,2,0,P|407:138|354:146,1,75,10|0,0:1|0:1,0:0:0:0:
252,203,13926,1,2,0:1:0:0:
252,203,14148,2,0,L|257:248,1,37.5,2|0,0:3|0:1,0:0:0:0:
172,160,14371,6,0,P|230:117|302:133,1,150,2|2,1:3|0:3,0:0:0:0:
323,59,15037,1,2,0:1:0:0:
384,241,15260,2,0,L|472:232,1,75,10|0,0:1|0:1,0:0:0:0:
333,302,15704,2,0,L|207:291,1,112.5,2|0,1:1|0:1,0:0:0:0:
162,343,16148,5,0,1:1:0:0:
109,284,16371,2,0,L|101:207,2,75,2|2|2,0:1|0:1|0:1,0:0:0:0:
161,164,17037,1,10,0:1:0:0:
92,135,17260,1,2,0:1:0:0:
32,180,17482,6,0,B|92:135|92:135|171:168,1,149.62499383564,2|0,0:1|0:1,0:0:0:0:
192,234,17926,5,2,0:3:0:0:
52,111,32148,6,0,B|187:35|184:180|319:120,1,269.999991760254,2|0,0:1|0:1,0:0:0:0:
360,41,33926,2,0,P|387:68|282:231,1,269.999991760254,2|0,0:1|0:1,0:0:0:0:
212,182,35704,2,0,L|213:202,2,11.2499996566773,2|2|2,0:1|0:1|0:1,0:0:0:0:
24,283,39260,6,0,P|91:238|224:349,1,269.999991760254,2|0,0:1|0:1,0:0:0:0:
299,373,41037,2,0,B|314:312|269:237|269:237|336:283|405:249,1,269.999991760254,2|0,0:1|0:1,0:0:0:0:
444,187,42815,2,0,L|443:207,2,11.2499996566773,2|2|2,0:1|0:1|0:1,0:0:0:0:
256,192,44148,12,0,46148,0:1:0:0:
79,53,46371,6,0,P|85:88|86:142,1,75,0|0,1:1|0:1,0:0:0:0:
144,184,46815,2,0,P|138:219|137:273,1,75,0|0,0:1|0:1,0:0:0:0:
47,354,47260,2,0,P|95:327|130:332,1,75,10|0,0:1|0:1,0:0:0:0:
148,346,47593,2,0,P|196:373|231:368,1,75,2|0,0:1|0:1,0:0:0:0:
242,350,47926,2,0,P|256:338|281:334,1,37.5,2|0,0:1|0:1,0:0:0:0:
354,380,48148,6,0,P|346:299|362:214,1,150,2|0,1:1|0:1,0:0:0:0:
388,161,48815,1,0,0:1:0:0:
180,147,49037,2,0,P|235:130|267:135,1,75,8|0,0:1|0:1,0:0:0:0:
302,65,49482,2,0,P|339:64|374:50,1,75,2|0,0:1|0:1,0:0:0:0:
476,193,49926,6,0,L|384:181,2,75,0|0|0,1:1|0:1|0:1,0:0:0:0:
510,125,50593,1,0,0:1:0:0:
336,364,50815,2,0,P|318:275|327:214,1,150,8|0,0:1|0:1,0:0:0:0:
331,213,51482,1,0,0:1:0:0:
239,141,51704,6,0,L|146:147,1,75,2|0,1:1|0:1,0:0:0:0:
112,89,52037,2,0,L|153:5,1,75,2|0,1:1|0:1,0:0:0:0:
222,23,52371,2,0,L|247:61,1,37.5,2|0,1:1|2:1,2:0:0:0:
412,119,52593,2,0,P|357:93|284:113,1,112.5,8|0,0:1|0:1,0:0:0:0:
295,184,53037,2,0,P|350:210|423:190,1,112.5,0|0,1:1|0:1,0:0:0:0:
494,119,53482,6,0,L|488:37,2,75,0|0|2,1:1|0:1|0:1,0:0:0:0:
501,198,54148,1,2,0:1:0:0:
349,338,54371,1,8,0:1:0:0:
364,262,54593,2,0,P|391:234|449:224,1,75,2|0,0:1|0:1,0:0:0:0:
486,279,55037,1,2,0:1:0:0:
274,320,55260,6,0,L|174:313,1,75,0|0,1:1|0:1,0:0:0:0:
125,362,55704,1,2,0:1:0:0:
123,281,55926,1,2,0:1:0:0:
175,85,56148,1,8,0:1:0:0:
114,137,56371,2,0,L|14:130,1,75,2|0,0:1|0:1,0:0:0:0:
6,39,56815,2,0,L|56:35,1,37.5,2|0,0:1|0:1,0:0:0:0:
191,161,57037,6,0,L|184:240,2,75,0|2|0,1:1|0:1|0:1,0:0:0:0:
249,106,57704,1,0,0:1:0:0:
233,325,57926,2,0,P|284:287|380:296,1,150,8|0,0:1|0:1,0:0:0:0:
367,289,58593,1,0,0:1:0:0:
486,198,58815,6,0,L|480:103,1,75,2|0,1:1|0:1,0:0:0:0:
410,62,59148,2,0,L|405:136,1,75,2|0,1:1|0:1,0:0:0:0:
333,181,59482,2,0,L|330:133,1,37.5,2|0,1:1|0:1,0:0:0:0:
166,74,59704,2,0,P|223:69|286:113,1,112.5,8|0,0:1|0:1,0:0:0:0:
252,179,60148,2,0,P|195:184|132:140,1,112.5,2|0,1:1|0:1,0:0:0:0:
66,31,60593,6,0,P|75:110|54:198,1,150,0|0,1:1|0:1,0:0:0:0:
55,183,61260,1,0,0:1:0:0:
3,318,61482,2,0,P|54:302|83:307,1,75,10|0,0:1|0:1,0:0:0:0:
101,324,61815,2,0,P|152:340|181:335,1,75,2|0,0:1|0:1,0:0:0:0:
193,312,62148,2,0,P|219:303|246:306,1,37.5,2|0,0:1|0:1,0:0:0:0:
336,355,62371,6,0,P|314:276|385:250,1,150,2|2,1:1|0:1,0:0:0:0:
362,246,63037,1,0,0:1:0:0:
498,141,63260,2,0,P|463:130|421:132,1,75,8|0,0:1|0:1,0:0:0:0:
355,170,63704,2,0,P|320:181|278:179,1,75,2|0,0:1|0:1,0:0:0:0:
196,96,64148,6,0,P|209:168|191:262,1,150,0|2,1:1|0:1,0:0:0:0:
195,250,64815,1,0,0:1:0:0:
123,123,65037,2,0,P|130:159|130:198,2,75,8|0|0,0:1|0:1|0:1,0:0:0:0:
62,73,65704,1,2,0:1:0:0:
8,260,65926,6,0,L|102:264,1,75,2|0,1:1|0:1,0:0:0:0:
131,322,66260,2,0,L|205:318,1,75,2|0,1:1|0:1,0:0:0:0:
257,258,66593,2,0,L|304:260,1,37.5,2|0,1:1|0:1,0:0:0:0:
382,369,66815,2,0,P|367:300|382:238,1,112.5,8|0,0:1|0:1,0:0:0:0:
428,205,67260,2,0,P|443:136|428:74,1,112.5,0|0,1:1|0:1,0:0:0:0:
376,45,67704,6,0,L|216:37,1,150,0|0,1:1|0:1,0:0:0:0:
220,44,68371,1,0,0:1:0:0:
86,183,68593,2,0,P|76:129|88:89,2,75,8|0|0,0:1|0:1|0:1,0:0:0:0:
154,136,69260,1,0,0:1:0:0:
24,291,69482,6,0,P|83:275|118:287,1,75,2|0,1:1|0:1,0:0:0:0:
128,301,69815,2,0,P|187:317|222:305,1,75,2|0,0:1|0:1,0:0:0:0:
226,290,70148,2,0,P|249:279|281:283,1,37.5,2|0,0:1|0:1,0:0:0:0:
349,384,70371,2,0,P|345:323|370:219,1,150,8|2,0:1|0:1,0:0:0:0:
368,231,71037,1,0,0:1:0:0:
501,126,71260,6,0,P|460:117|416:123,1,75,0|0,1:1|0:1,0:0:0:0:
273,214,71704,2,0,P|301:182|318:141,1,75,2|0,0:1|0:1,0:0:0:0:
188,24,72148,2,0,P|184:85|208:177,1,150,8|0,0:1|0:1,0:0:0:0:
210,177,72815,1,0,0:1:0:0:
54,274,73037,6,0,L|147:268,1,75,0|0,1:1|0:1,0:0:0:0:
175,341,73371,2,0,L|216:257,1,75,0|0,1:1|0:1,0:0:0:0:
293,260,73704,2,0,L|267:221,1,37.5,0|0,1:1|0:1,0:0:0:0:
173,155,73926,2,0,P|214:117|280:107,1,112.5,8|0,0:1|0:1,0:0:0:0:
340,144,74371,2,0,P|398:142|367:78,1,150,0|0,1:1|0:1,0:0:0:0:
110,79,76148,5,8,0:1:0:0:
128,258,76371,1,0,1:1:0:0:
251,128,76593,5,2,1:3:0:0:
178,118,76815,1,2,0:3:0:0:
211,195,77037,1,2,0:1:0:0:
218,53,77260,1,2,0:1:0:0:
362,95,77482,2,0,L|450:90,1,75,8|0,0:1|0:1,0:0:0:0:
489,28,77926,1,2,0:1:0:0:
510,103,78148,1,2,0:1:0:0:
476,262,78371,5,0,1:1:0:0:
431,198,78593,2,0,P|471:183|511:192,2,75,2|0|0,0:1|0:1|0:1,0:0:0:0:
414,347,79260,1,10,0:1:0:0:
398,270,79482,1,2,0:1:0:0:
308,378,79704,2,0,P|257:362|196:389,1,112.5,2|0,1:1|0:1,0:0:0:0:
144,334,80148,5,2,1:3:0:0:
143,311,80260,1,2,0:3:0:0:
142,288,80371,1,2,0:3:0:0:
85,235,80593,2,0,P|132:208|178:215,1,75,2|0,0:3|0:3,0:0:0:0:
322,183,81037,5,10,0:1:0:0:
247,170,81260,1,2,0:1:0:0:
282,313,81482,5,10,0:1:0:0:
292,109,81704,1,2,1:1:0:0:
342,35,81926,5,0,1:1:0:0:
322,23,82037,1,2,0:1:0:0:
302,15,82148,1,2,0:1:0:0:
278,14,82260,1,2,0:1:0:0:
258,20,82371,1,0,1:1:0:0:
239,32,82482,2,0,L|212:24,1,18.75,0|0,0:1|0:1,0:0:0:0:
231,50,82593,1,2,0:1:0:0:
189,179,82815,1,10,0:1:0:0:
170,103,83037,1,2,0:1:0:0:
34,234,83260,2,0,P|89:218|144:247,1,112.5,2|0,1:1|0:1,0:0:0:0:
185,296,83704,6,0,L|176:375,2,75,2|0|0,1:1|0:1|0:1,0:0:0:0:
252,199,84371,1,2,0:1:0:0:
261,348,84593,2,0,P|300:323|347:328,1,75,8|0,0:1|0:1,0:0:0:0:
435,384,85037,2,0,P|428:315|447:258,1,112.5,2|0,1:1|0:1,0:0:0:0:
492,216,85482,5,0,1:1:0:0:
492,216,85704,2,0,L|483:119,2,75,2|0|0,0:1|0:1|0:1,0:0:0:0:
413,108,86371,2,0,P|358:96|328:107,1,75,10|0,0:1|0:1,0:0:0:0:
214,154,86815,1,2,0:1:0:0:
214,154,87037,2,0,L|219:199,1,37.5,2|0,0:3|0:3,0:3:0:0:
134,111,87260,6,0,P|192:68|264:84,1,150,2|2,1:3|0:3,0:3:0:0:
299,158,87926,1,2,0:1:0:0:
447,84,88148,2,0,P|453:39|444:4,1,75,10|0,0:1|0:1,0:0:0:0:
381,131,88593,2,0,P|431:162|505:144,1,112.5,2|0,1:1|0:1,0:0:0:0:
507,231,89037,5,0,1:1:0:0:
390,284,89260,1,2,0:1:0:0:
483,303,89482,1,2,0:1:0:0:
371,278,89704,1,2,0:1:0:0:
417,369,89925,1,10,0:1:0:0:
403,187,90148,1,2,0:1:0:0:
301,334,90371,6,0,B|270:317|239:337|239:337|218:323|218:323|190:346|156:327,1,149.62499383564,2|0,0:1|0:1,0:0:0:0:
178,259,90815,6,0,L|172:191,3,60,0|0|0|0,0:1|0:1|0:1|0:1,0:0:0:0:
108,153,91704,2,0,L|114:85,3,60,0|0|0|0,0:1|0:1|0:1|0:1,0:0:0:0:
92,16,92593,2,0,P|124:12|160:31,3,60,0|0|0|0,0:1|0:1|0:1|0:1,0:0:0:0:
194,89,93482,2,0,P|226:93|262:73,3,60,0|0|0|0,0:1|0:1|0:1|0:1,0:0:0:0:
328,3,94371,6,0,L|322:83,3,60,0|0|0|0,0:1|0:1|0:1|0:1,0:0:0:0:
388,114,95260,2,0,L|394:194,3,60,0|0|0|0,0:1|0:1|0:1|0:1,0:0:0:0:
452,225,96148,2,0,P|488:225|516:205,3,60,0|0|0|0,0:1|0:1|0:1|0:1,0:0:0:0:
470,147,97037,2,0,P|470:111|490:83,3,60,0|0|0|0,0:1|0:1|0:1|0:1,0:0:0:0:
424,27,97926,6,0,L|343:22,3,60,0|0|0|0,0:1|0:1|0:1|0:1,0:0:0:0:
300,71,98815,2,0,L|240:74,3,60,0|0|0|0,0:1|0:1|0:1|0:1,0:0:0:0:
177,36,99704,2,0,P|141:27|104:36,3,60,0|0|0|0,0:1|0:1|0:1|0:1,0:0:0:0:
64,89,100593,2,0,P|28:98|-9:89,3,60,0|0|0|0,0:1|0:1|0:1|0:1,0:0:0:0:
122,146,101482,6,0,L|117:226,3,60,0|0|0|0,0:1|0:1|0:1|0:1,0:0:0:0:
196,108,102371,2,0,L|201:188,3,60,0|0|0|0,0:1|0:1|0:1|0:1,0:0:0:0:
258,63,103260,1,2,0:1:0:0:
292,74,103482,1,2,0:1:0:0:
292,109,103704,1,2,0:1:0:0:
258,119,103926,1,2,0:1:0:0:
360,18,104148,1,2,0:1:0:0:
364,53,104371,1,2,0:1:0:0:
368,88,104593,1,2,0:1:0:0:
372,123,104815,1,2,0:1:0:0:
215,311,105037,6,0,P|260:281|320:296,1,112.5,0|0,1:1|0:1,0:0:0:0:
139,363,105926,2,0,L|145:250,1,112.5,0|0,1:1|0:1,0:0:0:0:
0,177,106815,2,0,P|53:165|99:196,1,112.5,0|0,1:1|0:1,0:0:0:0:
273,206,107704,2,0,P|219:194|173:225,1,112.5,0|0,1:1|0:1,0:0:0:0:
238,384,108593,6,0,L|232:271,1,112.5,4|0,1:1|0:1,0:0:0:0:
353,182,109482,2,0,P|356:236|319:277,1,112.5,0|0,1:1|0:1,0:0:0:0:
451,384,110371,2,0,P|454:329|417:288,1,112.5,0|0,1:1|0:1,0:0:0:0:
268,358,111260,2,0,L|381:352,1,112.5,0|0,1:1|0:1,0:0:0:0:
428,186,112148,6,0,L|425:237,1,37.5,0|0,1:1|0:1,0:0:0:0:
503,147,112593,2,0,L|500:198,1,37.5,0|0,1:1|0:1,0:0:0:0:
360,119,113037,2,0,L|357:170,1,37.5,0|0,1:1|0:1,0:0:0:0:
466,39,113482,2,0,L|463:90,1,37.5,0|0,1:1|0:1,0:0:0:0:
254,98,113926,6,0,P|280:82|297:80,1,37.5,0|0,1:1|0:1,0:0:0:0:
175,95,114371,2,0,P|182:65|192:51,1,37.5,0|0,1:1|0:1,0:0:0:0:
167,211,114815,2,0,P|137:219|120:217,1,37.5,0|0,1:1|0:1,0:0:0:0:
267,177,115260,2,0,P|289:197|295:213,1,37.5,0|0,1:1|0:1,0:0:0:0:
97,334,115704,6,0,L|97:300,1,18.75,0|0,1:1|0:1,0:0:0:0:
171,310,115926,2,0,L|171:276,1,18.75,0|0,1:1|0:1,0:0:0:0:
245,286,116148,2,0,L|245:252,1,18.75,0|0,1:1|0:1,0:0:0:0:
319,262,116371,2,0,L|319:228,1,18.75,0|0,1:1|0:1,0:0:0:0:
268,158,116593,6,0,P|249:150|223:151,1,28.1250010728836,0|0,1:1|0:1,0:0:0:0:
174,114,116815,2,0,P|154:121|137:140,1,28.1250010728836,0|0,1:1|0:1,0:0:0:0:
76,149,117037,2,0,P|68:168|69:194,1,28.1250010728836,0|0,1:1|0:1,0:0:0:0:
31,243,117260,2,0,P|38:262|57:279,1,28.1250010728836,0|0,1:1|0:1,0:0:0:0:
0,141,117482,6,0,P|4:120|22:86,1,37.5,0|0,1:1|0:1,0:0:0:0:
74,61,117704,2,0,P|91:48|128:37,1,37.5,0|0,1:1|0:1,0:0:0:0:
183,33,117926,2,0,P|204:37|238:55,1,37.5,0|0,1:1|0:1,0:0:0:0:
279,90,118148,2,0,P|291:107|302:144,1,37.5,0|0,1:1|0:1,0:0:0:0:
398,240,118371,6,0,P|369:231|336:239,1,46.875,0|0,1:1|0:1,0:0:0:0:
285,287,118593,2,0,P|256:296|223:288,1,46.875,0|0,1:1|0:1,0:0:0:0:
118,328,118815,6,0,B|38:193|155:121|192:148|203:178|201:239|167:255,1,309.37501180172,8|0,0:1|0:1,0:0:0:0:
175,249,119260,6,0,B|237:219|236:273|300:240,1,125,4|0,1:1|0:1,0:0:0:0:
360,288,119704,2,0,P|373:238|321:167,1,125,0|0,1:1|0:1,0:0:0:0:
264,169,120148,5,10,0:1:0:0:
253,167,120297,1,2,0:1:0:0:
248,158,120445,1,2,0:1:0:0:
254,150,120593,1,2,0:1:0:0:
264,150,120741,1,2,0:1:0:0:
269,159,120889,1,2,0:1:0:0:
201,327,121037,5,2,1:1:0:0:
209,282,121186,1,2,0:1:0:0:
177,251,121334,1,2,0:1:0:0:
134,265,121482,1,2,0:1:0:0:
124,309,121630,1,2,0:1:0:0:
156,338,121778,1,2,0:1:0:0:
42,78,121926,5,10,0:1:0:0:
100,20,122074,1,2,0:1:0:0:
174,47,122223,1,2,0:1:0:0:
194,123,122371,1,2,0:1:0:0:
136,177,122519,1,2,0:1:0:0:
60,154,122667,1,2,0:1:0:0:
276,74,122815,6,0,B|349:44|333:102|411:64,1,137.5,0|0,1:1|0:1,0:0:0:0:
471,14,123704,5,10,0:1:0:0:
479,8,123852,1,2,0:1:0:0:
489,12,124000,1,2,0:1:0:0:
493,21,124148,1,2,0:1:0:0:
490,30,124297,1,2,0:1:0:0:
481,35,124445,1,2,0:1:0:0:
468,164,124593,5,2,1:1:0:0:
427,143,124741,1,2,0:1:0:0:
384,156,124889,1,2,0:1:0:0:
363,197,125037,1,2,0:1:0:0:
377,240,125186,1,2,0:1:0:0:
416,262,125334,1,2,0:1:0:0:
112,227,125482,5,10,0:1:0:0:
174,176,125630,1,2,0:1:0:0:
254,186,125778,1,2,0:1:0:0:
304,248,125926,1,2,0:1:0:0:
294,327,126074,1,2,0:1:0:0:
232,377,126223,1,2,0:1:0:0:
156,161,126371,6,0,P|154:104|171:28,1,125,0|0,1:1|0:1,0:0:0:0:
98,2,126815,2,0,L|67:4,1,25,0|0,1:1|0:1,0:0:0:0:
3,75,127037,2,0,L|34:77,1,25,0|0,1:1|0:1,0:0:0:0:
242,25,127260,5,10,0:1:0:0:
251,20,127408,1,2,0:1:0:0:
278,15,127556,1,2,0:1:0:0:
321,25,127704,1,2,0:1:0:0:
365,69,127852,1,2,0:1:0:0:
378,147,128000,1,2,0:1:0:0:
500,282,128148,6,0,P|467:245|392:240,1,125,0|0,1:1|0:1,0:0:0:0:
364,308,128593,2,0,L|366:339,1,25,0|0,1:1|0:1,0:0:0:0:
295,258,128815,2,0,L|297:227,1,25,0|0,1:1|0:1,0:0:0:0:
58,316,129037,5,10,0:1:0:0:
67,321,129186,1,2,0:1:0:0:
94,326,129334,1,2,0:1:0:0:
137,316,129482,1,2,0:1:0:0:
181,272,129630,1,2,0:1:0:0:
194,194,129778,1,2,0:1:0:0:
53,69,129926,6,0,P|94:41|148:63,1,100,0|0,1:1|0:1,0:0:0:0:
109,136,130371,1,2,0:1:0:0:
53,69,130519,1,2,0:1:0:0:
139,54,130667,1,2,0:1:0:0:
307,135,130815,6,0,P|266:107|212:129,1,100,8|0,0:1|0:1,0:0:0:0:
251,202,131260,1,2,0:1:0:0:
307,135,131408,1,2,0:1:0:0:
220,120,131556,1,2,0:1:0:0:
64,240,131704,6,0,P|105:212|159:234,1,100,0|0,1:1|0:1,0:0:0:0:
177,367,132148,6,0,P|173:317|219:281,2,100,2|2|2,1:1|0:1|0:1,0:0:0:0:
448,240,132593,6,0,P|407:212|353:234,1,100,8|0,0:1|0:1,0:0:0:0:
335,367,133037,6,0,P|338:317|292:281,2,100,2|2|2,1:1|0:1|0:1,0:0:0:0:
325,368,133371,1,0,1:1:0:0:
256,348,133482,6,0,B|233:288|279:275|255:212,1,125,4|0,1:1|0:1,0:0:0:0:
202,172,133926,2,0,P|256:148|321:182,1,125,0|0,1:1|0:1,0:0:0:0:
367,237,134371,5,10,0:1:0:0:
376,236,134519,1,2,0:1:0:0:
385,232,134667,1,2,0:1:0:0:
390,224,134815,1,2,0:1:0:0:
390,213,134963,1,2,0:1:0:0:
385,205,135111,1,2,0:1:0:0:
473,170,135260,5,2,1:1:0:0:
503,203,135408,1,2,0:1:0:0:
509,247,135556,1,2,0:1:0:0:
494,289,135704,1,2,0:1:0:0:
460,321,135852,1,2,0:1:0:0:
415,325,136000,1,2,0:1:0:0:
472,90,136148,5,10,0:1:0:0:
392,88,136297,1,2,0:1:0:0:
326,132,136445,1,2,0:1:0:0:
289,202,136593,1,2,0:1:0:0:
288,284,136741,1,2,0:1:0:0:
337,348,136889,1,2,0:1:0:0:
126,281,137037,6,0,P|159:243|168:304,1,137.5,0|0,1:1|0:1,0:0:0:0:
111,362,137926,5,10,0:1:0:0:
100,360,138074,1,2,0:1:0:0:
90,361,138223,1,2,0:1:0:0:
80,364,138371,1,2,0:1:0:0:
72,369,138519,1,2,0:1:0:0:
66,377,138667,1,2,0:1:0:0:
15,273,138815,5,2,1:1:0:0:
56,258,138963,1,2,0:1:0:0:
101,253,139111,1,2,0:1:0:0:
144,261,139260,1,2,0:1:0:0:
185,280,139408,1,2,0:1:0:0:
219,309,139556,1,2,0:1:0:0:
373,327,139704,5,10,0:1:0:0:
332,257,139852,1,2,0:1:0:0:
274,199,140000,1,2,0:1:0:0:
203,158,140148,1,2,0:1:0:0:
124,137,140297,1,2,0:1:0:0:
42,137,140445,1,2,0:1:0:0:
220,139,140593,6,0,P|231:89|216:12,1,125,0|0,1:1|0:1,0:0:0:0:
305,14,141037,2,0,L|329:10,1,25,0|0,1:1|0:1,0:0:0:0:
421,60,141260,2,0,L|397:57,1,25,0|0,1:1|0:1,0:0:0:0:
355,212,141482,5,10,0:1:0:0:
350,203,141630,1,2,0:1:0:0:
353,175,141778,1,2,0:1:0:0:
390,149,141926,1,2,0:1:0:0:
448,169,142074,1,2,0:1:0:0:
455,249,142223,1,2,0:1:0:0:
363,344,142371,6,0,P|320:305|241:316,1,125,0|0,1:1|0:1,0:0:0:0:
192,353,142815,2,0,L|195:387,1,25,0|0,1:1|0:1,0:0:0:0:
130,304,143037,2,0,L|132:279,1,25,0|0,1:1|0:1,0:0:0:0:
136,141,143260,5,10,0:1:0:0:
141,150,143408,1,2,0:1:0:0:
138,178,143556,1,2,0:1:0:0:
101,204,143704,1,2,0:1:0:0:
43,184,143852,1,2,0:1:0:0:
36,104,144000,1,2,0:1:0:0:
211,93,144148,6,0,P|174:59|125:58,1,100,0|0,1:1|0:1,0:0:0:0:
256,164,144593,6,0,L|256:64,2,100,2|2|2,1:1|0:1|0:1,0:0:0:0:
301,93,145037,6,0,P|337:59|386:58,1,100,0|0,1:1|0:1,0:0:0:0:
256,264,145482,6,0,L|256:164,1,100,10|2,0:1|0:1,0:0:0:0:
256,148,145704,2,0,L|256:98,1,50,0|2,1:1|0:1,0:0:0:0:
256,20,145926,5,4,1:1:0:0:
334,10,147037,5,0,1:1:0:0:
303,172,147260,1,8,0:1:0:0:
303,172,147704,5,2,1:3:0:0:
281,189,147815,1,0,0:1:0:0:
259,207,147926,2,0,L|200:196,1,46.875,2|0,0:3|0:1,0:0:0:0:
92,154,148148,2,0,P|118:143|147:145,1,46.875,2|0,1:1|0:1,0:0:0:0:
159,261,148371,2,0,P|133:272|104:270,1,46.875,2|0,0:1|0:1,0:0:0:0:
15,191,148593,5,8,0:1:0:0:
9,163,148704,1,0,0:1:0:0:
13,135,148815,1,0,0:1:0:0:
25,110,148926,1,0,0:1:0:0:
44,90,149037,2,0,L|109:74,1,46.875,2|0,0:1|0:1,0:0:0:0:
153,29,149260,2,0,L|218:45,1,46.875,2|0,0:1|0:1,0:0:0:0:
256,173,149482,5,0,1:1:0:0:
245,146,149593,1,0,0:1:0:0:
246,117,149704,2,0,P|263:90|288:76,1,46.875,2|0,0:1|0:1,0:0:0:0:
348,44,149926,1,0,0:1:0:0:
375,47,150037,1,0,0:1:0:0:
402,51,150148,2,0,L|468:62,1,46.875,0|0,0:1|0:1,0:0:0:0:
399,237,150371,6,0,P|384:212|382:175,1,46.875,10|0,0:1|0:1,0:0:0:0:
434,134,150593,2,0,P|463:133|496:150,1,46.875,2|0,0:1|0:1,0:0:0:0:
505,215,150815,2,0,P|490:240|459:260,1,46.875,2|0,0:1|0:1,0:0:0:0:
382,314,151037,1,0,0:1:0:0:
354,309,151148,1,0,0:1:0:0:
313,242,151260,5,2,1:3:0:0:
277,312,151371,1,2,0:3:0:0:
319,378,151482,2,0,L|375:386,1,46.875,2|0,0:3|0:3,0:0:0:0:
211,359,151704,2,0,L|165:353,3,46.875,2|0|0|0,1:3|0:3|0:3|0:3,0:0:0:0:
121,198,152148,6,0,L|129:254,1,46.875,10|0,0:1|0:1,0:0:0:0:
56,259,152371,2,0,L|64:315,1,46.875,2|0,0:1|0:1,0:0:0:0:
127,151,152593,2,0,L|119:207,1,46.875,2|0,0:1|0:1,0:0:0:0:
59,114,152815,2,0,L|51:170,1,46.875,2|0,0:1|0:1,0:0:0:0:
170,47,153037,5,0,1:1:0:0:
245,21,153148,1,2,0:1:0:0:
289,87,153260,1,2,0:1:0:0:
368,108,153371,1,2,0:1:0:0:
395,101,153482,1,0,0:1:0:0:
422,94,153593,2,0,L|430:68,1,23.4375,0|0,0:1|0:1,0:0:0:0:
503,56,153704,2,0,L|497:9,1,46.875,2|0,0:1|0:1,0:0:0:0:
475,156,153926,6,0,L|470:203,1,46.875,10|0,0:1|0:1,0:0:0:0:
397,186,154148,2,0,L|392:233,1,46.875,2|0,0:1|0:1,0:0:0:0:
321,292,154371,2,0,L|315:245,1,46.875,2|0,0:1|0:1,0:0:0:0:
260,188,154593,1,2,0:1:0:0:
239,262,154704,1,2,0:1:0:0:
181,206,154815,6,0,L|121:212,3,46.875,2|0|0|0,1:1|0:1|0:1|0:1,0:0:0:0:
1,119,155260,1,0,1:1:0:0:
28,115,155371,1,0,0:1:0:0:
54,125,155482,2,0,P|86:136|103:157,1,46.875,2|0,0:1|0:1,0:0:0:0:
126,50,155704,6,0,L|119:-9,3,46.875,8|0|0|0,0:1|0:1|0:1|0:1,0:0:0:0:
184,104,156148,2,0,P|208:105|238:95,1,46.875,2|0,0:1|0:1,0:0:0:0:
288,47,156371,2,0,P|312:46|342:56,1,46.875,0|0,0:1|0:1,0:0:0:0:
479,113,156593,5,0,1:1:0:0:
451,110,156704,1,0,0:1:0:0:
425,121,156815,2,0,P|399:136|383:159,1,46.875,2|0,0:1|0:1,0:0:0:0:
372,271,157037,2,0,L|381:337,3,46.875,0|0|0|0,1:1|0:1|0:1|0:1,0:0:0:0:
253,173,157482,6,0,P|279:188|295:211,3,46.875,10|0|0|0,0:1|0:1|0:1|0:1,0:0:0:0:
225,250,157926,2,0,L|216:316,1,46.875,2|0,0:1|0:1,0:0:0:0:
142,198,158148,2,0,L|151:264,1,46.875,2|0,0:3|0:3,0:3:0:0:
17,338,158371,6,0,P|31:315|58:300,3,46.875,2|0|0|0,1:3|0:3|0:3|0:3,0:3:0:0:
15,233,158815,2,0,P|15:206|31:179,1,46.875,2|0,0:3|0:3,0:3:0:0:
85,142,159037,2,0,P|84:115|68:88,1,46.875,2|0,0:1|0:1,0:0:0:0:
16,38,159260,5,10,0:1:0:0:
40,24,159371,1,0,0:1:0:0:
67,17,159482,1,0,0:1:0:0:
139,49,159593,1,2,0:1:0:0:
204,6,159704,2,0,L|264:14,1,46.875,2|0,0:1|0:1,0:0:0:0:
311,65,159926,2,0,L|371:57,1,46.875,2|0,0:1|0:1,0:0:0:0:
471,17,160148,5,0,1:1:0:0:
465,44,160260,1,0,0:1:0:0:
472,70,160371,2,0,P|487:97|509:115,1,46.875,2|0,0:1|0:1,0:0:0:0:
512,184,160593,2,0,P|481:183|454:193,1,46.875,2|0,0:1|0:1,0:0:0:0:
393,160,160815,2,0,P|408:133|413:105,1,46.875,2|0,0:1|0:1,0:0:0:0:
308,18,161037,6,0,L|311:78,1,46.875,10|0,0:1|0:1,0:0:0:0:
247,112,161260,2,0,L|244:172,1,46.875,2|0,0:1|0:1,0:0:0:0:
307,209,161482,2,0,L|310:269,3,46.875,2|0|0|0,0:1|0:1|0:1|0:1,0:0:0:0:
161,352,161926,6,0,P|181:335|225:334,3,46.875,2|0|2|0,1:3|0:1|0:3|0:1,0:0:0:0:
195,234,162371,2,0,P|196:206|193:177,1,46.875,2|0,1:1|0:1,0:0:0:0:
133,135,162593,2,0,P|132:107|135:78,1,46.875,2|0,0:1|0:1,0:0:0:0:
197,22,162815,5,8,0:1:0:0:
222,9,162926,1,0,0:1:0:0:
249,3,163037,1,0,0:1:0:0:
277,4,163148,1,0,0:1:0:0:
304,10,163260,2,0,L|311:76,1,46.875,2|0,0:1|0:1,0:0:0:0:
378,101,163482,2,0,L|371:167,1,46.875,2|0,0:1|0:1,0:0:0:0:
281,262,163704,5,0,1:1:0:0:
303,244,163815,1,0,0:1:0:0:
331,240,163926,2,0,P|364:243|386:259,1,46.875,2|0,0:1|0:1,0:0:0:0:
391,338,164148,1,0,0:1:0:0:
369,356,164260,1,0,0:1:0:0:
341,360,164371,2,0,P|308:357|286:341,1,46.875,0|0,0:1|0:1,0:0:0:0:
189,246,164593,6,0,L|135:239,1,46.875,10|0,0:1|0:1,0:0:0:0:
93,309,164815,2,0,L|113:359,1,46.875,2|0,0:1|0:1,0:0:0:0:
195,360,165037,2,0,L|228:316,1,46.875,2|0,0:1|0:1,0:0:0:0:
268,214,165260,1,0,0:1:0:0:
264,186,165371,1,0,0:1:0:0:
326,135,165482,5,2,1:3:0:0:
252,108,165593,1,2,0:3:0:0:
191,158,165704,2,0,L|188:231,1,46.875,2|0,0:3|0:3,0:0:0:0:
184,59,165926,2,0,L|185:12,3,46.875,2|0|0|0,1:3|0:3|0:3|0:3,0:0:0:0:
112,183,166371,6,0,L|113:229,1,46.875,10|0,0:1|0:1,0:0:0:0:
39,152,166593,2,0,L|40:198,1,46.875,2|0,0:1|0:1,0:0:0:0:
113,229,166815,2,0,L|111:275,1,46.875,2|0,0:1|0:1,0:0:0:0:
189,204,167037,2,0,L|187:250,1,46.875,2|0,0:1|0:1,0:0:0:0:
148,347,167260,5,0,1:1:0:0:
223,373,167371,1,2,0:1:0:0:
271,308,167482,1,2,0:1:0:0:
346,286,167593,1,2,0:1:0:0:
373,293,167704,1,0,0:1:0:0:
400,300,167815,2,0,L|408:326,1,23.4375,0|0,0:1|0:1,0:0:0:0:
481,338,167926,2,0,L|475:385,1,46.875,2|0,0:1|0:1,0:0:0:0:
501,247,168148,6,0,L|494:183,1,46.875,10|0,0:1|0:1,0:0:0:0:
423,220,168371,2,0,L|417:173,1,46.875,2|0,0:1|0:1,0:0:0:0:
485,79,168593,2,0,L|478:143,1,46.875,2|0,0:1|0:1,0:0:0:0:
495,200,168815,1,2,0:1:0:0:
417,173,168926,1,2,0:1:0:0:
408,92,169037,5,2,1:3:0:0:
335,76,169148,1,2,0:3:0:0:
284,131,169260,1,2,1:3:0:0:
306,202,169371,2,0,L|316:228,1,23.4375,2|2,0:3|0:3,0:0:0:0:
301,239,169482,5,8,0:0:0:0:
272,236,169593,1,8,0:0:0:0:
244,232,169704,1,8,0:0:0:0:
216,229,169815,1,8,0:0:0:0:
118,91,169926,6,0,L|111:28,3,46.875,8|0|0|0,0:1|0:1|0:1|0:1,0:0:0:0:
65,146,170371,2,0,P|61:175|67:216,1,46.875,2|0,0:1|0:1,0:0:0:0:
116,246,170593,2,0,P|120:275|114:316,1,46.875,0|0,0:1|0:1,0:0:0:0:
73,382,170815,5,0,1:1:0:0:
97,368,170926,1,0,0:1:0:0:
125,368,171037,2,0,P|156:371|178:382,1,46.875,2|0,0:1|0:1,0:0:0:0:
230,284,171260,2,0,L|235:237,3,46.875,0|0|0|0,1:1|0:1|0:1|0:1,0:0:0:0:
288,374,171704,6,0,P|314:378|341:370,3,46.875,10|0|0|0,0:1|0:1|0:1|0:1,0:0:0:0:
313,302,172148,2,0,L|321:247,1,46.875,2|0,0:1|0:1,0:0:0:0:
381,208,172371,2,0,L|373:153,1,46.875,2|0,0:1|0:1,0:0:0:0:
316,101,172593,6,0,P|347:83|433:102,1,112.5,0|0,0:1|0:1,0:0:0:0:
283,30,173482,2,0,P|252:12|166:31,1,112.5,8|0,0:1|0:1,0:0:0:0:
217,126,174371,1,0,1:1:0:0:
17,285,176148,6,0,L|111:274,1,75,0|0,1:1|0:1,0:0:0:0:
154,330,176593,2,0,L|228:338,1,75,0|0,0:1|0:1,0:0:0:0:
299,175,177037,2,0,P|311:213|303:269,1,75,10|0,0:1|0:1,0:0:0:0:
301,266,177371,1,2,0:1:0:0:
374,306,177482,2,0,P|405:260|473:240,1,112.5,0|0,1:1|0:1,0:0:0:0:
443,155,177926,6,0,P|404:146|359:111,1,75,2|0,1:1|0:1,0:0:0:0:
336,64,178371,1,2,0:1:0:0:
385,0,178593,1,2,0:1:0:0:
161,83,178815,1,8,0:1:0:0:
228,120,179037,2,0,L|221:210,2,75,2|0|0,0:1|0:1|0:1,0:0:0:0:
96,36,179704,6,0,P|81:74|97:126,1,75,0|0,1:1|0:1,0:0:0:0:
133,181,180148,2,0,P|148:219|132:271,1,75,2|0,0:1|0:1,0:0:0:0:
36,364,180593,2,0,P|93:331|191:367,1,150,8|0,0:1|0:1,0:0:0:0:
171,348,181260,1,2,0:1:0:0:
225,223,181482,6,0,L|236:315,1,75,2|0,1:1|0:1,0:0:0:0:
299,337,181815,2,0,L|373:280,1,75,2|0,1:1|0:1,0:0:0:0:
342,215,182148,2,0,L|299:197,1,37.5,2|0,1:1|2:1,2:0:0:0:
211,49,182371,2,0,P|247:98|241:173,1,112.5,8|0,0:1|0:1,0:0:0:0:
171,174,182815,2,0,P|134:124|140:49,1,112.5,0|0,1:1|0:1,0:0:0:0:
204,24,183260,6,0,L|290:19,1,75,0|0,1:1|0:1,0:0:0:0:
336,84,183704,2,0,L|422:89,1,75,2|0,0:1|0:1,0:0:0:0:
508,3,184148,1,8,0:1:0:0:
481,73,184371,1,0,0:1:0:0:
335,220,184593,2,0,P|367:178|434:165,1,112.5,0|0,1:1|0:1,0:0:0:0:
492,209,185037,6,0,L|481:285,1,75,2|0,1:1|0:1,0:0:0:0:
461,296,185371,1,2,0:1:0:0:
440,308,185482,1,0,0:1:0:0:
410,240,185704,1,2,0:1:0:0:
302,373,185926,1,8,0:1:0:0:
244,324,186148,2,0,P|212:308|163:314,1,75,2|0,0:1|0:1,0:0:0:0:
194,384,186593,1,2,0:1:0:0:
87,352,186815,6,0,P|79:285|143:222,1,150,0|0,1:1|0:1,0:0:0:0:
139,225,187482,1,0,0:1:0:0:
338,193,187704,2,0,P|280:157|196:188,1,150,8|0,0:1|0:1,0:0:0:0:
266,241,188371,1,0,0:1:0:0:
135,144,188593,6,0,L|141:49,1,75,0|0,1:1|0:1,0:0:0:0:
211,8,188926,2,0,L|216:82,1,75,0|0,1:1|0:1,0:0:0:0:
288,127,189260,2,0,L|291:79,1,37.5,0|0,1:1|0:1,0:0:0:0:
455,20,189482,2,0,P|398:15|335:59,1,112.5,8|0,0:1|0:1,0:0:0:0:
369,125,189926,2,0,P|426:130|489:86,1,112.5,0|0,1:1|0:1,0:0:0:0:
499,279,190371,6,0,P|468:259|415:259,2,75,0|0|0,1:1|0:1|0:1,0:0:0:0:
441,330,191037,1,2,0:1:0:0:
307,275,191260,2,0,L|215:263,1,75,10|0,0:1|0:1,0:0:0:0:
215,277,191593,1,2,0:1:0:0:
151,332,191704,2,0,P|133:261|164:205,1,112.5,0|0,1:1|0:1,0:0:0:0:
210,166,192148,6,0,P|140:140|69:201,1,150,2|0,1:1|0:1,0:0:0:0:
55,252,192815,1,2,0:1:0:0:
17,49,193037,2,0,P|52:32|107:42,1,75,8|0,0:1|0:1,0:0:0:0:
154,87,193482,2,0,P|191:88|224:71,1,75,2|0,0:1|0:1,0:0:0:0:
286,206,193926,6,0,L|290:131,2,75,0|0|0,1:1|0:1|0:1,0:0:0:0:
332,268,194593,1,0,0:1:0:0:
367,100,194815,2,0,P|322:57|224:84,1,150,8|0,0:1|0:1,0:0:0:0:
197,130,195482,1,0,0:1:0:0:
8,260,195704,6,0,L|102:264,1,75,2|0,1:1|0:1,0:0:0:0:
131,322,196037,2,0,L|205:318,1,75,2|0,1:1|0:1,0:0:0:0:
257,258,196371,2,0,L|304:260,1,37.5,2|0,1:1|0:1,0:0:0:0:
382,369,196593,2,0,P|367:300|382:238,1,112.5,8|0,0:1|0:1,0:0:0:0:
428,205,197037,2,0,P|443:136|428:74,1,112.5,0|0,1:1|0:1,0:0:0:0:
376,40,197482,6,0,L|293:46,1,75,0|0,1:1|0:1,0:0:0:0:
230,9,197926,2,0,L|147:3,1,75,2|0,0:1|0:1,0:0:0:0:
159,189,198371,1,8,0:1:0:0:
139,116,198593,1,0,0:1:0:0:
19,266,198815,2,0,P|79:248|138:276,1,112.5,0|0,1:1|0:1,0:0:0:0:
196,332,199260,6,0,L|200:257,1,75,2|0,1:1|0:1,0:0:0:0:
217,243,199593,1,2,0:1:0:0:
234,229,199704,1,0,0:1:0:0:
282,293,199926,1,2,0:1:0:0:
325,115,200148,1,8,0:1:0:0:
383,167,200371,2,0,P|418:176|454:167,1,75,2|0,0:1|0:1,0:0:0:0:
419,96,200815,1,2,0:1:0:0:
374,256,201037,6,0,P|296:239|243:302,1,150,0|0,1:1|0:1,0:0:0:0:
245,289,201704,1,0,0:1:0:0:
36,300,201926,2,0,P|114:283|167:346,1,150,8|0,0:1|0:1,0:0:0:0:
88,359,202593,1,0,0:1:0:0:
37,209,202815,6,0,L|49:113,1,75,0|0,1:1|0:1,0:0:0:0:
0,73,203148,2,0,L|90:36,1,75,0|0,1:1|0:1,0:0:0:0:
129,0,203482,2,0,L|168:30,1,37.5,0|0,1:1|0:1,0:0:0:0:
119,168,203704,2,0,P|159:129|234:136,1,112.5,8|0,0:1|0:1,0:0:0:0:
285,85,204148,2,0,P|325:124|400:117,1,112.5,0|0,1:1|0:1,0:0:0:0:
213,126,204593,6,0,P|221:166|222:221,1,86.2500016450882,0|0,1:1|0:1,0:0:0:0:
295,0,205037,2,0,P|287:40|286:95,1,86.2500016450882,0|0,0:1|0:1,0:0:0:0:
67,75,205482,2,0,P|101:49|165:50,1,86.2500016450882,10|0,0:1|0:1,0:0:0:0:
162,58,205815,1,2,0:1:0:0:
129,126,205926,2,0,P|104:185|115:258,1,129.375002467632,0|0,1:1|0:1,0:0:0:0:
74,360,206371,6,0,B|112:338|112:338|167:362,1,86.2500016450882,2|0,1:1|0:1,0:0:0:0:
206,297,206815,1,2,0:1:0:0:
198,225,207037,1,2,0:1:0:0:
332,366,207260,1,8,0:1:0:0:
384,306,207482,2,0,P|439:293|476:309,1,86.2500016450882,2|0,0:1|0:1,0:0:0:0:
428,371,207926,1,2,0:1:0:0:
498,225,208148,6,0,P|489:181|487:133,1,86.2500016450882,0|0,1:1|0:1,0:0:0:0:
417,99,208593,2,0,P|426:55|428:7,1,86.2500016450882,0|0,0:1|0:1,0:0:0:0:
181,78,209037,2,0,P|256:50|344:98,1,172.500003290176,8|0,0:1|0:1,0:0:0:0:
335,87,209704,1,0,0:1:0:0:
282,203,209926,6,0,L|293:309,1,86.2500016450882,2|0,1:1|0:1,0:0:0:0:
360,238,210260,2,0,L|262:194,1,86.2500016450882,2|0,1:1|0:1,0:0:0:0:
290,288,210593,2,0,L|333:256,1,43.1250008225441,2|0,1:1|0:1,0:0:0:0:
214,141,210815,2,0,P|192:196|220:265,1,129.375002467632,8|0,0:1|0:1,0:0:0:0:
128,384,211260,2,0,P|106:329|134:260,1,129.375002467632,0|0,1:1|0:1,0:0:0:0:
31,171,211704,6,0,P|85:158|126:174,1,86.2500016450882,2|0,1:1|0:1,0:0:0:0:
173,113,212148,1,2,0:1:0:0:
168,38,212371,1,2,0:1:0:0:
282,176,212593,2,0,L|273:277,1,86.2500016450882,8|0,0:1|0:1,0:0:0:0:
190,370,213037,2,0,P|242:338|328:369,1,129.375002467632,2|0,1:1|0:1,0:0:0:0:
386,367,213482,6,0,L|375:271,2,86.2500016450882,0|0|0,1:1|0:1|0:1,0:0:0:0:
452,313,214148,1,2,0:1:0:0:
280,196,214371,1,8,0:1:0:0:
350,155,214593,2,0,P|365:116|357:70,1,86.2500016450882,2|0,0:1|0:1,0:0:0:0:
284,107,215037,1,2,0:1:0:0:
496,242,215260,6,0,P|433:221|342:275,1,172.500003290176,0|0,1:1|0:1,0:0:0:0:
343,277,215926,1,0,0:1:0:0:
174,254,216148,2,0,P|216:242|272:263,1,86.2500016450882,8|0,0:1|0:1,0:0:0:0:
214,328,216593,2,0,P|172:340|116:319,1,86.2500016450882,0|0,0:1|0:1,0:0:0:0:
39,228,217037,6,0,L|46:125,1,86.2500016450882,2|0,1:1|0:1,0:0:0:0:
116,76,217371,2,0,L|123:179,1,86.2500016450882,2|0,1:1|0:1,0:0:0:0:
194,211,217704,2,0,L|197:159,1,43.1250008225441,2|0,1:1|0:1,0:0:0:0:
381,120,217926,2,0,P|314:99|258:132,1,129.375002467632,8|0,0:1|0:1,0:0:0:0:
271,203,218371,2,0,P|338:224|394:191,1,129.375002467632,2|0,1:1|0:1,0:0:0:0:
463,104,218815,6,0,L|458:12,2,86.2500016450882,0|0|0,1:1|0:1|0:1,0:0:0:0:
467,181,219482,1,0,0:1:0:0:
352,68,219704,2,0,P|308:56|262:68,1,86.2500016450882,10|0,0:1|0:1,0:0:0:0:
253,79,220037,1,2,0:1:0:0:
183,22,220148,2,0,L|174:174,1,129.375002467632,0|0,1:1|0:1,0:0:0:0:
77,247,220593,6,0,P|151:224|234:281,1,172.500003290176,2|2,1:1|0:1,0:0:0:0:
254,345,221260,1,2,0:1:0:0:
404,254,221482,1,8,0:1:0:0:
366,184,221704,2,0,P|331:160|286:160,1,86.2500016450882,2|0,0:1|0:1,0:0:0:0:
308,234,222148,1,2,0:1:0:0:
457,90,222371,6,0,L|451:2,2,86.2500016450882,0|0|0,1:1|0:1|0:1,0:0:0:0:
461,163,223037,1,0,0:1:0:0:
328,54,223260,2,0,P|244:39|174:100,1,172.500003290176,8|0,0:1|0:1,0:0:0:0:
161,163,223926,1,0,0:1:0:0:
28,7,224148,6,0,L|35:107,1,86.2500016450882,2|0,1:1|0:1,0:0:0:0:
83,151,224482,2,0,L|76:251,1,86.2500016450882,2|0,1:1|0:1,0:0:0:0:
16,292,224815,2,0,L|19:342,1,43.1250008225441,2|0,1:1|0:1,0:0:0:0:
141,292,225037,2,0,P|194:273|265:309,1,129.375002467632,8|0,0:1|0:1,0:0:0:0:
297,367,225482,2,0,P|350:386|421:350,1,129.375002467632,0|0,1:1|0:1,0:0:0:0:
466,275,225926,5,0,1:1:0:0:
466,275,226148,2,0,L|459:178,2,86.2500016450882,2|0|0,0:1|0:1|0:1,0:0:0:0:
310,142,226815,1,8,0:1:0:0:
382,167,227037,1,0,0:1:0:0:
233,317,227260,2,0,L|242:167,1,129.375002467632,0|0,1:1|0:1,0:0:0:0:
190,127,227704,6,0,P|144:117|96:137,1,86.2500016450882,2|0,1:1|0:1,0:0:0:0:
94,151,228037,1,2,0:1:0:0:
81,173,228148,1,0,0:1:0:0:
26,107,228371,1,2,0:1:0:0:
14,307,228593,2,0,P|58:292|111:308,1,86.2500016450882,8|0,0:1|0:1,0:0:0:0:
162,346,229037,2,0,P|206:361|259:345,1,86.2500016450882,2|0,0:1|0:1,0:0:0:0:
301,212,229482,5,0,1:1:0:0:
273,284,229704,1,0,0:1:0:0:
366,161,229926,2,0,P|330:134|277:136,1,86.2500016450882,2|0,0:1|0:1,0:0:0:0:
120,229,230371,1,8,0:1:0:0:
182,171,230593,2,0,L|177:83,2,86.2500016450882,2|0|0,0:1|0:1|0:1,0:0:0:0:
211,307,231260,6,0,L|302:323,1,86.2500016450882,0|0,1:1|0:1,0:0:0:0:
339,256,231593,2,0,L|430:240,1,86.2500016450882,0|0,1:1|0:1,0:0:0:0:
468,306,231926,2,0,L|513:314,1,43.1250008225441,0|0,1:1|0:1,0:0:0:0:
434,167,232148,2,0,P|427:101|458:37,1,129.375002467632,8|0,0:1|0:1,0:0:0:0:
374,10,232593,2,0,P|320:49|249:54,1,129.375002467632,0|0,1:1|0:1,0:0:0:0:
189,0,233037,6,0,L|184:42,3,37.5,0|0|0|0,1:1|0:1|0:1|0:1,0:0:0:0:
55,70,233926,2,0,L|60:112,3,37.5,0|0|0|0,1:1|0:1|0:1|0:1,0:0:0:0:
239,106,234815,2,0,L|234:148,3,37.5,0|0|0|0,1:1|0:1|0:1|0:1,0:0:0:0:
10,172,235704,2,0,L|15:214,3,37.5,0|0|0|0,1:1|0:1|0:1|0:1,0:0:0:0:
135,346,236593,6,0,L|172:350,3,37.5,0|0|0|0,1:1|0:1|0:1|0:1,0:0:0:0:
264,290,237482,2,0,L|301:285,3,37.5,0|0|0|0,1:1|0:1|0:1|0:1,0:0:0:0:
104,272,238371,2,0,L|66:267,3,37.5,0|0|0|0,1:1|0:1|0:1|0:1,0:0:0:0:
289,209,239260,2,0,L|326:204,3,37.5,0|0|0|0,1:1|0:1|0:1|0:1,0:0:0:0:
337,44,240148,6,0,L|333:7,3,37.5,0|0|0|0,1:1|0:1|0:1|0:1,0:0:0:0:
467,77,241037,2,0,L|462:119,3,37.5,0|0|0|0,1:1|0:1|0:1|0:1,0:0:0:0:
283,113,241926,2,0,L|288:155,3,37.5,0|0|0|0,1:1|0:1|0:1|0:1,0:0:0:0:
512,179,242815,2,0,L|507:221,3,37.5,0|0|0|0,1:1|0:1|0:1|0:1,0:0:0:0:
340,359,243704,5,2,1:1:0:0:
338,336,243926,1,2,0:1:0:0:
336,313,244148,1,2,0:1:0:0:
334,290,244371,1,2,0:1:0:0:
178,290,244593,5,2,1:1:0:0:
180,267,244815,1,2,0:1:0:0:
182,244,245037,1,2,0:1:0:0:
184,221,245260,1,2,0:1:0:0:
363,176,245482,5,2,1:1:0:0:
351,154,245704,1,2,0:1:0:0:
330,140,245926,1,2,0:1:0:0:
306,134,246148,1,2,0:1:0:0:
143,103,246371,5,2,1:1:0:0:
161,85,246593,1,2,0:1:0:0:
185,78,246815,1,2,0:1:0:0:
210,80,247037,1,2,0:1:0:0:
95,207,247260,6,0,L|98:156,1,37.5,0|0,1:1|0:1,0:0:0:0:
20,246,247704,2,0,L|23:195,1,37.5,0|0,1:1|0:1,0:0:0:0:
163,274,248148,2,0,L|166:223,1,37.5,0|0,1:1|0:1,0:0:0:0:
57,354,248593,2,0,L|60:303,1,37.5,0|0,1:1|0:1,0:0:0:0:
187,160,249037,6,0,P|207:167|226:187,1,37.5,0|0,1:1|0:1,0:0:0:0:
236,289,249482,2,0,P|241:271|253:256,1,37.5,0|0,1:1|0:1,0:0:0:0:
365,240,249926,2,0,P|347:234|332:222,1,37.5,0|0,1:1|0:1,0:0:0:0:
316,111,250371,2,0,P|310:128|298:143,1,37.5,0|0,1:1|0:1,0:0:0:0:
205,47,250815,6,0,L|208:-4,1,37.5,4|0,1:1|0:1,0:0:0:0:
130,86,251260,2,0,L|133:35,1,37.5,0|0,1:1|0:1,0:0:0:0:
273,114,251704,2,0,L|276:63,1,37.5,0|0,1:1|0:1,0:0:0:0:
167,194,252148,2,0,L|170:143,1,37.5,0|0,1:1|0:1,0:0:0:0:
341,202,252593,6,0,P|320:192|299:189,1,37.5,0|0,1:1|0:1,0:0:0:0:
412,175,253037,2,0,P|421:154|424:133,1,37.5,0|0,1:1|0:1,0:0:0:0:
438,247,253482,2,0,P|458:256|479:259,1,37.5,0|0,1:1|0:1,0:0:0:0:
367,273,253926,2,0,P|357:293|354:314,1,37.5,0|0,1:1|0:1,0:0:0:0:
263,358,254371,6,0,L|263:324,1,18.75,0|0,1:1|0:1,0:0:0:0:
115,310,254593,2,0,L|115:276,1,18.75,0|0,1:1|0:1,0:0:0:0:
189,334,254815,2,0,L|189:300,1,18.75,0|0,1:1|0:1,0:0:0:0:
41,286,255037,2,0,L|41:252,1,18.75,0|0,1:1|0:1,0:0:0:0:
91,181,255260,6,0,P|104:174|118:171,1,28.1250010728836,0|0,1:1|0:1,0:0:0:0:
284,173,255482,2,0,P|290:185|293:199,1,28.1250010728836,0|0,1:1|0:1,0:0:0:0:
185,137,255704,2,0,P|198:140|210:148,1,28.1250010728836,0|0,1:1|0:1,0:0:0:0:
329,267,255926,2,0,P|322:286|303:303,1,28.1250010728836,0|0,1:1|0:1,0:0:0:0:
360,165,256148,6,0,P|356:144|338:110,1,37.5,0|0,1:1|0:1,0:0:0:0:
177,56,256371,2,0,P|158:60|141:66,1,37.5,0|0,1:1|0:1,0:0:0:0:
286,85,256593,2,0,P|271:73|254:65,1,37.5,0|0,1:1|0:1,0:0:0:0:
81,114,256815,2,0,P|69:131|58:168,1,37.5,0|0,1:1|0:1,0:0:0:0:
0,249,257037,6,0,P|29:240|62:248,1,46.875,0|0,1:1|0:1,0:0:0:0:
168,341,257260,2,0,P|197:350|230:342,1,46.875,0|0,1:1|0:1,0:0:0:0:
326,178,257482,6,0,P|222:129|257:262,1,309.37500295043,8|0,0:1|0:1,0:0:0:0:
256,192,257926,5,0,1:1:0:0:
256,192,258037,12,0,261260,0:1:0:0:
28,209,261482,6,0,L|29:240,1,18.75,2|0,1:3|0:3,0:0:0:0:
42,221,261704,2,0,L|43:252,1,18.75,2|0,0:3|0:3,0:0:0:0:
105,174,261926,6,0,L|106:143,1,18.75,2|0,1:3|0:3,0:0:0:0:
119,162,262148,2,0,L|120:131,1,18.75,2|0,0:3|0:3,0:0:0:0:
153,257,262371,6,0,L|154:288,1,18.75,2|0,1:3|0:3,0:0:0:0:
167,269,262593,2,0,L|168:300,1,18.75,2|0,0:3|0:3,0:0:0:0:
230,126,262815,6,0,L|231:95,1,18.75,2|0,1:3|0:3,0:0:0:0:
244,114,263037,2,0,L|245:83,1,18.75,2|0,0:3|0:3,0:0:0:0:
278,305,263260,6,0,L|279:336,1,18.75,2|0,1:3|0:3,0:0:0:0:
292,317,263482,2,0,L|293:348,1,18.75,2|0,0:3|0:3,0:0:0:0:
355,78,263704,6,0,L|356:47,1,18.75,2|0,1:3|0:3,0:0:0:0:
369,66,263926,2,0,L|370:35,1,18.75,2|0,0:3|0:3,0:0:0:0:
403,353,264148,6,0,L|404:384,1,18.75,2|0,1:3|0:3,0:0:0:0:
417,365,264371,2,0,L|418:396,1,18.75,2|0,0:3|0:3,0:0:0:0:
480,30,264593,6,0,L|481:-1,1,18.75,2|0,1:3|0:3,0:0:0:0:
494,18,264815,2,0,L|495:-13,1,18.75,2|0,0:3|0:3,0:0:0:0:
499,189,265037,6,0,L|470:180,1,18.75,2|0,1:3|0:3,0:0:0:0:
437,152,265148,2,0,L|410:166,1,18.75,2|0,0:3|0:3,0:0:0:0:
366,169,265260,2,0,L|357:198,1,18.75,2|0,1:3|0:3,0:0:0:0:
327,231,265371,2,0,L|341:257,1,18.75,2|0,0:3|0:3,0:0:0:0:
297,328,265482,6,0,L|268:337,1,18.75,2|0,1:3|0:3,0:0:0:0:
235,365,265593,2,0,L|208:350,1,18.75,2|0,0:3|0:3,0:0:0:0:
164,348,265704,2,0,L|155:319,1,18.75,2|0,1:3|0:3,0:0:0:0:
125,286,265815,2,0,L|139:259,1,18.75,2|0,0:3|0:3,0:0:0:0:
221,237,265926,6,0,L|230:208,1,18.75,2|0,1:3|0:3,0:0:0:0:
258,175,266037,2,0,L|243:148,1,18.75,2|0,0:3|0:3,0:0:0:0:
241,104,266148,2,0,L|212:95,1,18.75,2|0,1:3|0:3,0:0:0:0:
179,65,266260,2,0,L|152:79,1,18.75,2|0,0:3|0:3,0:0:0:0:
63,102,266371,6,0,L|59:131,1,18.75,2|0,1:3|0:3,0:0:0:0:
121,171,266482,1,0,1:3:0:0:
220,156,266593,1,0,1:3:0:0:
319,141,266704,1,0,1:3:0:0:
397,42,266815,6,0,L|443:33|443:33|469:65|469:65|453:104|453:104|412:111|412:111|383:74|383:74,1,206.25,0|0,0:1|0:1,0:0:0:0:
391,84,268148,6,0,B|471:219|354:291|317:264|306:234|308:173|342:157,1,309.37501180172,8|0,0:1|0:1,0:0:0:0:
333,162,268593,6,0,B|281:133|261:184|210:157,1,125,4|0,1:1|0:1,0:0:0:0:
148,200,269037,2,0,P|136:147|178:90,1,125,0|0,1:1|0:1,0:0:0:0:
253,80,269482,5,10,0:1:0:0:
266,64,269630,1,2,0:1:0:0:
249,70,269778,1,2,0:1:0:0:
269,73,269926,1,2,0:1:0:0:
256,62,270074,1,2,0:1:0:0:
263,81,270223,1,2,0:1:0:0:
162,242,270371,5,2,1:1:0:0:
188,155,270519,1,2,0:1:0:0:
205,231,270667,1,2,0:1:0:0:
144,165,270815,1,2,0:1:0:0:
219,188,270963,1,2,0:1:0:0:
131,208,271111,1,2,0:1:0:0:
357,92,271260,5,10,0:1:0:0:
381,250,271408,1,2,0:1:0:0:
431,120,271556,1,2,0:1:0:0:
307,221,271704,1,2,0:1:0:0:
443,200,271852,1,2,0:1:0:0:
294,143,272000,1,2,0:1:0:0:
362,324,272148,6,0,B|335:335|305:319|305:319|284:328|284:328|257:315|229:327,1,137.5,0|0,1:1|0:1,0:0:0:0:
167,374,273037,5,10,0:1:0:0:
144,364,273186,1,2,0:1:0:0:
157,377,273334,1,2,0:1:0:0:
148,355,273482,1,2,0:1:0:0:
148,374,273630,1,2,0:1:0:0:
157,351,273778,1,2,0:1:0:0:
95,251,273926,5,2,1:1:0:0:
195,209,274074,1,2,0:1:0:0:
136,268,274223,1,2,0:1:0:0:
178,167,274371,1,2,0:1:0:0:
178,251,274519,1,2,0:1:0:0:
136,150,274667,1,2,0:1:0:0:
280,342,274815,5,10,0:1:0:0:
375,173,274963,1,2,0:1:0:0:
259,264,275111,1,2,0:1:0:0:
444,213,275260,1,2,0:1:0:0:
299,195,275408,1,2,0:1:0:0:
466,290,275556,1,2,0:1:0:0:
434,102,275704,6,0,P|382:85|314:122,1,125,0|0,1:1|0:1,0:0:0:0:
284,180,276148,2,0,L|281:204,1,25,0|0,1:1|0:1,0:0:0:0:
221,122,276371,2,0,L|218:97,1,25,0|0,1:1|0:1,0:0:0:0:
114,256,276593,5,10,0:1:0:0:
118,236,276741,1,2,0:1:0:0:
82,282,276889,1,2,0:1:0:0:
150,209,277037,1,2,0:1:0:0:
142,330,277186,1,2,0:1:0:0:
90,158,277334,1,2,0:1:0:0:
215,359,277482,6,0,P|259:324|330:334,1,125,0|0,1:1|0:1,0:0:0:0:
397,360,277926,2,0,L|401:403,1,25,0|0,1:1|0:1,0:0:0:0:
441,295,278148,2,0,L|445:252,1,25,0|0,1:1|0:1,0:0:0:0:
428,88,278371,5,10,0:1:0:0:
424,108,278519,1,2,0:1:0:0:
460,62,278667,1,2,0:1:0:0:
392,135,278815,1,2,0:1:0:0:
400,14,278963,1,2,0:1:0:0:
452,186,279111,1,2,0:1:0:0:
321,50,279260,6,0,P|274:31|207:47,1,100,0|0,1:1|0:1,0:0:0:0:
262,125,279704,1,2,0:1:0:0:
226,37,279852,1,2,0:1:0:0:
321,50,280000,1,2,0:1:0:0:
63,129,280148,6,0,P|110:110|177:126,1,100,8|0,0:1|0:1,0:0:0:0:
122,204,280593,1,2,0:1:0:0:
158,116,280741,1,2,0:1:0:0:
63,129,280889,1,2,0:1:0:0:
217,330,281037,6,0,P|195:285|198:236,1,100,0|0,1:1|0:1,0:0:0:0:
295,330,281482,6,0,P|316:285|313:236,2,100,2|2|2,1:1|0:1|0:1,0:0:0:0:
119,194,281926,6,0,P|154:159|201:145,1,100,8|0,0:1|0:1,0:0:0:0:
393,194,282371,6,0,P|357:159|310:145,2,100,2|2|2,1:1|0:1|0:1,0:0:0:0:
396,207,282704,1,0,1:1:0:0:
370,283,282815,6,0,P|432:277|508:301,1,125,4|0,1:1|0:1,0:0:0:0:
480,376,283260,2,0,P|463:324|493:249,1,125,0|0,1:1|0:1,0:0:0:0:
440,180,283704,5,10,0:1:0:0:
415,194,283852,1,2,0:1:0:0:
428,182,284000,1,2,0:1:0:0:
415,206,284148,1,2,0:1:0:0:
420,186,284297,1,2,0:1:0:0:
420,213,284445,1,2,0:1:0:0:
340,165,284593,5,2,1:1:0:0:
437,92,284741,1,2,0:1:0:0:
357,122,284889,1,2,0:1:0:0:
481,108,285037,1,2,0:1:0:0:
392,97,285186,1,2,0:1:0:0:
504,148,285334,1,2,0:1:0:0:
427,8,285482,5,10,0:1:0:0:
252,135,285630,1,2,0:1:0:0:
345,11,285778,1,2,0:1:0:0:
260,215,285926,1,2,0:1:0:0:
284,61,286074,1,2,0:1:0:0:
313,275,286223,1,2,0:1:0:0:
229,123,286371,6,0,B|201:115|174:128|174:128|158:119|158:119|125:133|96:120,1,137.5,0|0,1:1|0:1,0:0:0:0:
29,92,287260,5,10,0:1:0:0:
17,120,287408,1,2,0:1:0:0:
22,101,287556,1,2,0:1:0:0:
18,130,287704,1,2,0:1:0:0:
19,110,287852,1,2,0:1:0:0:
23,139,288000,1,2,0:1:0:0:
90,34,288148,5,2,1:1:0:0:
218,59,288297,1,2,0:1:0:0:
134,31,288445,1,2,0:1:0:0:
251,89,288593,1,2,0:1:0:0:
178,39,288741,1,2,0:1:0:0:
276,125,288889,1,2,0:1:0:0:
81,215,289037,5,10,0:1:0:0:
321,201,289186,1,2,0:1:0:0:
162,230,289334,1,2,0:1:0:0:
390,156,289482,1,2,0:1:0:0:
243,227,289630,1,2,0:1:0:0:
443,95,289778,1,2,0:1:0:0:
439,300,289926,6,0,P|395:272|320:293,1,125,0|0,1:1|0:1,0:0:0:0:
268,339,290371,2,0,L|273:383,1,25,0|0,1:1|0:1,0:0:0:0:
198,297,290593,2,0,L|203:253,1,25,0|0,1:1|0:1,0:0:0:0:
84,189,290815,5,10,0:1:0:0:
88,209,290963,1,2,0:1:0:0:
38,185,291111,1,2,0:1:0:0:
133,215,291260,1,2,0:1:0:0:
55,100,291408,1,2,0:1:0:0:
30,279,291556,1,2,0:1:0:0:
129,68,291704,6,0,P|168:37|244:39,1,125,0|0,1:1|0:1,0:0:0:0:
278,104,292148,2,0,L|274:142,1,25,0|0,1:1|0:1,0:0:0:0:
347,57,292371,2,0,L|344:32,1,25,0|0,1:1|0:1,0:0:0:0:
451,156,292593,5,10,0:1:0:0:
447,136,292741,1,2,0:1:0:0:
497,160,292889,1,2,0:1:0:0:
402,130,293037,1,2,0:1:0:0:
480,245,293186,1,2,0:1:0:0:
505,66,293334,1,2,0:1:0:0:
412,293,293482,6,0,P|365:274|298:290,1,100,0|0,1:1|0:1,0:0:0:0:
353,368,293926,1,2,0:1:0:0:
317,280,294074,1,2,0:1:0:0:
412,293,294223,1,2,0:1:0:0:
161,214,294371,6,0,P|208:195|275:211,1,100,8|0,0:1|0:1,0:0:0:0:
220,289,294815,1,2,0:1:0:0:
256,201,294963,1,2,0:1:0:0:
161,214,295111,1,2,0:1:0:0:
413,271,295260,6,0,P|411:221|385:179,1,100,0|0,1:1|0:1,0:0:0:0:
329,41,295704,6,0,P|305:84|305:133,2,100,2|2|2,1:1|0:1|0:1,0:0:0:0:
99,271,296148,6,0,P|100:221|126:179,1,100,8|0,0:1|0:1,0:0:0:0:
183,41,296593,6,0,P|206:84|206:133,2,100,2|2|2,1:1|0:1|0:1,0:0:0:0:
171,35,296926,1,0,1:1:0:0:
128,105,297037,5,0,1:1:0:0:
128,105,297926,5,10,0:1:0:0:
105,292,298074,1,2,0:1:0:0:
131,81,298223,1,2,0:1:0:0:
174,243,298371,6,0,L|186:240,10,12.5,0|0|0|0|0|0|0|0|0|0|0,1:1|0:1|0:1|0:1|0:1|0:1|0:1|0:1|0:1|0:1|0:0,0:0:0:0:
248,180,298815,6,0,P|275:231|247:302,1,125,0|0,1:1|0:1,0:0:0:0:
219,361,299260,2,0,B|281:388|278:340|348:371,1,125,0|0,1:1|0:1,0:0:0:0:
409,313,299704,5,10,0:1:0:0:
375,145,299852,1,2,0:1:0:0:
413,334,300000,1,2,0:1:0:0:
371,124,300148,1,2,0:1:0:0:
417,355,300297,1,2,0:1:0:0:
367,103,300445,1,2,0:1:0:0:
488,250,300593,5,0,1:1:0:0:
488,250,301482,5,10,0:1:0:0:
303,230,301630,1,2,0:1:0:0:
511,253,301778,1,2,0:1:0:0:
308,354,301926,6,0,L|302:228,1,125,0|0,1:1|0:1,0:0:0:0:
363,178,302371,6,0,P|303:152|244:176,1,125,0|0,1:1|0:1,0:0:0:0:
206,238,302814,2,0,P|146:264|87:240,1,125,0|0,1:1|0:1,0:0:0:0:
23,210,303260,5,10,0:1:0:0:
57,42,303408,1,2,0:1:0:0:
19,231,303556,1,2,0:1:0:0:
61,21,303704,1,2,0:1:0:0:
15,252,303852,1,2,0:1:0:0:
65,0,304000,1,2,0:1:0:0:
118,192,304148,6,0,L|252:178,1,125,0|0,1:1|0:1,0:0:0:0:
297,119,304593,2,0,L|299:94,1,25,0|0,1:1|0:1,0:0:0:0:
361,172,304815,2,0,L|363:196,1,25,0|0,1:1|0:1,0:0:0:0:
264,283,305037,5,10,0:1:0:0:
432,249,305186,1,2,0:1:0:0:
243,287,305334,1,2,0:1:0:0:
453,245,305482,1,2,0:1:0:0:
222,291,305630,1,2,0:1:0:0:
474,241,305778,1,2,0:1:0:0:
288,353,305926,6,0,P|238:378|168:360,1,125,0|0,1:1|0:1,0:0:0:0:
126,303,306371,2,0,L|123:278,1,25,0|0,1:1|0:1,0:0:0:0:
58,208,306593,2,0,L|55:232,1,25,0|0,1:1|0:1,0:0:0:0:
216,167,306815,5,10,0:1:0:0:
48,133,306963,1,2,0:1:0:0:
237,171,307111,1,2,0:1:0:0:
27,129,307260,1,2,0:1:0:0:
258,175,307408,1,2,0:1:0:0:
6,125,307556,1,2,0:1:0:0:
200,99,307704,6,0,L|216:-2,1,100,0|0,1:1|0:1,0:0:0:0:
359,49,308148,1,2,0:1:0:0:
198,118,308297,1,2,0:1:0:0:
376,42,308445,1,2,0:1:0:0:
335,246,308593,6,0,L|319:145,1,100,8|0,0:1|0:1,0:0:0:0:
176,196,309037,1,2,0:1:0:0:
337,265,309186,1,2,0:1:0:0:
159,189,309334,1,2,0:1:0:0:
198,384,309482,6,0,L|214:283,1,100,0|0,1:1|0:1,0:0:0:0:
83,247,309926,6,0,L|178:210,2,100,2|2|2,1:1|0:1|0:1,0:0:0:0:
314,384,310371,6,0,L|298:283,1,100,8|0,0:1|0:1,0:0:0:0:
429,247,310815,6,0,L|333:210,2,100,2|2|2,1:1|0:1|0:1,0:0:0:0:
256,192,311260,5,0,1:1:0:0:
256,192,312148,5,10,0:1:0:0:
234,0,312297,1,2,0:1:0:0:
259,214,312445,1,2,0:1:0:0:
300,59,312593,6,0,L|320:63,10,12.5,0|0|0|0|0|0|0|0|0|0|0,1:1|0:1|0:1|0:1|0:1|0:1|0:1|0:1|0:1|0:1|0:0,0:0:0:0:
371,6,313037,6,0,P|393:60|350:133,1,125,0|0,1:1|0:1,0:0:0:0:
335,188,313482,2,0,B|397:217|393:170|463:202,1,125,0|0,1:1|0:1,0:0:0:0:
466,277,313926,5,10,0:1:0:0:
500,109,314074,1,2,0:1:0:0:
462,298,314223,1,2,0:1:0:0:
504,88,314371,1,2,0:1:0:0:
458,319,314519,1,2,0:1:0:0:
508,67,314667,1,2,0:1:0:0:
335,188,314815,5,0,1:1:0:0:
335,188,315704,5,10,0:1:0:0:
132,163,315852,1,2,0:1:0:0:
357,190,316000,1,2,0:1:0:0:
179,237,316148,6,0,L|191:370,1,125,0|0,1:1|0:1,0:0:0:0:
264,377,316593,6,0,P|323:343|386:376,1,125,0|0,1:1|0:1,0:0:0:0:
404,281,317036,2,0,P|463:315|526:282,1,125,0|0,1:1|0:1,0:0:0:0:
467,228,317482,6,0,L|471:120,1,100,10|2,0:1|0:1,0:0:0:0:
478,113,317704,2,0,L|423:100,1,50,0|2,1:1|0:1,0:0:0:0:
331,119,317926,6,0,L|321:7,2,100,10|2|2,0:1|0:1|0:1,0:0:0:0:
211,204,318371,6,0,P|246:188|306:201,1,75,0|0,1:1|0:1,0:0:0:0:
348,240,318815,2,0,P|383:256|443:243,1,75,0|0,1:1|0:1,0:0:0:0:
411,25,319260,2,0,L|399:175,1,150,8|0,0:1|0:1,0:0:0:0:
444,239,319926,1,0,0:1:0:0:
331,331,320148,6,0,L|247:321,1,75,0|0,1:1|0:1,0:0:0:0:
191,368,320593,2,0,L|107:378,1,75,0|0,1:1|0:1,0:0:0:0:
42,201,321037,2,0,P|105:222|122:300,1,150,8|0,0:1|0:1,0:0:0:0:
50,277,321704,1,0,0:1:0:0:
50,277,321926,6,0,L|38:376,1,75,0|0,0:1|0:1,0:0:0:0:
24,361,322371,2,0,L|36:262,1,75,0|0,0:1|0:1,0:0:0:0:
111,172,322815,6,0,P|182:145|249:182,1,150,8|0,0:1|0:1,0:0:0:0:
279,245,323482,1,0,0:1:0:0:
312,54,323704,5,0,1:1:0:0:
76,62,324815,5,0,1:1:0:0:
100,224,325037,1,8,0:1:0:0:
73,41,325260,1,0,1:1:0:0:
5,306,325482,5,2,1:3:0:0:
27,323,325593,1,0,0:1:0:0:
49,341,325704,2,0,L|108:330,1,46.875,2|0,0:3|0:1,0:0:0:0:
163,270,325926,2,0,P|196:264|219:270,1,46.875,2|0,1:1|0:1,0:0:0:0:
265,326,326148,2,0,P|298:332|321:326,1,46.875,2|0,0:1|0:1,0:0:0:0:
448,296,326371,5,8,0:1:0:0:
447,268,326482,1,0,0:1:0:0:
435,242,326593,1,0,0:1:0:0:
415,223,326704,1,0,0:1:0:0:
389,213,326815,2,0,L|327:221,1,46.875,2|0,0:1|0:1,0:0:0:0:
274,178,327037,2,0,L|212:170,1,46.875,2|0,0:1|0:1,0:0:0:0:
130,289,327260,5,0,1:1:0:0:
121,262,327371,1,0,0:1:0:0:
122,233,327482,2,0,P|135:207|160:189,1,46.875,2|0,0:1|0:1,0:0:0:0:
75,154,327704,1,0,0:1:0:0:
84,127,327815,1,0,0:1:0:0:
83,98,327926,2,0,P|70:72|45:54,1,46.875,0|0,0:1|0:1,0:0:0:0:
246,14,328148,6,0,P|222:10|200:16,1,46.875,10|0,0:1|0:1,0:0:0:0:
162,80,328371,2,0,P|170:101|187:118,1,46.875,2|0,0:1|0:1,0:0:0:0:
261,119,328593,2,0,P|275:100|281:78,1,46.875,2|0,0:1|0:1,0:0:0:0:
367,84,328815,1,0,0:1:0:0:
394,87,328926,1,0,0:1:0:0:
439,23,329037,5,2,1:3:0:0:
472,95,329148,1,2,0:3:0:0:
426,159,329260,2,0,L|362:162,1,46.875,2|0,0:3|0:3,0:0:0:0:
466,277,329482,2,0,L|530:280,3,46.875,2|0|0|0,1:3|0:3|0:3|0:3,0:0:0:0:
314,302,329926,6,0,L|370:294,1,46.875,10|0,0:1|0:1,0:0:0:0:
375,367,330148,2,0,L|431:359,1,46.875,2|0,0:1|0:1,0:0:0:0:
267,296,330371,2,0,L|323:304,1,46.875,2|0,0:1|0:1,0:0:0:0:
230,364,330593,2,0,L|286:372,1,46.875,2|0,0:1|0:1,0:0:0:0:
201,239,330815,5,0,1:1:0:0:
139,188,330926,1,2,0:1:0:0:
63,216,331037,1,2,0:1:0:0:
49,295,331148,1,2,0:1:0:0:
54,322,331260,1,0,0:1:0:0:
59,349,331371,2,0,L|82:370,1,23.4375,0|0,0:1|0:1,0:0:0:0:
153,344,331482,2,0,L|147:297,1,46.875,2|0,0:1|0:1,0:0:0:0:
45,200,331704,6,0,L|47:153,1,46.875,10|0,0:1|0:1,0:0:0:0:
121,164,331926,2,0,L|123:117,1,46.875,2|0,0:1|0:1,0:0:0:0:
200,59,332148,2,0,L|202:105,1,46.875,2|0,0:1|0:1,0:0:0:0:
253,167,332371,1,2,0:1:0:0:
284,96,332482,1,2,0:1:0:0:
329,158,332593,6,0,L|394:172,3,46.875,2|0|0|0,1:1|0:1|0:1|0:1,0:0:0:0:
489,64,333037,1,0,1:1:0:0:
461,57,333148,1,0,0:1:0:0:
433,62,333260,2,0,P|407:79|392:103,1,46.875,2|0,0:1|0:1,0:0:0:0:
425,227,333482,6,0,L|431:282,3,46.875,8|0|0|0,0:1|0:1|0:1|0:1,0:0:0:0:
373,322,333926,2,0,P|343:326|314:319,1,46.875,2|0,0:1|0:1,0:0:0:0:
263,276,334148,2,0,P|233:272|204:279,1,46.875,0|0,0:1|0:1,0:0:0:0:
101,368,334371,5,0,1:1:0:0:
115,343,334482,1,0,0:1:0:0:
115,314,334593,2,0,P|110:290|91:267,1,46.875,2|0,0:1|0:1,0:0:0:0:
0,171,334815,2,0,L|46:176,3,46.875,0|0|0|0,1:1|0:1|0:1|0:1,0:0:0:0:
145,67,335260,6,0,P|144:43|136:21,3,46.875,10|0|0|0,0:1|0:1|0:1|0:1,0:0:0:0:
123,148,335704,2,0,L|169:142,1,46.875,2|0,0:1|0:1,0:0:0:0:
236,97,335926,2,0,L|282:102,1,46.875,2|0,0:3|0:3,0:3:0:0:
348,212,336148,6,0,P|352:240|340:275,3,46.875,2|0|0|0,1:3|0:3|0:3|0:3,0:3:0:0:
279,184,336593,2,0,P|255:179|228:184,1,46.875,2|0,0:3|0:3,0:3:0:0:
177,240,336815,2,0,P|153:245|126:240,1,46.875,2|0,0:1|0:1,0:0:0:0:
26,156,337037,5,10,0:1:0:0:
44,177,337148,1,0,0:1:0:0:
49,204,337260,1,0,0:1:0:0:
6,271,337371,1,2,0:1:0:0:
56,332,337482,2,0,L|119:344,1,46.875,2|0,0:1|0:1,0:0:0:0:
166,297,337704,2,0,L|229:285,1,46.875,2|0,0:1|0:1,0:0:0:0:
294,375,337926,5,0,1:1:0:0:
296,346,338037,1,0,0:1:0:0:
310,321,338148,2,0,P|331:301|367:296,1,46.875,2|0,0:1|0:1,0:0:0:0:
439,250,338371,2,0,P|416:245|398:231,1,46.875,2|0,0:1|0:1,0:0:0:0:
317,178,338593,2,0,P|323:200|320:223,1,46.875,2|0,0:1|0:1,0:0:0:0:
189,348,338815,6,0,L|184:284,1,46.875,10|0,0:1|0:1,0:0:0:0:
236,235,339037,2,0,L|241:171,1,46.875,2|0,0:1|0:1,0:0:0:0:
177,127,339260,2,0,L|172:63,3,46.875,2|0|0|0,0:1|0:1|0:1|0:1,0:0:0:0:
316,22,339704,6,0,P|339:21|361:27,3,46.875,2|0|2|0,1:3|0:1|0:3|0:1,0:0:0:0:
456,83,340148,2,0,P|451:109|451:148,1,46.875,2|0,1:1|0:1,0:0:0:0:
502,190,340371,2,0,P|507:216|507:255,1,46.875,2|0,0:1|0:1,0:0:0:0:
419,357,340593,5,8,0:1:0:0:
397,338,340704,1,0,0:1:0:0:
371,328,340815,1,0,0:1:0:0:
343,327,340926,1,0,0:1:0:0:
317,335,341037,2,0,L|266:347,1,46.875,2|0,0:1|0:1,0:0:0:0:
213,288,341260,2,0,L|162:276,1,46.875,2|0,0:1|0:1,0:0:0:0:
27,350,341482,5,0,1:1:0:0:
41,325,341593,1,0,0:1:0:0:
43,297,341704,2,0,P|40:268|30:248,1,46.875,2|0,0:1|0:1,0:0:0:0:
79,187,341926,1,0,0:1:0:0:
107,184,342037,1,0,0:1:0:0:
134,181,342148,2,0,L|191:175,1,46.875,0|0,0:1|0:1,0:0:0:0:
361,204,342371,6,0,P|343:224|329:254,1,46.875,10|0,0:1|0:1,0:0:0:0:
258,268,342593,2,0,P|249:242|230:215,1,46.875,2|0,0:1|0:1,0:0:0:0:
254,146,342815,2,0,P|279:150|313:147,1,46.875,2|0,0:1|0:1,0:0:0:0:
406,118,343037,1,0,0:1:0:0:
405,89,343148,1,0,0:1:0:0:
330,53,343260,5,2,1:3:0:0:
400,8,343371,1,2,0:3:0:0:
473,46,343482,2,0,L|483:116,1,46.875,2|0,0:3|0:3,0:0:0:0:
260,9,343704,2,0,L|250:79,3,46.875,2|0|0|0,0:3|0:3|0:3|0:3,0:0:0:0:
130,128,344148,6,0,L|84:129,1,46.875,10|0,0:1|0:1,0:0:0:0:
161,55,344371,2,0,L|115:56,1,46.875,2|0,0:1|0:1,0:0:0:0:
83,129,344593,2,0,L|37:127,1,46.875,2|0,0:1|0:1,0:0:0:0:
109,205,344815,2,0,L|63:203,1,46.875,2|0,0:1|0:1,0:0:0:0:
239,134,345037,5,0,1:1:0:0:
315,113,345148,1,2,0:1:0:0:
371,168,345260,1,2,0:1:0:0:
351,244,345371,1,2,0:1:0:0:
324,252,345482,1,0,0:1:0:0:
296,258,345593,2,0,L|279:229,1,23.4375,0|0,0:1|0:1,0:0:0:0:
216,199,345704,2,0,L|221:136,1,46.875,2|0,0:1|0:1,0:0:0:0:
156,284,345926,6,0,L|160:351,1,46.875,10|0,0:1|0:1,0:0:0:0:
84,311,346148,2,0,L|88:378,1,46.875,2|0,0:1|0:1,0:0:0:0:
19,268,346371,2,0,L|23:201,1,46.875,2|0,0:1|0:1,0:0:0:0:
85,172,346593,1,2,0:1:0:0:
9,141,346704,1,2,0:1:0:0:
74,91,346815,6,0,L|70:35,3,46.875,2|0|0|0,1:1|0:1|0:1|0:1,0:0:0:0:
202,77,347260,1,0,1:1:0:0:
225,60,347371,1,0,0:1:0:0:
253,57,347482,2,0,P|289:64|313:83,1,46.875,2|0,0:1|0:1,0:0:0:0:
444,158,347704,6,0,P|408:165|384:184,3,46.875,8|0|0|0,0:1|0:1|0:1|0:1,0:0:0:0:
438,236,348148,2,0,L|434:298,1,46.875,2|0,0:1|0:1,0:0:0:0:
370,326,348371,2,0,L|374:388,1,46.875,0|0,0:1|0:1,0:0:0:0:
284,227,348593,5,0,1:1:0:0:
263,207,348704,1,0,0:1:0:0:
235,202,348815,2,0,P|204:203|174:222,1,46.875,2|0,0:1|0:1,0:0:0:0:
110,308,349037,2,0,L|112:381,3,46.875,0|0|0|0,1:1|0:1|0:1|0:1,0:0:0:0:
53,195,349482,6,0,P|28:192|1:202,3,46.875,10|0|0|0,0:1|0:1|0:1|0:1,0:0:0:0:
113,141,349926,2,0,L|119:90,1,46.875,2|0,0:1|0:1,0:0:0:0:
49,57,350148,2,0,L|43:6,1,46.875,2|0,0:3|0:1,0:0:0:0:
217,26,350371,5,0,1:1:0:0:
218,40,350482,1,0,0:1:0:0:
219,54,350593,1,0,0:1:0:0:
220,68,350704,1,0,0:1:0:0:
221,82,350815,1,0,0:1:0:0:
222,96,350926,1,0,0:1:0:0:
223,110,351037,1,0,0:1:0:0:
224,124,351148,1,0,0:1:0:0:
295,186,351260,5,8,0:1:0:0:
294,200,351371,1,0,0:1:0:0:
293,214,351482,1,0,0:1:0:0:
292,228,351593,1,0,0:1:0:0:
291,242,351704,1,0,0:1:0:0:
290,256,351815,1,0,0:1:0:0:
289,270,351926,1,0,0:1:0:0:
288,284,352037,1,0,0:1:0:0:
217,355,352148,5,0,1:1:0:0:
256,284,352371,5,2,0:1:0:0:
256,208,352593,1,2,0:1:0:0:
256,132,352815,1,2,0:1:0:0:
200,72,353037,1,2,0:1:0:0:
312,72,353260,1,2,0:1:0:0:
200,72,353482,6,0,P|256:20|312:76,1,168.000002050781,2|0,0:1|0:1,0:0:0:0:
