osu file format v14

[General]
AudioFilename: Crywolf & Skrux - Tides.mp3
AudioLeadIn: 0
PreviewTime: 83283
Countdown: 0
SampleSet: Soft
StackLeniency: 0.7
Mode: 0
LetterboxInBreaks: 1
WidescreenStoryboard: 0

[Editor]
Bookmarks: 14927,28641,42356,56070,69784,76641,83499,97213,110927
DistanceSpacing: 2
BeatDivisor: 4
GridSize: 16
TimelineZoom: 1.7

[Metadata]
Title:Tides
TitleUnicode:Tides
Artist:Crywolf & Skrux
ArtistUnicode:Crywolf & Skrux
Creator:NISSAN001
Version:Cry
Source:
Tags:
BeatmapID:765028
BeatmapSetID:346598

[Difficulty]
HPDrainRate:7
CircleSize:4
OverallDifficulty:7
ApproachRate:9
SliderMultiplier:1.5
SliderTickRate:4

[Events]
//Background and Video events
0,0,"bg.jpg",0,0
//Break Periods
2,56269,69183
//Storyboard Layer 0 (Background)
//Storyboard Layer 1 (Fail)
//Storyboard Layer 2 (Pass)
//Storyboard Layer 3 (Foreground)
//Storyboard Sound Samples

[TimingPoints]
1212,428.571428571429,4,2,1,100,1,0
14927,-100,4,2,1,5,0,0
26070,-100,4,2,1,40,0,0
28641,-100,4,2,1,100,0,0
83497,-100,4,2,1,100,0,1
84354,-100,4,2,1,100,0,0
86926,-100,4,2,1,100,0,1
87569,-100,4,2,1,100,0,0
88426,-100,4,2,1,100,0,1
89069,-100,4,2,1,100,0,0
91212,-100,4,2,1,100,0,1
91854,-100,4,2,1,100,0,0
93783,-100,4,2,1,100,0,1
94426,-100,4,2,1,100,0,0
95283,-100,4,2,1,100,0,1
95712,-100,4,2,1,100,0,0
97212,-100,4,2,1,100,0,1
98069,-100,4,2,1,100,0,0
100640,-100,4,2,1,100,0,1
101069,-100,4,2,1,100,0,0
102140,-100,4,2,1,100,0,1
102569,-100,4,2,1,100,0,0
104926,-100,4,2,1,100,0,1
105569,-100,4,2,1,100,0,0
107497,-100,4,2,1,100,0,1
107926,-100,4,2,1,100,0,0
108354,-100,4,2,1,100,0,1
108569,-100,4,2,1,100,0,0
108997,-100,4,2,1,100,0,1
110926,-100,4,2,1,100,0,0
114247,-100,4,2,1,5,0,0

[Colours]
Combo1 : 240,240,240
Combo2 : 179,255,255
Combo3 : 132,193,255
Combo4 : 188,13,255

[HitObjects]
400,44,14926,6,0,P|360:108|440:216,1,225
452,124,16212,1,0,0:0:0:0:
284,128,16640,2,0,B|224:96|168:128|168:128|112:160|52:128,1,225
128,40,17498,2,0,P|172:96|160:192,1,150
212,296,18355,6,0,B|280:272|280:272|436:308,1,225
436,320,19640,1,0,0:0:0:0:
428,212,20069,2,0,P|400:108|496:24,1,225
396,112,20926,2,0,L|320:156,1,75
216,100,21355,2,0,L|200:192,1,75
240,268,21783,38,0,P|160:200|24:232,1,225
120,336,23069,1,0,0:0:0:0:
328,304,23498,2,0,P|370:295|400:264,1,75
348,64,23926,2,0,P|336:120|396:200,1,150,0|10,0:0|0:0,0:0:0:0:
432,112,24569,1,0,0:0:0:0:
248,112,24783,2,0,L|216:188,1,75
224,320,25212,6,0,P|184:216|52:204,1,225
108,304,26069,1,10,0:0:0:0:
176,208,26283,1,0,0:0:0:0:
124,108,26498,1,0,0:0:0:0:
52,200,26712,1,2,0:0:0:0:
108,304,26926,38,0,P|168:316|208:296,1,75
276,196,27355,1,2,0:0:0:0:
264,224,27462,1,2,0:0:0:0:
252,252,27569,1,2,0:0:0:0:
392,208,27783,2,0,P|356:104|232:84,1,225,10|0,0:0|0:0,0:0:0:0:
144,152,28640,6,0,P|136:204|152:244,1,75,4|0,0:0|0:0,0:0:0:0:
252,128,29069,2,0,P|260:76|244:36,1,75,2|0,0:0|0:0,0:0:0:0:
224,236,29498,2,0,P|292:236|356:156,1,150,8|0,0:0|0:0,0:0:0:0:
352,64,30140,1,0,0:0:0:0:
448,104,30355,38,0,L|432:200,1,75
408,328,30783,2,0,L|424:232,1,75,2|2,0:0|0:0,0:0:0:0:
328,180,31212,2,0,L|148:196,1,150,8|0,0:0|0:0,0:0:0:0:
116,292,31855,1,0,0:0:0:0:
240,260,32069,6,0,P|216:212|176:196,1,75
268,72,32498,2,0,P|219:69|177:89,1,75,2|0,0:0|0:0,0:0:0:0:
308,160,32926,2,0,B|344:140|344:140|388:188|464:164,1,150,8|0,0:0|0:0,0:0:0:0:
424,64,33569,1,0,0:0:0:0:
344,248,33783,2,0,P|392:264|448:256,1,75
448,132,34212,2,0,P|400:116|344:124,1,75,2|2,0:0|0:0,0:0:0:0:
256,192,34640,2,0,P|240:256|296:340,1,150,8|0,0:0|0:0,0:0:0:0:
344,248,35283,1,0,0:0:0:0:
200,112,35498,38,0,L|120:144,1,75
92,252,35926,2,0,L|124:332,1,75,2|0,0:0|0:0,0:0:0:0:
224,272,36355,2,0,P|240:192|304:160,1,150,8|0,0:0|0:0,0:0:0:0:
392,232,36998,1,0,0:0:0:0:
292,312,37212,5,0,0:0:0:0:
276,172,37426,1,0,0:0:0:0:
372,272,37640,1,2,0:0:0:0:
253,317,37854,1,2,0:0:0:0:
281,179,38068,1,8,0:0:0:0:
408,140,38283,2,0,L|440:56,2,75
380,256,38926,38,0,B|336:252|336:252|280:272|280:272|224:268,1,150,0|2,0:0|0:0,0:0:0:0:
148,200,39569,1,0,0:0:0:0:
240,64,39783,2,0,L|192:136,1,75,8|0,0:0|0:0,0:0:0:0:
312,216,40212,2,0,L|225:210,1,75
56,192,40640,5,0,0:0:0:0:
120,304,40855,1,0,0:0:0:0:
40,160,41069,1,2,0:0:0:0:
136,332,41283,1,2,0:0:0:0:
204,256,41498,2,0,P|196:180|116:140,1,150,8|0,0:0|0:0,0:0:0:0:
76,248,42140,1,0,0:0:0:0:
316,216,42355,38,0,L|300:128,1,75
400,232,42783,2,0,L|440:144,1,75,2|0,0:0|0:0,0:0:0:0:
272,296,43212,2,0,B|236:260|236:260|120:248,1,150,8|0,0:0|0:0,0:0:0:0:
64,344,43855,1,0,0:0:0:0:
76,232,44069,2,0,L|68:148,1,75
200,92,44498,2,0,L|208:176,1,75,2|2,0:0|0:0,0:0:0:0:
344,248,44926,2,0,L|327:75,1,150,8|0,0:0|0:0,0:0:0:0:
420,312,45569,1,0,0:0:0:0:
384,328,45676,1,0,0:0:0:0:
344,336,45783,6,0,L|184:324,1,150,0|2,0:0|0:0,0:0:0:0:
120,224,46426,1,0,0:0:0:0:
216,164,46640,2,0,L|288:120,1,75,8|0,0:0|0:0,0:0:0:0:
412,108,47069,2,0,L|484:64,1,75
368,204,47498,37,0,0:0:0:0:
420,304,47712,1,0,0:0:0:0:
296,300,47926,1,2,0:0:0:0:
380,104,48140,1,2,0:0:0:0:
264,200,48355,2,0,P|236:156|244:48,1,150,8|0,0:0|0:0,0:0:0:0:
380,104,48998,1,0,0:0:0:0:
200,280,49212,6,0,L|124:316,1,75
240,196,49640,2,0,L|316:160,1,75,2|0,0:0|0:0,0:0:0:0:
148,200,50069,2,0,B|104:160|104:160|76:52,1,150,8|0,0:0|0:0,0:0:0:0:
36,212,50712,1,0,0:0:0:0:
100,324,50926,37,0,0:0:0:0:
184,236,51140,1,0,0:0:0:0:
280,320,51355,1,2,0:0:0:0:
368,232,51569,1,2,0:0:0:0:
280,136,51783,2,0,L|264:44,1,75,8|0,0:0|0:0,0:0:0:0:
132,80,52212,2,0,L|148:172,1,75
392,172,52640,6,0,P|408:112|368:24,1,150,0|2,0:0|0:0,0:0:0:0:
176,48,53498,2,0,P|160:108|200:196,1,150,8|0,0:0|0:0,0:0:0:0:
256,192,54355,12,0,56069,0:0:0:0:
120,72,69783,38,0,L|112:160,1,75
244,228,70212,2,0,L|236:140,1,75
336,44,70640,1,2,0:0:0:0:
400,156,70855,1,0,0:0:0:0:
392,184,70962,1,0,0:0:0:0:
384,216,71069,1,0,0:0:0:0:
272,316,71283,1,0,0:0:0:0:
160,240,71498,6,0,P|112:240|64:276,1,75
128,136,71926,2,0,P|112:92|72:72,1,75
228,72,72355,1,2,0:0:0:0:
240,104,72462,1,0,0:0:0:0:
252,136,72569,1,0,0:0:0:0:
264,168,72676,1,0,0:0:0:0:
276,200,72783,1,2,0:0:0:0:
400,200,72998,1,2,0:0:0:0:
416,172,73105,1,2,0:0:0:0:
432,144,73212,38,0,P|440:104|420:40,1,75
264,32,73640,2,0,P|304:40|368:20,1,75
148,36,74069,1,2,0:0:0:0:
88,140,74283,1,0,0:0:0:0:
92,176,74390,1,0,0:0:0:0:
108,208,74498,1,0,0:0:0:0:
224,264,74712,1,0,0:0:0:0:
304,152,74926,6,0,L|264:68,1,75
388,224,75355,2,0,L|304:264,1,75
396,128,75783,1,2,0:0:0:0:
404,124,75890,1,0,0:0:0:0:
412,120,75998,1,0,0:0:0:0:
420,116,76105,1,0,0:0:0:0:
428,112,76212,1,2,0:0:0:0:
464,240,76426,2,0,L|480:208,2,25,2|2|2,0:0|0:0|0:0,0:0:0:0:
440,260,76640,38,0,P|400:268|360:316,1,75
264,252,77069,2,0,P|256:212|208:172,1,75
332,56,77498,1,2,0:0:0:0:
336,180,77712,1,0,0:0:0:0:
332,212,77819,1,0,0:0:0:0:
328,248,77926,1,0,0:0:0:0:
168,148,78140,1,0,0:0:0:0:
168,112,78248,1,0,0:0:0:0:
168,76,78355,6,0,P|144:48|88:32,1,75
24,136,78783,2,0,P|48:164|104:180,1,75
252,128,79212,1,2,0:0:0:0:
288,112,79319,1,0,0:0:0:0:
328,120,79426,1,0,0:0:0:0:
356,152,79533,1,0,0:0:0:0:
356,196,79640,1,2,0:0:0:0:
328,224,79748,1,0,0:0:0:0:
288,240,79855,1,2,0:0:0:0:
276,280,79962,1,2,0:0:0:0:
296,312,80069,38,0,P|336:340|396:336,1,75,2|0,0:0|0:0,0:0:0:0:
317,159,80498,2,0,P|277:131|217:135,1,75,2|0,0:0|0:0,0:0:0:0:
224,224,80926,2,0,P|196:264|200:324,1,75,2|0,0:0|0:0,0:0:0:0:
377,245,81355,2,0,P|405:205|401:145,1,75,2|0,0:0|0:0,0:0:0:0:
160,48,81783,1,2,0:0:0:0:
144,64,81890,1,0,0:0:0:0:
128,80,81998,1,0,0:0:0:0:
112,96,82105,1,0,0:0:0:0:
96,112,82212,1,2,0:0:0:0:
80,128,82319,1,0,0:0:0:0:
64,144,82426,1,0,0:0:0:0:
48,160,82533,1,0,0:0:0:0:
32,176,82640,2,0,L|0:208,4,37.5,2|0|0|0|0,0:0|0:0|0:0|0:0|0:0,0:0:0:0:
160,64,83498,22,0,P|132:104|176:332,1,300,4|0,0:0|1:0,0:0:0:0:
288,304,84569,1,0,0:0:0:0:
340,144,84783,1,0,0:0:0:0:
276,336,84998,1,0,0:0:0:0:
342,97,85212,2,0,L|353:42,1,37.5
206,33,85426,2,0,L|195:88,1,37.5
367,101,85640,2,0,L|378:47,1,37.5
181,29,85855,2,0,L|170:84,1,37.5
244,246,86069,5,0,1:0:0:0:
364,110,86283,1,0,0:0:0:0:
172,75,86498,1,0,0:0:0:0:
214,340,86712,1,0,0:0:0:0:
350,201,86926,38,0,P|306:151|145:185,1,225
143,197,87676,1,0,0:0:0:0:
149,233,87783,5,0,1:0:0:0:
289,324,87998,1,0,0:0:0:0:
304,139,88212,1,0,0:0:0:0:
176,336,88426,2,0,P|256:240|208:144,1,225
240,128,89176,1,0,0:0:0:0:
272,112,89283,1,0,0:0:0:0:
368,304,89498,37,0,1:0:0:0:
224,320,89712,1,0,0:0:0:0:
176,176,89926,1,0,0:0:0:0:
336,160,90140,1,0,0:0:0:0:
452,172,90355,6,0,P|460:112|436:72,1,75
160,92,90783,2,0,P|152:152|176:192,1,75
352,224,91212,2,0,P|299:99|213:101,1,225,0|0,1:0|0:0,0:0:0:0:
192,256,92069,1,0,0:0:0:0:
320,128,92283,1,0,0:0:0:0:
160,288,92498,1,0,0:0:0:0:
352,96,92712,1,0,0:0:0:0:
320,256,92926,37,0,1:0:0:0:
256,64,93140,1,0,0:0:0:0:
192,256,93355,1,0,0:0:0:0:
352,128,93569,1,0,0:0:0:0:
160,128,93783,6,0,P|80:176|88:320,1,225
240,236,94640,1,0,1:0:0:0:
396,88,94855,1,0,0:0:0:0:
376,248,95069,1,0,0:0:0:0:
212,124,95283,38,0,B|134:101|134:101|48:116,1,150
124,248,95926,1,0,0:0:0:0:
144,20,96140,1,0,0:0:0:0:
160,336,96355,5,0,0:0:0:0:
196,352,96462,1,0,0:0:0:0:
240,344,96569,1,0,0:0:0:0:
268,312,96676,1,0,0:0:0:0:
276,268,96783,1,0,0:0:0:0:
304,236,96890,1,0,0:0:0:0:
348,228,96998,1,0,0:0:0:0:
388,248,97105,1,0,0:0:0:0:
416,284,97212,38,0,P|376:236|420:16,1,300,0|0,0:0|1:0,0:0:0:0:
432,132,98283,1,0,0:0:0:0:
300,200,98498,1,0,0:0:0:0:
308,52,98712,1,0,0:0:0:0:
408,248,98926,6,0,L|368:292,1,37.5
212,152,99140,2,0,L|252:108,1,37.5
340,192,99355,2,0,L|300:236,1,37.5
144,96,99569,2,0,L|184:52,1,37.5
228,288,99783,37,0,1:0:0:0:
116,176,99998,1,0,0:0:0:0:
264,144,100212,1,0,0:0:0:0:
72,320,100426,1,0,0:0:0:0:
304,28,100640,6,0,P|368:64|384:160,1,150
172,212,101283,1,0,0:0:0:0:
264,144,101498,2,0,P|292:196|244:300,1,150,0|0,1:0|0:0,0:0:0:0:
172,212,102140,2,0,P|144:160|192:56,1,150
368,72,102783,1,0,0:0:0:0:
240,252,102998,38,0,L|248:192,1,37.5
428,148,103212,2,0,L|420:200,1,37.5,0|0,1:0|0:0,0:0:0:0:
224,208,103426,2,0,L|256:157,1,37.5
438,193,103640,2,0,L|408:236,1,37.5
232,152,103855,2,0,L|283:119,1,37.5
152,324,104069,6,0,P|112:296|104:240,1,75
120,100,104498,2,0,P|124:172|100:196,1,75
208,232,104926,2,0,P|300:184|424:256,1,225,0|0,1:0|0:0,0:0:0:0:
136,308,105783,2,0,P|116:256|112:208,1,75
68,84,106212,2,0,P|88:136|92:184,1,75
244,100,106640,37,0,1:0:0:0:
412,172,106855,1,0,0:0:0:0:
256,288,107069,1,0,0:0:0:0:
376,48,107283,1,0,0:0:0:0:
296,196,107498,6,0,P|224:192|160:264,1,150
280,348,108140,1,0,0:0:0:0:
236,128,108355,2,0,P|168:152|144:179,1,75,0|0,1:0|0:0,0:0:0:0:
268,312,108783,1,0,0:0:0:0:
252,76,108998,38,0,P|180:72|116:144,1,150
360,232,109640,2,0,P|408:200|424:84,1,150,0|0,0:0|1:0,0:0:0:0:
232,204,110283,5,0,1:0:0:0:
216,228,110390,1,0,1:0:0:0:
204,252,110498,1,0,1:0:0:0:
84,136,110712,37,0,1:0:0:0:
76,108,110819,1,0,1:0:0:0:
256,192,110926,12,0,114354,0:0:0:0:
