osu file format v14

[General]
AudioFilename: audio.mp3
AudioLeadIn: 0
PreviewTime: 26261
Countdown: 1
SampleSet: Soft
StackLeniency: 0.7
Mode: 0
LetterboxInBreaks: 0
EpilepsyWarning: 1
WidescreenStoryboard: 1

[Editor]
DistanceSpacing: 0.8
BeatDivisor: 2
GridSize: 8
TimelineZoom: 1

[Metadata]
Title:Sadist
TitleUnicode:Sadist
Artist:Crystal Castles
ArtistUnicode:Crystal Castles
Creator:Melsoon
Version:Light
Source:
Tags:crystal castles amnesty I 1 edith alice glass experimental electronic
BeatmapID:1119686
BeatmapSetID:527800

[Difficulty]
HPDrainRate:4
CircleSize:3.5
OverallDifficulty:3
ApproachRate:5
SliderMultiplier:1.4
SliderTickRate:1

[Events]
//Background and Video events
0,0,"Sadist-Back.jpg",0,0
//Break Periods
2,59113,70774
2,117887,124650
//Storyboard Layer 0 (Background)
//Storyboard Layer 1 (Fail)
//Storyboard Layer 2 (Pass)
//Storyboard Layer 3 (Foreground)
//Storyboard Sound Samples

[TimingPoints]
6670.42396424157,408.152084604434,4,2,0,66,1,0
26261,-86.9565217391304,4,2,0,66,0,1
52383,-100,4,2,0,66,0,0
85035,-86.9565217391304,4,2,0,66,0,1
111157,-100,4,2,0,66,0,0

[Colours]
Combo1 : 64,65,27
Combo2 : 111,47,49
Combo3 : 40,0,81
Combo4 : 6,49,6

[HitObjects]
16,144,6670,6,0,P|88:264|216:336,2,280
112,88,8711,1,0,0:0:0:0:
224,64,9119,2,0,L|528:64,3,280
448,152,11976,2,0,L|400:280,2,70
448,152,12792,1,0,0:0:0:0:
384,224,13200,5,0,0:0:0:0:
280,248,14017,2,0,L|168:248,2,70
176,296,14833,2,0,P|88:272|48:192,1,140
160,184,15649,2,0,P|136:104|40:96,1,140
184,24,16466,2,0,L|488:64,2,280
256,160,18914,2,0,L|416:184,1,140
312,312,19731,6,0,L|128:312,1,140
72,264,20547,1,0,0:0:0:0:
72,152,20955,1,0,0:0:0:0:
144,64,21363,2,0,P|176:168|248:200,2,140
256,88,22588,1,0,0:0:0:0:
368,56,22996,2,0,B|392:240|208:304,1,280
256,192,24629,12,0,25853,0:0:0:0:
24,208,26261,6,0,P|88:136|168:200,1,161.000003070831
112,224,27078,2,0,P|192:224|200:112,1,161.000003070831
140,150,27894,2,0,P|183:71|287:135,1,161.000003070831
222,158,28710,2,0,P|302:158|312:64,1,161.000003070831
368,88,29526,6,0,P|472:192|368:312,3,322.000006141663
360,200,32384,2,0,L|144:200,3,161.000003070831
80,104,34016,1,0,0:0:0:0:
208,88,34424,1,0,0:0:0:0:
392,40,34832,2,0,L|464:216,2,161.000003070831
336,200,36057,6,0,P|192:336|192:336,1,161.000003070831
120,224,36873,1,0,0:0:0:0:
216,144,37281,1,0,0:0:0:0:
24,104,37689,2,0,P|184:64|464:208,1,483.000009212494
344,264,39322,5,0,0:0:0:0:
216,272,39730,1,0,0:0:0:0:
88,272,40138,1,0,0:0:0:0:
16,88,40547,2,0,L|208:104,2,161.000003070831
16,88,41771,1,0,0:0:0:0:
176,101,42179,1,0,0:0:0:0:
56,248,42587,6,0,L|232:176,1,161.000003070831
312,256,43404,2,0,L|192:368,1,161.000003070831
128,256,44220,1,0,0:0:0:0:
232,176,44628,1,0,0:0:0:0:
128,256,45036,1,0,0:0:0:0:
232,176,45444,1,0,0:0:0:0:
32,96,45853,6,0,L|136:56,1,80.5000015354157
200,48,46261,1,0,0:0:0:0:
291,98,46669,2,0,L|392:192,1,80.5000015354157
416,224,47077,1,0,0:0:0:0:
208,192,47485,2,0,B|160:288|88:240|96:160|200:152|360:64,2,322.000006141663
424,256,49934,1,0,0:0:0:0:
184,152,50750,1,0,0:0:0:0:
304,96,51159,1,0,0:0:0:0:
416,56,51567,1,0,0:0:0:0:
256,192,52383,12,0,58913,0:0:0:0:
48,104,71974,6,0,L|208:176,3,140
96,240,73607,1,0,0:0:0:0:
175,161,74015,1,0,0:0:0:0:
136,56,74423,2,0,L|304:56,1,140
320,160,75239,2,0,L|176:160,1,140
136,56,76056,1,0,0:0:0:0:
280,56,76464,1,0,0:0:0:0:
296,264,76872,1,0,0:0:0:0:
400,312,77280,1,0,0:0:0:0:
368,200,77688,2,0,P|400:128|496:112,1,140
336,80,78505,6,0,P|192:80|160:248,3,280
264,184,81362,1,0,0:0:0:0:
400,208,81770,1,0,0:0:0:0:
152,176,82586,1,0,0:0:0:0:
256,192,83403,12,0,84627,0:0:0:0:
16,128,85035,6,0,P|112:80|184:104,2,161.000003070831
112,208,86260,1,0,0:0:0:0:
192,248,86668,2,0,P|240:312|320:336,2,161.000003070831
312,208,87892,1,0,0:0:0:0:
168,144,88300,6,0,B|384:96|368:104,1,161.000003070831
312,208,89117,1,0,0:0:0:0:
432,152,89525,1,0,0:0:0:0:
352,80,89933,2,0,P|272:40|192:64,1,161.000003070831
264,168,90749,2,0,B|200:232|152:240|80:168,1,161.000003070831
152,296,91566,6,0,L|256:288,3,80.5000015354157
320,272,92382,1,0,0:0:0:0:
408,200,92790,1,0,0:0:0:0:
288,152,93198,1,0,0:0:0:0:
176,80,93606,2,0,L|0:80,2,161.000003070831
64,144,94831,6,0,L|200:256,1,161.000003070831
288,168,95647,1,0,0:0:0:0:
408,128,96055,1,0,0:0:0:0:
448,248,96463,2,0,P|416:328|208:248,2,322.000006141663
432,128,98504,5,0,0:0:0:0:
432,128,98708,1,0,0:0:0:0:
432,128,98912,1,0,0:0:0:0:
320,200,99320,2,0,L|128:200,1,161.000003070831
56,128,100137,1,0,0:0:0:0:
56,128,100341,1,0,0:0:0:0:
56,128,100545,1,0,0:0:0:0:
184,88,100953,2,0,L|264:80,1,80.5000015354157
360,88,101361,6,0,L|496:208,1,161.000003070831
320,208,102178,2,0,L|144:208,1,161.000003070831
152,336,102994,2,0,L|352:336,1,161.000003070831
313,336,103810,2,0,L|128:336,1,161.000003070831
62,220,104626,6,0,L|32:40,2,161.000003070831
40,64,105851,2,0,B|408:265|544:241|464:81|264:33|176:233|16:225,1,805.000015354157
184,344,108708,1,0,0:0:0:0:
176,176,109524,1,0,0:0:0:0:
288,120,109932,1,0,0:0:0:0:
408,64,110341,1,0,0:0:0:0:
256,192,111157,12,0,117687,0:0:0:0:
256,192,125850,12,0,130748,0:0:0:0:
