osu file format v14

[General]
AudioFilename: audio.mp3
AudioLeadIn: 0
PreviewTime: 52608
Countdown: 1
SampleSet: Soft
StackLeniency: 0.7
Mode: 0
LetterboxInBreaks: 0
EpilepsyWarning: 1
WidescreenStoryboard: 0

[Editor]
DistanceSpacing: 0.8
BeatDivisor: 2
GridSize: 8
TimelineZoom: 1

[Metadata]
Title:Sad Eyes
TitleUnicode:Sad Eyes
Artist:Crystal Castles
ArtistUnicode:Crystal Castles
Creator:Melsoon
Version:Normal
Source:
Tags:crystal castles 3 iii alice glass ethan kath english canada electronic
BeatmapID:1133252
BeatmapSetID:534991

[Difficulty]
HPDrainRate:5
CircleSize:4
OverallDifficulty:3
ApproachRate:4
SliderMultiplier:1.4
SliderTickRate:1

[Events]
//Background and Video events
0,0,"sad back.jpg",0,0
Video,0,"video.mp4"
//Break Periods
//Storyboard Layer 0 (Background)
//Storyboard Layer 1 (Fail)
//Storyboard Layer 2 (Pass)
//Storyboard Layer 3 (Foreground)
//Storyboard Sound Samples

[TimingPoints]
3720,444.444444444444,4,2,0,100,1,0
53497,-90.9090909090909,4,2,0,100,0,1
81942,-100,4,2,0,100,0,0
103275,-90.9090909090909,4,2,0,100,0,1
131719,-100,4,2,0,100,0,0

[Colours]
Combo1 : 2,136,126
Combo2 : 136,13,142
Combo3 : 154,236,248
Combo4 : 255,17,189
Combo5 : 174,133,252
Combo6 : 255,128,255

[HitObjects]
288,88,3720,5,0,0:0:0:0:
243,204,4164,2,0,L|395:308,1,140
275,341,4831,2,0,L|117:229,1,140
243,204,5497,2,0,P|99:180|65:266,2,210
72,215,7275,1,0,0:0:0:0:
52,56,7719,6,0,P|12:168|122:209,1,210
88,136,8608,1,0,0:0:0:0:
88,136,9053,2,0,L|360:135,2,210
297,135,10831,1,0,0:0:0:0:
104,104,11275,6,0,P|136:216|257:301,1,210
278,278,12164,1,0,0:0:0:0:
448,232,12608,2,0,P|416:88|319:13,2,210
464,264,14386,1,0,0:0:0:0:
344,264,14831,6,0,P|272:312|174:270,1,140
256,208,15497,2,0,P|184:136|131:138,1,140
64,112,16164,2,0,B|112:32|216:64|328:80|328:80|400:240|400:240|488:240,1,490
472,96,17942,1,0,0:0:0:0:
336,56,18386,6,0,P|240:24|120:128,1,210
159,82,19275,1,0,0:0:0:0:
248,136,19719,2,0,L|416:352,3,210
481,378,21942,6,0,P|358:303|294:303,1,210
248,304,22831,1,0,0:0:0:0:
104,304,23275,2,0,P|64:200|147:79,2,210
240,200,25053,6,0,L|240:96,3,70
328,106,25942,2,0,L|432:106,1,70
400,192,26386,2,0,L|296:192,1,70
240,200,26831,2,0,L|240:96,3,70
140,105,27719,2,0,L|44:105,1,70
72,192,28164,2,0,L|176:192,1,70
72,192,28608,6,0,B|200:320|200:320|328:320|328:320|448:224|448:224|449:221,2,420
216,176,31719,1,0,0:0:0:0:
124,105,32164,6,0,P|208:96|328:120,1,140
312,152,32831,2,0,P|456:240|472:257,1,140
461,246,33497,1,0,0:0:0:0:
320,288,33942,2,0,P|192:288|94:197,2,210
434,196,35719,6,0,P|330:172|306:84,1,140
304,112,36386,2,0,P|239:39|143:47,1,140
200,136,37053,1,0,0:0:0:0:
93,117,37497,2,0,B|120:148|120:148|120:316|120:316|328:316,1,350
400,312,38831,1,0,0:0:0:0:
480,192,39275,6,0,L|480:96,2,70
408,200,39942,2,0,L|200:200,1,140
32,96,41053,2,0,P|136:184|233:117,2,210
136,80,42608,1,0,0:0:0:0:
136,80,42831,6,0,L|336:288,1,280
368,112,44164,1,0,0:0:0:0:
424,240,44608,6,0,B|408:240|408:240|400:216|400:216|392:240|392:240|376:224|376:224,1,70
232,224,45275,2,0,B|176:144|176:144|160:232,1,140
96,256,45942,2,0,P|272:320|419:299,1,280
426,286,47053,1,0,0:0:0:0:
437,209,47275,5,0,0:0:0:0:
397,83,47719,1,0,0:0:0:0:
232,72,48164,2,0,B|216:72|216:72|200:56|200:56|200:128,1,70
120,192,48831,2,0,L|304:256,1,140
223,141,49497,2,0,P|166:184|168:296,1,140
296,328,50386,5,0,0:0:0:0:
72,48,51053,1,0,0:0:0:0:
256,192,51719,12,0,53497,0:0:0:0:
80,96,53942,6,0,P|152:24|242:37,1,154.000004699707
184,128,54608,1,0,0:0:0:0:
56,216,55275,2,0,P|112:293|303:309,2,231.000007049561
56,216,57053,1,0,0:0:0:0:
216,232,57497,6,0,L|379:241,1,154.000004699707
344,320,58164,2,0,P|440:296|453:202,1,154.000004699707
456,128,58831,2,0,B|320:80|320:80|320:80|163:105,2,231.000007049561
312,200,60608,1,0,0:0:0:0:
176,288,61053,5,0,0:0:0:0:
97,197,61497,1,0,0:0:0:0:
24,88,61942,1,0,0:0:0:0:
183,63,62386,2,0,B|295:95|295:95|295:279|295:279|448:291,1,385.000011749268
489,295,63719,1,0,0:0:0:0:
472,136,64164,6,0,P|360:64|205:77,2,231.000007049561
301,197,65942,2,0,B|269:157|269:157|237:205|237:205|173:141|173:141|133:205|133:205|37:109,1,385.000011749268
47,119,67275,1,0,0:0:0:0:
37,230,67719,6,0,P|163:302|227:290,1,154.000004699707
156,196,68386,2,0,P|265:167|412:197,1,231.000007049561
304,88,69497,2,0,P|208:25|82:22,3,231.000007049561
96,184,71719,6,0,P|272:288|383:204,1,308.000009399414
272,376,72831,2,0,P|440:280|371:96,1,385.000011749268
340,258,74386,1,0,0:0:0:0:
248,208,74831,6,0,L|247:94,3,77.0000023498536
330,125,75719,2,0,L|439:125,1,77.0000023498536
406,205,76164,2,0,L|318:205,1,77.0000023498536
248,208,76608,2,0,L|248:118,3,77.0000023498536
168,104,77497,2,0,L|74:103,1,77.0000023498536
89,187,77942,2,0,L|194:188,1,77.0000023498536
89,187,78386,6,0,B|217:315|217:315|345:315|345:315|438:253|438:253|438:251,2,385.000011749268
224,136,81053,1,0,0:0:0:0:
256,208,81275,1,0,0:0:0:0:
256,208,81497,1,0,0:0:0:0:
89,187,81719,1,0,0:0:0:0:
88,112,81942,6,0,P|264:88|342:118,2,210
88,112,83497,1,0,0:0:0:0:
64,184,83719,2,0,P|136:272|288:275,2,210
168,120,85497,6,0,P|240:72|277:78,1,70
248,160,85942,1,0,0:0:0:0:
328,200,86164,2,0,P|288:240|153:267,1,140
104,248,86831,1,0,0:0:0:0:
88,107,87275,2,0,B|213:57|213:57|328:136,2,210
484,199,89053,6,0,L|484:99,2,70
408,200,89719,2,0,L|256:200,1,140
194,165,90386,1,0,0:0:0:0:
32,96,90831,2,0,P|136:184|233:117,2,210
136,80,92386,1,0,0:0:0:0:
136,80,92608,6,0,L|327:276,1,210
416,168,93719,1,0,0:0:0:0:
416,96,93942,1,0,0:0:0:0:
280,184,94386,6,0,P|160:80|59:103,2,210
144,224,96164,1,0,0:0:0:0:
256,312,96608,6,0,L|374:312,1,70
401,311,97053,2,0,L|526:311,1,70
384,240,97497,1,0,0:0:0:0:
392,96,97942,2,0,P|232:56|135:96,3,210
72,208,100164,6,0,L|346:209,1,210
256,192,101497,12,0,103275,0:0:0:0:
56,112,103719,6,0,P|184:72|332:141,2,231.000007049561
224,280,105719,2,0,P|360:264|448:157,1,231.000007049561
426,203,106831,1,0,0:0:0:0:
384,96,107275,6,0,P|248:80|94:129,2,231.000007049561
256,192,109053,1,0,0:0:0:0:
184,216,109275,2,0,P|48:256|55:209,2,231.000007049561
318,170,110831,2,0,P|182:210|189:163,1,231.000007049561
184,24,112164,2,0,P|24:72|8:188,2,231.000007049561
187,65,113719,1,0,0:0:0:0:
184,24,113942,6,0,P|328:6|447:75,2,231.000007049561
326,224,115719,2,0,B|294:184|294:184|262:232|262:232|198:168|198:168|156:235|156:235|61:155,1,385.000011749268
32,280,117053,1,0,0:0:0:0:
75,167,117497,6,0,B|256:320|256:320|253:90,1,462.000014099121
465,164,119275,2,0,B|255:319|255:319|256:59,1,462.000014099121
256,152,121053,1,0,0:0:0:0:
48,208,121497,6,0,P|160:312|319:313,1,308.000009399414
296,192,122608,2,0,P|264:40|57:45,1,385.000011749268
72,280,124164,2,0,L|72:180,1,77.0000023498536
49,96,124608,6,0,B|80:88|80:88|120:112|120:112|152:88|152:88,2,77.0000023498536
72,184,125275,1,0,0:0:0:0:
48,271,125497,2,0,B|80:288|80:288|120:264|120:264|152:264|152:264,2,77.0000023498536
72,184,126164,1,0,0:0:0:0:
152,200,126386,2,0,P|200:176|274:197,1,77.0000023498536
216,280,126831,2,0,P|280:280|341:233,1,77.0000023498536
328,184,127275,2,0,L|327:88,2,77.0000023498536
328,184,127942,1,0,0:0:0:0:
440,192,128164,6,0,B|312:320|312:320|184:320|184:320|64:224|64:224|45:168,2,462.000014099121
329,59,131053,1,0,0:0:0:0:
168,122,131275,1,0,0:0:0:0:
