osu file format v14

[General]
AudioFilename: audio.mp3
AudioLeadIn: 0
PreviewTime: 52608
Countdown: 1
SampleSet: Soft
StackLeniency: 0.7
Mode: 0
LetterboxInBreaks: 0
EpilepsyWarning: 1
WidescreenStoryboard: 0

[Editor]
DistanceSpacing: 1
BeatDivisor: 2
GridSize: 8
TimelineZoom: 1

[Metadata]
Title:Sad Eyes
TitleUnicode:Sad Eyes
Artist:Crystal Castles
ArtistUnicode:Crystal Castles
Creator:Melsoon
Version:Easy
Source:
Tags:crystal castles 3 iii alice glass ethan kath english canada electronic
BeatmapID:1144963
BeatmapSetID:534991

[Difficulty]
HPDrainRate:4
CircleSize:3
OverallDifficulty:2
ApproachRate:3
SliderMultiplier:0.9
SliderTickRate:1

[Events]
//Background and Video events
0,0,"sad back.jpg",0,0
Video,0,"video.mp4"
//Break Periods
2,81697,95168
//Storyboard Layer 0 (Background)
//Storyboard Layer 1 (Fail)
//Storyboard Layer 2 (Pass)
//Storyboard Layer 3 (Foreground)
//Storyboard Sound Samples

[TimingPoints]
3720,444.444444444444,4,2,0,100,1,0
53497,-83.3333333333333,4,2,0,100,0,1
81942,-100,4,2,0,100,0,0
103275,-83.3333333333333,4,2,0,100,0,1
131719,-100,4,2,0,100,0,0

[Colours]
Combo1 : 3,184,170
Combo2 : 136,13,142
Combo3 : 154,236,248
Combo4 : 255,17,189
Combo5 : 174,133,252
Combo6 : 255,128,255

[HitObjects]
208,168,3720,5,0,0:0:0:0:
117,102,4164,2,0,P|168:56|266:70,2,135
200,136,6164,2,0,L|336:248,1,135
466,313,7719,6,0,P|480:240|446:153,2,135
336,248,9719,1,0,0:0:0:0:
216,248,10386,2,0,L|8:248,1,180
136,160,11942,5,0,0:0:0:0:
170,64,12608,2,0,P|266:23|331:38,2,135
304,184,14831,6,0,L|127:184,2,135
360,64,16831,2,0,P|435:140|416:248,1,225
344,296,18386,6,0,B|205:286|205:286|157:126,1,270
72,64,20386,2,0,P|160:13|263:65,1,225
352,80,21942,6,0,B|226:108|226:108|342:207|342:207|214:279,1,405
152,160,24608,1,0,0:0:0:0:
124,249,25053,6,0,P|172:251|233:205,1,90
152,160,25942,2,0,P|209:135|266:138,1,90
312,80,26831,2,0,B|288:225|288:225|176:225|176:225|72:297,1,360
64,200,29053,5,0,0:0:0:0:
80,112,29497,1,0,0:0:0:0:
160,160,29942,1,0,0:0:0:0:
192,64,30386,2,0,P|352:64|456:160,1,270
400,224,32164,6,0,P|360:168|280:128,2,135
312,240,33942,2,0,B|208:320|208:320|80:232,1,270
128,160,35719,5,0,0:0:0:0:
192,40,36386,2,0,L|352:73,1,135
326,172,37497,2,0,P|278:180|179:109,2,135
280,96,39275,1,0,0:0:0:0:
142,32,39942,6,0,B|32:112|32:112|56:104,1,135
58,222,41053,2,0,P|127:176|142:93,2,135
56,136,42831,5,0,0:0:0:0:
184,104,43497,1,0,0:0:0:0:
312,56,44164,1,0,0:0:0:0:
360,160,44608,6,0,L|304:104,1,45
240,128,45275,2,0,L|192:176,1,45
224,256,45942,2,0,P|320:272|480:152,1,270
440,96,47719,5,0,0:0:0:0:
352,72,48164,2,0,P|261:42|193:49,2,135
424,128,49942,1,0,0:0:0:0:
344,160,50386,2,0,P|252:190|176:176,1,135
256,192,51719,12,0,53497,0:0:0:0:
48,256,55942,6,0,P|158:286|232:248,1,161.999995056153
256,176,57053,1,0,0:0:0:0:
310,80,57497,2,0,P|363:150|342:243,1,161.999995056153
488,184,58831,2,0,P|496:280|440:352,2,161.999995056153
392,96,60608,1,0,0:0:0:0:
280,64,61053,6,0,B|176:16|176:16|112:80,1,161.999995056153
101,221,62386,2,0,B|249:308|249:308|385:180,1,323.999990112305
256,224,64164,6,0,P|188:210|105:264,2,161.999995056153
200,320,65942,2,0,L|152:0,1,323.999990112305
320,64,67719,6,0,P|368:129|331:233,2,161.999995056153
272,152,69497,2,0,P|232:248|248:320,2,161.999995056153
488,144,71719,2,0,P|456:72|388:29,1,161.999995056153
256,104,73053,2,0,P|288:176|356:219,2,161.999995056153
360,120,74831,6,0,P|328:216|328:216,2,53.9999983520508
312,24,75719,2,0,L|232:24,2,53.9999983520508
272,128,76608,2,0,L|184:128,2,53.9999983520508
136,74,77497,2,0,P|112:-6|112:-6,2,53.9999983520508
96,176,78386,2,0,P|272:224|451:173,2,323.999990112305
48,80,81497,1,0,0:0:0:0:
88,48,96608,6,0,L|153:48,1,45
176,48,97053,1,0,0:0:0:0:
224,48,97275,1,0,0:0:0:0:
352,104,97942,2,0,B|268:234|92:259|16:216,1,360
56,136,100164,1,0,0:0:0:0:
184,88,100831,1,0,0:0:0:0:
256,192,101497,12,0,103275,0:0:0:0:
168,182,105053,6,0,P|275:220|349:197,1,161.999995056153
272,56,106386,1,0,0:0:0:0:
472,136,107275,6,0,P|511:224|481:317,1,161.999995056153
344,232,108608,2,0,L|138:233,2,161.999995056153
400,328,110386,1,0,0:0:0:0:
288,328,110831,6,0,B|122:338|122:338|68:179|68:179|211:61,1,485.999985168458
344,72,113497,1,0,0:0:0:0:
408,160,113942,6,0,B|405:241|405:241|276:244,1,161.999995056153
424,112,115275,1,0,0:0:0:0:
373,49,115719,2,0,B|279:41|198:111|94:42|40:80|40:80,1,323.999990112305
128,152,117497,6,0,P|168:222|121:334,2,161.999995056153
60,240,119275,2,0,L|272:241,2,161.999995056153
16,144,121053,1,0,0:0:0:0:
96,80,121497,6,0,P|212:5|278:6,1,161.999995056153
192,104,122608,2,0,P|320:72|402:89,1,215.999993408203
464,240,124164,1,0,0:0:0:0:
462,93,124608,6,0,P|430:189|430:189,2,53.9999983520508
376,72,125497,2,0,L|304:72,2,53.9999983520508
376,184,126386,2,0,L|304:184,2,53.9999983520508
280,136,127274,2,0,P|256:56|256:56,2,53.9999983520508
168,128,128164,2,0,P|347:85|496:113,2,323.999990112305
112,224,131274,1,0,0:0:0:0:
