osu file format v14

[General]
AudioFilename: mitani nana shiroi yuki no princess wa.mp3
AudioLeadIn: 0
PreviewTime: 190153
Countdown: 0
SampleSet: Soft
StackLeniency: 0.5
Mode: 0
LetterboxInBreaks: 0
WidescreenStoryboard: 1

[Editor]
Bookmarks: 6478,21028,42628,61478,61831,80878,90628,112228,131428,150478,160081,171028,175828,181828,189928,191428,208228,213028,232078,246478,259228
DistanceSpacing: 0.6
BeatDivisor: 4
GridSize: 4
TimelineZoom: 3.1

[Metadata]
Title:Crimewave (Crystal Castles Vs. Health)
TitleUnicode:Crimewave (Crystal Castles Vs. Health)
Artist:Crystal Castles
ArtistUnicode:Crystal Castles
Creator:dima4e4a
Version:my diff (remap 2022)
Source:
Tags:vocaloid vocaloid2 hatsune miku Noboru-P blanca nieves apple poison Momochikun SnowNiNo_
BeatmapID:1907559
BeatmapSetID:895863

[Difficulty]
HPDrainRate:6
CircleSize:3.7
OverallDifficulty:9
ApproachRate:9.5
SliderMultiplier:1.8
SliderTickRate:2

[Events]
//Background and Video events
0,0,"3afed605.jpg",0,0
//Break Periods
2,191628,207703
//Storyboard Layer 0 (Background)
//Storyboard Layer 1 (Fail)
//Storyboard Layer 2 (Pass)
//Storyboard Layer 3 (Foreground)
//Storyboard Layer 4 (Overlay)
//Storyboard Sound Samples

[TimingPoints]
1678,300,4,2,0,50,1,0
1678,-133.333333333333,4,2,0,50,0,0
6478,-100,4,2,0,50,0,0
21028,300,4,2,0,50,1,0
37678,-133.333333333333,4,2,0,50,0,0
61828,-80,4,2,0,50,0,1
78628,-100,4,2,0,50,0,0
107278,-133.333333333333,4,2,0,50,0,0
131428,-80,4,2,0,50,0,1
148228,-100,4,2,0,50,0,1
150478,-100,4,2,0,50,0,0
213028,-80,4,2,0,50,0,1
229828,-100,4,2,0,50,0,0
254728,-285.714285714286,4,2,0,50,0,0

[Colours]
Combo1 : 255,136,139
Combo2 : 204,0,5

[HitObjects]
479,144,1678,6,0,P|444:133|388:131,1,67.5000025749208
225,221,1978,2,0,P|257:207|302:172,1,67.5000025749208,0|0,2:0|2:0,2:0:0:0:
372,57,2278,1,0,0:0:0:0:
394,231,2428,2,0,L|383:352,1,101.250003862381,0|0,0:0|0:0,0:0:0:0:
366,351,2728,1,0,0:0:0:0:
290,234,2878,6,0,P|255:223|199:221,1,67.5000025749208
87,87,3178,2,0,P|118:104|157:144,1,67.5000025749208,0|0,2:0|2:0,2:0:0:0:
165,284,3478,1,0,0:0:0:0:
253,119,3628,2,0,L|262:18,1,101.250003862381,0|0,0:0|0:0,0:0:0:0:
278,5,3928,1,0,0:0:0:0:
496,220,4078,6,0,P|461:230|405:232,1,67.5000025749208
242,143,4378,2,0,P|274:156|319:191,1,67.5000025749208,0|0,2:0|2:0,2:0:0:0:
389,307,4678,1,0,0:0:0:0:
411,133,4828,2,0,L|400:12,1,101.250003862381,0|0,0:0|0:0,0:0:0:0:
383,13,5128,1,0,0:0:0:0:
313,91,5278,6,0,P|278:80|222:78,1,67.5000025749208
59,168,5578,2,0,P|91:154|136:119,1,67.5000025749208,0|0,2:0|2:0,2:0:0:0:
186,20,5878,1,0,0:0:0:0:
226,177,6028,2,0,L|215:298,1,101.250003862381,0|0,0:0|0:0,0:0:0:0:
193,299,6328,1,0,0:0:0:0:
471,199,6478,6,0,P|408:190|323:234,1,135
287,291,6778,1,0,0:0:0:0:
424,283,6928,1,0,0:0:0:0:
251,208,7078,1,0,0:0:0:0:
380,378,7228,2,0,L|394:279,1,90,0|0,0:0|0:0,0:0:0:0:
399,143,7528,5,0,0:0:0:0:
188,285,7678,2,0,P|162:224|176:159,1,135
258,202,7978,1,0,0:0:0:0:
72,234,8128,1,0,0:0:0:0:
248,113,8278,1,0,0:0:0:0:
226,361,8428,6,0,P|174:370|127:347,1,90,0|0,0:0|0:0,0:0:0:0:
72,234,8728,5,0,0:0:0:0:
248,113,8878,2,0,L|239:255,1,135
230,346,9178,5,0,0:0:0:0:
158,194,9328,1,0,0:0:0:0:
320,288,9478,1,0,0:0:0:0:
114,301,9628,6,0,P|71:288|31:245,1,90,0|0,0:0|0:0,0:0:0:0:
233,156,9928,5,0,0:0:0:0:
288,357,10078,2,0,L|298:204,1,135
282,82,10378,5,0,0:0:0:0:
214,245,10528,1,0,0:0:0:0:
215,8,10678,6,0,P|189:75|210:152,1,135,0|0,0:0|0:0,0:0:0:0:
281,198,10978,5,0,0:0:0:0:
440,130,11128,1,0,0:0:0:0:
275,79,11278,2,0,L|140:90,1,135
63,142,11578,5,0,0:0:0:0:
214,163,11728,1,0,0:0:0:0:
69,46,11878,1,0,0:0:0:0:
111,219,12028,6,0,P|128:265|163:293,1,90,0|0,0:0|0:0,0:0:0:0:
312,297,12328,5,0,0:0:0:0:
221,53,12478,2,0,L|207:203,1,135
239,269,12778,5,0,0:0:0:0:
412,293,12928,1,0,0:0:0:0:
289,184,13078,1,0,0:0:0:0:
351,371,13228,6,0,P|401:390|450:383,1,90,0|0,0:0|0:0,0:0:0:0:
477,200,13528,5,0,0:0:0:0:
348,260,13678,6,0,P|297:279|212:246,1,135
152,189,13978,5,0,0:0:0:0:
312,85,14128,1,0,0:0:0:0:
116,90,14278,1,0,0:0:0:0:
285,188,14428,6,0,L|299:89,1,90,0|0,0:0|0:0,0:0:0:0:
187,0,14728,5,0,0:0:0:0:
152,189,14878,2,0,P|117:135|16:94,1,135
223,80,15178,5,0,0:0:0:0:
177,273,15328,1,0,0:0:0:0:
305,133,15478,2,0,P|339:79|440:38,1,135,0|0,0:0|0:0,0:0:0:0:
487,74,15778,5,0,0:0:0:0:
470,272,15928,1,0,0:0:0:0:
416,132,16078,2,0,L|317:118,1,90
128,94,16378,5,0,0:0:0:0:
301,237,16528,1,0,0:0:0:0:
301,237,16828,5,0,0:0:0:0:
211,32,16978,1,0,0:0:0:0:
72,241,17128,1,0,0:0:0:0:
72,241,17203,1,0,0:0:0:0:
72,241,17278,1,0,0:0:0:0:
248,136,17428,5,0,0:0:0:0:
248,136,17503,1,0,0:0:0:0:
248,136,17578,2,0,L|198:132,1,45
87,118,17728,5,0,0:0:0:0:
87,118,17803,1,0,0:0:0:0:
87,118,17878,2,0,L|130:185,1,45
165,289,18028,2,0,L|174:245,1,45
223,40,18178,5,0,0:0:0:0:
223,40,18253,1,0,0:0:0:0:
223,40,18328,1,0,0:0:0:0:
66,238,18478,1,0,0:0:0:0:
254,185,18628,5,0,0:0:0:0:
254,185,18778,1,0,0:0:0:0:
452,152,19678,6,0,L|282:134,1,135
172,159,19978,5,0,0:0:0:0:
270,328,20128,1,0,0:0:0:0:
111,233,20278,1,0,0:0:0:0:
314,247,20428,5,0,0:0:0:0:
148,329,20578,1,0,0:0:0:0:
266,156,20728,2,0,P|324:146|403:199,1,135
314,247,21028,5,0,0:0:0:0:
147,168,21178,1,0,0:0:0:0:
258,355,21328,2,0,L|362:345,1,90,0|0,0:0|0:0,0:0:0:0:
481,324,21628,5,0,0:0:0:0:
480,128,21778,1,0,0:0:0:0:
403,255,21928,2,0,L|313:246,1,90,0|0,0:0|0:0,0:0:0:0:
185,232,22228,5,0,0:0:0:0:
358,121,22378,1,0,0:0:0:0:
155,118,22528,1,0,0:0:0:0:
268,378,22678,2,0,P|297:347|307:281,2,90,0|0|0,0:0|0:0|0:0,0:0:0:0:
185,232,23128,1,0,0:0:0:0:
353,4,23278,2,0,L|343:140,1,135,0|0,0:0|0:0,0:0:0:0:
298,217,23578,5,0,0:0:0:0:
448,346,23728,1,0,0:0:0:0:
463,102,23878,5,0,0:0:0:0:
298,217,24028,1,0,0:0:0:0:
373,23,24178,5,0,0:0:0:0:
360,292,24328,2,0,P|301:309|222:279,1,135,0|0,0:0|0:0,0:0:0:0:
188,201,24628,5,0,0:0:0:0:
357,190,24778,1,0,0:0:0:0:
227,105,24928,1,0,0:0:0:0:
360,292,25078,2,0,P|374:255|370:188,1,90
184,21,25378,2,0,P|183:65|198:107,1,90,0|0,0:0|0:0,0:0:0:0:
470,139,25678,6,0,P|378:103|268:136,1,180,0|0,0:0|0:0,0:0:0:0:
150,315,26128,6,0,L|153:225,1,90
163,48,26428,5,0,0:0:0:0:
264,223,26578,1,0,0:0:0:0:
262,22,26728,1,0,0:0:0:0:
75,123,26878,2,0,P|160:145|246:120,1,180,0|0,0:0|0:0,0:0:0:0:
441,70,27328,2,0,P|400:52|337:60,1,90
270,268,27628,5,0,0:0:0:0:
378,148,27778,2,0,L|369:237,1,90
172,318,28078,2,0,L|163:228,1,90
260,29,28378,2,0,L|251:118,1,90
257,353,28678,5,0,0:0:0:0:
83,233,28828,1,0,0:0:0:0:
267,161,28978,5,0,0:0:0:0:
257,353,29128,1,0,0:0:0:0:
80,238,29278,5,0,0:0:0:0:
171,110,29428,2,0,P|254:68|350:94,1,180
480,27,29878,2,0,P|394:63|352:153,1,180
395,221,30328,2,0,P|336:182|247:202,1,135
84,186,30628,5,0,0:0:0:0:
221,349,30778,1,0,0:0:0:0:
184,182,30928,2,0,L|170:278,1,90
112,364,31228,5,0,0:0:0:0:
96,204,31378,2,0,L|83:114,2,90
0,84,31828,5,0,0:0:0:0:
187,172,31978,1,0,0:0:0:0:
80,29,32128,1,0,0:0:0:0:
138,264,32278,2,0,P|182:281|256:264,1,90
401,186,32578,5,0,0:0:0:0:
314,302,32728,1,0,0:0:0:0:
323,114,32878,2,0,P|376:86|473:116,1,135
503,178,33178,5,0,0:0:0:0:
461,343,33328,1,0,0:0:0:0:
401,186,33478,1,0,0:0:0:0:
361,335,33628,2,0,P|295:345|232:320,1,135
63,225,33928,2,0,P|107:220|149:234,1,90
169,376,34228,5,0,0:0:0:0:
257,190,34378,1,0,0:0:0:0:
90,306,34528,1,0,0:0:0:0:
321,318,34678,2,0,P|334:275|321:228,1,90
109,121,34978,2,0,P|99:164|112:206,1,90
151,259,35278,2,0,L|127:64,1,180
288,33,35728,6,0,P|244:18|169:34,1,90
229,144,36028,5,0,0:0:0:0:
349,100,36178,1,0,0:0:0:0:
270,233,36328,1,0,0:0:0:0:
82,109,36478,2,0,P|148:103|211:125,1,135
270,233,36778,5,0,0:0:0:0:
407,20,36928,2,0,L|398:154,1,135
392,261,37228,5,0,0:0:0:0:
317,118,37378,1,0,0:0:0:0:
316,328,37528,1,0,0:0:0:0:
217,98,37678,6,0,L|225:190,2,67.5000025749208
88,100,38128,2,0,L|82:32,2,67.5000025749208
101,232,38578,5,0,0:0:0:0:
88,100,38728,2,0,L|82:32,1,67.5000025749208
217,98,39028,2,0,L|211:165,2,67.5000025749208
323,104,39478,2,0,L|317:36,2,67.5000025749208
334,222,39928,5,0,0:0:0:0:
437,147,40078,1,0,0:0:0:0:
243,170,40228,2,0,L|150:163,1,67.5000025749208
54,156,40528,1,0,0:0:0:0:
150,53,40678,2,0,L|243:60,2,67.5000025749208
51,46,41128,1,0,0:0:0:0:
316,69,41278,1,0,0:0:0:0:
54,156,41428,6,0,L|149:141,1,67.5000025749208
394,202,41728,2,0,L|299:187,1,67.5000025749208
151,240,42028,5,0,0:0:0:0:
151,240,42103,1,0,0:0:0:0:
151,240,42178,1,0,0:0:0:0:
242,81,42328,2,0,P|287:62|357:80,1,101.250003862381
256,192,42628,12,0,44578,0:0:0:0:
430,113,44728,6,0,P|387:96|329:105,1,101.250003862381
281,102,45028,2,0,P|348:83|439:100,1,135.000005149842
460,183,45478,5,0,0:0:0:0:
387,348,45628,1,0,0:0:0:0:
324,179,45778,1,0,0:0:0:0:
425,273,45928,2,0,P|375:264|329:284,1,101.250003862381
295,328,46228,2,0,P|248:347|183:307,1,101.250003862381
161,261,46528,1,0,0:0:0:0:
230,89,46678,2,0,L|221:160,1,67.5000025749208
329,284,46978,2,0,L|320:217,1,67.5000025749208
306,123,47278,1,0,0:0:0:0:
211,266,47428,6,0,P|174:272|124:257,1,67.5000025749208
87,190,47728,5,0,0:0:0:0:
139,32,47878,1,0,0:0:0:0:
178,190,48028,1,0,0:0:0:0:
51,88,48178,1,0,0:0:0:0:
220,85,48328,2,0,L|307:76,1,67.5000025749208
461,189,48628,2,0,L|374:180,1,67.5000025749208
254,171,48928,5,0,0:0:0:0:
394,70,49078,1,0,0:0:0:0:
323,240,49228,1,0,0:0:0:0:
287,78,49378,1,0,0:0:0:0:
428,198,49528,2,0,L|437:285,1,67.5000025749208
227,361,49828,2,0,L|236:274,1,67.5000025749208
252,149,50128,5,0,0:0:0:0:
318,331,50278,1,0,0:0:0:0:
181,231,50428,1,0,0:0:0:0:
343,188,50578,1,0,0:0:0:0:
214,336,50728,2,0,P|180:346|146:342,1,67.5000025749208
14,188,51028,2,0,P|49:192|78:207,1,67.5000025749208
282,258,51328,2,0,L|275:190,1,67.5000025749208
190,53,51628,2,0,L|183:120,1,67.5000025749208
282,258,51928,2,0,L|275:190,1,67.5000025749208
77,206,52228,2,0,P|136:223|193:208,1,101.250003862381
218,138,52528,5,0,0:0:0:0:
110,21,52678,1,0,0:0:0:0:
271,50,52828,1,0,0:0:0:0:
100,127,52978,1,0,0:0:0:0:
271,50,53128,2,0,P|297:39|358:41,1,67.5000025749208
477,182,53428,2,0,L|390:173,1,67.5000025749208
244,163,53728,5,0,0:0:0:0:
407,86,53878,1,0,0:0:0:0:
328,235,54028,1,0,0:0:0:0:
300,53,54178,1,0,0:0:0:0:
423,175,54328,2,0,L|432:262,1,67.5000025749208
232,346,54628,2,0,L|238:278,1,67.5000025749208
262,127,54928,5,0,0:0:0:0:
141,267,55078,1,0,0:0:0:0:
153,85,55228,2,0,L|159:17,2,67.5000025749208
141,267,55678,1,0,0:0:0:0:
317,217,55828,2,0,P|347:185|366:107,1,101.250003862381
335,50,56128,1,0,0:0:0:0:
120,84,56278,2,0,L|207:75,1,67.5000025749208
335,50,56578,1,0,0:0:0:0:
213,169,56728,2,0,L|113:178,1,101.250003862381
32,133,57028,5,0,0:0:0:0:
136,286,57178,1,0,0:0:0:0:
109,92,57328,1,0,0:0:0:0:
38,241,57478,1,0,0:0:0:0:
238,261,57628,2,0,P|276:265|325:252,1,67.5000025749208
409,104,57928,2,0,P|371:100|322:113,1,67.5000025749208
266,169,58228,5,0,0:0:0:0:
422,198,58378,1,0,0:0:0:0:
256,82,58528,1,0,0:0:0:0:
330,254,58678,1,0,0:0:0:0:
408,70,58828,2,0,L|414:2,1,67.5000025749208
210,174,59128,2,0,L|219:261,1,67.5000025749208
246,96,59428,2,0,B|184:71|154:103|148:113|137:120|99:153|33:113,1,202.500007724762
45,33,60028,6,0,L|35:132,1,67.5000025749208
222,245,60328,2,0,L|215:177,1,67.5000025749208
389,28,60628,2,0,L|372:140,1,101.250003862381
329,345,60928,2,0,L|314:245,1,101.250003862381
300,35,61228,2,0,L|283:147,1,101.250003862381
246,384,61528,2,0,L|231:284,1,101.250003862381
202,195,61828,5,0,0:0:0:0:
42,206,61978,1,0,0:0:0:0:
163,99,62128,1,0,0:0:0:0:
124,282,62278,1,0,0:0:0:0:
94,34,62428,2,0,P|146:13|214:20,1,112.5
370,134,62728,1,0,0:0:0:0:
202,195,62878,1,0,0:0:0:0:
301,56,63028,2,0,P|346:36|419:44,1,112.5
408,341,63328,2,0,P|352:345|300:324,1,112.5
119,166,63628,5,0,0:0:0:0:
286,240,63778,1,0,0:0:0:0:
74,254,63928,2,0,P|31:218|9:166,1,112.5
92,32,64228,2,0,L|210:20,1,112.5
320,76,64528,1,0,0:0:0:0:
247,240,64678,1,0,0:0:0:0:
339,98,64828,2,0,L|327:216,1,112.5
171,352,65128,2,0,L|159:234,1,112.5
8,91,65428,2,0,P|90:83|162:124,1,168.75
193,212,65728,5,0,0:0:0:0:
303,43,65878,1,0,0:0:0:0:
297,231,66028,2,0,L|285:359,1,112.5
103,251,66328,2,0,L|92:138,1,112.5
213,32,66628,5,0,0:0:0:0:
297,231,66778,1,0,0:0:0:0:
311,21,66928,1,0,0:0:0:0:
173,165,67078,1,0,0:0:0:0:
412,112,67228,2,0,P|384:64|334:32,1,112.5
173,165,67528,1,0,0:0:0:0:
359,350,67678,2,0,L|387:126,1,225
337,33,68128,1,0,0:0:0:0:
277,274,68278,2,0,P|221:277|173:249,1,112.5
93,82,68578,5,0,0:0:0:0:
257,140,68728,1,0,0:0:0:0:
94,230,68878,1,0,0:0:0:0:
191,81,69028,2,0,P|239:53|294:56,1,112.5
328,314,69328,5,0,0:0:0:0:
257,140,69478,2,0,L|251:274,1,112.5
126,354,69778,2,0,L|119:220,1,112.5
137,87,70078,2,0,P|209:37|364:59,1,225
485,131,70528,2,0,P|438:126|372:187,1,112.5
225,239,70828,2,0,P|272:234|338:295,1,112.5
478,384,71128,2,0,P|431:389|365:328,1,112.5
308,161,71428,2,0,P|256:155|180:170,1,112.5
95,216,71728,5,0,0:0:0:0:
157,354,71878,1,0,0:0:0:0:
120,131,72028,2,0,L|109:3,1,112.5
213,55,72328,5,0,0:0:0:0:
25,131,72478,1,0,0:0:0:0:
196,164,72628,2,0,L|308:154,1,112.5
472,265,72928,2,0,L|344:254,1,112.5
120,85,73228,2,0,P|98:169|97:270,1,168.75
133,336,73528,5,0,0:0:0:0:
176,188,73678,1,0,0:0:0:0:
218,384,73828,2,0,P|228:335|207:256,1,112.5
7,344,74128,2,0,L|133:329,1,112.5
429,225,74428,2,0,P|363:189|256:213,1,168.75
216,274,74728,5,0,0:0:0:0:
472,335,74878,2,0,L|447:127,1,168.75
379,112,75178,5,0,0:0:0:0:
335,278,75328,2,0,P|284:300|207:289,1,112.5
124,124,75628,2,0,P|166:159|191:233,1,112.5
54,359,75928,2,0,P|87:314|159:285,1,112.5
455,190,76228,2,0,L|274:176,1,168.75
119,153,76528,5,0,0:0:0:0:
312,81,76678,1,0,0:0:0:0:
179,229,76828,2,0,P|127:247|46:215,1,112.5
198,4,77128,2,0,L|216:160,1,112.5
302,372,77428,2,0,L|314:260,1,112.5
330,80,77728,1,0,0:0:0:0:
120,165,77878,2,0,P|199:205|287:186,1,168.75
376,154,78178,5,0,0:0:0:0:
229,49,78328,1,0,0:0:0:0:
354,244,78478,1,0,0:0:0:0:
463,39,78628,2,0,P|391:21|324:44,1,135,0|0,3:0|0:0,0:0:0:0:
284,118,78928,1,0,0:0:0:0:
141,0,79078,2,0,L|153:179,1,180
164,278,79528,5,0,0:0:0:0:
62,119,79678,1,0,0:0:0:0:
62,346,79828,2,0,L|72:256,1,90
146,83,80128,5,0,0:0:0:0:
283,236,80278,1,0,0:0:0:0:
124,181,80428,1,0,0:0:0:0:
302,121,80578,1,0,0:0:0:0:
176,278,80728,1,0,0:0:0:0:
226,65,80878,2,0,P|258:40|334:28,1,90
479,93,81178,5,0,0:0:0:0:
302,121,81328,2,0,L|291:231,1,90
269,326,81628,5,0,0:0:0:0:
203,147,81778,1,0,0:0:0:0:
361,268,81928,1,0,0:0:0:0:
160,247,82078,2,0,L|50:236,1,90
10,135,82378,5,0,0:0:0:0:
218,64,82528,2,0,P|227:111|207:174,1,90
140,334,82828,5,0,0:0:0:0:
132,144,82978,1,0,0:0:0:0:
235,291,83128,1,0,0:0:0:0:
30,238,83278,2,0,P|94:226|164:250,1,135
263,347,83578,5,0,0:0:0:0:
434,280,83728,1,0,0:0:0:0:
257,247,83878,1,0,0:0:0:0:
398,381,84028,2,0,P|415:342|408:279,1,90
332,83,84328,5,0,0:0:0:0:
166,259,84478,2,0,L|176:144,1,90
193,26,84778,5,0,0:0:0:0:
271,184,84928,1,0,0:0:0:0:
113,93,85078,1,0,0:0:0:0:
297,63,85228,5,0,0:0:0:0:
150,191,85378,1,0,0:0:0:0:
193,26,85528,1,0,0:0:0:0:
271,184,85678,2,0,P|271:228|251:268,1,90
102,333,85978,5,0,0:0:0:0:
150,191,86128,2,0,L|270:178,1,90
493,168,86428,6,0,P|459:105|386:69,1,135
297,63,86728,1,0,0:0:0:0:
378,249,86878,2,0,L|385:137,1,90
497,46,87178,5,0,0:0:0:0:
297,63,87328,2,0,L|207:67,1,90
2,172,87628,2,0,L|91:176,1,90
260,200,87928,5,0,0:0:0:0:
92,92,88078,1,0,0:0:0:0:
194,269,88228,2,0,P|232:291|276:288,1,90
375,72,88678,2,0,L|368:163,1,90
454,341,89128,2,0,L|447:251,1,90
375,72,89578,2,0,L|368:163,1,90
323,257,89878,5,0,0:0:0:0:
323,257,89953,1,0,0:0:0:0:
323,257,90028,2,0,L|310:327,1,45
345,351,90178,2,0,P|297:313|185:384,1,180
159,259,90628,5,0,0:0:0:0:
68,160,90778,1,0,0:0:0:0:
280,173,90928,2,0,L|176:163,1,90
131,97,91228,5,0,0:0:0:0:
159,259,91378,1,0,0:0:0:0:
225,0,91528,2,0,L|216:89,1,90
159,259,91828,5,0,0:0:0:0:
9,177,91978,1,0,0:0:0:0:
219,187,92128,1,0,0:0:0:0:
65,302,92278,2,0,P|76:223|170:138,1,180,0|0,0:0|0:0,0:0:0:0:
263,274,92728,5,0,0:0:0:0:
273,48,92878,2,0,L|267:182,1,135
263,274,93178,5,0,0:0:0:0:
448,233,93328,2,0,L|349:219,1,90
184,220,93628,5,0,0:0:0:0:
349,135,93778,1,0,0:0:0:0:
324,344,93928,2,0,P|260:360|186:331,1,135
139,269,94228,5,0,0:0:0:0:
174,79,94378,1,0,0:0:0:0:
270,218,94528,1,0,0:0:0:0:
72,176,94678,2,0,L|176:166,1,90
352,56,94978,2,0,B|320:95|320:95|309:142,1,90,0|0,0:0|0:0,0:0:0:0:
424,281,95278,6,0,P|335:245|311:151,1,180
501,164,95728,6,0,L|379:155,1,90
247,74,96028,5,0,0:0:0:0:
438,74,96178,1,0,0:0:0:0:
211,162,96328,1,0,0:0:0:0:
334,0,96478,2,0,P|344:86|296:161,1,180
90,127,96928,2,0,L|179:135,1,90
420,165,97228,5,0,0:0:0:0:
261,261,97378,2,0,L|157:251,1,90
72,29,97678,2,0,P|138:23|191:64,1,135
219,166,97978,5,0,0:0:0:0:
114,326,98128,1,0,0:0:0:0:
106,111,98278,1,0,0:0:0:0:
305,240,98428,1,0,0:0:0:0:
105,224,98578,1,0,0:0:0:0:
292,110,98728,1,0,0:0:0:0:
209,309,98878,1,0,0:0:0:0:
209,52,99028,2,0,P|292:19|387:72,1,180,0|0,0:0|0:0,0:0:0:0:
501,126,99478,2,0,B|256:206|256:206|300:86,1,360
327,23,100228,5,0,0:0:0:0:
406,265,100378,1,0,0:0:0:0:
227,110,100528,2,0,L|317:102,1,90
451,83,100828,1,0,0:0:0:0:
246,244,100978,1,0,0:0:0:0:
451,83,101128,2,0,L|403:183,1,90
282,302,101428,5,0,0:0:0:0:
277,113,101578,1,0,0:0:0:0:
401,254,101728,1,0,0:0:0:0:
219,226,101878,2,0,L|129:215,1,90
196,50,102178,2,0,L|286:39,1,90
412,243,102478,2,0,P|430:181|387:100,1,135
309,134,102778,5,0,0:0:0:0:
243,300,102928,1,0,0:0:0:0:
183,127,103078,1,0,0:0:0:0:
373,272,103228,2,0,P|320:312|254:324,1,135
111,369,103528,2,0,B|112:319|112:319|94:280,1,90
34,200,103828,2,0,B|70:173|70:173|101:201|175:183,1,135
127,100,104128,5,0,0:0:0:0:
176,302,104278,2,0,L|184:212,1,90,0|0,0:0|0:0,0:0:0:0:
246,38,104578,2,0,L|254:127,1,90,0|0,0:0|0:0,0:0:0:0:
329,354,104878,2,0,L|353:159,1,180
508,115,105328,2,0,P|460:98|389:116,1,90
241,189,105628,5,0,0:0:0:0:
339,71,105778,1,0,0:0:0:0:
181,104,105928,1,0,0:0:0:0:
337,305,106078,2,0,P|360:222|342:147,1,135
265,112,106378,5,0,0:0:0:0:
99,269,106528,2,0,L|233:273,1,135
429,279,106828,5,0,0:0:0:0:
345,85,106978,1,0,0:0:0:0:
337,305,107128,1,0,0:0:0:0:
225,142,107278,6,0,L|233:50,2,67.5000025749208
96,140,107728,2,0,L|90:208,2,67.5000025749208
109,8,108178,5,0,0:0:0:0:
96,140,108328,2,0,L|90:208,1,67.5000025749208
225,142,108628,2,0,L|219:75,2,67.5000025749208
331,136,109078,2,0,L|325:204,2,67.5000025749208
342,18,109528,5,0,0:0:0:0:
445,93,109678,1,0,0:0:0:0:
251,70,109828,2,0,L|158:77,1,67.5000025749208
62,84,110128,1,0,0:0:0:0:
158,187,110278,2,0,L|251:180,2,67.5000025749208
51,46,110728,5,0,0:0:0:0:
316,69,110878,1,0,0:0:0:0:
54,156,111028,6,0,L|149:141,1,67.5000025749208
394,202,111328,2,0,L|299:187,1,67.5000025749208
151,240,111628,5,0,0:0:0:0:
151,240,111703,1,0,0:0:0:0:
151,240,111778,1,0,0:0:0:0:
242,81,111928,2,0,P|287:62|357:80,1,101.250003862381
256,192,112228,12,0,114178,0:0:0:0:
83,272,114328,6,0,P|126:289|184:280,1,101.250003862381
117,378,114628,2,0,P|173:337|216:255,1,135.000005149842
221,189,115078,5,0,0:0:0:0:
148,24,115228,1,0,0:0:0:0:
85,193,115378,1,0,0:0:0:0:
203,92,115528,2,0,P|156:111|107:102,1,101.250003862381
239,12,115828,2,0,P|286:-7|351:33,1,101.250003862381
352,124,116128,1,0,0:0:0:0:
283,296,116278,2,0,L|292:225,1,67.5000025749208
184,101,116578,2,0,L|193:168,1,67.5000025749208
207,262,116878,1,0,0:0:0:0:
302,119,117028,6,0,P|339:113|389:128,1,67.5000025749208
426,195,117328,5,0,0:0:0:0:
374,353,117478,1,0,0:0:0:0:
335,195,117628,1,0,0:0:0:0:
462,297,117778,1,0,0:0:0:0:
293,300,117928,2,0,L|206:309,1,67.5000025749208
52,196,118228,2,0,L|139:205,1,67.5000025749208
259,214,118528,5,0,0:0:0:0:
119,315,118678,1,0,0:0:0:0:
190,145,118828,1,0,0:0:0:0:
226,307,118978,1,0,0:0:0:0:
85,187,119128,2,0,L|76:100,1,67.5000025749208
286,24,119428,2,0,L|277:111,1,67.5000025749208
261,236,119728,5,0,0:0:0:0:
195,54,119878,1,0,0:0:0:0:
332,154,120028,1,0,0:0:0:0:
170,197,120178,1,0,0:0:0:0:
299,49,120328,2,0,P|333:39|367:43,1,67.5000025749208
499,197,120628,2,0,P|464:193|435:178,1,67.5000025749208
231,127,120928,2,0,L|238:195,1,67.5000025749208
323,332,121228,2,0,L|330:265,1,67.5000025749208
231,127,121528,2,0,L|238:195,1,67.5000025749208
436,179,121828,2,0,P|377:162|320:177,1,101.250003862381
295,247,122128,5,0,0:0:0:0:
308,84,122278,1,0,0:0:0:0:
194,268,122428,1,0,0:0:0:0:
413,258,122578,1,0,0:0:0:0:
308,84,122728,2,0,P|282:73|221:75,1,67.5000025749208
42,114,123028,2,0,L|129:123,1,67.5000025749208
314,152,123328,5,0,0:0:0:0:
143,215,123478,1,0,0:0:0:0:
222,66,123628,1,0,0:0:0:0:
250,248,123778,1,0,0:0:0:0:
109,120,123928,2,0,L|100:33,1,67.5000025749208
329,52,124228,2,0,L|323:120,1,67.5000025749208
302,261,124528,5,0,0:0:0:0:
418,122,124678,1,0,0:0:0:0:
406,304,124828,2,0,L|400:372,2,67.5000025749208
418,122,125278,1,0,0:0:0:0:
205,264,125428,2,0,P|220:216|254:179,1,101.250003862381
325,105,125728,5,0,0:0:0:0:
375,236,125878,2,0,L|288:245,1,67.5000025749208
205,264,126178,5,0,0:0:0:0:
324,153,126328,2,0,L|426:142,1,101.250003862381
512,198,126628,5,0,0:0:0:0:
408,45,126778,1,0,0:0:0:0:
435,239,126928,1,0,0:0:0:0:
506,90,127078,1,0,0:0:0:0:
306,70,127228,2,0,P|268:66|219:79,1,67.5000025749208
104,281,127528,2,0,P|142:285|191:272,1,67.5000025749208
247,216,127828,5,0,0:0:0:0:
91,187,127978,1,0,0:0:0:0:
257,303,128128,1,0,0:0:0:0:
183,131,128278,1,0,0:0:0:0:
105,315,128428,2,0,L|99:383,1,67.5000025749208
303,211,128728,2,0,L|294:124,1,67.5000025749208
267,289,129028,2,0,B|329:314|359:282|365:272|376:265|414:232|480:272,1,202.500007724762
468,352,129628,6,0,L|478:253,1,67.5000025749208
291,140,129928,2,0,L|298:208,1,67.5000025749208
124,357,130228,2,0,L|141:245,1,101.250003862381
184,40,130528,2,0,L|199:140,1,101.250003862381
213,350,130828,2,0,L|230:238,1,101.250003862381
267,1,131128,6,0,L|282:101,1,101.250003862381
311,189,131428,5,0,0:0:0:0:
471,178,131578,1,0,0:0:0:0:
350,285,131728,1,0,0:0:0:0:
389,102,131878,1,0,0:0:0:0:
419,350,132028,2,0,P|367:371|299:364,1,112.5
215,207,132328,1,0,0:0:0:0:
383,191,132478,1,0,0:0:0:0:
253,301,132628,2,0,P|197:306|146:285,1,112.5
187,55,132928,2,0,P|243:51|295:72,1,112.5
357,168,133228,5,0,0:0:0:0:
413,291,133378,1,0,0:0:0:0:
271,179,133528,2,0,L|389:191,1,112.5
122,226,133828,2,0,L|10:237,1,112.5
104,332,134128,1,0,0:0:0:0:
311,263,134278,1,0,0:0:0:0:
235,143,134428,2,0,L|224:255,1,112.5
366,356,134728,2,0,L|355:244,1,112.5
510,92,135028,2,0,P|428:84|356:125,1,168.75
293,195,135328,5,0,0:0:0:0:
255,31,135478,1,0,0:0:0:0:
193,186,135628,2,0,L|182:298,1,112.5
64,170,135928,2,0,L|53:58,1,112.5
215,61,136228,5,0,0:0:0:0:
330,232,136378,1,0,0:0:0:0:
331,42,136528,1,0,0:0:0:0:
206,185,136678,1,0,0:0:0:0:
432,133,136828,2,0,P|404:85|354:53,1,112.5
330,232,137128,1,0,0:0:0:0:
154,34,137278,2,0,L|126:258,1,225
176,351,137728,1,0,0:0:0:0:
236,110,137878,2,0,P|292:107|340:135,1,112.5
420,302,138178,5,0,0:0:0:0:
256,244,138328,1,0,0:0:0:0:
419,154,138478,1,0,0:0:0:0:
322,303,138628,2,0,P|274:331|219:328,1,112.5
68,213,138928,5,0,0:0:0:0:
256,244,139078,2,0,L|262:110,1,112.5
387,30,139378,2,0,L|394:164,1,112.5
376,297,139678,6,0,P|304:347|149:325,1,225
28,253,140128,2,0,P|75:258|141:197,1,112.5
288,145,140428,2,0,P|241:150|175:89,1,112.5
35,0,140728,2,0,P|82:-5|148:56,1,112.5
205,223,141028,2,0,P|257:229|333:214,1,112.5
418,168,141328,5,0,0:0:0:0:
356,30,141478,1,0,0:0:0:0:
393,253,141628,2,0,L|404:381,1,112.5
300,329,141928,5,0,0:0:0:0:
488,253,142078,1,0,0:0:0:0:
317,220,142228,2,0,L|205:230,1,112.5
41,119,142528,2,0,L|169:130,1,112.5
393,299,142828,2,0,P|415:215|416:114,1,168.75
380,48,143128,5,0,0:0:0:0:
337,196,143278,1,0,0:0:0:0:
295,0,143428,2,0,P|285:49|306:128,1,112.5
506,40,143728,2,0,L|380:55,1,112.5
84,159,144028,2,0,P|150:195|257:171,1,168.75
297,110,144328,1,0,0:0:0:0:
41,49,144478,2,0,L|66:257,1,168.75
134,272,144778,5,0,0:0:0:0:
178,106,144928,2,0,P|229:84|306:95,1,112.5
389,260,145228,2,0,P|347:225|322:151,1,112.5
459,25,145528,2,0,P|426:70|354:99,1,112.5
58,194,145828,2,0,L|239:208,1,168.75
394,231,146128,5,0,0:0:0:0:
201,303,146278,1,0,0:0:0:0:
334,155,146428,2,0,P|386:137|467:169,1,112.5
315,380,146728,2,0,L|297:224,1,112.5
211,12,147028,2,0,L|199:124,1,112.5
183,304,147328,5,0,0:0:0:0:
393,219,147478,2,0,P|314:179|226:198,1,168.75
137,230,147778,5,0,0:0:0:0:
284,335,147928,1,0,0:0:0:0:
159,140,148078,1,0,0:0:0:0:
50,345,148228,2,0,P|122:363|189:340,1,135,0|0,3:0|0:0,0:0:0:0:
229,266,148528,1,0,0:0:0:0:
372,384,148678,2,0,L|360:205,1,180
349,103,149128,5,0,0:0:0:0:
451,265,149278,1,0,0:0:0:0:
264,165,149428,2,0,L|174:155,1,90
48,139,149728,5,0,0:0:0:0:
213,273,149878,1,0,0:0:0:0:
121,63,150028,1,0,0:0:0:0:
95,282,150178,1,0,0:0:0:0:
261,85,150328,1,0,0:0:0:0:
2,299,150478,2,0,P|8:256|52:196,1,90
121,63,150778,5,0,0:0:0:0:
215,270,150928,2,0,L|224:180,1,90
236,82,151228,5,0,0:0:0:0:
311,271,151378,1,0,0:0:0:0:
145,139,151528,1,0,0:0:0:0:
364,83,151678,2,0,L|353:193,1,90
311,271,151978,5,0,0:0:0:0:
236,82,152128,1,0,0:0:0:0:
406,253,152278,1,0,0:0:0:0:
156,237,152428,2,0,L|165:147,1,90
182,9,152728,5,0,0:0:0:0:
341,168,152878,2,0,P|291:179|231:157,1,90
104,66,153178,5,0,0:0:0:0:
311,0,153328,2,0,L|300:110,1,90
139,319,153628,2,0,L|148:229,1,90
160,121,153928,5,0,0:0:0:0:
223,327,154078,1,0,0:0:0:0:
72,158,154228,2,0,P|65:120|81:68,1,90
202,42,154528,5,0,0:0:0:0:
389,3,154678,1,0,0:0:0:0:
258,126,154828,2,0,P|214:135|148:115,1,90
124,0,155128,1,0,0:0:0:0:
298,21,155278,2,0,L|287:131,1,90
242,207,155578,5,0,0:0:0:0:
202,42,155728,1,0,0:0:0:0:
346,183,155878,1,0,0:0:0:0:
132,136,156028,2,0,L|266:123,1,135
369,100,156328,5,0,0:0:0:0:
288,328,156478,2,0,P|258:263|278:161,1,135
316,114,156778,5,0,0:0:0:0:
444,313,156928,2,0,L|277:323,1,135
159,310,157228,5,0,0:0:0:0:
74,143,157378,1,0,0:0:0:0:
233,243,157528,1,0,0:0:0:0:
39,259,157678,2,0,L|31:156,1,90
19,49,157978,5,0,0:0:0:0:
225,0,158128,1,0,0:0:0:0:
105,172,158278,1,0,0:0:0:0:
245,0,158428,2,0,L|232:167,1,135
226,266,158728,1,0,0:0:0:0:
328,71,158878,2,0,L|336:174,1,90
345,275,159178,5,0,0:0:0:0:
345,275,159253,1,0,0:0:0:0:
345,275,159328,2,0,L|350:335,3,45
421,135,159628,2,0,L|424:90,3,45
455,264,159928,2,0,L|460:336,1,45
401,179,160078,2,0,P|365:158|285:149,1,90
181,154,160378,5,0,0:0:0:0:
314,230,160528,1,0,0:0:0:0:
207,48,160678,2,0,L|213:147,1,90
227,256,160978,5,0,0:0:0:0:
309,116,161128,1,0,0:0:0:0:
148,186,161278,2,0,P|127:252|158:346,1,135
236,372,161578,5,0,0:0:0:0:
421,301,161728,1,0,0:0:0:0:
227,256,161878,1,0,0:0:0:0:
435,280,162028,2,0,L|445:191,1,90
467,74,162328,5,0,0:0:0:0:
298,145,162478,2,0,L|304:244,1,90
136,304,162778,6,0,L|127:355,3,45
199,232,163078,6,0,L|190:181,3,45
262,312,163378,5,0,0:0:0:0:
262,312,163453,1,0,0:0:0:0:
262,312,163528,2,0,L|318:320,3,45
416,250,163828,2,0,L|360:258,3,45
243,220,164128,2,0,L|299:228,3,45
380,151,164428,2,0,L|234:131,1,135
109,111,164728,5,0,0:0:0:0:
337,55,164878,2,0,L|247:46,1,90
127,32,165178,1,0,0:0:0:0:
211,256,165328,2,0,P|225:214|220:166,1,90
28,186,165628,2,0,L|136:197,1,90
320,216,165928,1,0,0:0:0:0:
160,19,166078,2,0,P|146:61|151:109,1,90
211,256,166378,5,0,0:0:0:0:
365,133,166528,2,0,P|321:124|277:132,1,90
123,255,166828,2,0,P|167:264|211:256,1,90
366,219,167128,5,0,0:0:0:0:
280,21,167278,1,0,0:0:0:0:
273,225,167428,2,0,L|251:306,3,45
360,128,167728,2,0,L|348:84,3,45
370,237,168028,5,0,0:0:0:0:
370,237,168103,1,0,0:0:0:0:
370,237,168178,2,0,L|381:280,3,45
472,219,168478,5,0,0:0:0:0:
472,219,168553,1,0,0:0:0:0:
472,219,168628,2,0,L|483:262,3,45
402,141,168928,2,0,L|413:97,3,45
334,245,169228,5,0,0:0:0:0:
334,245,169303,1,0,0:0:0:0:
334,245,169378,2,0,L|345:288,3,45
265,123,169678,5,0,0:0:0:0:
265,123,169753,1,0,0:0:0:0:
265,123,169828,2,0,L|276:79,3,45
231,220,170128,6,0,L|220:266,1,45
152,176,170278,2,0,L|162:132,1,45
231,220,170428,2,0,L|220:266,1,45
152,176,170578,2,0,L|162:132,1,45
231,220,170728,2,0,L|220:266,1,45
152,176,170878,2,0,L|162:132,1,45
255,191,172228,5,0,0:0:0:0:
255,192,173428,1,0,0:0:0:0:
244,218,174628,1,0,0:0:0:0:
244,218,175828,5,0,0:0:0:0:
244,218,177028,1,0,0:0:0:0:
244,218,178228,1,0,0:0:0:0:
244,218,179428,5,0,0:0:0:0:
244,218,180628,5,0,0:0:0:0:
244,218,180928,1,0,0:0:0:0:
244,218,181228,1,0,0:0:0:0:
244,218,181528,1,0,0:0:0:0:
244,218,181828,2,0,B|175:228|175:228|74:199,1,135
140,132,182128,2,0,P|184:125|244:152,1,90
336,234,182428,5,0,0:0:0:0:
289,79,182653,1,0,0:0:0:0:
416,187,182728,2,0,P|425:254|391:311,1,135
294,324,183028,5,0,0:0:0:0:
88,261,183178,1,0,0:0:0:0:
285,210,183328,1,0,0:0:0:0:
156,331,183478,2,0,P|93:353|-2:319,1,135
11,205,183778,1,0,0:0:0:0:
194,182,183928,2,0,L|179:316,1,135
268,348,184228,5,0,0:0:0:0:
89,261,184378,1,0,0:0:0:0:
279,237,184528,1,0,0:0:0:0:
78,102,184678,1,0,0:0:0:0:
197,145,184828,2,0,L|27:126,1,135
149,33,185128,5,0,0:0:0:0:
20,212,185278,1,0,0:0:0:0:
291,186,185428,2,0,P|290:119|212:49,1,135
149,33,185728,1,0,0:0:0:0:
162,228,185878,2,0,L|171:138,1,90
149,33,186178,1,0,0:0:0:0:
72,208,186328,2,0,P|76:256|121:305,1,90
352,345,186628,2,0,L|218:332,1,135
192,240,186928,5,0,0:0:0:0:
323,158,187078,1,0,0:0:0:0:
179,148,187228,1,0,0:0:0:0:
294,248,187378,1,0,0:0:0:0:
249,81,187528,2,0,P|202:57|129:73,1,90
27,68,187753,1,0,0:0:0:0:
27,68,187828,2,0,L|116:75,1,90
329,94,188128,5,0,0:0:0:0:
169,153,188278,1,0,0:0:0:0:
277,12,188428,1,0,0:0:0:0:
280,196,188578,1,0,0:0:0:0:
131,52,188728,2,0,P|175:50|215:70,1,90
376,245,189028,2,0,L|364:111,1,135
351,27,189328,5,0,0:0:0:0:
280,196,189478,1,0,0:0:0:0:
279,69,189628,2,0,L|168:57,1,90
37,173,189928,2,0,L|148:161,1,90
250,153,190228,1,0,0:0:0:0:
256,195,191428,5,0,0:0:0:0:
58,337,208228,6,0,L|77:143,1,180
91,32,208828,5,0,0:0:0:0:
197,219,209128,1,0,0:0:0:0:
88,27,209428,1,0,0:0:0:0:
366,153,209728,5,0,0:0:0:0:
260,340,210028,1,0,0:0:0:0:
369,148,210328,1,0,0:0:0:0:
137,89,210628,5,0,0:0:0:0:
369,148,210778,1,0,0:0:0:0:
135,204,210928,1,0,0:0:0:0:
263,22,211078,2,0,L|248:111,1,90
198,275,211378,1,0,0:0:0:0:
69,121,211528,2,0,P|134:105|200:117,1,135
377,217,211828,6,0,L|281:208,1,90
77,358,212128,2,0,L|173:349,1,90
380,310,212428,2,0,L|284:301,1,90
71,274,212728,2,0,L|167:265,1,90
311,195,213028,5,0,0:0:0:0:
471,206,213178,1,0,0:0:0:0:
350,99,213328,1,0,0:0:0:0:
389,282,213478,1,0,0:0:0:0:
419,34,213628,2,0,P|367:13|299:20,1,112.5
215,177,213928,1,0,0:0:0:0:
178,333,214078,1,0,0:0:0:0:
146,99,214228,2,0,P|191:79|264:87,1,112.5
295,312,214528,2,0,P|243:333|188:329,1,112.5
140,251,214828,5,0,0:0:0:0:
84,128,214978,1,0,0:0:0:0:
226,240,215128,2,0,L|108:228,1,112.5
0,151,215428,2,0,L|118:139,1,112.5
311,121,215728,1,0,0:0:0:0:
104,52,215878,1,0,0:0:0:0:
235,241,216028,2,0,L|224:129,1,112.5
366,28,216328,2,0,L|355:140,1,112.5
510,292,216628,2,0,P|428:300|356:259,1,168.75
293,189,216928,5,0,0:0:0:0:
84,170,217078,1,0,0:0:0:0:
201,40,217228,2,0,L|212:152,1,112.5
40,303,217528,2,0,L|51:191,1,112.5
146,225,217828,2,0,P|206:251|273:231,1,112.5
326,200,218128,1,0,0:0:0:0:
126,142,218278,1,0,0:0:0:0:
272,339,218428,2,0,P|318:308|346:260,1,112.5
340,118,218728,5,0,0:0:0:0:
161,351,218878,2,0,P|140:229|145:129,1,225
176,33,219328,5,0,0:0:0:0:
234,259,219478,2,0,P|290:262|338:234,1,112.5
420,82,219778,5,0,0:0:0:0:
256,140,219928,1,0,0:0:0:0:
419,230,220078,1,0,0:0:0:0:
322,81,220228,2,0,P|274:53|219:56,1,112.5
120,259,220528,5,0,0:0:0:0:
150,135,220678,2,0,L|156:269,1,112.5
387,354,220978,2,0,L|394:220,1,112.5
376,87,221278,6,0,P|304:37|149:59,1,225
28,131,221728,2,0,P|75:126|141:187,1,112.5
288,239,222028,2,0,P|241:234|175:295,1,112.5
35,384,222328,2,0,P|82:389|148:328,1,112.5
205,161,222628,2,0,P|257:155|333:170,1,112.5
418,216,222928,5,0,0:0:0:0:
356,354,223078,1,0,0:0:0:0:
393,131,223228,2,0,L|404:3,1,112.5
300,55,223528,5,0,0:0:0:0:
488,131,223678,1,0,0:0:0:0:
317,164,223828,2,0,L|205:154,1,112.5
41,265,224128,2,0,L|169:254,1,112.5
393,85,224428,2,0,P|415:169|416:270,1,168.75
380,336,224728,5,0,0:0:0:0:
337,188,224878,1,0,0:0:0:0:
295,384,225028,2,0,P|285:335|306:256,1,112.5
506,344,225328,2,0,L|380:329,1,112.5
84,225,225628,2,0,P|150:189|257:213,1,168.75
297,274,225928,5,0,0:0:0:0:
41,335,226078,2,0,L|66:127,1,168.75
134,112,226378,5,0,0:0:0:0:
178,278,226528,2,0,P|229:300|306:289,1,112.5
389,124,226828,2,0,P|347:159|322:233,1,112.5
459,359,227128,2,0,P|426:314|354:285,1,112.5
58,190,227428,2,0,L|239:176,1,168.75
394,153,227728,5,0,0:0:0:0:
201,81,227878,1,0,0:0:0:0:
334,229,228028,2,0,P|386:247|467:215,1,112.5
315,4,228328,2,0,L|297:160,1,112.5
211,372,228628,2,0,L|199:260,1,112.5
183,80,228928,5,0,0:0:0:0:
393,165,229078,2,0,P|314:205|226:186,1,168.75
137,154,229378,5,0,0:0:0:0:
284,49,229528,1,0,0:0:0:0:
159,244,229678,1,0,0:0:0:0:
50,39,229828,2,0,P|122:21|189:44,1,135,0|0,3:0|0:0,0:0:0:0:
229,118,230128,1,0,0:0:0:0:
372,0,230278,2,0,L|360:179,1,180
349,281,230728,5,0,0:0:0:0:
451,119,230878,1,0,0:0:0:0:
264,219,231028,2,0,L|174:229,1,90
48,245,231328,5,0,0:0:0:0:
213,111,231478,1,0,0:0:0:0:
121,321,231628,1,0,0:0:0:0:
95,102,231778,1,0,0:0:0:0:
261,299,231928,1,0,0:0:0:0:
2,85,232078,2,0,P|8:128|52:188,1,90
261,299,232378,5,0,0:0:0:0:
277,61,232528,2,0,L|266:171,1,90
261,299,232828,5,0,0:0:0:0:
376,125,232978,1,0,0:0:0:0:
161,201,233128,1,0,0:0:0:0:
416,233,233278,2,0,L|306:222,1,90
161,201,233578,5,0,0:0:0:0:
274,35,233728,2,0,P|282:86|263:145,1,90
161,201,234028,5,0,0:0:0:0:
195,19,234178,1,0,0:0:0:0:
254,205,234328,1,0,0:0:0:0:
27,77,234478,2,0,P|93:69|153:98,1,135
188,184,234778,5,0,0:0:0:0:
394,91,234928,1,0,0:0:0:0:
195,19,235078,1,0,0:0:0:0:
307,243,235228,2,0,P|350:232|380:199,1,90
330,22,235528,5,0,0:0:0:0:
211,224,235678,2,0,L|197:102,1,90
182,32,235978,5,0,0:0:0:0:
298,150,236128,1,0,0:0:0:0:
106,102,236278,5,0,0:0:0:0:
368,89,236428,1,0,0:0:0:0:
118,190,236578,1,0,0:0:0:0:
287,44,236728,1,0,0:0:0:0:
68,17,236878,2,0,P|115:15|182:50,1,90
280,169,237178,1,0,0:0:0:0:
118,190,237328,2,0,L|106:78,1,90
320,52,237628,2,0,L|313:202,1,135
353,282,237928,5,0,0:0:0:0:
219,168,238078,2,0,P|220:216|244:254,1,90
353,282,238378,1,0,0:0:0:0:
419,0,238528,2,0,L|333:25,1,90
139,116,238828,2,0,L|225:141,1,90
377,188,239128,5,0,0:0:0:0:
213,46,239278,1,0,0:0:0:0:
336,273,239428,2,0,P|383:282|442:252,1,90
483,139,239728,1,0,0:0:0:0:
301,37,239878,2,0,L|297:132,1,90
303,242,240178,5,0,0:0:0:0:
204,120,240328,1,0,0:0:0:0:
464,145,240478,2,0,L|373:139,1,90
204,120,240778,1,0,0:0:0:0:
332,0,240928,2,0,L|307:87,1,90
239,261,241228,5,0,0:0:0:0:
229,35,241378,1,0,0:0:0:0:
350,220,241528,1,0,0:0:0:0:
98,161,241678,2,0,L|185:136,1,90
323,85,241978,1,0,0:0:0:0:
237,350,242128,2,0,L|239:256,1,90
243,54,242428,5,0,0:0:0:0:
325,269,242578,1,0,0:0:0:0:
153,111,242728,1,0,0:0:0:0:
355,184,242878,2,0,L|442:209,1,90
262,154,243178,5,0,0:0:0:0:
153,111,243328,1,0,0:0:0:0:
238,260,243478,1,0,0:0:0:0:
353,48,243628,2,0,L|266:73,1,90
113,199,243928,5,0,0:0:0:0:
186,12,244078,2,0,L|161:99,1,90
113,199,244378,5,0,0:0:0:0:
267,91,244528,1,0,0:0:0:0:
68,120,244678,1,0,0:0:0:0:
357,225,244828,2,0,L|270:200,1,90
68,120,245128,1,0,0:0:0:0:
186,12,245278,2,0,L|161:99,1,90
105,253,245578,1,0,0:0:0:0:
70,38,245728,1,0,0:0:0:0:
267,126,245878,5,0,0:0:0:0:
267,126,245953,1,0,0:0:0:0:
267,126,246028,2,0,L|282:176,1,45
376,173,246178,2,0,L|348:76,1,90
435,40,246478,2,0,L|480:187,1,135
429,259,246778,5,0,0:0:0:0:
286,33,246928,1,0,0:0:0:0:
329,331,247078,1,0,0:0:0:0:
465,134,247228,2,0,L|351:123,1,90
184,101,247528,1,0,0:0:0:0:
243,345,247678,2,0,L|256:211,1,135
275,63,247978,5,0,0:0:0:0:
348,283,248128,1,0,0:0:0:0:
148,191,248278,1,0,0:0:0:0:
433,134,248428,2,0,L|344:165,1,90
169,278,248728,1,0,0:0:0:0:
310,30,248878,2,0,P|334:92|313:160,1,135
238,217,249178,5,0,0:0:0:0:
55,154,249328,1,0,0:0:0:0:
242,102,249478,1,0,0:0:0:0:
151,278,249628,2,0,P|141:238|149:188,1,90
242,102,249928,5,0,0:0:0:0:
309,283,250078,2,0,L|174:292,1,135
47,304,250378,5,0,0:0:0:0:
244,194,250528,1,0,0:0:0:0:
120,375,250678,1,0,0:0:0:0:
43,176,250828,2,0,L|150:161,1,90
132,163,251053,1,0,0:0:0:0:
132,163,251128,1,0,0:0:0:0:
475,131,251278,2,0,L|323:114,1,135
214,106,251578,5,0,0:0:0:0:
393,37,251728,1,0,0:0:0:0:
287,216,251878,1,0,0:0:0:0:
282,0,252028,2,0,L|303:109,1,90
360,282,252328,5,0,0:0:0:0:
48,186,252478,2,0,L|199:186,1,135
442,200,252778,5,0,0:0:0:0:
175,89,252928,1,0,0:0:0:0:
286,329,253078,1,0,0:0:0:0:
390,48,253228,1,0,0:0:0:0:
154,170,253378,1,0,0:0:0:0:
154,170,253453,1,0,0:0:0:0:
154,170,253528,2,0,L|147:219,1,45
21,285,253678,5,0,0:0:0:0:
21,285,253753,1,0,0:0:0:0:
21,285,253828,2,0,L|28:236,1,45
303,89,254278,2,0,L|309:134,1,45
88,205,254728,2,0,B|115:62|324:-6|491:213|342:426|151:391|99:273|99:273|100:224|145:186|199:196|226:231,1,881.999973083497
