osu file format v14

[General]
AudioFilename: audio.mp3
AudioLeadIn: 0
PreviewTime: 56123
Countdown: 0
SampleSet: Soft
StackLeniency: 0.8
Mode: 0
LetterboxInBreaks: 0
WidescreenStoryboard: 0

[Editor]
Bookmarks: 4186,20186,36186,40186,56186,88186,100186,108186,124186,132186,140186
DistanceSpacing: 0.9
BeatDivisor: 16
GridSize: 32
TimelineZoom: 3.1

[Metadata]
Title:Birds
TitleUnicode:Birds
Artist:Crystal Castles
ArtistUnicode:Crystal Castles
Creator:Miraui
Version:Normal
Source:
Tags:Electronic experimental Electropop alice glass pop english II 2 Maruoko Delette PandaHero
BeatmapID:2777884
BeatmapSetID:1339769

[Difficulty]
HPDrainRate:3.2
CircleSize:3.2
OverallDifficulty:4.8
ApproachRate:5.8
SliderMultiplier:1.39999990463257
SliderTickRate:1

[Events]
//Background and Video events
0,0,"vwz8NKtkbjc.jpg",0,0
//Break Periods
2,88436,98686
//Storyboard Layer 0 (Background)
//Storyboard Layer 1 (Fail)
//Storyboard Layer 2 (Pass)
//Storyboard Layer 3 (Foreground)
//Storyboard Layer 4 (Overlay)
//Storyboard Sound Samples

[TimingPoints]
186,500,4,2,1,65,1,0
186,-100,4,2,1,65,0,0
4186,-100,4,2,1,70,0,0
20186,-100,4,2,1,75,0,0
36186,-100,4,2,1,65,0,0
40186,-100,4,2,1,70,0,0
56186,-100,4,2,1,75,0,0
88186,-100,4,2,1,65,0,0
100186,-100,4,2,1,70,0,0
108186,-100,4,2,1,80,0,1
131686,-100,4,2,1,65,0,0

[Colours]
Combo1 : 152,31,34
Combo2 : 178,178,178
Combo3 : 38,101,29
Combo4 : 112,112,112
Combo5 : 96,89,108

[HitObjects]
441,320,186,6,0,L|369:312,1,69.9999952316285,2|0,0:1|0:0,0:0:0:0:
322,352,686,2,0,L|212:362,2,104.999992847443,8|0|0,0:0|1:0|1:0,0:0:0:0:
371,312,1686,1,8,0:0:0:0:
383,186,2186,1,2,0:1:0:0:
398,60,2686,2,0,L|514:72,2,104.999992847443,8|0|0,0:0|1:0|1:0,0:0:0:0:
349,101,3686,1,8,0:0:0:0:
265,6,4186,38,0,P|192:13|123:31,1,139.999990463257,2|8,1:0|0:0,0:0:0:0:
148,121,5061,1,0,1:0:0:0:
167,213,5436,2,0,P|131:221|94:224,1,69.9999952316285,0|8,1:0|0:0,0:0:0:0:
6,310,6186,2,0,P|77:317|147:335,1,139.999990463257,2|8,1:0|0:0,0:0:0:0:
226,378,7061,1,0,1:0:0:0:
313,341,7436,2,0,P|347:331|382:327,1,69.9999952316285,0|8,1:0|0:0,0:0:0:0:
495,380,8186,53,2,1:0:0:0:
486,254,8686,1,8,0:0:0:0:
392,240,9061,1,0,1:0:0:0:
385,145,9436,2,0,L|380:74,1,69.9999952316285,0|8,1:0|0:0,0:0:0:0:
276,2,10186,1,2,1:0:0:0:
150,11,10686,1,8,0:0:0:0:
162,104,11061,1,0,1:0:0:0:
252,129,11436,2,0,L|240:204,1,69.9999952316285,0|8,1:0|0:0,0:0:0:0:
212,321,12186,6,0,P|136:313|63:294,1,139.999990463257,2|8,1:0|0:0,0:0:0:0:
51,206,13061,1,0,1:0:0:0:
28,114,13436,2,0,P|20:80|16:45,1,69.9999952316285,0|8,1:0|0:0,0:0:0:0:
137,12,14186,2,0,P|210:19|279:37,1,139.999990463257,2|8,1:0|0:0,0:0:0:0:
291,128,15061,1,0,1:0:0:0:
303,221,15436,2,0,P|311:258|315:296,1,69.9999952316285,0|8,1:0|0:0,0:0:0:0:
407,375,16186,53,2,1:0:0:0:
394,249,16686,1,8,0:0:0:0:
487,233,17061,1,0,1:0:0:0:
495,138,17436,2,0,L|499:68,1,69.9999952316285,0|8,1:0|0:0,0:0:0:0:
384,14,18186,1,2,1:0:0:0:
377,139,18686,1,8,0:0:0:0:
285,161,19061,1,0,1:0:0:0:
201,116,19436,2,0,L|131:120,1,69.9999952316285,0|8,1:0|0:0,0:0:0:0:
3,125,20186,54,0,L|-1:195,1,69.9999952316285,2|2,1:0|1:0,0:0:0:0:
4,257,20686,1,8,0:0:0:0:
87,212,21061,1,0,1:0:0:0:
152,280,21436,1,0,1:0:0:0:
178,222,21686,2,0,L|261:230,1,69.9999952316285,8|0,0:0|0:0,0:0:0:0:
258,290,22186,2,0,L|265:362,1,69.9999952316285,6|2,1:0|1:0,0:0:0:0:
325,377,22686,2,0,P|359:380|392:367,1,69.9999952316285,8|0,0:0|0:0,0:0:0:0:
387,304,23186,2,0,P|424:298|462:309,1,69.9999952316285,0|0,0:0|1:0,0:0:0:0:
479,363,23686,1,10,0:0:0:0:
507,242,24186,6,0,L|511:172,1,69.9999952316285,2|2,1:0|1:0,0:0:0:0:
508,109,24686,1,8,0:0:0:0:
420,144,25061,1,0,1:0:0:0:
410,238,25436,1,0,1:0:0:0:
349,220,25686,2,0,P|313:216|283:202,1,69.9999952316285,8|0,0:0|0:0,0:0:0:0:
255,145,26186,2,0,P|241:111|239:76,1,69.9999952316285,6|2,1:0|1:0,0:0:0:0:
194,32,26686,2,0,P|157:17|118:14,1,69.9999952316285,8|0,0:0|0:0,0:0:0:0:
116,76,27186,1,0,0:0:0:0:
105,138,27436,1,0,1:0:0:0:
95,200,27686,2,0,L|85:273,1,69.9999952316285,10|2,0:0|0:0,0:0:0:0:
35,307,28186,54,0,L|31:377,1,69.9999952316285,2|2,1:0|1:0,0:0:0:0:
94,380,28686,1,8,0:0:0:0:
164,317,29061,1,0,1:0:0:0:
241,371,29436,1,0,1:0:0:0:
284,325,29686,2,0,L|355:332,1,69.9999952316285,8|0,0:0|0:0,0:0:0:0:
381,275,30186,2,0,L|372:203,1,69.9999952316285,6|2,1:0|1:0,0:0:0:0:
424,169,30686,2,0,P|458:172|491:159,1,69.9999952316285,8|0,0:0|0:0,0:0:0:0:
511,99,31186,2,0,P|514:64|505:31,1,69.9999952316285,0|0,0:0|1:0,0:0:0:0:
442,22,31686,1,10,0:0:0:0:
316,13,32186,6,0,L|233:8,1,69.9999952316285,2|2,1:0|1:0,0:0:0:0:
235,71,32686,1,8,0:0:0:0:
158,126,33061,1,0,1:0:0:0:
222,194,33436,1,0,1:0:0:0:
209,255,33686,2,0,P|205:291|191:321,1,69.9999952316285,8|0,0:0|0:0,0:0:0:0:
150,369,34186,2,0,P|117:381|82:384,1,69.9999952316285,6|2,1:0|1:0,0:0:0:0:
39,337,34686,2,0,P|24:305|20:270,1,69.9999952316285,8|0,0:0|0:0,0:0:0:0:
43,211,35186,1,0,0:0:0:0:
104,197,35436,1,0,1:0:0:0:
165,184,35686,2,0,L|245:173,1,69.9999952316285,10|2,0:0|0:0,0:0:0:0:
296,161,36186,37,2,0:1:0:0:
254,279,36686,2,0,B|238:327|238:327|269:375,2,104.999992847443,8|0|0,0:0|1:0|1:0,0:0:0:0:
316,270,37686,1,8,0:0:0:0:
414,348,38186,1,2,0:1:0:0:
485,244,38686,2,0,B|512:200|512:200|495:148,2,104.999992847443,8|0|0,0:0|1:0|1:0,0:0:0:0:
423,229,39686,1,8,0:0:0:0:
359,120,40186,38,0,P|289:126|221:144,1,139.999990463257,2|8,1:0|0:0,0:0:0:0:
232,237,41061,1,0,1:0:0:0:
244,330,41436,2,0,P|214:336|170:341,1,69.9999952316285,0|8,1:0|0:0,0:0:0:0:
53,306,42185,2,0,P|46:236|28:168,1,139.999990463257,2|8,1:0|0:0,0:0:0:0:
82,91,43061,1,0,1:0:0:0:
175,77,43436,2,0,P|184:110|188:145,1,69.9999952316285,0|8,1:0|0:0,0:0:0:0:
139,261,44186,53,2,1:0:0:0:
264,248,44686,1,8,0:0:0:0:
278,154,45061,1,0,1:0:0:0:
372,145,45436,2,0,L|376:215,1,69.9999952316285,0|8,1:0|0:0,0:0:0:0:
385,340,46186,1,2,1:0:0:0:
509,358,46686,1,8,0:0:0:0:
457,279,47061,1,0,1:0:0:0:
472,185,47436,2,0,L|483:109,1,69.9999952316285,0|8,1:0|0:0,0:0:0:0:
392,26,48186,6,0,P|324:8|254:1,1,139.999990463257,2|8,1:0|0:0,0:0:0:0:
240,94,49061,1,0,1:0:0:0:
162,148,49436,2,0,P|151:186|147:225,1,69.9999952316285,0|8,1:0|0:0,0:0:0:0:
71,316,50186,2,0,P|61:241|41:169,1,139.999990463257,2|8,1:0|0:0,0:0:0:0:
53,84,51061,1,0,1:0:0:0:
145,62,51436,2,0,P|179:57|213:48,1,69.9999952316285,0|8,1:0|0:0,0:0:0:0:
338,34,52186,53,2,1:0:0:0:
353,159,52686,1,8,0:0:0:0:
441,126,53061,1,0,1:0:0:0:
491,206,53436,2,0,L|480:276,1,69.9999952316285,0|8,1:0|0:0,0:0:0:0:
407,377,54186,1,2,1:0:0:0:
283,352,54686,1,8,0:0:0:0:
335,273,55061,1,0,1:0:0:0:
267,206,55436,2,0,L|197:216,1,69.9999952316285,0|8,1:0|0:0,0:0:0:0:
86,156,56186,54,0,L|96:86,1,69.9999952316285,2|2,1:0|1:0,0:0:0:0:
159,87,56686,1,8,0:0:0:0:
242,132,57061,1,0,1:0:0:0:
307,64,57436,1,0,1:0:0:0:
368,52,57686,2,0,P|405:45|459:41,1,69.9999952316285,8|0,0:0|0:0,0:0:0:0:
481,87,58186,2,0,P|474:124|470:178,1,69.9999952316285,6|2,1:0|1:0,0:0:0:0:
441,212,58686,2,0,P|448:249|452:303,1,69.9999952316285,8|0,0:0|0:0,0:0:0:0:
405,324,59186,2,0,P|370:317|335:313,1,69.9999952316285,0|0,0:0|1:0,0:0:0:0:
278,339,59686,1,10,0:0:0:0:
154,314,60186,6,0,L|144:244,1,69.9999952316285,2|2,1:0|1:0,0:0:0:0:
196,209,60686,1,8,0:0:0:0:
237,124,61061,1,0,1:0:0:0:
167,59,61436,1,0,1:0:0:0:
104,66,61686,2,0,P|48:77|15:89,1,69.9999952316285,8|0,0:0|0:0,0:0:0:0:
23,142,62186,2,0,P|40:169|33:221,1,69.9999952316285,6|2,1:0|1:0,0:0:0:0:
8,261,62686,2,0,P|7:295|24:325,1,69.9999952316285,8|0,0:0|0:0,0:0:0:0:
85,307,63186,1,0,0:0:0:0:
145,289,63436,1,0,1:0:0:0:
205,270,63686,2,0,L|294:275,1,69.9999952316285,10|2,0:0|0:0,0:0:0:0:
326,309,64186,54,0,B|314:346|314:346|333:380,1,69.9999952316285,2|2,1:0|1:0,0:0:0:0:
392,365,64686,1,8,0:0:0:0:
400,270,65061,1,0,1:0:0:0:
408,175,65436,1,0,1:0:0:0:
346,161,65686,2,0,B|307:164|307:164|267:134,1,69.9999952316285,8|0,0:0|0:0,0:0:0:0:
266,84,66186,2,0,P|265:46|251:11,1,69.9999952316285,6|2,1:0|1:0,0:0:0:0:
192,3,66686,2,0,P|157:3|124:14,1,69.9999952316285,8|0,0:0|0:0,0:0:0:0:
78,58,67186,2,0,P|78:92|89:125,1,69.9999952316285,0|0,0:0|1:0,0:0:0:0:
65,184,67686,1,10,0:0:0:0:
91,307,68186,5,2,1:0:0:0:
153,311,68436,1,2,1:0:0:0:
215,313,68686,1,8,0:0:0:0:
229,219,69061,1,0,1:0:0:0:
242,125,69436,1,0,1:0:0:0:
301,103,69686,2,0,L|370:111,1,69.9999952316285,8|0,0:0|0:0,0:0:0:0:
415,155,70186,2,0,B|426:193|426:193|400:230,1,69.9999952316285,6|2,1:0|1:0,0:0:0:0:
364,262,70686,2,0,B|326:273|326:273|301:255,1,69.9999952316285,8|0,0:0|0:0,0:0:0:0:
239,269,71186,1,0,0:0:0:0:
177,281,71436,1,0,1:0:0:0:
117,301,71686,2,0,L|103:371,1,69.9999952316285,10|2,0:0|0:0,0:0:0:0:
40,362,72186,54,0,B|20:327|20:327|31:292,1,69.9999952316285,2|2,1:0|1:0,0:0:0:0:
50,239,72686,1,8,0:0:0:0:
32,146,73061,1,0,1:0:0:0:
124,125,73436,1,0,1:0:0:0:
185,139,73686,2,0,P|223:147|283:149,1,69.9999952316285,8|0,0:0|0:0,0:0:0:0:
295,101,74186,2,0,P|298:66|305:31,1,69.9999952316285,6|2,1:0|1:0,0:0:0:0:
367,21,74686,2,0,P|419:26|470:38,2,104.999992847443,8|0|0,0:0|1:0|1:0,0:0:0:0:
305,31,75686,2,0,P|297:65|294:100,1,69.9999952316285,10|2,0:0|0:0,0:0:0:0:
246,140,76186,6,0,B|213:159|213:159|176:150,1,69.9999952316285,2|2,1:0|1:0,0:0:0:0:
121,168,76686,1,8,0:0:0:0:
73,249,77061,1,0,1:0:0:0:
138,317,77436,1,0,1:0:0:0:
199,301,77686,2,0,P|237:295|285:293,1,69.9999952316285,8|0,0:0|0:0,0:0:0:0:
330,304,78186,2,0,B|322:335|322:335|341:368,1,69.9999952316285,6|2,1:0|1:0,0:0:0:0:
404,374,78686,2,0,B|458:382|458:382|513:355,2,104.999992847443,8|0|0,0:0|1:0|1:0,0:0:0:0:
340,367,79686,2,0,B|321:334|321:334|329:303,1,69.9999952316285,10|2,0:0|0:0,0:0:0:0:
268,293,80186,54,0,L|179:302,1,69.9999952316285,2|2,1:0|1:0,0:0:0:0:
174,358,80686,1,8,0:0:0:0:
95,306,81061,1,0,1:0:0:0:
150,229,81436,1,0,1:0:0:0:
102,187,81686,2,0,L|93:98,1,69.9999952316285,8|0,0:0|0:0,0:0:0:0:
138,71,82186,2,0,L|227:80,1,69.9999952316285,6|2,1:0|1:0,0:0:0:0:
226,138,82686,2,0,L|237:255,2,104.999992847443,8|0|0,0:0|1:0|1:0,0:0:0:0:
207,78,83686,2,0,L|137:70,1,69.9999952316285,10|2,0:0|0:0,0:0:0:0:
79,95,84186,5,2,1:0:0:0:
86,157,84436,1,2,1:0:0:0:
26,176,84686,1,8,0:0:0:0:
31,270,85061,1,0,1:0:0:0:
36,364,85436,1,0,1:0:0:0:
97,352,85686,2,0,P|135:343|188:342,1,69.9999952316285,8|0,0:0|0:0,0:0:0:0:
205,291,86186,2,0,P|213:257|216:222,1,69.9999952316285,6|2,1:0|1:0,0:0:0:0:
274,197,86686,2,0,P|325:209|377:213,2,104.999992847443,8|0|0,0:0|1:0|1:0,0:0:0:0:
216,222,87686,2,0,P|207:255|204:290,1,69.9999952316285,10|2,0:0|0:0,0:0:0:0:
165,340,88186,37,2,0:1:0:0:
165,340,100186,38,0,B|127:348|127:348|84:328,1,69.9999952316285,2|0,1:0|0:0,0:0:0:0:
43,305,100686,2,0,P|42:256|34:197,2,104.999992847443,8|0|0,0:0|1:0|1:0,0:0:0:0:
98,334,101686,1,8,0:0:0:0:
222,355,102186,2,0,B|260:363|260:363|288:349,1,69.9999952316285,2|0,1:0|0:0,0:0:0:0:
290,286,102686,2,0,P|238:276|186:272,2,104.999992847443,8|0|0,0:0|1:0|1:0,0:0:0:0:
344,317,103686,1,8,0:0:0:0:
293,201,104186,54,0,P|296:158|304:116,1,69.9999952316285,2|0,1:0|0:0,0:0:0:0:
238,120,104686,2,0,P|233:67|224:15,2,104.999992847443,8|0|0,0:0|1:0|1:0,0:0:0:0:
300,131,105686,1,8,0:0:0:0:
426,133,106186,2,0,P|460:127|495:125,1,69.9999952316285,2|0,1:0|0:0,0:0:0:0:
503,62,106686,2,0,P|451:53|398:48,2,104.999992847443,8|0|0,0:0|1:0|1:0,0:0:0:0:
495,125,107686,2,0,P|492:159|487:194,1,69.9999952316285,8|0,0:0|0:0,0:0:0:0:
444,241,108186,21,2,1:0:0:0:
474,296,108436,1,2,1:0:0:0:
430,341,108686,1,8,0:0:0:0:
340,311,109061,1,0,1:0:0:0:
264,367,109436,1,0,1:0:0:0:
202,354,109686,2,0,P|161:347|119:342,1,69.9999952316285,8|0,0:0|0:0,0:0:0:0:
82,304,110186,2,0,P|75:269|71:234,1,69.9999952316285,6|2,1:0|1:0,0:0:0:0:
114,188,110686,1,8,0:0:0:0:
207,178,111061,1,0,1:0:0:0:
215,83,111436,1,0,1:0:0:0:
152,74,111686,2,0,P|109:69|62:67,1,69.9999952316285,10|2,0:0|0:0,0:0:0:0:
24,92,112186,53,2,1:0:0:0:
33,154,112436,1,2,1:0:0:0:
94,165,112686,1,8,0:0:0:0:
107,258,113061,1,0,1:0:0:0:
198,281,113436,1,0,1:0:0:0:
258,264,113686,2,0,P|292:257|330:252,1,69.9999952316285,8|0,0:0|0:0,0:0:0:0:
377,214,114186,2,0,B|393:178|393:178|374:143,1,69.9999952316285,6|2,1:0|1:0,0:0:0:0:
343,98,114686,1,8,0:0:0:0:
381,11,115061,1,0,1:0:0:0:
471,38,115436,1,0,1:0:0:0:
482,99,115686,2,0,B|495:178,1,69.9999952316285,10|2,0:0|0:0,0:0:0:0:
470,227,116186,6,0,P|429:231|383:249,1,69.9999952316285,2|2,1:0|1:0,0:0:0:0:
369,293,116686,1,8,0:0:0:0:
279,323,117061,1,0,1:0:0:0:
206,262,117436,1,0,1:0:0:0:
146,241,117686,2,0,P|112:230|77:228,1,69.9999952316285,8|0,0:0|0:0,0:0:0:0:
24,194,118186,2,0,P|21:159|11:125,1,69.9999952316285,6|2,1:0|1:0,0:0:0:0:
54,79,118686,1,8,0:0:0:0:
146,59,119061,1,0,1:0:0:0:
176,148,119436,1,0,1:0:0:0:
154,207,119686,2,0,P|143:240|141:275,1,69.9999952316285,10|2,0:0|0:0,0:0:0:0:
190,314,120186,54,0,B|230:322|230:322|264:306,1,69.9999952316285,2|2,1:0|1:0,0:0:0:0:
318,322,120686,1,8,0:0:0:0:
384,255,121061,1,0,1:0:0:0:
337,172,121436,1,0,1:0:0:0:
399,163,121686,2,0,B|411:136|411:136|403:96,1,69.9999952316285,8|0,0:0|0:0,0:0:0:0:
360,50,122186,2,0,P|325:47|291:37,1,69.9999952316285,6|2,1:0|1:0,0:0:0:0:
230,51,122686,1,8,0:0:0:0:
209,143,123061,1,0,1:0:0:0:
187,235,123436,1,0,1:0:0:0:
132,266,123686,2,0,P|99:277|64:279,1,69.9999952316285,10|2,0:0|0:0,0:0:0:0:
31,333,124186,5,2,1:0:0:0:
74,378,124436,1,2,1:0:0:0:
133,357,124686,2,0,P|201:338|276:326,1,139.999990463257,12|0,0:0|0:0,0:0:0:0:
331,336,125436,1,0,1:0:0:0:
381,298,125686,2,0,P|396:258|403:204,1,69.9999952316285,12|0,0:0|0:0,0:0:0:0:
369,177,126186,1,2,1:0:0:0:
321,136,126436,1,2,1:0:0:0:
260,154,126686,1,12,0:0:0:0:
171,186,127061,1,0,1:0:0:0:
82,221,127436,1,0,1:0:0:0:
21,204,127686,2,0,P|15:169|5:135,1,69.9999952316285,14|2,0:0|0:0,0:0:0:0:
46,87,128186,6,0,P|79:96|114:102,1,69.9999952316285,2|2,1:0|1:0,0:0:0:0:
170,72,128686,2,0,P|185:33|293:30,1,139.999990463257,12|0,0:0|0:0,0:0:0:0:
322,53,129436,1,0,1:0:0:0:
298,111,129686,2,0,P|303:145|313:179,1,69.9999952316285,12|0,0:0|0:0,0:0:0:0:
365,214,130186,2,0,P|399:219|433:229,1,69.9999952316285,2|2,1:0|1:0,0:0:0:0:
443,291,130686,1,12,0:0:0:0:
355,326,131061,1,0,1:0:0:0:
266,365,131436,1,0,1:0:0:0:
208,338,131686,2,0,L|193:267,1,69.9999952316285,12|0,0:0|0:0,0:0:0:0:
130,263,132186,21,2,0:1:0:0:
6,235,132686,2,0,L|28:125,2,104.999992847443,8|0|0,0:0|1:0|1:0,0:0:0:0:
20,296,133686,1,8,0:0:0:0:
143,318,134186,1,2,0:1:0:0:
267,337,134686,2,0,L|369:315,2,104.999992847443,8|0|0,0:0|1:0|1:0,0:0:0:0:
249,276,135686,1,8,0:0:0:0:
125,253,136186,37,2,0:1:0:0:
1,228,136686,2,0,L|23:118,2,104.999992847443,8|0|0,0:0|1:0|1:0,0:0:0:0:
62,241,137686,1,8,0:0:0:0:
186,219,138186,1,2,0:1:0:0:
237,103,138686,2,0,L|215:0,2,104.999992847443,8|0|0,0:0|1:0|1:0,0:0:0:0:
256,163,139686,1,8,0:0:0:0:
