osu file format v14

[General]
AudioFilename: audio.mp3
AudioLeadIn: 0
PreviewTime: 9605
Countdown: 0
SampleSet: Soft
StackLeniency: 0.7
Mode: 0
LetterboxInBreaks: 0
EpilepsyWarning: 1
WidescreenStoryboard: 1

[Editor]
Bookmarks: 48005,56405,57605,115205,124805,141605
DistanceSpacing: 3
BeatDivisor: 4
GridSize: 4
TimelineZoom: 0.9999999

[Metadata]
Title:Affection (Mr.Kitty vs Invisibles Remix)
TitleUnicode:Affection (Mr.Kitty vs Invisibles Remix)
Artist:Crystal Castles
ArtistUnicode:Crystal Castles
Creator:Shmiklak
Version:waji's Amour
Source:
Tags:III marvollo m_a_r_v_o_l_l_o wajinshu marianna
BeatmapID:1481914
BeatmapSetID:699588

[Difficulty]
HPDrainRate:6
CircleSize:4
OverallDifficulty:6
ApproachRate:8
SliderMultiplier:1.6
SliderTickRate:1

[Events]
//Background and Video events
0,0,"affection.jpg",0,0
//Break Periods
//Storyboard Layer 0 (Background)
//Storyboard Layer 1 (Fail)
//Storyboard Layer 2 (Pass)
//Storyboard Layer 3 (Foreground)
//Storyboard Sound Samples

[TimingPoints]
5,600,4,2,59,80,1,0
13805,-200,4,2,59,80,0,0
14405,-100,4,2,59,80,0,0
18605,-142.857142857143,4,2,59,80,0,0
19205,-100,4,2,59,80,0,0
23405,-200,4,2,59,80,0,0
24005,-100,4,2,59,80,0,0
28205,-142.857142857143,4,2,59,80,0,0
28805,-100,4,2,59,80,0,0
33005,-200,4,2,59,80,0,0
33605,-100,4,2,59,80,0,0
37805,-200,4,2,59,80,0,0
38405,-100,4,2,59,80,0,0
42605,-200,4,2,59,80,0,0
43205,-100,4,2,59,80,0,0
48005,-111.111111111111,4,2,0,5,0,0
50405,-142.857142857143,4,2,0,5,0,0
52805,-166.666666666667,4,2,0,5,0,0
55205,-200,4,2,0,5,0,0

[Colours]
Combo1 : 155,100,100
Combo2 : 128,128,255
Combo3 : 173,202,211
Combo4 : 188,147,78
SliderTrackOverride : 100,100,100

[HitObjects]
376,184,9605,6,0,P|389:141|398:89,1,80,4|0,0:3|0:0,0:0:0:0:
348,16,10055,1,0,0:0:0:0:
232,44,10205,2,0,P|239:83|251:121,1,80,8|0,0:0|0:0,0:0:0:0:
316,224,10655,1,0,0:0:0:0:
280,340,10805,2,0,P|212:336|192:336,1,80,2|0,0:0|0:0,0:0:0:0:
92,280,11255,1,0,0:0:0:0:
16,188,11405,2,0,L|24:96,1,80,8|0,0:3|0:0,0:0:0:0:
92,12,11855,1,0,0:0:0:0:
188,84,12005,6,0,L|272:76,1,80,4|0,0:3|0:0,0:0:0:0:
388,76,12455,1,0,0:0:0:0:
320,176,12605,2,0,L|328:236,1,40,8|0,0:0|0:0,0:0:0:0:
376,348,12905,2,0,L|381:308,1,40
456,216,13205,2,0,P|450:169|443:136,1,80
340,235,13655,1,0,0:0:0:0:
480,304,13805,1,8,0:3:0:0:
480,304,14405,6,0,B|433:294|433:294|388:304,1,80,4|0,0:3|0:0,0:0:0:0:
308,380,14855,1,0,0:0:0:0:
216,308,15005,2,0,B|209:276|209:276|219:229,1,80,8|0,0:0|0:0,0:0:0:0:
332,272,15455,1,0,0:0:0:0:
216,308,15605,2,0,B|179:314|179:314|137:304,1,80,2|0,0:0|0:0,0:0:0:0:
32,252,16055,1,0,0:0:0:0:
100,156,16205,2,0,L|112:72,1,80,8|0,0:3|0:0,0:0:0:0:
216,12,16655,1,0,0:0:0:0:
268,120,16805,6,0,P|324:140|364:148,1,80,4|0,0:3|0:0,0:0:0:0:
464,156,17255,1,0,0:0:0:0:
457,236,17405,2,0,L|465:140,1,80,8|0,0:0|0:0,0:0:0:0:
336,256,17855,1,0,0:0:0:0:
325,176,18005,2,0,L|336:255,1,80,2|0,0:0|0:0,0:0:0:0:
280,360,18455,1,0,0:0:0:0:
160,288,18605,2,0,L|156:304,7,13.9999995727539,8|0|0|0|0|0|0|0,0:3|0:0|0:0|0:0|0:0|0:0|0:0|0:0,0:0:0:0:
124,312,19205,6,0,L|116:208,1,80,4|0,0:3|0:0,0:0:0:0:
60,128,19655,1,0,0:0:0:0:
136,36,19805,2,0,L|40:24,1,80,8|0,0:0|0:0,0:0:0:0:
144,126,20255,1,0,0:0:0:0:
232,44,20405,2,0,L|328:32,1,80,2|0,0:0|0:0,0:0:0:0:
336,152,20855,1,0,0:0:0:0:
240,224,21005,2,0,P|220:184|216:132,1,80,8|0,0:3|0:0,0:0:0:0:
336,152,21455,1,0,0:0:0:0:
420,236,21605,6,0,P|424:272|428:300,1,40
504,364,21905,2,0,P|506:344|508:324,1,40
396,364,22205,2,0,L|316:374,1,80,8|0,0:0|0:0,0:0:0:0:
208,324,22655,1,0,0:0:0:0:
276,224,22805,2,0,P|288:272|292:288,1,40,2|0,0:0|0:0,0:0:0:0:
192,184,23105,2,0,P|180:232|176:248,1,40
104,116,23405,1,8,0:3:0:0:
104,116,24005,6,0,L|116:196,1,80,4|0,0:3|0:0,0:0:0:0:
64,304,24455,1,0,0:0:0:0:
156,380,24605,2,0,L|168:300,1,80,8|0,0:0|0:0,0:0:0:0:
248,212,25055,1,0,0:0:0:0:
332,296,25205,2,0,L|388:288,1,40,2|0,0:0|0:0,0:0:0:0:
472,220,25505,2,0,L|416:212,1,40,0|0,0:0|0:0,0:0:0:0:
336,140,25805,2,0,L|428:128,1,80,8|0,0:3|0:0,0:0:0:0:
328,44,26255,1,0,0:0:0:0:
200,24,26405,6,0,P|216:80|224:120,1,80,4|0,0:3|0:0,0:0:0:0:
236,204,26855,1,0,0:0:0:0:
148,280,27005,2,0,L|136:241,1,40,8|0,0:0|0:0,0:0:0:0:
60,148,27305,2,0,L|52:188,1,40
140,108,27605,2,0,L|228:100,1,80,2|0,0:0|0:0,0:0:0:0:
336,72,28055,1,0,0:0:0:0:
376,216,28205,6,0,L|376:232,7,13.9999995727539,8|0|0|0|0|0|0|0,0:3|0:0|0:0|0:0|0:0|0:0|0:0|0:0,0:0:0:0:
328,304,28805,6,0,L|248:297,1,80,4|0,0:3|0:0,0:0:0:0:
132,264,29255,1,0,0:0:0:0:
180,152,29405,2,0,P|200:196|208:240,1,80,8|0,0:0|0:0,0:0:0:0:
152,332,29855,1,0,0:0:0:0:
44,280,30005,6,0,P|53:241|70:205,1,80,2|0,0:0|0:0,0:0:0:0:
124,96,30455,1,0,0:0:0:0:
240,64,30605,2,0,P|272:76|292:88,1,40,8|0,0:3|0:0,0:0:0:0:
360,164,30905,1,0,0:0:0:0:
396,52,31055,1,0,0:0:0:0:
280,172,31205,6,0,L|264:272,1,80,4|0,0:3|0:0,0:0:0:0:
316,360,31655,1,0,0:0:0:0:
412,288,31805,2,0,P|444:279|468:268,1,40,8|0,0:0|0:0,0:0:0:0:
508,172,32105,1,0,0:0:0:0:
400,116,32255,1,0,0:0:0:0:
320,204,32405,2,0,L|304:304,1,80,4|0,0:3|0:0,0:0:0:0:
176,312,32855,1,0,0:0:0:0:
84,184,33005,1,8,0:3:0:0:
84,184,33605,6,0,P|96:140|108:96,1,80,4|0,0:3|0:0,0:0:0:0:
208,44,34055,1,0,0:0:0:0:
224,164,34205,2,0,P|236:192|240:209,1,40,8|0,0:0|0:0,0:0:0:0:
232,280,34505,1,0,0:0:0:0:
300,324,34655,1,0,0:0:0:0:
360,272,34805,6,0,P|408:256|428:248,1,40,2|0,0:0|0:0,0:0:0:0:
452,200,35105,1,0,0:0:0:0:
408,132,35255,1,0,0:0:0:0:
336,96,35405,2,0,P|312:60|304:44,1,40,8|0,0:3|0:0,0:0:0:0:
248,16,35705,1,0,0:0:0:0:
184,64,35855,1,0,0:0:0:0:
236,124,36005,6,0,P|244:156|248:176,1,40,4|0,0:3|0:0,0:0:0:0:
212,236,36305,1,0,0:0:0:0:
148,280,36455,1,0,0:0:0:0:
80,236,36605,2,0,P|68:200|64:184,1,40,8|0,0:0|0:0,0:0:0:0:
84,120,36905,2,0,P|96:84|100:68,1,40,0|0,0:0|0:0,0:0:0:0:
172,56,37205,2,0,L|268:44,1,80,2|0,0:0|0:0,0:0:0:0:
344,137,37655,1,0,0:0:0:0:
288,268,37805,1,8,0:3:0:0:
288,268,38405,6,0,L|204:255,1,80,4|0,0:3|0:0,0:0:0:0:
108,316,38855,1,0,0:0:0:0:
52,216,39005,2,0,P|36:156|31:127,1,80,8|0,0:0|0:0,0:0:0:0:
100,40,39455,1,0,0:0:0:0:
200,104,39605,2,0,P|248:109|292:108,1,80,2|0,0:0|0:0,0:0:0:0:
388,56,40055,1,0,0:0:0:0:
452,156,40205,2,0,P|456:220|456:264,1,80,8|0,0:3|0:0,0:0:0:0:
360,312,40655,1,0,0:0:0:0:
252,264,40805,6,0,P|198:255|165:256,1,80,4|0,0:3|0:0,0:0:0:0:
68,196,41255,1,0,0:0:0:0:
124,88,41405,2,0,L|140:20,1,40,8|0,0:0|0:0,0:0:0:0:
252,48,41705,2,0,L|261:86,1,40,0|0,0:0|0:0,0:0:0:0:
196,188,42005,2,0,L|192:102,1,80,2|0,0:0|0:0,0:0:0:0:
292,176,42455,1,0,0:0:0:0:
216,312,42605,1,8,0:3:0:0:
216,312,43205,6,0,P|256:300|308:288,1,80,4|0,0:3|0:0,0:0:0:0:
412,304,43655,1,0,0:0:0:0:
452,192,43805,2,0,P|456:140|456:104,1,80,8|0,0:0|0:0,0:0:0:0:
336,120,44255,1,0,0:0:0:0:
256,131,44405,2,0,L|340:119,1,80,2|0,0:0|0:0,0:0:0:0:
292,232,44855,1,0,0:0:0:0:
212,221,45005,2,0,L|296:233,1,80,8|0,0:3|0:0,0:0:0:0:
224,332,45455,1,0,0:0:0:0:
112,284,45605,6,0,P|92:236|92:188,1,80,4|0,0:3|0:0,0:0:0:0:
148,104,46055,1,0,0:0:0:0:
264,76,46205,2,0,P|284:28|284:-20,1,80,8|0,0:0|0:0,0:0:0:0:
384,72,46655,1,0,0:0:0:0:
368,192,46805,2,0,P|320:172|272:172,1,80,2|0,0:0|0:0,0:0:0:0:
156,199,47255,1,0,0:0:0:0:
200,24,47405,5,8,0:3:0:0:
200,24,48005,6,0,B|176:66|204:94|220:138|220:138|180:106|124:108|100:138,1,251.999992309571,4|0,0:3|0:0,0:0:0:0:
320,28,49205,2,0,B|343:70|315:98|299:142|299:142|339:110|396:112|419:142,1,251.999992309571,2|0,0:0|0:0,0:0:0:0:
371,217,50405,6,0,B|255:217|314:288|195:288,1,195.999994018555,2|0,0:0|0:0,0:0:0:0:
45,295,51605,2,0,B|160:295|101:366|220:366,1,195.999994018555,2|0,0:0|0:0,0:0:0:0:
354,321,52805,6,0,L|354:149,1,167.999994873047,2|0,0:0|0:0,0:0:0:0:
271,73,54005,2,0,L|271:245,1,167.999994873047,2|0,0:0|0:0,0:0:0:0:
186,327,55205,6,0,P|142:319|34:311,1,140,2|0,0:0|0:0,0:0:0:0:
152,237,56405,2,0,P|196:229|304:221,1,140,2|0,0:0|0:0,0:0:0:0:
