osu file format v14

[General]
AudioFilename: audio.mp3
AudioLeadIn: 0
PreviewTime: 9605
Countdown: 0
SampleSet: Soft
StackLeniency: 0.7
Mode: 0
LetterboxInBreaks: 0
EpilepsyWarning: 1
WidescreenStoryboard: 1

[Editor]
Bookmarks: 48005,57605,115205,124805,141605
DistanceSpacing: 1
BeatDivisor: 4
GridSize: 4
TimelineZoom: 0.8

[Metadata]
Title:Affection (Mr.Kitty vs Invisibles Remix)
TitleUnicode:Affection (Mr.Kitty vs Invisibles Remix)
Artist:Crystal Castles
ArtistUnicode:Crystal Castles
Creator:Shmiklak
Version:Normal
Source:
Tags:III marvollo m_a_r_v_o_l_l_o wajinshu marianna
BeatmapID:1481849
BeatmapSetID:699588

[Difficulty]
HPDrainRate:4
CircleSize:3.5
OverallDifficulty:4
ApproachRate:4.5
SliderMultiplier:1.6
SliderTickRate:1

[Events]
//Background and Video events
0,0,"affection.jpg",0,0
//Break Periods
//Storyboard Layer 0 (Background)
//Storyboard Layer 1 (Fail)
//Storyboard Layer 2 (Pass)
//Storyboard Layer 3 (Foreground)
//Storyboard Sound Samples

[TimingPoints]
5,600,4,2,59,80,1,0
48005,-100,4,2,0,5,0,0

[Colours]
Combo1 : 155,100,100
Combo2 : 128,128,255
Combo3 : 173,202,211
Combo4 : 188,147,78
SliderTrackOverride : 100,100,100

[HitObjects]
56,88,9605,6,0,P|134:85|224:80,1,160,4|8,0:3|0:0,0:0:0:0:
328,193,10805,2,0,P|250:190|160:185,1,160,2|8,0:0|0:3,0:0:0:0:
111,242,11705,1,0,0:0:0:0:
167,298,12005,6,0,P|208:295|248:288,1,80,4|0,0:3|0:0,0:0:0:0:
324,272,12605,2,0,P|365:275|405:282,1,80,8|0,0:0|0:0,0:0:0:0:
460,338,13205,2,0,B|429:278|429:278|456:176,1,160,2|8,0:0|0:3,0:0:0:0:
342,64,14405,6,0,P|268:62|164:60,1,160,4|8,0:3|0:0,0:0:0:0:
68,173,15605,2,0,P|141:171|246:169,1,160,2|8,0:0|0:3,0:0:0:0:
284,226,16505,1,0,0:0:0:0:
230,285,16805,6,0,P|190:285|150:278,1,80,4|0,0:3|0:0,0:0:0:0:
74,252,17405,2,0,P|67:208|68:169,1,80,8|0,0:0|0:0,0:0:0:0:
124,116,18005,2,0,B|185:133|185:133|288:110,1,160,2|8,0:0|0:3,0:0:0:0:
416,28,19205,6,0,P|427:184|428:200,1,160,4|8,0:3|0:0,0:0:0:0:
300,284,20405,2,0,P|311:128|312:112,1,160,2|8,0:0|0:3,0:0:0:0:
254,67,21305,1,0,0:0:0:0:
197,123,21605,6,0,P|158:124|101:117,1,80,4|0,0:3|0:0,0:0:0:0:
60,176,22205,2,0,P|63:215|62:255,1,80,8|0,0:0|0:0,0:0:0:0:
32,332,22805,2,0,B|84:296|84:296|202:308,1,160,2|8,0:0|0:3,0:0:0:0:
336,348,24005,6,0,P|333:265|331:158,1,160,4|8,0:3|0:0,0:0:0:0:
464,100,25205,2,0,P|461:183|459:290,1,160,2|8,0:0|0:3,0:0:0:0:
415,327,26105,1,0,0:0:0:0:
336,348,26405,6,0,P|295:344|252:340,1,80,4|0,0:3|0:0,0:0:0:0:
199,283,27005,2,0,P|203:242|207:199,1,80,8|0,0:0|0:0,0:0:0:0:
263,146,27605,2,0,B|328:164|328:164|420:120,1,160,2|8,0:0|0:3,0:0:0:0:
357,274,28805,6,0,P|278:271|185:286,1,160,4|8,0:3|0:0,0:0:0:0:
84,169,30005,2,0,P|163:172|256:157,1,160,2|8,0:0|0:3,0:0:0:0:
299,103,30905,1,0,0:0:0:0:
355,159,31205,6,0,P|350:232|347:331,1,160,4|8,0:3|0:0,0:0:0:0:
403,375,32105,1,0,0:0:0:0:
459,318,32405,2,0,P|455:238|451:158,1,160,2|8,0:0|0:3,0:0:0:0:
338,45,33605,6,0,P|251:54|176:62,1,160,4|8,0:3|0:0,0:0:0:0:
122,118,34505,1,0,0:0:0:0:
178,174,34805,2,0,P|218:177|268:164,1,80,2|0,0:0|0:0,0:0:0:0:
331,138,35405,2,0,P|371:135|421:148,1,80,8|0,0:3|0:0,0:0:0:0:
466,200,36005,6,0,P|461:284|456:368,2,160,4|8|2,0:3|0:0|0:0,0:0:0:0:
409,143,37505,1,0,0:0:0:0:
352,199,37805,1,8,0:3:0:0:
238,85,38405,6,0,P|159:82|64:76,1,160,4|8,0:3|0:0,0:0:0:0:
10,222,39605,2,0,P|89:217|169:214,1,160,2|8,0:0|0:3,0:0:0:0:
226,270,40505,1,0,0:0:0:0:
282,213,40805,6,0,P|361:216|441:220,1,160,4|8,0:3|0:0,0:0:0:0:
498,163,41705,1,0,0:0:0:0:
441,106,42005,2,0,P|396:96|280:120,1,160,2|8,0:0|0:3,0:0:0:0:
172,230,43205,6,0,P|167:148|164:52,1,160,4|8,0:3|0:0,0:0:0:0:
92,34,44105,1,0,0:0:0:0:
35,90,44405,2,0,P|31:131|36:176,1,80,2|0,0:0|0:0,0:0:0:0:
91,226,45005,2,0,P|94:267|90:312,1,80,8|0,0:3|0:0,0:0:0:0:
164,337,45605,6,0,P|226:299|326:315,2,160,4|8|2,0:3|0:0|0:0,0:0:0:0:
91,305,47105,1,0,0:0:0:0:
132,236,47405,2,0,P|134:195|121:153,1,80,8|0,0:3|0:0,0:0:0:0:
256,192,48005,12,2,56405,0:0:0:0:
