osu file format v14

[General]
AudioFilename: audio.mp3
AudioLeadIn: 0
PreviewTime: 9605
Countdown: 0
SampleSet: Soft
StackLeniency: 0.7
Mode: 0
LetterboxInBreaks: 0
EpilepsyWarning: 1
WidescreenStoryboard: 1

[Editor]
Bookmarks: 48005,57605,115205,124805,141605
DistanceSpacing: 1.1
BeatDivisor: 12
GridSize: 4
TimelineZoom: 2.4

[Metadata]
Title:Affection (Mr.Kitty vs Invisibles Remix)
TitleUnicode:Affection (Mr.Kitty vs Invisibles Remix)
Artist:Crystal Castles
ArtistUnicode:Crystal Castles
Creator:Shmiklak
Version:Hard
Source:
Tags:III marvollo m_a_r_v_o_l_l_o wajinshu marianna
BeatmapID:1481386
BeatmapSetID:699588

[Difficulty]
HPDrainRate:5
CircleSize:4.5
OverallDifficulty:6
ApproachRate:7
SliderMultiplier:1.8
SliderTickRate:1

[Events]
//Background and Video events
0,0,"affection.jpg",0,0
//Break Periods
//Storyboard Layer 0 (Background)
//Storyboard Layer 1 (Fail)
//Storyboard Layer 2 (Pass)
//Storyboard Layer 3 (Foreground)
//Storyboard Sound Samples

[TimingPoints]
5,600,4,2,59,80,1,0
48005,-100,4,2,0,5,0,0

[Colours]
Combo1 : 155,100,100
Combo2 : 128,128,255
Combo3 : 173,202,211
Combo4 : 188,147,78
SliderTrackOverride : 100,100,100

[HitObjects]
84,96,9605,6,0,P|147:86|204:84,1,90,4|0,0:3|0:0,0:0:0:0:
216,172,10205,2,0,P|153:162|96:160,1,90,8|0,0:0|0:0,0:0:0:0:
79,247,10805,2,0,P|234:241|259:241,1,180,2|8,0:0|0:3,0:0:0:0:
340,300,11705,1,0,0:0:0:0:
420,200,12005,6,0,P|422:107|422:91,1,90,4|0,0:3|0:0,0:0:0:0:
328,84,12605,2,0,P|330:177|330:193,1,90,8|0,0:0|0:0,0:0:0:0:
258,240,13205,1,0,0:0:0:0:
160,264,13505,1,0,0:0:0:0:
116,352,13805,1,8,0:3:0:0:
99,99,14405,6,0,P|188:88|197:87,1,90,4|0,0:3|0:0,0:0:0:0:
259,158,15005,2,0,P|248:247|247:256,1,90,8|0,0:0|0:0,0:0:0:0:
317,317,15605,2,0,P|385:317|473:249,1,180,2|8,0:0|0:3,0:0:0:0:
504,157,16505,1,0,0:0:0:0:
408,76,16805,6,0,P|355:70|311:70,1,90,4|0,0:3|0:0,0:0:0:0:
288,164,17405,2,0,P|341:158|385:158,1,90,8|0,0:0|0:0,0:0:0:0:
460,216,18005,1,2,0:0:0:0:
476,312,18305,1,0,0:0:0:0:
400,376,18605,1,8,0:3:0:0:
148,356,19205,6,0,P|78:357|53:357,1,90,4|0,0:3|0:0,0:0:0:0:
116,276,19805,2,0,P|158:267|210:267,1,90,8|0,0:0|0:0,0:0:0:0:
301,241,20405,2,0,P|297:148|294:61,1,180,2|8,0:0|0:3,0:0:0:0:
364,0,21305,1,0,0:0:0:0:
460,84,21605,6,0,P|462:134|458:182,1,90,0|0,0:0|0:0,0:0:0:0:
396,252,22205,2,0,P|346:250|298:254,1,90,8|0,0:0|0:0,0:0:0:0:
216,294,22805,1,2,0:0:0:0:
240,196,23105,1,0,0:0:0:0:
192,108,23405,1,8,0:3:0:0:
44,312,24005,6,0,P|35:271|37:216,1,90,4|0,0:3|0:0,0:0:0:0:
128,188,24605,2,0,P|129:232|119:276,1,90,8|0,0:0|0:0,0:0:0:0:
189,346,25205,2,0,P|266:342|368:336,1,180,2|8,0:0|0:3,0:0:0:0:
438,265,26105,1,0,0:0:0:0:
388,148,26405,6,0,P|381:82|381:50,1,90,4|0,0:3|0:0,0:0:0:0:
284,44,27005,2,0,P|282:88|276:133,1,90,8|0,0:0|0:0,0:0:0:0:
212,208,27605,1,2,0:0:0:0:
140,276,27905,1,0,0:0:0:0:
124,372,28205,1,8,0:3:0:0:
60,131,28805,6,0,P|112:136|240:108,1,180,4|8,0:3|0:0,0:0:0:0:
305,179,29705,1,0,0:0:0:0:
234,249,30005,2,0,P|179:226|144:224,1,90,2|0,0:0|0:0,0:0:0:0:
52,224,30605,1,8,0:3:0:0:
5,311,30905,1,0,0:0:0:0:
116,368,31205,6,0,L|295:349,1,180,4|8,0:3|0:0,0:0:0:0:
364,276,32105,1,0,0:0:0:0:
276,228,32405,2,0,P|250:189|240:144,1,90,4|0,0:3|0:0,0:0:0:0:
260,52,33005,1,8,0:3:0:0:
500,128,33605,6,0,P|513:208|505:312,1,180,4|8,0:3|0:0,0:0:0:0:
418,353,34505,1,0,0:0:0:0:
347,282,34805,2,0,P|298:280|259:292,1,90,2|0,0:0|0:0,0:0:0:0:
189,361,35405,1,8,0:3:0:0:
118,290,35705,1,0,0:0:0:0:
8,228,36005,6,0,P|12:137|19:40,1,180,4|8,0:3|0:0,0:0:0:0:
114,24,36905,1,0,0:0:0:0:
177,102,37205,2,0,P|232:109|272:96,1,90,2|0,0:0|0:0,0:0:0:0:
336,28,37805,1,8,0:3:0:0:
496,220,38405,6,0,P|470:193|330:205,1,180,4|8,0:3|0:0,0:0:0:0:
267,267,39305,1,0,0:0:0:0:
184,320,39605,2,0,P|133:316|83:304,1,90,2|0,0:0|0:0,0:0:0:0:
40,224,40205,1,8,0:3:0:0:
48,124,40505,1,0,0:0:0:0:
152,52,40805,6,0,P|216:55|276:148,1,180,4|8,0:3|0:0,0:0:0:0:
275,243,41705,1,0,0:0:0:0:
326,327,42005,2,0,P|374:331|418:323,1,90,2|0,0:0|0:0,0:0:0:0:
500,272,42605,1,8,0:3:0:0:
275,144,43205,6,0,P|220:160|96:144,1,180,4|8,0:3|0:0,0:0:0:0:
29,75,44105,1,0,0:0:0:0:
116,24,44405,2,0,P|158:28|212:36,1,90,2|0,0:0|0:0,0:0:0:0:
292,81,45005,1,8,0:3:0:0:
379,34,45305,1,0,0:0:0:0:
468,123,45605,6,0,P|454:212|441:301,1,180,4|8,0:3|0:0,0:0:0:0:
371,370,46504,1,0,0:0:0:0:
300,299,46805,2,0,P|302:252|300:207,1,90,2|0,0:0|0:0,0:0:0:0:
229,138,47405,2,0,P|184:136|139:138,1,90,8|0,0:3|0:0,0:0:0:0:
256,192,48005,12,2,56405,0:0:0:0:
