osu file format v14

[General]
AudioFilename: audio.mp3
AudioLeadIn: 0
PreviewTime: 9605
Countdown: 0
SampleSet: Soft
StackLeniency: 0.7
Mode: 0
LetterboxInBreaks: 0
EpilepsyWarning: 1
WidescreenStoryboard: 1

[Editor]
Bookmarks: 48005,57605,115205,124805,141605
DistanceSpacing: 1.2
BeatDivisor: 12
GridSize: 4
TimelineZoom: 1.7

[Metadata]
Title:Affection (Mr.Kitty vs Invisibles Remix)
TitleUnicode:Affection (Mr.Kitty vs Invisibles Remix)
Artist:Crystal Castles
ArtistUnicode:Crystal Castles
Creator:Shmiklak
Version:Marianna's Hard
Source:
Tags:III marvollo m_a_r_v_o_l_l_o wajinshu marianna
BeatmapID:1486648
BeatmapSetID:699588

[Difficulty]
HPDrainRate:6
CircleSize:4.2
OverallDifficulty:6
ApproachRate:7.8
SliderMultiplier:1.8
SliderTickRate:1

[Events]
//Background and Video events
0,0,"affection.jpg",0,0
//Break Periods
//Storyboard Layer 0 (Background)
//Storyboard Layer 1 (Fail)
//Storyboard Layer 2 (Pass)
//Storyboard Layer 3 (Foreground)
//Storyboard Sound Samples

[TimingPoints]
5.8811881188119,600,4,2,59,80,1,0
43205,-125,4,2,59,80,0,0
48005,-100,4,2,0,5,0,0

[Colours]
Combo1 : 155,100,100
Combo2 : 128,128,255
Combo3 : 173,202,211
Combo4 : 188,147,78
SliderTrackOverride : 100,100,100

[HitObjects]
224,96,9605,6,0,P|180:92|132:88,1,90,4|0,0:3|0:0,0:0:0:0:
60,164,10055,1,0,0:0:0:0:
52,176,10205,2,0,P|96:172|144:168,1,90,8|0,0:0|0:0,0:0:0:0:
232,236,10655,1,0,0:0:0:0:
240,252,10805,2,0,P|196:248|104:240,1,135,2|0,0:0|0:0,0:0:0:0:
52,176,11405,1,8,0:3:0:0:
40,188,12005,6,0,P|44:148|48:96,1,90,4|0,0:3|0:0,0:0:0:0:
56,16,12455,1,0,0:0:0:0:
68,24,12605,2,0,P|112:28|160:24,1,90,8|0,0:0|0:0,0:0:0:0:
224,84,13055,1,0,0:0:0:0:
236,76,13205,2,0,P|280:72|328:76,1,90,2|0,0:0|0:0,0:0:0:0:
424,140,13805,2,0,L|460:136,6,22.5,8|0|0|0|0|0|0,0:3|0:0|0:0|0:0|0:0|0:0|0:0,0:0:0:0:
508,100,14405,6,0,P|500:156|496:192,1,90,4|0,0:3|0:0,0:0:0:0:
432,260,14855,1,0,0:0:0:0:
424,244,15005,2,0,P|416:188|412:152,1,90,8|0,0:0|0:0,0:0:0:0:
336,64,15455,1,0,0:0:0:0:
328,80,15605,2,0,P|320:136|312:216,1,135,2|0,0:0|0:0,0:0:0:0:
300,312,16205,1,8,0:3:0:0:
208,256,16505,1,0,0:0:0:0:
120,340,16805,6,0,L|24:336,1,90,4|0,0:3|0:0,0:0:0:0:
8,260,17255,1,0,0:0:0:0:
0,248,17405,2,0,L|89:251,1,90,8|0,0:0|0:0,0:0:0:0:
168,176,18005,2,0,L|78:179,1,90,2|0,0:0|0:0,0:0:0:0:
256,284,18605,2,0,L|278:280,6,22.5,8|0|0|0|0|0|0,0:3|0:0|0:0|0:0|0:0|0:0|0:0,0:0:0:0:
336,320,19205,6,0,P|332:272|328:224,1,90,4|0,0:3|0:0,0:0:0:0:
260,148,19655,1,0,0:0:0:0:
256,168,19805,2,0,P|252:216|248:264,1,90,8|0,0:0|0:0,0:0:0:0:
176,332,20255,1,0,0:0:0:0:
172,312,20405,2,0,P|168:264|164:176,1,135,2|0,0:0|0:0,0:0:0:0:
164,80,21005,1,8,0:3:0:0:
152,96,21605,6,0,P|100:104|60:108,1,90,4|0,0:3|0:0,0:0:0:0:
232,140,22055,1,0,0:0:0:0:
252,144,22205,2,0,P|304:152|344:156,1,90,8|0,0:0|0:0,0:0:0:0:
164,188,22655,1,0,0:0:0:0:
144,192,22805,2,0,P|92:200|52:204,1,90,2|0,0:0|0:0,0:0:0:0:
212,276,23405,2,0,L|208:304,6,22.5,8|0|0|0|0|0|0,0:3|0:0|0:0|0:0|0:0|0:0|0:0,0:0:0:0:
172,356,24005,6,0,P|212:352|264:344,1,90,4|0,0:3|0:0,0:0:0:0:
348,272,24455,1,0,0:0:0:0:
328,268,24605,2,0,P|288:264|236:256,1,90,8|0,0:0|0:0,0:0:0:0:
156,180,25055,1,0,0:0:0:0:
176,176,25205,2,0,P|216:172|312:148,1,135,2|0,0:0|0:0,0:0:0:0:
408,108,25805,1,8,0:3:0:0:
396,136,26405,6,0,P|396:180|408:228,1,90,4|0,0:3|0:0,0:0:0:0:
360,304,26855,1,0,0:0:0:0:
336,288,27005,2,0,P|299:262|253:245,1,90,8|0,0:0|0:0,0:0:0:0:
168,200,27455,1,0,0:0:0:0:
192,185,27605,2,0,P|230:163|265:128,1,90,2|0,0:0|0:0,0:0:0:0:
372,40,28205,2,0,L|368:8,6,22.5,8|0|0|0|0|0|0,0:3|0:0|0:0|0:0|0:0|0:0|0:0,0:0:0:0:
408,128,28805,6,0,P|404:176|400:220,1,90,4|0,0:3|0:0,0:0:0:0:
312,264,29255,1,0,0:0:0:0:
308,240,29405,2,0,P|304:192|300:148,1,90,8|0,0:0|0:0,0:0:0:0:
216,84,29855,1,0,0:0:0:0:
212,108,30005,2,0,P|208:156|200:244,1,135,2|0,0:0|0:0,0:0:0:0:
180,364,30605,1,8,0:3:0:0:
168,340,31205,6,0,L|76:344,1,90,4|0,0:3|0:0,0:0:0:0:
256,304,31655,1,0,0:0:0:0:
276,308,31805,2,0,L|368:312,1,90,8|0,0:0|0:0,0:0:0:0:
168,260,32255,1,0,0:0:0:0:
148,264,32405,2,0,L|56:268,1,90,2|0,0:0|0:0,0:0:0:0:
224,192,33005,2,0,L|220:160,6,22.5,8|0|0|0|0|0|0,0:3|0:0|0:0|0:0|0:0|0:0|0:0,0:0:0:0:
176,108,33605,6,0,P|219:111|272:108,1,90,4|0,0:3|0:0,0:0:0:0:
360,64,34055,1,0,0:0:0:0:
352,84,34205,2,0,L|356:132,2,45,8|0|0,0:0|0:0|0:0,0:0:0:0:
261,153,34655,2,0,L|265:105,2,45,0|2|0,0:0|0:0|0:0,0:0:0:0:
384,168,35105,2,0,L|388:216,2,45,0|0|8,0:0|0:0|0:3,0:0:0:0:
240,224,35555,2,0,L|244:176,2,45,0|0|0,0:0|0:0|0:0,0:0:0:0:
152,320,36005,6,0,P|112:328|60:324,1,90,4|0,0:3|0:0,0:0:0:0:
224,296,36455,1,0,0:0:0:0:
252,308,36605,2,0,P|292:316|344:312,1,90,8|0,0:0|0:0,0:0:0:0:
168,244,37055,1,0,0:0:0:0:
140,256,37205,2,0,P|100:264|48:260,1,90,2|0,0:0|0:0,0:0:0:0:
216,168,37805,2,0,L|212:144,6,22.5,8|0|0|0|0|0|0,0:3|0:0|0:0|0:0|0:0|0:0|0:0,0:0:0:0:
172,80,38405,6,0,P|220:84|264:88,1,90,4|0,0:3|0:0,0:0:0:0:
352,160,38855,1,0,0:0:0:0:
340,180,39005,2,0,P|292:184|248:188,1,90,8|0,0:0|0:0,0:0:0:0:
136,248,39455,1,0,0:0:0:0:
148,268,39605,2,0,P|196:272|288:280,1,135,2|0,0:0|0:0,0:0:0:0:
384,292,40205,1,8,0:3:0:0:
368,268,40805,6,0,P|352:228|348:176,1,90,4|0,0:3|0:0,0:0:0:0:
328,84,41255,1,0,0:0:0:0:
304,108,41405,2,0,P|274:139|229:165,1,90,8|0,0:0|0:0,0:0:0:0:
156,216,41855,1,0,0:0:0:0:
187,227,42005,2,0,P|227:240|270:270,1,90,2|0,0:0|0:0,0:0:0:0:
364,344,42605,2,0,L|388:336,6,22.5,8|0|0|0|0|0|0,0:3|0:0|0:0|0:0|0:0|0:0|0:0,0:0:0:0:
252,368,43205,6,0,P|180:364|108:360,1,144,4|8,0:3|0:0,0:0:0:0:
256,272,44405,2,0,P|328:268|400:264,1,144,2|8,0:0|0:3,0:0:0:0:
124,192,45605,6,0,P|84:140|68:60,1,144,4|8,0:3|0:0,0:0:0:0:
244,168,46805,1,2,0:0:0:0:
40,252,47405,2,0,L|8:248,6,18,8|0|0|0|0|0|0,0:3|0:0|0:0|0:0|0:0|0:0|0:0,0:0:0:0:
156,264,48005,5,4,0:3:0:0:
256,192,48155,12,2,56405,0:0:0:0:
