osu file format v14

[General]
AudioFilename: audio.mp3
AudioLeadIn: 0
PreviewTime: -1
Countdown: 0
SampleSet: Soft
StackLeniency: 0.7
Mode: 0
LetterboxInBreaks: 0
WidescreenStoryboard: 0

[Editor]
DistanceSpacing: 0.8
BeatDivisor: 4
GridSize: 8
TimelineZoom: 1.2

[Metadata]
Title:Echo
TitleUnicode:Echo
Artist:CrusherP ft. Gumi
ArtistUnicode:CrusherP ft. Gumi
Creator:dan227able
Version:Hard
Source:
Tags:vocaloid gumi crusherp echo
BeatmapID:1478410
BeatmapSetID:698001

[Difficulty]
HPDrainRate:7
CircleSize:4.5
OverallDifficulty:8
ApproachRate:8
SliderMultiplier:1.2
SliderTickRate:1

[Events]
//Background and Video events
0,0,"2511-gumi-vocaloid.jpg",0,0
//Break Periods
2,61700,67821
//Storyboard Layer 0 (Background)
//Storyboard Layer 1 (Fail)
//Storyboard Layer 2 (Pass)
//Storyboard Layer 3 (Foreground)
//Storyboard Sound Samples

[TimingPoints]
0,428.571428571429,4,1,0,100,1,0
20571,-200,4,1,0,100,0,0
32142,-200,4,2,0,100,0,0
33857,-66.6666666666667,4,3,0,100,0,1
42428,-181.818181818181,4,2,0,100,0,1
42642,-66.6666666666667,4,3,0,100,0,1
47678,-66.6666666666667,4,1,0,100,0,1
49392,-66.6666666666667,4,3,0,100,0,1
49821,-66.6666666666667,4,1,0,100,0,1
51535,-66.6666666666667,4,2,0,100,0,1
52392,-66.6666666666667,4,3,0,100,0,1
54857,-200,4,1,0,100,0,1
60428,-66.6666666666667,4,1,0,100,0,1
61500,-100,4,1,0,100,0,0
61600,-90.9090909090909,4,1,0,100,0,0
82285,-66.6666666666667,4,1,0,100,0,0
88928,-66.6666666666667,4,2,0,100,0,0
102642,-66.6666666666667,4,3,0,100,0,0
103071,-66.6666666666667,4,2,0,100,0,0
103392,-66.6666666666667,4,3,0,100,0,0
103821,-66.6666666666667,4,2,0,100,0,0
104035,-66.6666666666667,4,3,0,100,0,0
106178,-66.6666666666667,4,2,0,100,0,0
118178,-100,4,1,0,100,0,0
119892,-100,4,2,0,100,0,0
123321,-200,4,2,0,100,0,0
129750,-100,4,2,0,100,0,0
163928,-80,4,2,0,100,0,0
170892,-100,4,2,0,100,0,1
186321,-200,4,3,0,100,0,1
186765,-100,4,1,0,100,0,1
188464,-83.3333333333333,4,1,0,100,0,1
189107,-100,4,2,0,100,0,1
191678,-66.6666666666667,4,2,0,100,0,1
205178,-100,4,1,0,100,0,0

[HitObjects]
216,80,0,6,0,L|296:64,1,60
144,48,428,1,0,0:0:0:0:
144,128,642,1,0,0:0:0:0:
80,264,857,2,0,L|112:200,1,60
48,336,1285,1,0,0:0:0:0:
128,336,1500,1,0,0:0:0:0:
264,280,1714,6,0,L|200:312,1,60
328,240,2142,1,0,0:0:0:0:
320,328,2357,1,0,0:0:0:0:
432,224,2571,2,0,L|384:296,1,60
488,168,3000,1,0,0:0:0:0:
392,152,3214,1,0,0:0:0:0:
288,56,3428,6,0,L|344:104,1,60
216,8,3857,1,0,0:0:0:0:
208,96,4071,1,0,0:0:0:0:
80,160,4285,2,0,L|136:120,1,60
32,224,4714,1,0,0:0:0:0:
120,232,4928,1,0,0:0:0:0:
208,336,5142,6,0,L|136:288,1,60
280,352,5571,1,0,0:0:0:0:
256,272,5785,1,0,0:0:0:0:
400,344,6000,2,0,L|328:304,1,60
472,352,6428,1,0,0:0:0:0:
416,264,6642,1,0,0:0:0:0:
336,160,6857,6,0,P|376:176|408:176,1,60
432,88,7285,1,0,0:0:0:0:
344,24,7500,1,0,0:0:0:0:
264,72,7714,2,0,P|208:48|192:48,1,60
120,16,8142,1,0,0:0:0:0:
88,104,8357,1,0,0:0:0:0:
160,160,8571,1,0,0:0:0:0:
72,208,8785,1,0,0:0:0:0:
184,312,9000,2,0,P|136:296|120:280,1,60
248,280,9428,6,0,P|208:240|192:232,1,60
320,320,9857,1,0,0:0:0:0:
400,272,10071,5,0,0:0:0:0:
448,200,10285,1,0,0:0:0:0:
384,144,10500,1,0,0:0:0:0:
440,80,10714,1,0,0:0:0:0:
336,48,10928,2,0,L|264:56,1,60
208,56,11357,1,0,0:0:0:0:
216,176,11571,2,0,P|176:208|160:208,1,60
64,160,12000,5,0,0:0:0:0:
56,80,12214,2,0,P|144:120|144:144,1,120
208,200,12857,1,0,0:0:0:0:
120,200,13071,1,0,0:0:0:0:
64,240,13285,6,0,P|88:288|160:320,1,120
160,248,13928,1,0,0:0:0:0:
264,272,14142,1,0,0:0:0:0:
320,328,14357,1,0,0:0:0:0:
352,256,14571,2,0,P|400:288|400:304,1,60
496,264,15000,1,0,0:0:0:0:
440,176,15214,1,0,0:0:0:0:
352,80,15428,2,0,P|408:96|416:104,1,60
264,40,15857,1,0,0:0:0:0:
144,96,16071,2,0,P|176:64|200:56,1,60
112,168,16500,5,0,0:0:0:0:
40,128,16714,1,0,0:0:0:0:
80,272,16928,2,0,P|40:232|40:216,1,60
168,352,17357,2,0,P|144:312|128:304,1,60
200,224,17785,2,0,P|144:232|128:248,1,60
272,240,18214,1,0,0:0:0:0:
352,336,18428,2,0,P|336:304|312:288,1,60
456,280,18857,2,0,P|424:328|416:336,1,60
448,200,19285,1,0,0:0:0:0:
440,64,19500,2,0,P|456:104|448:128,1,60
136,80,20571,6,0,L|120:112,1,30
296,160,21000,1,0,0:0:0:0:
224,208,21214,1,0,0:0:0:0:
392,272,21428,2,0,L|368:296,1,30
384,64,22285,6,0,L|408:88,1,30
216,176,22714,1,0,0:0:0:0:
296,200,22928,1,0,0:0:0:0:
104,264,23142,2,0,L|128:296,1,30
128,80,24000,6,0,L|112:112,1,30
296,176,24429,1,0,0:0:0:0:
224,200,24643,1,0,0:0:0:0:
384,272,24857,2,0,L|360:296,1,30
368,72,25714,6,0,L|392:96,1,30
232,168,26143,1,0,0:0:0:0:
296,192,26357,1,0,0:0:0:0:
128,256,26571,2,0,L|152:288,1,30
128,80,27428,6,0,L|112:112,1,30
288,160,27857,1,0,0:0:0:0:
232,200,28071,1,0,0:0:0:0:
400,272,28285,2,0,L|376:296,1,30
368,64,29142,6,0,L|392:88,1,30
232,168,29571,1,0,0:0:0:0:
296,192,29785,1,0,0:0:0:0:
128,256,29999,2,0,L|152:288,1,30
136,80,30857,6,0,L|120:112,1,30
288,160,31286,1,0,0:0:0:0:
232,200,31500,1,0,0:0:0:0:
400,264,31714,2,0,L|376:288,1,30
240,304,32357,2,0,P|232:280|232:272,2,30
232,184,33000,1,0,0:0:0:0:
184,112,33214,1,0,0:0:0:0:
96,120,33428,1,0,0:0:0:0:
32,192,33642,1,0,0:0:0:0:
80,256,33857,6,0,P|112:312|136:320,1,90.0000034332277
160,192,34285,1,0,0:0:0:0:
216,304,34500,2,0,P|264:264|272:232,1,90.0000034332277
312,120,34928,1,0,0:0:0:0:
352,224,35142,2,0,P|368:288|384:304,1,90.0000034332277
424,120,35571,2,0,P|440:184|432:208,1,90.0000034332277
256,64,36000,2,0,P|320:56|352:64,1,90.0000034332277
88,96,36428,2,0,P|144:80|184:72,1,90.0000034332277
80,272,36857,2,0,P|64:200|72:176,1,90.0000034332277
256,312,37285,2,0,P|192:328|160:328,1,90.0000034332277
416,312,37714,5,0,0:0:0:0:
344,240,37928,1,0,0:0:0:0:
464,208,38142,1,0,0:0:0:0:
352,152,38357,1,0,0:0:0:0:
456,104,38571,1,0,0:0:0:0:
352,56,38785,1,0,0:0:0:0:
256,64,39000,2,0,P|192:40|168:40,1,90.0000034332277
248,144,39428,2,0,P|176:144|144:128,1,90.0000034332277
64,96,39857,1,0,0:0:0:0:
48,264,40071,2,0,L|56:168,1,90.0000034332277
48,344,40500,1,0,0:0:0:0:
176,288,40714,6,0,P|232:304|256:328,1,90.0000034332277
288,192,41142,1,0,0:0:0:0:
344,328,41357,2,0,P|416:288|432:288,1,90.0000034332277
336,184,41785,1,0,0:0:0:0:
464,128,42000,2,0,P|432:80|400:56,1,90.0000034332277
248,104,42428,6,0,B|232:104|232:96|224:96|224:80,1,33.0000010070801
88,184,42857,2,0,P|96:96|80:72,1,90.0000034332277
16,192,43285,2,0,P|32:272|48:288,1,90.0000034332277
104,192,43714,1,0,0:0:0:0:
160,256,43928,2,0,P|176:304|160:352,1,90.0000034332277
240,240,44357,5,0,0:0:0:0:
304,336,44571,1,0,0:0:0:0:
344,240,44785,1,0,0:0:0:0:
400,336,45000,1,0,0:0:0:0:
440,232,45214,1,0,0:0:0:0:
416,72,45428,2,0,P|456:120|456:152,1,90.0000034332277
336,48,45857,2,0,P|296:104|304:136,1,90.0000034332277
184,40,46285,2,0,P|224:88|224:128,1,90.0000034332277
104,40,46714,2,0,P|64:96|72:128,1,90.0000034332277
144,192,47142,5,0,0:0:0:0:
64,336,47357,1,0,0:0:0:0:
240,344,47571,1,0,0:0:0:0:
248,240,47785,2,0,P|288:272|312:312,1,90.0000034332277
296,184,48214,2,0,P|336:216|360:256,1,90.0000034332277
344,128,48642,2,0,P|384:160|408:200,1,90.0000034332277
392,64,49071,2,0,P|432:96|456:136,1,90.0000034332277
296,40,49500,5,0,0:0:0:0:
208,104,49714,1,0,0:0:0:0:
104,72,49928,2,0,P|40:104|24:128,1,90.0000034332277
144,136,50357,2,0,P|80:168|64:192,1,90.0000034332277
184,200,50785,2,0,P|120:232|104:256,1,90.0000034332277
248,256,51214,2,0,P|184:288|168:312,1,90.0000034332277
328,344,51642,5,0,0:0:0:0:
392,304,51857,1,0,0:0:0:0:
440,256,52071,1,0,0:0:0:0:
464,184,52285,1,0,0:0:0:0:
416,128,52500,2,0,P|368:64|360:56,1,90.0000034332277
232,80,52928,5,0,0:0:0:0:
136,208,53142,1,0,0:0:0:0:
280,176,53357,1,0,0:0:0:0:
144,120,53571,1,0,0:0:0:0:
232,256,53785,1,0,0:0:0:0:
264,88,54000,2,0,P|224:64|176:56,1,90.0000034332277
112,48,54428,1,0,0:0:0:0:
48,88,54642,1,0,0:0:0:0:
48,184,54857,6,0,L|48:224,1,30
176,176,55285,2,0,L|176:208,1,30
304,168,55714,2,0,L|304:200,1,30
432,168,56142,2,0,L|432:200,1,30
432,336,56571,2,0,L|432:304,1,30
336,320,57000,1,0,0:0:0:0:
216,336,57214,2,0,L|216:296,1,30
80,336,57642,2,0,L|80:296,1,30
80,160,58071,2,0,L|80:192,1,30
160,64,58500,5,0,0:0:0:0:
216,136,58714,1,0,0:0:0:0:
264,48,58928,1,0,0:0:0:0:
312,120,59142,1,0,0:0:0:0:
376,56,59357,1,0,0:0:0:0:
392,136,59571,1,0,0:0:0:0:
464,96,59785,1,0,0:0:0:0:
456,176,60000,1,0,0:0:0:0:
392,208,60214,1,0,0:0:0:0:
456,256,60428,1,0,0:0:0:0:
400,328,60642,6,0,P|328:312|304:288,1,90.0000034332277
160,336,61071,2,0,P|216:320|248:296,1,90.0000034332277
64,336,61500,1,0,0:0:0:0:
304,64,68571,5,0,0:0:0:0:
400,80,68785,2,0,P|432:112|440:136,1,66.0000020141602
448,216,69214,2,0,P|432:256|408:272,1,66.0000020141602
344,336,69642,1,0,0:0:0:0:
264,336,69857,2,0,L|184:336,1,66.0000020141602
104,336,70285,1,0,0:0:0:0:
72,248,70500,6,0,L|136:208,1,66.0000020141602
48,176,70928,2,0,L|112:136,1,66.0000020141602
40,88,71357,2,0,L|104:48,1,66.0000020141602
208,72,71785,1,0,0:0:0:0:
256,96,72000,1,0,0:0:0:0:
360,80,72428,1,0,0:0:0:0:
320,192,72857,1,0,0:0:0:0:
400,312,73285,1,0,0:0:0:0:
240,320,73714,6,0,L|200:328,2,33.0000010070801
152,256,74142,2,0,L|176:232,2,33.0000010070801
56,192,74571,1,0,0:0:0:0:
104,112,74785,1,0,0:0:0:0:
184,72,75000,1,0,0:0:0:0:
272,64,75214,1,0,0:0:0:0:
376,64,75428,6,0,P|416:88|432:128,1,66.0000020141602
440,200,75857,2,0,L|448:232,2,33.0000010070801
384,312,76285,1,0,0:0:0:0:
304,248,76500,1,0,0:0:0:0:
256,328,76714,1,0,0:0:0:0:
200,256,76928,1,0,0:0:0:0:
56,352,77142,2,0,L|128:336,1,66.0000020141602
136,304,77464,1,0,0:0:0:0:
128,280,77571,2,0,L|112:224,1,33.0000010070801
168,208,78000,5,0,0:0:0:0:
40,176,78214,1,0,0:0:0:0:
144,128,78428,1,0,0:0:0:0:
72,80,78642,1,0,0:0:0:0:
192,64,78857,6,0,P|232:88|240:104,1,66.0000020141602
256,24,79285,2,0,P|296:48|304:64,1,66.0000020141602
368,32,79714,2,0,P|408:56|416:72,1,66.0000020141602
472,160,80142,1,0,0:0:0:0:
376,192,80571,6,0,L|304:192,1,66.0000020141602
256,72,81000,2,0,L|256:144,1,66.0000020141602
120,192,81428,2,0,L|200:192,1,66.0000020141602
256,312,81857,2,0,L|256:232,1,66.0000020141602
360,280,82285,5,0,0:0:0:0:
408,224,82500,1,0,0:0:0:0:
424,192,82607,1,0,0:0:0:0:
416,120,82821,1,0,0:0:0:0:
360,72,83035,1,0,0:0:0:0:
328,56,83142,1,0,0:0:0:0:
256,56,83357,1,0,0:0:0:0:
184,64,83571,1,0,0:0:0:0:
120,88,83785,1,0,0:0:0:0:
96,176,84000,2,0,P|80:256|112:296,1,135.000005149841
184,328,84642,5,0,0:0:0:0:
256,336,84857,1,0,0:0:0:0:
328,336,85071,1,0,0:0:0:0:
400,312,85285,1,0,0:0:0:0:
440,256,85500,1,0,0:0:0:0:
448,184,85714,5,0,0:0:0:0:
416,120,85928,1,0,0:0:0:0:
400,88,86035,1,0,0:0:0:0:
336,48,86250,1,0,0:0:0:0:
304,40,86357,1,0,0:0:0:0:
232,48,86571,1,0,0:0:0:0:
200,64,86678,1,0,0:0:0:0:
144,104,86892,1,0,0:0:0:0:
120,128,87000,1,0,0:0:0:0:
80,184,87214,1,8,0:0:0:0:
176,296,87428,5,0,0:0:0:0:
176,296,87750,1,0,0:0:0:0:
176,296,88071,1,0,0:0:0:0:
344,232,88285,1,0,0:0:0:0:
344,232,88607,1,0,0:0:0:0:
344,232,88928,1,0,0:0:0:0:
384,112,89142,6,0,P|376:64|352:32,1,90.0000034332277
312,136,89571,2,0,P|280:104|280:40,1,90.0000034332277
176,152,90000,2,0,P|200:88|192:56,1,90.0000034332277
96,168,90428,2,0,P|64:112|64:88,1,90.0000034332277
152,232,90857,1,0,0:0:0:0:
96,280,91071,2,0,P|80:328|96:368,1,90.0000034332277
208,280,91500,2,0,P|224:328|216:368,1,90.0000034332277
288,280,91928,2,0,P|304:328|296:368,1,90.0000034332277
368,248,92357,1,0,0:0:0:0:
408,152,93000,6,0,P|424:104|408:64,1,90.0000034332277
344,112,93428,2,0,P|320:168|288:184,1,90.0000034332277
264,112,93857,2,0,P|288:72|280:24,1,90.0000034332277
160,112,94285,1,0,0:0:0:0:
72,192,94500,1,0,0:0:0:0:
72,192,94714,1,0,0:0:0:0:
112,288,94928,1,0,0:0:0:0:
112,288,95142,1,0,0:0:0:0:
208,312,95357,1,0,0:0:0:0:
208,312,95571,1,0,0:0:0:0:
304,320,95785,2,0,P|352:304|376:272,1,90.0000034332277
456,224,96214,5,0,0:0:0:0:
448,64,96428,2,0,L|408:160,1,90.0000034332277
352,64,96857,2,0,L|312:160,1,90.0000034332277
264,56,97285,2,0,L|224:152,1,90.0000034332277
144,64,97714,1,0,0:0:0:0:
88,128,97928,1,0,0:0:0:0:
96,224,98142,6,0,P|64:280|72:304,1,90.0000034332277
168,264,98571,2,0,P|136:320|144:344,1,90.0000034332277
240,296,99000,2,0,P|208:352|216:376,1,90.0000034332277
328,336,99428,1,0,0:0:0:0:
400,272,99642,1,0,0:0:0:0:
352,192,99857,2,0,L|400:112,1,90.0000034332277
280,152,100285,2,0,L|328:72,1,90.0000034332277
200,112,100714,2,0,L|248:32,1,90.0000034332277
96,72,101142,5,0,0:0:0:0:
96,72,101464,1,0,0:0:0:0:
96,80,101785,1,0,0:0:0:0:
64,192,102000,1,0,0:0:0:0:
64,192,102321,1,0,0:0:0:0:
64,192,102642,1,0,0:0:0:0:
64,280,102857,6,0,P|96:328|128:336,1,90.0000034332277
160,208,103285,1,0,0:0:0:0:
200,336,103500,2,0,P|256:280|256:248,1,90.0000034332277
320,152,103928,1,0,0:0:0:0:
368,264,104142,2,0,P|392:336|424:352,1,90.0000034332277
464,208,104571,1,0,0:0:0:0:
448,112,104785,6,0,P|408:56|368:40,1,90.0000034332277
336,168,105214,1,0,0:0:0:0:
288,56,105428,2,0,P|232:120|232:160,1,90.0000034332277
216,200,105857,2,0,P|152:144|144:120,1,90.0000034332277
64,72,106285,1,0,0:0:0:0:
32,192,106500,1,0,0:0:0:0:
128,240,106714,6,0,P|152:296|136:328,1,90.0000034332277
208,240,107142,2,0,P|232:296|216:328,1,90.0000034332277
296,240,107571,2,0,P|320:296|304:328,1,90.0000034332277
432,240,108000,1,0,0:0:0:0:
440,128,108214,1,0,0:0:0:0:
440,128,108428,2,0,L|384:56,1,90.0000034332277
360,136,108857,2,0,L|304:64,1,90.0000034332277
272,144,109285,2,0,L|216:72,1,90.0000034332277
160,152,109714,5,0,0:0:0:0:
64,120,109928,1,0,0:0:0:0:
80,248,110142,2,0,P|64:296|88:288,1,90.0000034332277
192,264,110571,2,0,P|176:312|200:304,1,90.0000034332277
312,272,111000,2,0,P|296:320|320:312,1,90.0000034332277
416,240,111428,1,0,0:0:0:0:
456,128,111642,1,0,0:0:0:0:
384,64,111857,6,0,B|328:72|328:96|288:96,1,90.0000034332277
280,24,112285,2,0,B|224:32|224:56|184:56,1,90.0000034332277
232,120,112714,2,0,B|176:128|176:152|136:152,1,90.0000034332277
80,80,113142,1,0,0:0:0:0:
16,176,113357,1,0,0:0:0:0:
80,336,113571,6,0,B|112:296|40:272|120:224,1,90.0000034332277
160,288,114000,2,0,B|192:248|120:224|200:176,1,90.0000034332277
248,344,114428,2,0,B|280:304|208:280|288:232,1,90.0000034332277
368,336,114857,1,0,0:0:0:0:
432,256,115071,1,0,0:0:0:0:
400,144,115285,5,0,0:0:0:0:
312,48,115500,1,0,0:0:0:0:
280,176,115714,1,0,0:0:0:0:
376,80,115928,1,0,0:0:0:0:
240,104,116142,1,0,0:0:0:0:
376,176,116357,1,0,0:0:0:0:
240,24,116571,6,0,B|152:16|248:120|112:72|48:120|152:152,1,225.000008583069
312,136,117321,2,0,B|304:200|256:224|192:216|184:232,1,135.000005149841
152,192,117857,1,0,0:0:0:0:
88,224,118071,1,0,0:0:0:0:
136,296,118285,6,0,L|200:336,1,60
240,248,118714,1,0,0:0:0:0:
240,248,118928,2,0,L|296:304,1,60
368,352,119357,1,0,0:0:0:0:
480,256,119571,1,0,0:0:0:0:
368,152,119785,1,0,0:0:0:0:
440,56,120000,6,0,L|360:32,1,60
352,40,120321,1,0,0:0:0:0:
304,48,120428,1,0,0:0:0:0:
224,112,120642,1,0,0:0:0:0:
120,72,120857,1,0,0:0:0:0:
80,168,121071,1,0,0:0:0:0:
144,248,121285,1,0,0:0:0:0:
88,328,121500,1,0,0:0:0:0:
208,344,121714,6,0,P|256:328|264:304,1,60
376,352,122142,2,0,P|336:336|320:320,1,60
456,272,122571,2,0,P|440:320|424:328,1,60
464,192,123000,1,0,0:0:0:0:
424,96,123214,1,0,0:0:0:0:
320,56,123428,6,0,P|296:48|280:48,1,30
160,56,123857,1,0,0:0:0:0:
104,168,124071,1,0,0:0:0:0:
224,176,124285,1,0,0:0:0:0:
96,96,124500,1,0,0:0:0:0:
224,112,124714,1,0,0:0:0:0:
152,192,124928,1,0,0:0:0:0:
80,272,125142,6,0,P|72:296|72:304,1,30
176,328,125571,1,0,0:0:0:0:
280,328,125785,1,0,0:0:0:0:
280,232,126000,1,0,0:0:0:0:
376,232,126214,1,0,0:0:0:0:
376,328,126428,1,0,0:0:0:0:
464,328,126642,1,0,0:0:0:0:
464,232,126857,6,0,P|464:208|456:192,1,30
416,64,127285,1,0,0:0:0:0:
376,160,127500,1,0,0:0:0:0:
344,40,127714,1,0,0:0:0:0:
304,160,127928,1,0,0:0:0:0:
272,56,128142,1,0,0:0:0:0:
232,160,128357,1,0,0:0:0:0:
200,64,128571,6,0,P|184:64|168:72,1,30
88,136,129000,1,0,0:0:0:0:
40,224,129214,1,0,0:0:0:0:
72,312,129428,5,0,0:0:0:0:
160,360,129642,1,0,0:0:0:0:
256,192,129857,12,0,133071,0:0:0:0:
152,208,133285,6,0,P|144:168|160:144,1,60
256,192,133714,12,0,136500,0:0:0:0:
128,232,136714,6,0,P|112:192|120:168,1,60
144,104,137142,1,0,0:0:0:0:
208,56,137357,1,0,0:0:0:0:
288,32,137571,1,0,0:0:0:0:
384,48,137785,2,0,P|424:56|440:72,1,60
464,160,138214,1,0,0:0:0:0:
464,256,138428,2,0,P|464:288|448:312,1,60
368,344,138857,5,0,0:0:0:0:
312,272,139071,1,0,0:0:0:0:
248,344,139285,1,0,0:0:0:0:
216,256,139500,1,0,0:0:0:0:
160,336,139714,1,0,0:0:0:0:
120,256,139928,1,0,0:0:0:0:
48,200,140142,6,0,P|32:168|48:136,1,60
88,88,140571,1,0,0:0:0:0:
152,40,140785,1,0,0:0:0:0:
240,40,141000,1,0,0:0:0:0:
328,40,141214,2,0,P|360:48|384:64,1,60
440,128,141642,5,0,0:0:0:0:
456,216,141857,2,0,P|456:248|440:272,1,60
320,336,142285,2,0,L|376:304,1,60
232,288,142714,2,0,L|288:264,1,60
168,336,143142,1,0,0:0:0:0:
104,272,143357,1,0,0:0:0:0:
64,200,143571,6,0,P|48:168|64:136,1,60
128,56,144000,1,0,0:0:0:0:
176,176,144214,1,0,0:0:0:0:
224,32,144428,1,0,0:0:0:0:
264,144,144642,1,0,0:0:0:0:
264,144,144857,2,0,P|304:128|312:104,1,60
384,32,145285,5,0,0:0:0:0:
480,96,145500,1,0,0:0:0:0:
376,160,145714,1,0,0:0:0:0:
472,216,145928,1,0,0:0:0:0:
472,216,146142,2,0,P|464:264|456:272,1,60
408,336,146571,2,0,P|376:344|352:336,1,60
264,232,147000,5,0,0:0:0:0:
264,232,147214,1,0,0:0:0:0:
216,304,147428,2,0,P|192:336|160:344,1,60
72,296,147857,1,0,0:0:0:0:
72,296,148071,1,0,0:0:0:0:
48,200,148285,2,0,P|48:160|56:136,1,60
104,56,148714,5,0,0:0:0:0:
104,56,148928,1,0,0:0:0:0:
200,40,149142,2,0,P|248:48|272:56,1,60
360,40,149571,1,0,0:0:0:0:
360,40,149785,1,0,0:0:0:0:
456,96,150000,2,0,P|472:128|464:152,1,60
432,232,150428,6,0,L|416:296,1,60
328,328,150857,1,0,0:0:0:0:
256,224,151071,1,0,0:0:0:0:
176,336,151285,1,0,0:0:0:0:
80,272,151500,2,0,P|48:240|48:208,1,60
64,136,151928,5,0,0:0:0:0:
128,32,152142,1,0,0:0:0:0:
200,136,152357,1,0,0:0:0:0:
280,40,152571,1,0,0:0:0:0:
280,40,152785,2,0,P|336:40|360:48,1,60
424,96,153214,2,0,P|456:128|464:152,1,60
464,232,153642,2,0,P|464:272|448:288,1,60
360,312,154071,5,0,0:0:0:0:
312,320,154285,1,0,0:0:0:0:
264,328,154500,1,0,0:0:0:0:
216,328,154714,1,0,0:0:0:0:
168,320,154928,1,0,0:0:0:0:
120,312,155142,2,0,P|72:288|64:264,1,60
56,240,155571,5,0,0:0:0:0:
48,192,155785,2,0,P|48:144|64:120,1,60
88,96,156214,1,0,0:0:0:0:
120,64,156428,1,0,0:0:0:0:
168,48,156642,1,0,0:0:0:0:
216,40,156857,2,0,L|280:48,1,60
389,82,157285,6,0,P|412:104|420:137,1,60
432,219,157714,1,0,0:0:0:0:
385,313,157928,1,0,0:0:0:0:
270,330,158142,1,0,0:0:0:0:
270,330,158357,2,0,P|226:329|205:319,1,60
112,289,158785,1,0,0:0:0:0:
112,289,159000,2,0,P|79:253|74:229,1,60
63,148,159428,5,0,0:0:0:0:
63,148,159642,2,0,L|94:86,1,60
215,151,160071,2,0,L|197:89,1,60
309,155,160500,2,0,L|324:97,1,60
457,155,160928,2,0,L|436:91,1,60
449,248,161357,5,0,0:0:0:0:
449,248,161571,2,0,L|428:310,1,60
276,337,162000,2,0,L|341:326,1,60
199,340,162428,2,0,L|139:326,1,60
56,266,162857,5,0,0:0:0:0:
56,266,163071,1,0,0:0:0:0:
56,266,163285,1,0,0:0:0:0:
56,266,163500,1,0,0:0:0:0:
56,266,163714,1,0,0:0:0:0:
363,204,164142,6,0,P|351:149|361:117,1,75
419,52,164571,2,0,P|443:98|440:134,1,75
460,229,165000,1,0,0:0:0:0:
419,325,165214,1,0,0:0:0:0:
311,336,165428,1,0,0:0:0:0:
237,248,165642,1,0,0:0:0:0:
152,328,165857,6,0,B|106:320|121:299|61:286,1,75
54,190,166285,1,0,0:0:0:0:
54,190,166500,1,0,0:0:0:0:
86,99,166714,1,0,0:0:0:0:
86,99,166928,1,0,0:0:0:0:
172,51,167142,2,0,B|219:41|225:58|259:38,1,75
374,69,167571,1,0,0:0:0:0:
374,69,167785,1,0,0:0:0:0:
426,174,168000,6,0,B|408:217|441:218|414:257,1,75
353,219,168428,2,0,B|335:262|368:263|341:302,1,75
273,272,168857,2,0,B|255:315|288:316|261:355,1,75
192,232,169285,2,0,B|174:275|207:276|180:315,1,75
80,327,169714,5,0,0:0:0:0:
16,242,169928,1,0,0:0:0:0:
50,138,170142,1,0,0:0:0:0:
113,55,170357,1,0,0:0:0:0:
113,55,170571,2,0,P|165:46|196:47,1,75
384,83,171000,6,0,P|403:113|395:150,1,60
459,233,171428,1,0,0:0:0:0:
459,233,171642,1,0,0:0:0:0:
414,317,171857,2,0,B|381:337|376:325|339:337,1,60
268,289,172285,1,0,0:0:0:0:
268,289,172500,1,0,0:0:0:0:
145,296,172714,6,0,B|112:286|109:318|143:318,1,60
80,204,173142,2,0,B|68:148|113:146|73:102|66:91|110:80,1,120
221,40,173785,1,0,0:0:0:0:
314,96,174000,1,0,0:0:0:0:
421,55,174214,1,0,0:0:0:0:
454,161,174428,2,0,P|482:185|462:223,1,60
430,310,174857,6,0,B|374:340|372:268|366:258|332:335,1,120
254,210,175500,1,0,0:0:0:0:
180,313,175714,2,0,B|115:336|143:296|139:268|81:321|72:309|67:263,1,120
49,193,176357,1,0,0:0:0:0:
81,100,176571,1,0,0:0:0:0:
161,44,176785,1,0,0:0:0:0:
254,42,177000,1,0,0:0:0:0:
205,140,177214,1,0,0:0:0:0:
331,135,177428,5,0,0:0:0:0:
331,135,177642,1,0,0:0:0:0:
331,135,177857,2,0,P|373:104|399:108,1,60
446,221,178285,2,0,P|469:187|458:148,1,60
332,228,178714,2,0,P|342:260|369:282,1,60
231,333,179142,2,0,P|286:353|306:341,1,60
72,318,179571,2,0,P|110:340|152:338,1,60
146,208,180000,2,0,P|170:248|168:284,1,60
52,186,180428,5,0,0:0:0:0:
79,93,180642,1,0,0:0:0:0:
157,44,180857,2,0,L|220:47,1,60
172,140,181285,2,0,P|155:171|187:172,1,60
275,64,181714,5,0,0:0:0:0:
307,169,181928,1,0,0:0:0:0:
365,66,182142,1,0,0:0:0:0:
385,168,182357,1,0,0:0:0:0:
437,73,182571,1,0,0:0:0:0:
459,175,182785,1,0,0:0:0:0:
466,290,183000,2,0,P|435:319|397:330,1,60
304,222,183428,5,0,0:0:0:0:
251,347,183642,1,0,0:0:0:0:
372,312,183857,1,0,0:0:0:0:
239,270,184071,1,0,0:0:0:0:
320,349,184285,1,0,0:0:0:0:
350,243,184500,1,0,0:0:0:0:
220,196,184714,6,0,P|187:214|172:257,1,60
148,316,185142,2,0,P|115:331|79:321,1,60
46,243,185571,1,0,0:0:0:0:
61,128,185785,1,0,0:0:0:0:
110,44,186000,2,0,P|152:36|174:44,1,60
261,131,186428,2,0,L|259:101,1,30
382,57,186857,5,0,0:0:0:0:
382,57,187071,1,0,0:0:0:0:
443,142,187285,1,0,0:0:0:0:
443,142,187500,1,0,0:0:0:0:
439,236,187714,2,0,P|437:272|419:291,1,60
257,311,188142,1,0,0:0:0:0:
346,246,188357,1,0,0:0:0:0:
238,231,188571,2,0,P|176:269|152:349,1,143.999995605469
119,214,189214,5,0,0:0:0:0:
39,158,189428,1,0,0:0:0:0:
143,123,189642,1,0,0:0:0:0:
61,64,189857,2,0,P|99:40|126:34,1,60
268,42,190285,5,0,0:0:0:0:
259,167,190500,1,0,0:0:0:0:
373,63,190714,1,0,0:0:0:0:
356,182,190928,1,0,0:0:0:0:
462,110,191142,1,0,0:0:0:0:
459,216,191357,2,0,P|461:249|444:280,1,60
315,235,191785,5,0,0:0:0:0:
397,337,192000,1,0,0:0:0:0:
272,332,192214,2,0,P|221:342|184:338,1,90.0000034332277
76,210,192642,2,0,P|86:285|119:319,1,90.0000034332277
81,131,193071,2,0,P|97:78|124:48,1,90.0000034332277
118,52,193500,1,0,0:0:0:0:
257,51,193714,5,0,0:0:0:0:
351,58,193928,1,0,0:0:0:0:
441,95,194142,1,0,0:0:0:0:
470,184,194357,1,0,0:0:0:0:
354,169,194571,1,0,0:0:0:0:
418,262,194785,2,0,P|428:308|392:340,1,90.0000034332277
401,337,195214,1,0,0:0:0:0:
310,254,195428,6,0,P|265:235|226:248,1,90.0000034332277
174,343,195857,1,0,0:0:0:0:
128,231,196071,1,0,0:0:0:0:
72,332,196285,1,0,0:0:0:0:
42,217,196500,1,0,0:0:0:0:
42,217,196714,1,0,0:0:0:0:
62,119,196928,5,0,0:0:0:0:
62,119,197142,1,0,0:0:0:0:
62,119,197357,1,0,0:0:0:0:
62,119,197571,1,0,0:0:0:0:
62,119,197785,1,0,0:0:0:0:
62,119,198000,1,0,0:0:0:0:
62,119,198214,1,0,0:0:0:0:
153,63,198428,6,0,P|205:46|247:57,1,90.0000034332277
174,177,198857,1,0,0:0:0:0:
308,119,199071,1,0,0:0:0:0:
251,220,199285,1,0,0:0:0:0:
383,162,199500,1,0,0:0:0:0:
332,268,199714,1,0,0:0:0:0:
441,243,199928,6,0,P|455:288|435:324,1,90.0000034332277
275,335,200357,1,0,0:0:0:0:
152,307,200571,1,0,0:0:0:0:
255,258,200785,1,0,0:0:0:0:
141,230,201000,1,0,0:0:0:0:
246,182,201214,1,0,0:0:0:0:
101,144,201428,1,0,0:0:0:0:
210,105,201642,2,0,P|166:81|151:43,1,90.0000034332277
327,63,202071,1,0,0:0:0:0:
413,157,202285,5,0,0:0:0:0:
413,157,202500,1,0,0:0:0:0:
452,247,202714,1,0,0:0:0:0:
375,328,202928,1,0,0:0:0:0:
375,328,203142,1,0,0:0:0:0:
208,271,203357,2,0,L|295:324,1,90.0000034332277
103,267,203785,5,0,0:0:0:0:
103,267,204000,1,0,0:0:0:0:
103,267,204214,1,0,0:0:0:0:
55,162,204428,1,0,0:0:0:0:
55,162,204642,1,0,0:0:0:0:
55,162,204857,1,0,0:0:0:0:
55,162,205071,1,0,0:0:0:0:
321,64,205714,6,0,P|365:63|393:91,1,60
450,135,206142,1,0,0:0:0:0:
281,155,206357,2,0,P|310:179|345:180,1,60
257,74,206785,1,0,0:0:0:0:
428,121,207000,1,0,0:0:0:0:
437,233,207214,1,0,0:0:0:0:
390,320,207428,6,0,P|363:340|323:340,1,60
209,308,207857,1,0,0:0:0:0:
303,260,208071,1,0,0:0:0:0:
192,229,208285,1,0,0:0:0:0:
192,229,208500,1,0,0:0:0:0:
106,325,208714,1,0,0:0:0:0:
106,325,208928,1,0,0:0:0:0:
57,231,209142,6,0,P|47:191|54:163,1,60
99,57,209571,1,0,0:0:0:0:
152,169,209785,2,0,P|195:146|203:120,1,60
262,31,210214,1,0,0:0:0:0:
301,130,210428,2,0,P|313:160|348:168,1,60
425,75,210857,5,0,0:0:0:0:
456,177,211071,1,0,0:0:0:0:
456,177,211285,2,0,P|475:220|469:244,1,60
399,324,211714,2,0,P|432:308|444:288,1,60
311,320,212142,1,0,0:0:0:0:
311,320,212357,1,0,0:0:0:0:
208,258,212571,6,0,P|192:293|165:311,1,60
63,228,213000,1,0,0:0:0:0:
197,171,213214,2,0,L|159:115,1,60
39,66,213642,1,0,0:0:0:0:
146,37,213857,2,0,L|225:39,1,60
334,62,214285,1,0,0:0:0:0:
332,169,214500,6,0,P|383:169|416:178,1,60
272,233,214928,1,0,0:0:0:0:
408,283,215142,2,0,P|357:295|325:286,1,60
468,217,215571,1,0,0:0:0:0:
457,358,215785,1,0,0:0:0:0:
307,350,216000,6,0,P|266:351|242:339,1,60
107,328,216428,1,0,0:0:0:0:
78,180,216642,2,0,P|57:216|68:245,1,60
128,77,217071,1,0,0:0:0:0:
304,74,217285,2,0,P|263:58|231:65,1,60
420,128,217714,5,0,0:0:0:0:
445,228,217928,1,0,0:0:0:0:
445,228,218142,2,0,P|441:273|424:293,1,60
344,332,218571,2,0,P|307:338|277:332,1,60
314,238,219000,2,12,P|278:232|243:237,1,60
256,192,219428,12,0,222857,0:0:0:0:
