osu file format v14

[General]
AudioFilename: audio.mp3
AudioLeadIn: 0
PreviewTime: 46903
Countdown: 0
SampleSet: Normal
StackLeniency: 0.7
Mode: 0
LetterboxInBreaks: 0
WidescreenStoryboard: 0

[Editor]
DistanceSpacing: 0.8
BeatDivisor: 4
GridSize: 8
TimelineZoom: 1

[Metadata]
Title:ECHO
TitleUnicode:ECHO
Artist:Crusher-P ft Reol
ArtistUnicode:Crusher-P ft Reol
Creator:EveryFT
Version:Easy
Source:Crusher-P
Tags:gumi crusher-P echo reol
BeatmapID:1724668
BeatmapSetID:822933

[Difficulty]
HPDrainRate:4
CircleSize:4
OverallDifficulty:5
ApproachRate:6
SliderMultiplier:1.6
SliderTickRate:1

[Events]
//Background and Video events
Video,0,"VOCALOID Original - ECHO Gumi English 640x360.avi"
0,0,"Crusher-P_-_ECHO.png",0,0
//Break Periods
//Storyboard Layer 0 (Background)
//Storyboard Layer 1 (Fail)
//Storyboard Layer 2 (Pass)
//Storyboard Layer 3 (Foreground)
//Storyboard Sound Samples

[TimingPoints]
13336,428.571428571429,4,1,0,100,1,0
19764,-100,4,1,0,100,0,0
33907,-133.333333333333,4,1,1,100,0,0
45907,-166.666666666667,4,1,1,100,0,0
47621,-100,4,2,1,100,0,1
68193,-100,4,2,1,100,0,0
136764,-92.5925925925926,4,1,1,100,0,1
143621,-92.5925925925926,4,1,1,100,0,0
177907,-100,4,1,1,100,0,0
184764,-66.6666666666667,4,1,1,100,0,1
188193,-66.6666666666667,4,1,1,100,0,0
191621,-66.6666666666667,4,1,1,100,0,1
217336,-66.6666666666667,4,1,1,100,0,0
232764,-100,4,1,1,100,0,0

[Colours]
Combo1 : 227,227,227
Combo2 : 166,166,166
Combo3 : 0,0,0
Combo4 : 77,77,77
Combo5 : 194,194,194
Combo6 : 123,123,123
Combo7 : 146,146,146
Combo8 : 65,65,65

[HitObjects]
112,104,13335,6,0,L|189:148,1,80
264,184,13764,1,0,0:0:0:0:
152,248,13978,1,0,0:0:0:0:
288,280,14193,6,0,L|372:308,1,80
384,208,14621,1,0,0:0:0:0:
304,128,14835,1,0,0:0:0:0:
208,168,15050,6,0,L|118:205,1,80
160,264,15478,2,0,L|263:223,1,80
296,160,15907,1,0,0:0:0:0:
216,80,16121,1,0,0:0:0:0:
128,160,16335,1,0,0:0:0:0:
183,250,16764,6,0,B|263:306|305:190|346:247|387:307|401:275,1,160
337,253,17407,1,0,0:0:0:0:
256,112,17621,1,0,0:0:0:0:
168,192,17835,1,0,0:0:0:0:
352,184,18050,1,0,0:0:0:0:
256,192,18264,1,0,0:0:0:0:
256,112,18478,6,0,B|168:136|152:104|144:64|88:144,1,160
107,119,19121,1,0,0:0:0:0:
107,119,19336,1,0,0:0:0:0:
184,80,19764,6,0,P|248:40|344:126,1,160
261,125,20407,1,0,0:0:0:0:
368,185,20621,2,0,P|293:278|141:167,1,320
261,125,21693,1,0,0:0:0:0:
303,193,21907,2,0,L|103:193,2,160
124,53,23407,5,0,0:0:0:0:
352,72,23621,1,0,0:0:0:0:
192,144,23836,1,0,0:0:0:0:
360,160,24050,1,0,0:0:0:0:
224,248,24264,1,0,0:0:0:0:
192,144,24478,2,0,B|72:168|174:317,1,160
312,232,25336,5,0,0:0:0:0:
400,128,25550,1,0,0:0:0:0:
232,120,25978,2,0,B|128:120|136:168|160:280,1,160
360,118,26621,6,0,P|448:158|448:174,1,80
424,184,27050,2,0,P|360:192|344:160,1,80
240,128,27478,1,0,0:0:0:0:
136,272,27693,1,0,0:0:0:0:
296,272,27907,1,0,0:0:0:0:
200,128,28336,6,0,L|120:40,1,80
184,240,28764,1,0,0:0:0:0:
304,160,28978,1,0,0:0:0:0:
301,249,29407,2,0,L|438:351,1,160
304,160,30264,5,0,0:0:0:0:
216,72,30478,1,0,0:0:0:0:
136,168,30693,1,0,0:0:0:0:
224,168,30907,1,0,0:0:0:0:
168,248,31121,1,0,0:0:0:0:
272,248,31336,1,0,0:0:0:0:
432,176,31550,1,0,0:0:0:0:
224,168,31764,1,0,0:0:0:0:
336,128,31978,1,0,0:0:0:0:
272,248,32193,1,0,0:0:0:0:
368,240,32407,1,0,0:0:0:0:
312,72,32836,2,0,B|144:56|152:120|152:120,1,240
144,96,33907,6,0,L|168:136,2,30.0000011444092
288,256,34336,1,0,0:0:0:0:
288,256,34550,2,0,P|344:272|408:248,2,120.000004577637
368,104,35621,6,0,L|320:120,2,30.0000011444092
168,72,36050,1,0,0:0:0:0:
168,72,36264,2,0,P|112:96|112:152,2,120.000004577637
216,192,37336,6,0,P|216:176|240:176,2,30.0000011444092
320,296,37764,1,0,0:0:0:0:
320,296,37978,2,0,B|360:288|384:288|384:200,2,120.000004577637
144,96,39050,6,0,P|168:64|200:80,1,60.0000022888184
224,120,39478,2,0,P|224:128|168:136,1,60.0000022888184
143,269,39907,2,0,P|224:320|264:304,1,120.000004577637
352,216,40764,5,0,0:0:0:0:
352,216,41193,1,0,0:0:0:0:
288,160,41407,2,0,B|208:96|192:80|184:184,1,180.000006866455
80,192,42478,5,0,0:0:0:0:
80,192,42907,1,0,0:0:0:0:
168,208,43121,2,0,B|224:120|232:128|296:224,1,180.000006866455
176,56,44193,5,0,0:0:0:0:
312,72,44621,2,0,B|344:56|344:72|344:120,1,60.0000022888184
184,176,45264,2,0,B|120:176|120:184|128:248,1,120.000004577637
256,192,45907,12,0,46764,0:0:0:0:
