osu file format v14

[General]
AudioFilename: audio.mp3
AudioLeadIn: 0
PreviewTime: 54532
Countdown: 0
SampleSet: None
StackLeniency: 0.3
Mode: 0
LetterboxInBreaks: 0
WidescreenStoryboard: 0

[Editor]
Bookmarks: 13817,18960,27532,41246,48103,53246,54960,61817,62675,63532,68675,75532,82389,96103,108103,109818,110246,116675,117103,123532,123960,137246,144103,150960,157817,164675,166389,169817,171103,171532,178389,185246,192103,198960,211817,212675,226389
DistanceSpacing: 1.2
BeatDivisor: 4
GridSize: 8
TimelineZoom: 2.2

[Metadata]
Title:ECHO (feat. Gumi) DJ-Jo Remix
TitleUnicode:ECHO (feat. Gumi) DJ-Jo Remix
Artist:Crusher-P
ArtistUnicode:Crusher-P
Creator:Heroe
Version:Frequency
Source:
Tags:
BeatmapID:1939986
BeatmapSetID:928830

[Difficulty]
HPDrainRate:6
CircleSize:4
OverallDifficulty:8
ApproachRate:9
SliderMultiplier:2.5
SliderTickRate:2

[Events]
//Background and Video events
0,0,"VOCALOID.full.991161.jpg",0,0
//Break Periods
//Storyboard Layer 0 (Background)
//Storyboard Layer 1 (Fail)
//Storyboard Layer 2 (Pass)
//Storyboard Layer 3 (Foreground)
//Storyboard Sound Samples

[TimingPoints]
13818,428.571428571429,4,1,0,5,1,0
13818,-200,4,1,0,5,0,0
27532,-133.333333333333,4,1,0,15,0,0
40282,-133.333333333333,4,1,0,5,0,0
40389,-133.333333333333,4,1,0,15,0,0
41246,-100,4,1,0,25,0,0
54960,-80,4,1,0,40,0,1
61817,-133.333333333333,4,1,0,15,0,0
62675,-80,4,1,0,50,0,1
68675,-100,4,1,0,30,0,0
75532,-86.9565217391304,4,1,0,30,0,0
82389,-80,4,1,0,35,0,1
109818,-133.333333333333,4,1,0,35,0,0
110246,-86.9565217391304,4,1,0,30,0,0
116675,-133.333333333333,4,1,0,30,0,0
117103,-86.9565217391304,4,1,0,30,0,0
123532,-133.333333333333,4,1,0,30,0,0
123960,-86.9565217391304,4,1,0,30,0,0
137246,-200,4,1,0,10,0,0
144103,-153.846153846154,4,1,0,15,0,0
150960,-133.333333333333,4,1,0,20,0,0
157817,-117.647058823529,4,1,0,25,0,0
166389,-133.333333333333,4,1,0,20,0,0
169817,-133.333333333333,4,1,0,30,0,0
171103,-133.333333333333,4,1,0,5,0,0
171532,-133.333333333333,4,1,0,10,0,0
173246,-133.333333333333,4,1,0,14,0,0
174960,-133.333333333333,4,1,0,17,0,0
176675,-133.333333333333,4,1,0,21,0,0
178389,-100,4,1,0,25,0,0
185246,-86.9565217391304,4,1,0,32,0,0
192103,-100,4,1,0,28,0,0
198960,-80,4,1,0,40,0,1
211817,-200,4,1,0,20,0,0
212675,-71.4285714285714,4,1,0,50,0,1
226389,-200,4,1,0,5,0,0

[Colours]
Combo1 : 0,128,192
Combo2 : 0,128,255
Combo3 : 0,128,192
Combo4 : 128,128,255
Combo5 : 157,157,255

[HitObjects]
125,129,13817,5,0,0:0:0:0:
134,145,14460,1,0,0:0:0:0:
134,145,14675,1,0,0:0:0:0:
142,160,15532,5,0,0:0:0:0:
151,176,16175,1,0,0:0:0:0:
151,176,16390,1,0,0:0:0:0:
160,192,17246,5,0,0:0:0:0:
169,208,17889,1,0,0:0:0:0:
169,208,18104,1,0,0:0:0:0:
160,192,18960,1,0,0:0:0:0:
169,208,19603,1,0,0:0:0:0:
169,208,19818,1,0,0:0:0:0:
179,225,20675,5,0,0:0:0:0:
188,241,21318,1,0,0:0:0:0:
188,241,21533,1,0,0:0:0:0:
255,195,22389,5,0,0:0:0:0:
264,211,23032,1,0,0:0:0:0:
264,211,23247,1,0,0:0:0:0:
340,181,24103,5,0,0:0:0:0:
331,165,24746,1,0,0:0:0:0:
331,165,24961,1,0,0:0:0:0:
331,165,25818,5,0,0:0:0:0:
340,181,26461,1,0,0:0:0:0:
340,181,26676,1,0,0:0:0:0:
125,129,27532,5,0,0:0:0:0:
90,219,27746,2,0,L|36:214,5,46.8750017881394
32,140,28389,1,0,0:0:0:0:
161,277,28603,2,0,L|165:330,4,46.8750017881394
125,129,29246,5,0,0:0:0:0:
220,173,29460,1,0,0:0:0:0:
220,173,29568,1,0,0:0:0:0:
220,173,29675,2,0,L|285:167,1,46.8750017881394
311,164,29889,1,0,0:0:0:0:
334,162,29996,1,0,0:0:0:0:
408,155,30103,5,0,0:0:0:0:
348,323,30318,2,0,L|352:270,4,46.8750017881394
408,155,30960,5,0,0:0:0:0:
350,78,31175,2,0,L|295:82,5,46.8750017881394
251,27,31818,1,0,0:0:0:0:
220,173,32032,2,0,L|226:238,4,46.8750017881394
172,30,32675,6,0,L|167:85,3,46.8750017881394
86,121,33103,2,0,L|90:176,3,46.8750017881394
166,269,33532,2,0,L|161:324,3,46.8750017881394
246,361,33960,1,0,0:0:0:0:
281,329,34068,1,0,0:0:0:0:
325,314,34175,1,0,0:0:0:0:
371,315,34282,1,0,0:0:0:0:
409,340,34389,5,0,0:0:0:0:
461,223,34603,2,0,L|466:160,5,46.8750017881394
437,83,35246,1,0,0:0:0:0:
286,130,35460,2,0,L|348:135,5,46.8750017881394
391,182,36103,5,0,0:0:0:0:
318,282,36318,1,0,0:0:0:0:
318,282,36426,1,0,0:0:0:0:
318,282,36533,2,0,L|253:276,1,46.8750017881394
227,273,36747,1,0,0:0:0:0:
204,271,36854,1,0,0:0:0:0:
130,264,36961,5,0,0:0:0:0:
77,153,37175,1,0,0:0:0:0:
78,133,37282,1,0,0:0:0:0:
81,114,37389,2,0,L|86:47,3,46.8750017881394
36,9,37818,5,0,0:0:0:0:
189,66,38032,2,0,L|255:71,5,46.8750017881394
305,134,38675,1,0,0:0:0:0:
178,225,38889,2,0,L|204:186,4,46.8750017881394
305,134,39532,6,0,P|360:129|268:215,1,328.125012516976
339,198,40389,1,8,0:0:0:0:
339,198,40818,5,0,0:0:0:0:
348,213,41032,1,0,0:0:0:0:
357,226,41246,6,0,L|391:96,1,125
155,226,41675,2,0,L|120:96,1,125
349,243,42103,6,0,L|406:121,1,125
162,243,42532,2,0,L|105:121,1,125
339,258,42960,6,0,L|416:148,1,125
172,258,43389,2,0,L|95:148,1,125
326,271,43818,6,0,L|421:177,1,125
185,271,44246,2,0,L|90:177,1,125
410,156,44675,6,0,L|333:265,1,125
101,156,45103,2,0,L|172:258,1,125
402,129,45532,6,0,L|349:243,1,125
109,129,45960,2,0,L|162:243,1,125
389,105,46389,6,0,L|357:226,1,125
122,105,46818,2,0,L|155:226,1,125
372,83,47246,6,0,L|361:207,1,125
139,83,47675,2,0,L|150:207,1,125
372,83,48103,6,0,L|300:184,1,125
140,83,48532,2,0,L|211:184,1,125
396,116,48960,6,0,L|300:196,1,125
115,116,49389,2,0,L|211:196,1,125
410,155,49818,6,0,L|298:208,1,125
101,155,50246,2,0,L|213:208,1,125
417,197,50675,6,0,L|294:218,1,125
96,197,51103,2,0,L|218:218,1,125
418,229,51532,6,0,L|294:218,1,125
94,229,51960,2,0,L|218:217,1,125
422,197,52389,6,0,L|297:207,1,125
90,197,52818,2,0,L|214:207,1,125
422,197,53246,6,0,L|335:189,1,62.5
282,184,53460,1,0,0:0:0:0:
356,291,53568,5,0,0:0:0:0:
356,353,53675,1,0,0:0:0:0:
216,287,53889,6,0,L|216:349,1,62.5
148,246,54103,5,0,0:0:0:0:
148,184,54210,1,0,0:0:0:0:
148,150,54318,1,0,0:0:0:0:
359,47,54532,5,0,0:0:0:0:
359,119,54639,1,0,0:0:0:0:
359,191,54746,6,0,L|359:246,3,31.25
358,294,54960,6,0,B|324:315|324:315|180:302,1,156.25
