osu file format v14

[General]
AudioFilename: audio.ogg
AudioLeadIn: 0
PreviewTime:45880
Countdown: 0
SampleSet: Soft
StackLeniency: 0.7
Mode: 0
LetterboxInBreaks: 0
WidescreenStoryboard: 0
SkinPreference:Default

[Editor]
Bookmarks: 1200,5662,11399,17773,27985,38198,48411,53517,58624,63730,68832,73938,79044
DistanceSpacing: 0.9
BeatDivisor: 4
GridSize: 8
TimelineZoom: 1.6

[Metadata]
Title:Sonic Heroes (Game Ver.)
TitleUnicode:Sonic Heroes (Game Ver.)
Artist:Crush 40
ArtistUnicode:Crush 40
Creator:AJT
Version:Aranel's Expert
Source:Sonic Heroes
Tags:ost original soundtrack english rock video game vgm sega jun senoue johnny gioeli ソニック ヒーローズ aranel respirte thinking cryo skubi cptsqbany wispy -_ascended_- ascended -ascended- bloxi
BeatmapID:4063074
BeatmapSetID:1960602

[Difficulty]
HPDrainRate:5
CircleSize:3.8
OverallDifficulty:8
ApproachRate:9.3
SliderMultiplier:2
SliderTickRate:1

[Events]
//Background and Video events
Video,1170,"video.flv"
0,0,"bg.jpeg",0,0
//Break Periods
//Storyboard Layer 0 (Background)
//Storyboard Layer 1 (Fail)
//Storyboard Layer 2 (Pass)
//Storyboard Layer 3 (Foreground)
//Storyboard Layer 4 (Overlay)
//Storyboard Sound Samples

[TimingPoints]
1185,319.148936170213,4,2,3,70,1,0
5653,314.13612565445,4,2,3,70,1,0
6281,319.148936170213,4,2,3,85,1,0
6999,-100,4,2,3,5,0,0
7078,-100,4,2,3,85,0,0
8275,-100,4,2,3,5,0,0
8354,-100,4,2,3,85,0,0
8834,317.460317460317,4,2,3,85,1,0
10738,325.20325203252,4,2,3,85,1,0
11388,319.148936170213,4,2,3,85,1,0
12106,-100,4,2,3,5,0,0
12185,-100,4,2,3,85,0,0
13382,-100,4,2,3,5,0,0
13461,-100,4,2,3,85,0,0
13941,317.208564631245,4,2,3,85,1,0
15289,-100,4,2,3,5,0,0
15368,-100,4,2,3,85,0,0
16478,320,4,2,3,85,1,0
16478,-111.111111111111,4,2,3,85,0,0
17758,323.188796121734,4,2,3,85,1,0
17758,-133.333333333333,4,2,3,85,0,0
19050,320,4,2,3,85,1,0
19050,-133.333333333333,4,2,3,85,0,0
20570,-133.333333333333,4,2,3,5,0,0
20650,-133.333333333333,4,2,3,85,0,0
22890,318.386840010613,4,2,3,85,1,0
22890,-117.647058823529,4,2,3,85,0,0
23128,-117.647058823529,4,2,3,5,0,0
23208,-133.333333333333,4,2,3,85,0,0
25432,-100,4,2,3,85,0,0
25675,-133.333333333333,4,2,3,5,0,0
25755,-133.333333333333,4,2,3,85,0,0
25911,-105.263157894737,4,2,3,85,0,0
27187,-100,4,2,3,85,0,0
27427,-133.333333333333,4,2,3,5,0,0
27507,-133.333333333333,4,2,3,85,0,0
27665,-100,4,2,3,85,0,0
27984,320,4,2,3,85,1,0
27985,-133.333333333333,4,2,3,85,0,0
33104,317.460317460317,4,2,3,85,1,0
33104,-133.333333333333,4,2,3,85,0,0
33969,-100,4,2,3,85,0,0
34294,-100,4,2,3,5,0,0
34373,-100,4,2,3,85,0,0
35088,-100,4,2,3,5,0,0
35167,-100,4,2,3,85,0,0
35643,319.148936170213,4,2,3,85,1,0
36839,-100,4,2,3,5,0,0
36921,-90.9090909090909,4,2,3,85,0,0
37398,-111.111111111111,4,2,3,85,0,0
37637,-111.111111111111,4,2,3,5,0,0
37717,-111.111111111111,4,2,3,85,0,0
38196,315.789473684211,4,2,3,85,1,0
38198,-181.818181818181,4,2,3,85,0,0
39143,-80,4,2,3,85,0,0
39459,322.58064516129,4,2,3,85,1,0
39459,-100,4,2,3,85,0,0
39700,-100,4,2,3,5,0,0
39781,-100,4,2,3,85,0,0
39942,-181.818181818181,4,2,3,85,0,0
40184,-100,4,2,3,5,0,0
40265,-100,4,2,3,85,0,0
40426,-80,4,2,3,85,0,0
40749,319.148936170213,4,2,3,85,1,0
40751,-181.818181818181,4,2,3,85,0,0
41706,-80,4,2,3,85,0,0
42025,-100,4,2,3,85,0,0
42264,-100,4,2,3,5,0,0
42345,-100,4,2,3,85,0,0
42504,-181.818181818181,4,2,3,85,0,0
42985,-80,4,2,3,85,0,0
43302,317.460317460317,4,2,3,85,1,0
43304,-181.818181818181,4,2,3,85,0,0
44254,-80,4,2,3,85,0,0
44571,-100,4,2,3,85,0,0
44809,-100,4,2,3,5,0,0
44890,-100,4,2,3,85,0,0
45048,-125,4,2,3,85,0,0
46952,-181.818181818182,4,2,3,85,0,0
47111,324.675324675325,4,2,3,85,1,0
47192,-181.818181818182,4,2,3,5,0,0
47273,-181.818181818182,4,2,3,85,0,0
47516,-181.818181818182,4,2,3,5,0,0
47598,-181.818181818182,4,2,3,85,0,0
47841,-181.818181818182,4,2,3,5,0,0
47922,-181.818181818182,4,2,3,85,0,0
48409,319.148936170213,4,2,3,100,1,1
48411,-90.9090909090909,4,2,3,100,0,1
49605,-90.9090909090909,4,2,3,5,0,1
49685,-90.9090909090909,4,2,3,100,0,1
52159,-90.9090909090909,4,2,3,5,0,1
52238,-100,4,2,3,100,0,1
55510,-100,4,2,3,5,0,1
55590,-100,4,2,3,100,0,1
56068,-90.9090909090909,4,2,3,100,0,1
56307,-100,4,2,3,5,0,1
56387,-90.9090909090909,4,2,3,100,0,1
57903,-90.9090909090909,4,2,3,5,0,1
57983,-142.857142857143,4,2,3,100,0,1
58302,-111.111111111111,4,2,3,100,0,1
58624,-90.9090909090909,4,2,3,100,0,1
59818,-90.9090909090909,4,2,3,5,0,1
59898,-90.9090909090909,4,2,3,100,0,1
62372,-90.9090909090909,4,2,3,5,0,1
62451,-100,4,2,3,100,0,1
63728,-90.9090909090909,4,2,3,100,0,1
64685,-100,4,2,3,100,0,1
65004,-90.9090909090909,4,2,3,100,0,1
65244,-90.9090909090909,4,2,3,5,0,1
65323,-90.9090909090909,4,2,3,100,0,1
65483,-100,4,2,3,100,0,1
65723,-100,4,2,3,100,0,1
65804,-90.9090909090909,4,2,3,100,0,1
66201,-90.9090909090909,4,2,3,5,0,1
66281,314.96062992126,4,2,3,100,1,1
66281,-90.9090909090909,4,2,3,100,0,1
66517,-90.9090909090909,4,2,3,5,0,1
66520,-100,4,2,3,100,0,1
66595,-90.9090909090909,4,2,3,100,0,1
67383,-83.3333333333333,4,2,3,100,0,1
67777,-83.3333333333333,4,2,3,5,0,1
67855,-83.3333333333333,4,2,3,100,0,1
68170,-76.9230769230769,4,2,3,100,0,1
68800,328.083989501312,4,2,3,100,1,0
68832,-90.9090909090909,4,2,3,100,0,0
70112,319.148936170213,4,2,3,100,1,0
70587,-100,4,2,3,100,0,0
72661,-83.3333333333333,4,2,3,100,0,0
73383,-83.3333333333333,4,2,3,5,0,0
73463,-83.3333333333333,4,2,3,100,0,0
73941,319.148936170213,4,2,3,100,1,0
73941,-90.9090909090909,4,2,3,100,0,0
74180,-83.3333333333333,4,2,3,5,0,0
74260,-90.9090909090909,4,2,3,100,0,0
74659,-83.3333333333333,4,2,3,5,0,0
74739,-90.9090909090909,4,2,3,100,0,0
74895,-83.3333333333333,4,2,3,100,0,0
75214,-90.9090909090909,4,2,3,100,0,0
75456,-83.3333333333333,4,2,3,5,0,0
75536,-90.9090909090909,4,2,3,100,0,0
75935,-83.3333333333333,4,2,3,5,0,0
76015,-90.9090909090909,4,2,3,100,0,0
76172,-83.3333333333333,4,2,3,100,0,0
76491,-81.9672131147541,4,2,3,100,0,0
76733,-83.3333333333333,4,2,3,5,0,0
76813,-90.9090909090909,4,2,3,100,0,0
77770,313.31592689295,4,2,3,100,1,0
77770,-76.9230769230769,4,2,3,100,0,0
78004,-83.3333333333333,4,2,3,5,0,0
78084,-90.9090909090909,4,2,3,100,0,0
78396,326.086956521739,4,2,3,100,1,0
79048,317.460317460317,4,2,3,100,1,0
79048,-100,4,2,3,100,0,0
80159,-90.9090909090909,4,2,3,100,0,0
81587,322.58064516129,4,2,3,100,1,0
81667,-83.3333333333333,4,2,3,5,0,0
81747,-90.9090909090909,4,2,3,100,0,0
81748,-100,4,2,3,100,0,0
82151,-83.3333333333333,4,2,3,5,0,0
82231,-90.9090909090909,4,2,3,100,0,0
82554,-100,4,2,3,100,0,0
82635,-83.3333333333333,4,2,3,5,0,0
82716,-113.378684807256,4,2,3,100,0,0
82877,338.028169014084,4,2,3,100,1,0
91327,-100,4,2,3,5,0,0

[Colours]
Combo1 : 255,192,0
Combo2 : 255,0,0
Combo3 : 0,0,255
SliderTrackOverride : 0,0,0

[HitObjects]
442,368,5653,5,8,0:2:0:0:
444,344,5731,1,8,0:2:0:0:
445,319,5810,1,8,0:2:0:0:
446,294,5888,1,8,0:2:0:0:
446,269,5967,1,8,0:2:0:0:
446,244,6045,1,8,0:2:0:0:
445,219,6124,1,8,0:2:0:0:
443,194,6202,1,8,0:2:0:0:
440,169,6281,5,6,3:2:0:0:
338,27,6440,1,2,0:2:0:0:
512,11,6600,1,10,0:2:0:0:
310,142,6759,6,0,B|233:136|254:100|171:90,1,150,2|0,0:2|0:2,0:0:0:0:
111,43,7078,1,2,3:2:0:0:
0,221,7238,2,0,B|59:211|36:192|98:182,1,100,10|0,0:2|0:2,0:0:0:0:
302,52,7557,5,2,3:2:0:0:
242,250,7717,1,2,0:2:0:0:
176,175,7876,1,10,0:2:0:0:
368,215,8036,6,0,P|368:269|335:364,1,150,2|0,0:2|0:2,0:0:0:0:
266,384,8355,1,2,3:2:0:0:
142,281,8515,2,0,P|142:246|163:184,1,100,10|0,0:2|0:2,0:0:0:0:
311,41,8834,6,0,P|413:67|504:92,2,200,2|10|2,3:2|0:2|3:2,0:0:0:0:
171,90,9627,1,2,0:2:0:0:
324,154,9786,1,10,0:2:0:0:
64,206,9945,6,0,P|116:194|161:185,1,100,6|0,3:2|0:2,0:0:0:0:
427,300,10261,5,2,3:2:0:0:
257,242,10421,1,8,0:2:0:0:
511,178,10580,1,2,3:2:0:0:
315,378,10738,5,10,0:2:0:0:
315,378,11063,1,10,0:2:0:0:
315,378,11388,5,6,3:2:0:0:
127,349,11547,1,2,0:2:0:0:
156,161,11707,1,10,0:2:0:0:
343,190,11866,2,0,B|263:214|276:246|204:269,1,150,2|0,0:2|0:2,0:0:0:0:
139,265,12185,1,2,3:2:0:0:
254,119,12345,2,0,P|248:69|237:20,1,100,10|0,0:2|0:2,0:0:0:0:
17,120,12664,5,2,3:2:0:0:
146,170,12824,1,2,0:2:0:0:
56,0,12983,1,10,0:2:0:0:
29,220,13143,6,0,P|42:293|74:361,1,150,2|0,0:2|0:2,0:0:0:0:
146,384,13462,1,2,0:2:0:0:
222,190,13622,2,0,P|243:235|253:285,1,100,10|0,0:2|0:2,0:0:0:0:
403,381,13941,5,2,3:2:0:0:
488,103,14258,1,10,0:2:0:0:
222,190,14575,5,2,3:2:0:0:
362,296,14734,1,2,0:2:0:0:
317,64,14892,1,10,0:2:0:0:
512,235,15051,6,0,P|438:218|369:190,1,150,6|0,3:2|0:2,0:0:0:0:
301,154,15368,5,0,3:2:0:0:
156,66,15527,1,8,0:2:0:0:
253,285,15685,1,0,3:2:0:0:
425,43,15844,5,10,0:2:0:0:
425,43,16161,1,10,0:2:0:0:
425,43,16478,1,10,0:2:0:0:
215,125,16638,6,0,P|257:138|300:153,1,89.9999972534181,2|0,3:2|0:2,0:0:0:0:
511,234,16958,2,0,P|468:249|426:263,1,89.9999972534181,2|0,3:2|0:2,0:0:0:0:
270,380,17278,5,8,0:2:0:0:
238,380,17358,1,8,0:2:0:0:
209,366,17438,1,8,0:2:0:0:
189,341,17518,1,8,0:2:0:0:
185,309,17598,1,8,0:2:0:0:
193,278,17678,1,8,0:2:0:0:
213,249,17758,6,0,B|297:262|267:302|343:321,2,150.000005722046,2|10|2,3:2|0:2|3:2,0:0:0:0:
158,192,18565,1,0,3:2:0:0:
15,281,18727,1,10,0:2:0:0:
36,170,18889,2,0,P|20:210|13:245,1,75.0000028610231,2|0,0:2|3:2,0:0:0:0:
104,370,19210,2,0,P|120:330|127:295,1,75.0000028610231,2|10,3:2|0:2,0:0:0:0:
281,142,19530,5,2,0:2:0:0:
231,19,19690,1,0,3:2:0:0:
108,69,19850,1,0,3:2:0:0:
158,192,20010,1,10,0:2:0:0:
158,192,20170,1,0,3:2:0:0:
158,192,20330,6,0,P|222:220|266:235,1,112.500004291535,2|0,3:2|0:2,0:0:0:0:
267,245,20650,1,10,0:2:0:0:
371,161,20810,2,0,P|364:124|354:89,1,75.0000028610231,2|0,0:2|3:2,0:0:0:0:
404,27,21130,5,2,3:2:0:0:
343,240,21290,1,8,0:2:0:0:
465,266,21450,2,0,P|471:229|482:193,1,75.0000028610231,2|0,0:2|3:2,0:0:0:0:
354,89,21770,2,0,P|347:125|336:161,1,75.0000028610231,2|8,3:2|0:2,0:0:0:0:
272,205,22090,1,2,0:2:0:0:
390,308,22250,5,0,3:2:0:0:
390,308,22410,1,0,3:2:0:0:
177,378,22570,1,10,0:2:0:0:
205,303,22730,5,0,3:2:0:0:
334,369,22890,2,0,P|345:316|338:229,1,127.50000243187,6|0,3:2|0:2,0:0:0:0:
346,235,23208,1,10,0:2:0:0:
191,224,23367,6,0,P|157:242|116:271,1,75.0000028610231,2|0,0:2|3:2,0:0:0:0:
325,146,23685,2,0,P|361:152|397:164,1,75.0000028610231,2|10,3:2|0:2,0:0:0:0:
131,97,24004,1,2,0:2:0:0:
261,0,24163,5,2,3:2:0:0:
191,224,24322,2,0,P|203:186|213:135,1,75.0000028610231,2|8,0:2|0:2,0:0:0:0:
389,41,24641,2,0,B|317:37|319:91|232:82,1,150.000005722046,2|0,0:2|3:2,0:0:0:0:
121,186,25118,1,10,0:2:0:0:
191,224,25277,1,0,3:2:0:0:
1,41,25437,6,0,P|78:50|140:115,1,150,2|0,3:2|0:2,0:0:0:0:
138,106,25755,1,10,0:2:0:0:
67,272,25914,2,0,P|47:225|33:170,1,94.9999974632264,2|0,0:2|3:2,0:0:0:0:
244,163,26233,2,0,P|224:255|194:345,1,189.999994926453,2|2,3:2|0:2,0:0:0:0:
67,272,26710,5,4,3:2:0:0:
244,163,26869,2,0,P|284:138|338:109,1,94.9999974632264,2|8,0:2|0:2,0:0:0:0:
482,352,27188,6,0,B|410:337|426:287|337:276,1,150,6|0,3:2|0:2,0:0:0:0:
306,262,27506,1,4,0:3:0:0:
131,209,27665,2,0,P|84:194|34:183,1,100,10|0,0:2|0:2,0:0:0:0:
258,0,27984,5,6,3:2:0:0:
258,0,28304,1,10,0:2:0:0:
311,93,28464,1,2,0:2:0:0:
218,146,28624,1,2,3:2:0:0:
165,53,28784,2,0,P|202:29|230:14,1,75.0000028610231,2|10,3:2|0:2,0:0:0:0:
323,103,29104,6,0,B|403:115|389:152|472:163,1,150.000005722046,2|2,0:2|3:2,0:0:0:0:
512,103,29584,1,8,0:2:0:0:
408,184,29744,1,2,0:2:0:0:
389,7,29904,5,0,3:2:0:0:
325,193,30064,1,0,3:2:0:0:
199,0,30224,2,0,P|197:36|202:74,1,75.0000028610231,8|0,0:2|0:2,0:0:0:0:
325,193,30544,6,0,P|328:118|320:43,1,150.000005722046,2|10,3:2|0:2,0:0:0:0:
207,171,31024,2,0,L|110:133,1,75.0000028610231,2|0,0:2|3:2,0:0:0:0:
295,287,31344,1,2,3:2:0:0:
396,262,31504,1,8,0:2:0:0:
234,379,31664,2,0,L|156:352,1,75.0000028610231,2|0,0:2|3:2,0:0:0:0:
325,193,31984,5,2,3:2:0:0:
362,344,32144,1,8,0:2:0:0:
505,302,32304,1,2,0:2:0:0:
470,158,32464,1,0,3:2:0:0:
325,193,32624,1,0,3:2:0:0:
362,344,32784,2,0,P|376:309|385:273,1,75.0000028610231,8|0,0:2|0:2,0:0:0:0:
257,119,33104,6,0,P|183:136|104:168,1,150.000005722046,2|10,3:2|0:2,0:0:0:0:
2,56,33580,2,0,P|47:70|95:93,1,75.0000028610231,2|0,0:2|3:2,0:0:0:0:
191,174,33897,1,2,3:2:0:0:
0,314,34056,6,0,B|13:252|13:252|6:230|6:230|23:160,1,150,14|0,0:2|0:2,0:0:0:0:
17,157,34373,1,4,3:2:0:0:
188,362,34532,6,0,P|177:312|173:264,1,100,2|8,3:2|0:2,0:0:0:0:
329,64,34850,2,0,P|344:148|347:216,1,150,6|0,3:2|0:2,0:0:0:0:
347,212,35167,5,2,3:2:0:0:
173,264,35326,1,10,0:2:0:0:
401,304,35484,5,2,3:2:0:0:
117,195,35643,2,0,P|103:126|100:-4,1,200,6|10,3:2|0:2,0:0:0:0:
238,22,36121,2,0,B|294:38|282:50|331:64,1,100,2|0,0:2|3:2,0:0:0:0:
398,25,36440,1,2,3:2:0:0:
252,133,36600,2,0,B|182:152|200:170|116:194,1,150,8|0,0:2|0:2,0:0:0:0:
45,168,36919,5,6,3:2:0:0:
252,226,37079,1,2,3:2:0:0:
132,297,37238,1,8,0:2:0:0:
322,180,37398,6,0,P|386:202|460:233,1,134.999995880127,6|0,3:2|0:2,0:0:0:0:
448,227,37717,1,0,3:2:0:0:
218,335,37877,6,0,P|258:316|302:304,1,89.9999972534181,8|0,0:2|0:2,0:0:0:0:
510,177,38196,5,2,3:2:0:0:
510,177,38353,1,0,3:2:0:0:
475,44,38511,2,0,P|482:76|489:104,1,55.0000016784668,8|0,0:2|0:2,0:0:0:0:
321,199,38827,5,2,3:2:0:0:
321,199,38985,1,0,3:2:0:0:
371,0,39143,2,0,P|364:32|341:131,1,125,12|2,0:2|0:2,0:0:0:0:
407,329,39459,6,0,P|436:262|411:193,1,150,2|0,3:2|0:2,0:0:0:0:
403,187,39781,1,10,0:2:0:0:
252,26,39942,2,0,P|262:81|269:109,1,82.5000025177003,2|0,3:2|0:2,0:0:0:0:
343,121,40265,5,2,3:2:0:0:
143,0,40426,2,0,P|136:32|113:131,1,125,14|0,0:2|0:2,0:0:0:0:
2,207,40749,5,2,3:2:0:0:
2,207,40908,1,0,3:2:0:0:
37,340,41068,2,0,P|30:308|23:280,1,55.0000016784668,8|0,0:2|0:2,0:0:0:0:
191,185,41387,5,2,3:2:0:0:
191,185,41546,1,0,3:2:0:0:
141,384,41706,2,0,P|148:352|171:253,1,125,12|2,0:2|0:2,0:0:0:0:
268,106,42025,6,0,B|354:120|345:143|423:155,1,150,2|0,3:2|0:2,0:0:0:0:
418,163,42344,1,10,0:2:0:0:
292,280,42504,2,0,B|236:295|239:313|185:326,1,110.000003356934,2|0,0:2|3:2,0:0:0:0:
69,296,42983,5,14,0:2:0:0:
256,334,43142,1,10,0:0:0:0:
443,372,43302,5,2,3:2:0:0:
443,372,43460,1,0,3:2:0:0:
512,260,43619,2,0,P|494:287|479:312,1,55.0000016784668,8|0,0:2|0:2,0:0:0:0:
338,356,43936,5,2,3:2:0:0:
338,356,44095,1,0,3:2:0:0:
382,145,44254,2,0,P|367:209|356:266,1,125,12|2,0:2|0:2,0:0:0:0:
200,381,44571,6,0,P|181:309|162:227,1,150,2|0,3:2|0:2,0:0:0:0:
150,229,44889,1,10,0:2:0:0:
293,60,45048,2,0,P|312:134|332:219,1,160,2|0,0:2|3:2,0:0:0:0:
77,183,45524,2,0,P|89:141|104:88,1,80,10|0,0:2|0:2,0:0:0:0:
261,0,45841,5,12,0:2:0:0:
288,111,46000,1,0,3:2:0:0:
446,81,46159,5,14,0:2:0:0:
331,215,46317,1,2,3:2:0:0:
512,249,46476,5,14,0:2:0:0:
272,322,46635,1,10,0:2:0:0:
205,72,46794,1,10,0:2:0:0:
465,1,46952,6,2,P|453:44|446:82,1,82.5000025177003,10|0,0:2|0:2,0:1:0:0:
288,111,47273,6,2,P|284:154|286:199,1,82.5000025177003,10|0,0:2|0:2,0:1:0:0:
110,224,47598,6,2,P|117:273|128:309,1,82.5000025177003,10|0,0:2|0:2,0:1:0:0:
0,384,47922,5,8,0:2:0:0:
43,376,48003,1,8,0:2:0:0:
83,358,48085,1,8,0:2:0:0:
122,341,48166,1,8,0:2:0:0:
163,320,48247,1,8,0:2:0:0:
202,303,48328,1,8,0:2:0:0:
242,295,48409,5,6,3:2:0:0:
372,339,48568,1,2,0:2:0:0:
502,383,48728,1,10,0:2:0:0:
366,322,48887,5,2,0:2:0:0:
335,237,49047,1,0,3:2:0:0:
304,152,49206,1,0,3:2:0:0:
352,337,49366,6,0,P|367:261|394:164,1,165.000005035401,10|0,0:2|0:2,0:0:0:0:
441,117,49685,5,2,3:2:0:0:
304,152,49845,1,2,0:3:0:0:
442,38,50004,5,8,0:2:0:0:
256,218,50164,1,2,0:3:0:0:
511,80,50323,5,0,3:2:0:0:
190,176,50483,1,2,0:3:0:0:
509,0,50643,5,8,0:2:0:0:
472,12,50722,1,0,3:2:0:0:
442,38,50802,1,0,3:2:0:0:
431,77,50882,1,0,3:2:0:0:
441,117,50962,5,6,3:2:0:0:
472,234,51121,1,2,0:2:0:0:
502,350,51281,1,10,0:2:0:0:
477,220,51440,5,2,0:2:0:0:
389,212,51600,1,0,3:2:0:0:
302,197,51760,1,0,3:2:0:0:
489,232,51919,6,0,B|410:251|417:287|329:302,1,165.000005035401,10|0,0:2|0:2,0:0:0:0:
284,353,52238,2,0,P|233:338|183:328,1,100,2|2,3:2|0:3,0:0:0:0:
1,234,52557,5,8,0:2:0:0:
168,173,52717,1,2,0:3:0:0:
36,56,52877,5,0,3:2:0:0:
175,183,53036,1,2,0:3:0:0:
239,2,53196,6,0,P|224:49|209:99,1,100,8|0,0:2|3:2,0:0:0:0:
1,234,53515,6,0,B|110:256|93:293|184:312,1,200,6|10,3:2|0:2,0:0:0:0:
306,383,53994,1,2,0:2:0:0:
395,358,54153,2,0,P|409:310|424:262,1,100,0|0,3:2|3:2,0:0:0:0:
253,170,54472,2,0,P|287:206|320:243,1,100,10|0,0:2|0:2,0:0:0:0:
512,325,54791,5,2,3:2:0:0:
486,141,54951,2,0,P|437:152|388:163,1,100,8|10,0:3|0:2,0:0:0:0:
195,49,55270,6,0,P|286:64|319:120,1,150,4|0,0:3|0:2,0:0:0:0:
315,107,55589,1,2,3:2:0:0:
191,234,55749,2,0,P|142:222|93:211,1,100,10|0,0:2|0:2,0:0:0:0:
446,0,56068,6,0,P|499:76|483:145,1,165.000005035401,6|0,3:2|0:2,0:0:0:0:
503,217,56387,1,10,0:2:0:0:
360,382,56547,2,0,P|290:282|311:193,1,220.000006713867,6|0,3:2|3:2,0:0:0:0:
407,88,57026,1,8,0:2:0:0:
506,336,57185,6,0,P|400:308|292:290,1,220.000006713867,4|0,3:2|3:2,0:0:0:0:
154,132,57664,2,0,P|91:181|83:261,1,165.000005035401,10|0,0:2|0:2,0:0:0:0:
31,318,57983,6,0,P|39:352|51:384,1,69.9999978637696,2|0,3:2|0:2,0:0:0:0:
291,289,58302,2,0,P|305:247|314:203,1,89.9999972534181,2|0,3:2|0:2,0:0:0:0:
27,3,58621,5,6,3:2:0:0:
55,132,58781,1,2,0:2:0:0:
83,261,58940,1,10,0:2:0:0:
285,61,59100,5,2,0:2:0:0:
234,138,59260,1,0,3:2:0:0:
183,217,59419,1,0,3:2:0:0:
291,289,59579,6,0,B|376:305|358:348|440:364,1,165.000005035401,10|0,0:2|0:2,0:0:0:0:
510,384,59898,5,2,3:2:0:0:
349,357,60057,1,2,0:3:0:0:
466,255,60217,5,8,0:2:0:0:
265,366,60377,1,2,0:3:0:0:
382,164,60536,5,0,3:2:0:0:
189,384,60696,1,2,0:3:0:0:
258,97,60855,5,8,0:2:0:0:
262,129,60935,1,0,3:2:0:0:
265,161,61015,1,0,3:2:0:0:
263,195,61095,1,0,3:2:0:0:
260,227,61174,5,6,3:2:0:0:
382,164,61334,1,2,0:2:0:0:
504,104,61494,1,10,0:2:0:0:
427,352,61653,5,2,0:2:0:0:
402,266,61813,1,0,3:2:0:0:
378,181,61972,1,0,3:2:0:0:
213,92,62132,6,0,B|304:114|284:152|362:167,1,165.000005035401,10|0,0:2|0:2,0:0:0:0:
419,115,62451,2,0,P|440:73|424:17,1,100,2|2,3:2|0:3,0:0:0:0:
210,188,62770,5,8,0:2:0:0:
269,361,62930,1,2,0:3:0:0:
357,166,63089,5,0,3:2:0:0:
278,374,63249,1,2,0:3:0:0:
510,309,63409,6,0,P|463:324|413:339,1,100,8|0,0:2|3:2,0:0:0:0:
210,188,63728,6,0,B|92:216|114:268|9:282,1,220.000006713867,6|8,3:2|0:2,0:0:0:0:
42,176,64206,1,2,0:2:0:0:
188,296,64366,2,0,P|201:237|210:187,1,110.000003356934,0|0,3:2|3:2,0:0:0:0:
61,77,64685,2,0,P|50:125|41:175,1,100,10|0,0:2|0:2,0:0:0:0:
324,230,65004,6,0,P|309:142|294:68,1,165.000005035401,2|0,3:2|0:2,0:0:0:0:
293,67,65323,1,8,0:2:0:0:
89,0,65483,2,0,P|106:98|129:195,1,200,2|0,0:2|3:2,0:0:0:0:
286,307,65962,2,0,B|375:328|355:365|432:377,1,165.000005035401,10|0,0:2|0:2,0:0:0:0:
433,378,66281,6,0,P|478:322|479:224,1,165.000005035401,6|0,3:2|0:2,0:0:0:0:
512,160,66595,1,10,0:2:0:0:
269,65,66753,2,0,P|211:136|210:261,1,220.000006713867,6|2,3:2|0:2,0:0:0:0:
176,378,67225,2,0,P|196:326|209:273,1,110.000003356934,10|6,0:2|3:2,0:0:0:0:
53,33,67540,6,0,P|20:120|-2:211,1,179.999994506836,2|0,3:2|0:2,0:0:0:0:
0,204,67855,6,0,B|69:219|41:230|119:250,1,119.999996337891,10|0,0:2|0:2,0:0:0:0:
179,90,68170,2,0,B|250:74|221:63|299:43,1,129.999994049073,10|0,0:2|3:2,0:0:0:0:
340,322,68485,1,8,0:2:0:0:
384,328,68564,1,8,0:2:0:0:
423,350,68643,1,8,0:2:0:0:
461,373,68721,1,8,0:2:0:0:
504,383,68800,5,6,3:2:0:0:
0,204,69128,5,14,0:2:0:0:
297,192,69292,2,0,P|186:180|68:192,1,220.000006713867,2|0,3:2|3:2,0:0:0:0:
309,196,69784,2,0,P|368:201|429:191,1,110.000003356934,10|0,0:2|0:2,0:0:0:0:
497,15,70112,5,2,3:2:0:0:
356,111,70271,1,2,0:2:0:0:
510,180,70431,1,10,0:2:0:0:
337,1,70590,2,0,P|313:98|310:198,1,200,2|0,3:2|3:2,0:0:0:0:
497,279,71069,2,0,P|508:230|510:180,1,100,10|0,0:2|0:2,0:0:0:0:
224,145,71388,5,2,3:2:0:0:
280,338,71548,1,2,0:2:0:0:
419,194,71707,1,10,0:2:0:0:
128,81,71867,2,0,P|136:169|171:286,1,200,2|0,3:2|3:2,0:0:0:0:
390,320,72346,2,0,P|380:261|366:222,1,100,10|0,0:2|0:2,0:0:0:0:
28,332,72665,5,6,3:2:0:0:
472,352,72984,1,10,0:2:0:0:
256,0,73143,6,0,P|250:108|261:228,1,179.999994506836,4|0,3:2|0:2,0:0:0:0:
254,179,73463,1,2,3:2:0:0:
254,384,73622,2,0,P|258:316|255:256,1,119.999996337891,14|0,0:2|0:2,0:0:0:0:
0,57,73941,6,0,B|91:74|71:109|159:130,1,165.000005035401,6|0,3:2|0:2,0:0:0:0:
157,140,74260,1,8,0:2:0:0:
31,325,74419,2,0,P|80:250|170:237,1,165.000005035401,2|0,3:2|0:2,0:0:0:0:
159,222,74738,1,0,3:2:0:0:
258,384,74898,2,0,P|254:316|257:256,1,119.999996337891,10|0,0:2|0:2,0:0:0:0:
452,145,75217,6,0,P|457:233|453:312,1,165.000005035401,2|0,3:2|0:2,0:0:0:0:
449,325,75536,1,8,0:2:0:0:
231,183,75696,2,0,P|320:188|377:260,1,165.000005035401,2|0,3:2|0:2,0:0:0:0:
368,256,76015,1,0,3:2:0:0:
406,43,76175,2,0,P|446:85|451:144,1,119.999996337891,10|0,0:2|0:1,0:0:0:0:
262,298,76494,6,0,B|167:315|188:351|97:373,1,182.999992460633,6|0,3:2|0:1,0:0:0:0:
84,384,76813,1,10,0:2:0:0:
36,116,76972,1,4,3:2:0:0:
235,163,77132,1,0,3:2:0:0:
198,357,77292,1,0,3:2:0:0:
0,332,77451,1,12,0:2:0:0:
120,236,77611,1,2,3:2:0:0:
321,383,77770,6,0,P|365:297|382:201,1,194.999991073609,6|0,3:2|0:2,0:0:0:0:
420,134,78083,1,8,0:2:0:0:
200,240,78239,1,2,0:2:0:0:
474,383,78396,5,6,3:2:0:0:
474,383,78722,1,6,3:2:0:0:
474,383,79048,1,0,3:2:0:0:
288,203,79206,6,0,P|310:249|332:306,1,100,10|0,0:2|0:2,0:0:0:0:
464,118,79524,2,0,P|413:114|352:104,1,100,8|0,0:2|0:2,0:0:0:0:
450,312,79841,2,0,P|478:269|517:221,1,100,8|0,0:2|0:2,0:0:0:0:
259,104,80159,6,0,P|155:138|122:266,1,220.000006713867,8|8,0:2|0:2,0:0:0:0:
272,384,80635,1,8,0:2:0:0:
388,208,80794,1,8,0:2:0:0:
26,220,80952,6,0,P|31:279|64:319,1,110.000003356934,8|0,0:2|3:2,0:0:0:0:
115,384,81190,1,0,3:2:0:0:
115,384,81270,1,14,0:2:0:0:
512,188,81587,6,0,L|444:196,1,50,2|0,3:2|0:2,0:0:0:0:
289,196,81748,2,0,L|396:209,1,100,10|0,0:2|0:2,0:0:0:0:
512,196,82070,6,0,L|444:188,1,50,2|0,3:2|0:2,0:0:0:0:
205,181,82232,2,0,L|316:167,1,110.000003356934,10|0,0:2|0:2,0:0:0:0:
512,188,82554,6,0,L|444:196,1,50,2|0,3:2|0:2,0:0:0:0:
29,198,82716,2,0,L|207:219,1,179.999994506836,10|0,0:2|3:0,0:0:0:0:
512,196,83215,5,6,3:2:0:0:
256,192,83299,12,0,91327,0:2:0:0:
