osu file format v14

[General]
AudioFilename: audio.mp3
AudioLeadIn: 0
PreviewTime: 94178
Countdown: 0
SampleSet: Soft
StackLeniency: 0.7
Mode: 0
LetterboxInBreaks: 0
WidescreenStoryboard: 1

[Editor]
Bookmarks: 4004,15166,17957,29120,40283,51445,62608,64004,75166,86329,89120,91910,94701,105864,117027,128190,129585,140748,151910,154701,157492,160283,171445,182608,193771,199352,200748,211910,223073,223771,234933,243305,246096,251677,257259,262840,265282,266852
DistanceSpacing: 1.2
BeatDivisor: 2
GridSize: 4
TimelineZoom: 1

[Metadata]
Title:Live & Learn
TitleUnicode:Live & Learn
Artist:Crush 40
ArtistUnicode:Crush 40
Creator:Project Railgun
Version:Easy
Source:Sonic Adventure 2
Tags:project_railgun
BeatmapID:1791957
BeatmapSetID:857660

[Difficulty]
HPDrainRate:2.4
CircleSize:2.6
OverallDifficulty:2.4
ApproachRate:3
SliderMultiplier:0.799999999999998
SliderTickRate:1

[Events]
//Background and Video events
0,0,"bg.jpg",0,0
//Break Periods
2,15366,16517
2,92110,93261
2,263040,263842
//Storyboard Layer 0 (Background)
//Storyboard Layer 1 (Fail)
//Storyboard Layer 2 (Pass)
//Storyboard Layer 3 (Foreground)
//Storyboard Sound Samples

[TimingPoints]
4004,348.837209302326,4,2,1,80,1,0
64004,-100,4,2,1,80,0,1
75123,-100,4,2,1,80,0,0
75166,-100,4,2,1,80,0,1
86329,-100,4,2,1,80,0,0
129585,-100,4,2,1,80,0,1
140704,-100,4,2,1,80,0,0
140748,-100,4,2,1,80,0,1
151910,-100,4,2,1,80,0,0
160283,-100,4,2,1,80,0,1
160326,-100,4,2,1,80,0,0
171445,-100,4,2,1,80,0,1
171489,-100,4,2,1,80,0,0
182608,-100,4,2,1,80,0,1
182652,-100,4,2,1,80,0,0
200748,-100,4,2,1,80,0,1
211867,-100,4,2,1,80,0,0
211910,-100,4,2,1,80,0,1
223073,-100,4,2,1,80,0,0
223771,348.837209302326,4,2,1,80,1,0
223771,-100,4,2,1,80,0,1
234890,-100,4,2,1,80,0,0
234933,-100,4,2,1,80,0,1
246052,-100,4,2,1,80,0,0
246096,-100,4,2,1,80,0,1
246140,-100,4,2,1,80,0,0

[Colours]
Combo1 : 51,166,221
Combo2 : 206,36,36
Combo3 : 41,80,169
Combo4 : 227,98,28

[HitObjects]
127,215,1387,6,0,P|257:35|381:219,1,519.999999999999,0|2,0:0|0:0,0:0:0:0:
336,304,4004,6,0,B|180:340|180:340|67:298,2,279.999999999999,4|2|0,0:0|0:0|0:0,0:0:0:0:
420,256,6794,2,0,P|464:147|428:34,1,239.999999999999,4|0,0:0|0:0,0:0:0:0:
336,8,8190,2,0,L|256:11,1,79.9999999999998,4|2,0:0|0:0,0:0:0:0:
200,88,8887,2,0,L|120:84,1,79.9999999999998,4|2,0:0|0:0,0:0:0:0:
51,152,9585,6,0,P|48:283|169:336,2,279.999999999999,4|2|0,0:0|0:0|0:0,0:0:0:0:
120,84,12376,2,0,B|196:56|196:56|352:85,1,239.999999999999,4|0,0:0|0:0,0:0:0:0:
440,128,13771,2,0,P|451:165|446:205,1,79.9999999999998,4|2,0:0|0:0,0:0:0:0:
376,272,14469,2,0,P|370:311|382:349,1,79.9999999999998,4|2,0:0|0:0,0:0:0:0:
476,376,15166,5,4,0:0:0:0:
104,336,17957,6,0,P|36:296|12:221,1,160,4|0,0:0|0:0,0:0:0:0:
48,132,19004,1,0,0:0:0:0:
128,76,19352,2,0,L|206:61,1,79.9999999999998,2|0,0:0|0:0,0:0:0:0:
305,61,20050,2,0,L|384:76,1,79.9999999999998
464,132,20748,6,0,P|481:188|470:247,1,120,4|0,0:0|0:0,0:0:0:0:
408,324,21620,1,0,0:0:0:0:
316,292,21969,2,0,B|256:276|256:316|198:298,1,120,2|0,0:0|0:0,0:0:0:0:
108,264,22841,2,0,P|100:225|106:185,1,79.9999999999998
156,104,23538,5,2,0:0:0:0:
231,44,23887,2,0,P|345:21|426:103,1,239.999999999999
472,188,25283,1,0,0:0:0:0:
392,240,25631,2,0,B|313:275|317:211|237:248,1,160,2|4,0:0|0:0,0:0:0:0:
168,316,26678,6,0,L|88:319,2,79.9999999999998,2|4|2,0:0|0:0|0:0,0:0:0:0:
256,356,27724,1,4,0:0:0:0:
336,300,28073,1,4,0:0:0:0:
416,244,28422,1,4,0:0:0:0:
328,68,29120,6,0,P|255:39|182:69,1,160,4|0,0:0|0:0,0:0:0:0:
128,148,30166,1,0,0:0:0:0:
140,244,30515,2,0,P|168:271|207:278,1,79.9999999999998,2|0,0:0|0:0,0:0:0:0:
304,278,31213,2,0,P|343:271|372:244,1,79.9999999999998
436,172,31910,6,0,L|426:52,1,120,2|0,0:0|0:0,0:0:0:0:
340,8,32783,1,0,0:0:0:0:
256,56,33131,2,0,B|197:79|197:35|139:58,1,120,2|0,0:0|0:0,0:0:0:0:
76,132,34004,2,0,P|67:170|77:208,1,79.9999999999998
132,288,34701,5,2,0:0:0:0:
212,340,35050,2,0,P|326:335|382:234,1,239.999999999999
348,144,36445,2,0,L|268:132,1,79.9999999999998,2|2,0:0|0:0,0:0:0:0:
196,72,37143,1,0,0:0:0:0:
272,12,37492,6,0,L|444:40,1,160,4|2,0:0|0:0,0:0:0:0:
347,212,38887,2,0,P|258:279|168:213,1,239.999999999999,4|0,0:0|0:0,0:0:0:0:
256,180,40283,5,4,0:0:0:0:
352,344,40980,2,0,P|427:325|461:255,2,160,2|2|0,0:0|0:0|0:0,0:0:0:0:
159,344,43073,2,0,P|84:325|50:255,1,160,4|2,0:0|0:0,0:0:0:0:
120,76,44469,2,0,L|239:85,2,120,4|2|0,0:0|0:0|0:0,0:0:0:0:
44,132,45864,5,4,0:0:0:0:
160,288,46562,2,0,P|115:349|39:338,2,160,2|2|0,0:0|0:0|0:0,0:0:0:0:
352,288,48655,2,0,P|416:355|498:311,1,199.999999999999,4|2,0:0|0:0,0:0:0:0:
503,215,49876,2,0,P|458:154|382:162,1,160,4|2,0:0|0:0,0:0:0:0:
256,232,51097,1,2,0:0:0:0:
196,156,51445,5,4,0:0:0:0:
352,43,52143,2,0,P|427:62|464:131,2,160,2|2|0,0:0|0:0|0:0,0:0:0:0:
159,44,54236,2,0,P|84:62|47:131,1,160,4|2,0:0|0:0,0:0:0:0:
124,308,55631,2,0,L|243:300,1,120,4|2,0:0|0:0,0:0:0:0:
424,360,56852,1,4,0:0:0:0:
492,232,57376,6,0,P|500:193|491:154,1,79.9999999999998,2|2,0:0|0:0,0:0:0:0:
432,80,58073,1,0,0:0:0:0:
344,36,58422,2,0,L|264:45,1,79.9999999999998,2|2,0:0|0:0,0:0:0:0:
196,112,59120,2,0,L|76:100,2,120,2|4|2,0:0|0:0|0:0,0:0:0:0:
272,172,60515,6,0,P|286:209|281:248,1,79.9999999999998,2|2,0:0|0:0,0:0:0:0:
216,320,61213,2,0,L|137:316,1,79.9999999999998,4|2,0:0|0:0,0:0:0:0:
48,280,61910,2,0,L|44:201,1,79.9999999999998,4|2,0:0|0:0,0:0:0:0:
80,108,62608,6,0,P|95:41|153:77,2,160,4|2|4,0:0|0:0|0:0,0:0:0:0:
148,296,64701,2,0,L|29:316,2,120,2|4|0,0:0|0:0|0:0,0:0:0:0:
220,232,66097,1,2,0:0:0:0:
284,304,66445,1,0,0:0:0:0:
344,228,66794,6,0,P|377:118|303:30,1,239.999999999999,4|0,0:0|0:0,0:0:0:0:
208,29,68190,2,0,P|134:117|168:228,1,239.999999999999,4|0,0:0|0:0,0:0:0:0:
248,280,69585,6,0,P|285:291|324:283,1,79.9999999999998,4|0,0:0|0:0,0:0:0:0:
396,216,70283,2,0,L|385:96,2,120,2|4|0,0:0|0:0|0:0,0:0:0:0:
404,312,71678,1,2,0:0:0:0:
320,360,72027,1,0,0:0:0:0:
256,288,72376,6,0,P|157:240|97:332,1,239.999999999999,4|0,0:0|0:0,0:0:0:0:
4,308,73771,2,0,L|12:212,1,79.9999999999998,4|2,0:0|0:0,0:0:0:0:
80,160,74469,2,0,L|72:64,1,79.9999999999998,4|2,0:0|0:0,0:0:0:0:
140,12,75166,5,4,0:0:0:0:
308,108,75864,2,0,L|427:95,2,120,2|4|0,0:0|0:0|0:0,0:0:0:0:
220,72,77259,1,2,0:0:0:0:
156,144,77608,1,0,0:0:0:0:
156,240,77957,6,0,P|256:295|356:239,1,239.999999999999,4|0,0:0|0:0,0:0:0:0:
356,144,79352,2,0,P|255:88|155:144,1,239.999999999999,4|0,0:0|0:0,0:0:0:0:
96,220,80748,6,0,L|105:299,1,79.9999999999998,4|0,0:0|0:0,0:0:0:0:
200,328,81446,2,0,P|255:307|311:327,2,120,2|4|0,0:0|0:0|0:0,0:0:0:0:
120,380,82841,1,2,0:0:0:0:
36,332,83190,1,0,0:0:0:0:
0,243,83538,6,0,P|35:140|142:163,1,239.999999999999,4|0,0:0|0:0,0:0:0:0:
196,244,84934,2,0,P|209:281|209:321,1,79.9999999999998,4|2,0:0|0:0,0:0:0:0:
303,321,85631,2,0,P|302:281|316:244,1,79.9999999999998,4|2,0:0|0:0,0:0:0:0:
396,188,86329,6,0,L|484:196,1,79.9999999999998,4|0,0:0|0:0,0:0:0:0:
504,104,87027,2,0,L|364:88,1,120,2|4,0:0|0:0,0:0:0:0:
256,28,88073,2,0,P|217:19|178:29,2,79.9999999999998,2|0|2,0:0|0:0|0:0,0:0:0:0:
352,64,89120,6,0,P|371:67|391:67,1,39.9999999999999,4|0,0:0|0:0,0:0:0:0:
168,344,90515,2,0,P|256:275|346:342,1,239.999999999999,2|0,0:0|0:0,0:0:0:0:
256,380,91910,1,4,0:0:0:0:
188,296,94701,6,0,P|256:330|324:293,1,160,4|0,0:0|0:0,0:0:0:0:
384,216,95748,1,0,0:0:0:0:
320,144,96097,2,0,P|305:107|304:67,1,79.9999999999998,2|0,0:0|0:0,0:0:0:0:
207,67,96794,2,0,P|206:107|192:144,1,79.9999999999998
108,196,97492,6,0,P|85:250|101:307,1,120,4|0,0:0|0:0,0:0:0:0:
168,376,98364,1,0,0:0:0:0:
256,336,98713,2,0,B|316:324|312:364|372:345,1,120,2|0,0:0|0:0,0:0:0:0:
464,311,99585,2,0,P|480:276|477:236,1,79.9999999999998
440,144,100283,6,0,P|386:90|313:112,1,160,4|0,0:0|0:0,0:0:0:0:
256,192,101329,1,2,0:0:0:0:
198,271,101678,2,0,P|125:293|72:240,1,160,4|0,0:0|0:0,0:0:0:0:
40,148,102724,1,2,0:0:0:0:
88,64,103073,6,0,B|172:40|164:96|243:73,1,160,4|0,0:0|0:0,0:0:0:0:
332,32,104120,1,2,0:0:0:0:
404,96,104469,2,0,P|421:211|345:299,1,239.999999999999,4|0,0:0|0:0,0:0:0:0:
256,264,105864,5,4,0:0:0:0:
171,91,106562,2,0,P|111:43|35:58,2,160,2|2|0,0:0|0:0|0:0,0:0:0:0:
356,100,108655,2,0,P|416:51|492:66,1,160,4|2,0:0|0:0,0:0:0:0:
380,224,110050,2,0,L|261:208,2,120,4|2|0,0:0|0:0|0:0,0:0:0:0:
440,148,111445,5,4,0:0:0:0:
352,320,112143,2,0,P|429:325|479:266,2,160,2|2|0,0:0|0:0|0:0,0:0:0:0:
159,320,114236,2,0,P|64:318|19:235,1,199.999999999999,4|2,0:0|0:0,0:0:0:0:
72,152,115457,2,0,P|152:156|194:221,1,160,4|2,0:0|0:0,0:0:0:0:
256,348,116678,1,2,0:0:0:0:
332,288,117027,5,4,0:0:0:0:
352,95,117724,2,0,P|425:71|488:115,2,160,2|2|0,0:0|0:0|0:0,0:0:0:0:
159,95,119817,2,0,P|86:71|23:115,1,160,4|2,0:0|0:0,0:0:0:0:
12,308,121213,2,0,L|131:319,1,120,4|2,0:0|0:0,0:0:0:0:
256,172,122434,1,4,0:0:0:0:
324,48,122957,6,0,P|360:32|400:30,1,79.9999999999998,2|2,0:0|0:0,0:0:0:0:
488,72,123655,1,0,0:0:0:0:
444,156,124004,2,0,L|438:235,1,79.9999999999998,2|2,0:0|0:0,0:0:0:0:
380,315,124701,2,0,P|435:299|481:335,2,120,2|4|2,0:0|0:0|0:0,0:0:0:0:
295,359,126097,6,0,P|257:367|218:359,1,79.9999999999998,2|2,0:0|0:0,0:0:0:0:
131,315,126794,2,0,P|93:306|54:316,2,79.9999999999998,4|2|4,0:0|0:0|0:0,0:0:0:0:
212,260,127841,1,2,0:0:0:0:
256,176,128190,6,0,L|245:96,3,79.9999999999998,2|2|2|2,0:0|0:0|0:0|0:0,0:0:0:0:
312,28,129585,5,4,0:0:0:0:
164,152,130283,2,0,P|106:156|59:121,2,120,2|4|0,0:0|0:0|0:0,0:0:0:0:
245,96,131678,1,2,0:0:0:0:
312,28,132027,1,0,0:0:0:0:
364,108,132376,6,0,P|386:220|304:301,1,239.999999999999,4|0,0:0|0:0,0:0:0:0:
207,301,133771,2,0,P|125:220|148:108,1,239.999999999999,4|0,0:0|0:0,0:0:0:0:
216,40,135166,6,0,L|295:43,1,79.9999999999998,4|0,0:0|0:0,0:0:0:0:
328,136,135864,2,2,L|452:124,2,120,2|4|0,0:0|0:0|0:0,0:0:0:0:
256,200,137259,1,2,0:0:0:0:
184,136,137608,1,0,0:0:0:0:
95,180,137957,6,0,P|67:289|162:350,1,239.999999999999,4|0,0:0|0:0,0:0:0:0:
232,283,139352,2,0,P|269:271|308:278,1,79.9999999999998,4|2,0:0|0:0,0:0:0:0:
372,352,140050,2,0,P|411:358|448:346,1,79.9999999999998,4|2,0:0|0:0,0:0:0:0:
512,268,140748,5,4,0:0:0:0:
388,119,141445,2,0,P|430:79|487:87,2,120,2|4|0,0:0|0:0|0:0,0:0:0:0:
324,192,142841,1,2,0:0:0:0:
256,124,143190,1,0,0:0:0:0:
187,192,143538,6,0,P|81:227|14:137,1,239.999999999999,4|0,0:0|0:0,0:0:0:0:
44,44,144934,2,0,P|150:8|217:98,1,239.999999999999,4|0,0:0|0:0,0:0:0:0:
268,180,146329,6,0,L|364:164,1,79.9999999999998,4|0,0:0|0:0,0:0:0:0:
392,84,147027,2,0,L|516:96,2,120,2|4|0,0:0|0:0|0:0,0:0:0:0:
320,20,148422,1,2,0:0:0:0:
256,92,148771,1,0,0:0:0:0:
192,20,149120,6,0,P|81:29|72:139,1,239.999999999999,4|0,0:0|0:0,0:0:0:0:
136,212,150515,2,0,P|167:235|206:241,1,79.9999999999998,4|2,0:0|0:0,0:0:0:0:
305,241,151213,2,0,P|344:235|375:212,1,79.9999999999998,4|2,0:0|0:0,0:0:0:0:
424,128,151910,6,0,L|412:36,1,79.9999999999998,4|0,0:0|0:0,0:0:0:0:
320,20,152608,2,0,P|265:43|207:32,1,120,2|4,0:0|0:0,0:0:0:0:
88,116,153655,2,0,P|76:153|83:192,2,79.9999999999998,2|0|2,0:0|0:0|0:0,0:0:0:0:
48,28,154701,6,0,P|28:31|8:32,1,39.9999999999999,4|0,0:0|0:0,0:0:0:0:
164,332,156097,2,0,P|255:267|347:332,1,239.999999999999,2|0,0:0|0:0,0:0:0:0:
436,296,157492,6,0,P|407:243|404:184,1,120,4|4,0:0|0:0,0:0:0:0:
499,16,158713,2,0,P|426:79|330:64,1,199.999999999999,4|0,0:0|0:0,0:0:0:0:
192,200,160283,6,0,P|256:159|321:199,1,160,4|0,0:0|0:0,0:0:0:0:
384,272,161329,1,0,0:0:0:0:
460,212,161678,2,0,L|469:132,1,79.9999999999998,2|0,0:0|0:0,0:0:0:0:
380,96,162376,2,0,L|370:16,1,79.9999999999998
280,52,163073,6,0,B|208:76|208:16|124:45,1,160,4|0,0:0|0:0,0:0:0:0:
64,120,164120,1,2,0:0:0:0:
19,208,164469,2,0,P|38:282|109:313,1,160,4|0,0:0|0:0,0:0:0:0:
192,264,165515,1,2,0:0:0:0:
256,192,165864,6,0,L|247:112,2,79.9999999999998,4|2|0,0:0|0:0|0:0,0:0:0:0:
320,264,166910,1,0,0:0:0:0:
396,204,167259,2,0,P|432:187|470:195,2,79.9999999999998,4|2|0,0:0|0:0|0:0,0:0:0:0:
336,128,168306,1,0,0:0:0:0:
254,70,168655,6,0,P|146:48|101:150,1,239.999999999999,4|0,0:0|0:0,0:0:0:0:
128,244,170050,2,0,L|212:264,1,79.9999999999998,4|2,0:0|0:0,0:0:0:0:
306,262,170748,2,0,L|384:244,1,79.9999999999998,4|2,0:0|0:0,0:0:0:0:
463,192,171445,6,0,P|493:119|468:45,1,160,4|0,0:0|0:0,0:0:0:0:
384,4,172492,1,2,0:0:0:0:
296,47,172841,2,0,P|257:56|217:48,1,79.9999999999998,4|0,0:0|0:0,0:0:0:0:
128,4,173538,1,0,0:0:0:0:
43,45,173887,6,0,P|18:119|48:192,1,160,2|0,0:0|0:0,0:0:0:0:
124,248,174934,2,0,L|203:240,1,79.9999999999998,0|2,0:0|0:0,0:0:0:0:
276,176,175631,2,0,P|352:172|395:236,1,160,4|0,0:0|0:0,0:0:0:0:
344,316,176678,1,2,0:0:0:0:
255,356,177027,6,0,P|217:365|181:350,1,79.9999999999998,4|0,0:0|0:0,0:0:0:0:
116,280,177724,2,0,P|106:241|121:205,1,79.9999999999998,2|0,0:0|0:0,0:0:0:0:
176,124,178422,2,0,B|256:92|256:160|330:127,1,160,4|0,0:0|0:0,0:0:0:0:
404,68,179469,1,2,0:0:0:0:
472,136,179817,6,0,P|491:212|462:285,1,160,4|0,0:0|0:0,0:0:0:0:
392,352,180864,1,2,0:0:0:0:
324,284,181213,2,0,P|255:248|189:287,1,160,4|0,0:0|0:0,0:0:0:0:
120,352,182259,1,2,0:0:0:0:
50,285,182608,6,0,L|60:116,1,160,4|0,0:0|0:0,0:0:0:0:
112,44,183655,1,2,0:0:0:0:
200,83,184004,2,0,P|255:103|310:84,2,120,4|2|2,0:0|0:0|0:0,0:0:0:0:
152,168,185399,6,0,P|255:220|359:169,1,239.999999999999,4|2,0:0|0:0,0:0:0:0:
436,112,186794,2,0,P|427:150|438:189,1,79.9999999999998,4|2,0:0|0:0,0:0:0:0:
484,276,187492,1,0,0:0:0:0:
416,344,187841,1,2,0:0:0:0:
332,296,188190,6,0,B|252:328|252:264|177:295,1,160,4|0,0:0|0:0,0:0:0:0:
96,344,189236,1,2,0:0:0:0:
28,276,189585,2,0,L|16:156,2,120,4|2|2,0:0|0:0|0:0,0:0:0:0:
116,316,190980,6,0,L|96:76,1,239.999999999999,4|2,0:0|0:0,0:0:0:0:
176,24,192376,2,0,P|192:60|222:85,1,79.9999999999998,4|2,0:0|0:0,0:0:0:0:
304,136,193073,1,0,0:0:0:0:
380,76,193422,1,2,0:0:0:0:
444,144,193771,6,0,P|467:198|455:255,2,120,4|2|2,0:0|0:0|0:0,0:0:0:0:
371,208,195166,2,0,P|318:233|259:227,2,120,4|2|2,0:0|0:0|0:0,0:0:0:0:
304,136,196562,6,0,L|311:16,2,120,4|2|2,0:0|0:0|0:0,0:0:0:0:
208,136,197957,2,0,L|201:56,1,79.9999999999998,4|2,0:0|0:0,0:0:0:0:
120,8,198655,2,0,L|40:14,1,79.9999999999998,4|2,0:0|0:0,0:0:0:0:
11,104,199352,6,0,P|8:143|22:181,1,79.9999999999998,2|0,0:0|0:0,0:0:0:0:
100,240,200050,2,0,P|139:243|177:229,1,79.9999999999998,2|0,0:0|0:0,0:0:0:0:
256,168,200748,5,4,0:0:0:0:
368,328,201445,2,0,L|487:313,2,120,2|4|0,0:0|0:0|0:0,0:0:0:0:
288,272,202841,1,2,0:0:0:0:
216,336,203190,1,0,0:0:0:0:
151,263,203538,6,0,P|132:149|207:59,1,239.999999999999,4|0,0:0|0:0,0:0:0:0:
304,59,204934,2,0,P|379:149|360:263,1,239.999999999999,4|0,0:0|0:0,0:0:0:0:
288,324,206329,6,0,P|248:327|210:317,1,79.9999999999998,4|0,0:0|0:0,0:0:0:0:
144,244,207027,2,2,L|25:262,2,120,2|4|0,0:0|0:0|0:0,0:0:0:0:
220,184,208422,1,2,0:0:0:0:
300,240,208771,1,0,0:0:0:0:
372,175,209120,6,0,P|377:65|269:39,1,239.999999999999,4|0,0:0|0:0,0:0:0:0:
184,84,210515,2,0,L|174:163,1,79.9999999999998,4|2,0:0|0:0,0:0:0:0:
88,208,211213,2,0,L|97:287,1,79.9999999999998,4|2,0:0|0:0,0:0:0:0:
36,360,211910,5,4,0:0:0:0:
200,259,212608,2,0,P|254:239|310:259,2,120,2|4|0,0:0|0:0|0:0,0:0:0:0:
124,316,214004,1,2,0:0:0:0:
76,232,214352,1,0,0:0:0:0:
148,168,214701,6,0,P|254:121|360:169,1,239.999999999999,4|0,0:0|0:0,0:0:0:0:
360,264,216097,2,0,P|254:312|147:265,1,239.999999999999,4|0,0:0|0:0,0:0:0:0:
84,192,217492,6,0,L|96:108,1,79.9999999999998,4|0,0:0|0:0,0:0:0:0:
180,64,218190,2,0,P|238:71|284:35,2,120,2|4|0,0:0|0:0|0:0,0:0:0:0:
104,4,219585,1,2,0:0:0:0:
28,64,219934,1,0,0:0:0:0:
12,160,220283,6,0,P|71:257|185:250,1,239.999999999999,4|0,0:0|0:0,0:0:0:0:
212,160,221678,2,0,L|204:80,1,79.9999999999998,4|2,0:0|0:0,0:0:0:0:
308,80,222376,2,0,L|300:160,1,79.9999999999998,4|2,0:0|0:0,0:0:0:0:
328,252,223073,6,0,P|363:267|402:258,1,79.9999999999998,2|4,0:0|0:0,0:0:0:0:
468,184,223771,5,4,0:0:0:0:
312,68,224468,2,0,P|256:48|200:67,2,120,2|4|0,0:0|0:0|0:0,0:0:0:0:
376,140,225864,1,2,0:0:0:0:
460,92,226212,1,0,0:0:0:0:
468,188,226561,6,0,P|418:293|306:325,1,239.999999999999,4|0,0:0|0:0,0:0:0:0:
206,324,227957,2,0,P|94:293|44:188,1,239.999999999999,4|0,0:0|0:0,0:0:0:0:
92,104,229352,6,0,L|171:93,1,79.9999999999998,4|0,0:0|0:0,0:0:0:0:
252,36,230050,2,0,L|392:44,2,120,2|4|0,0:0|0:0|0:0,0:0:0:0:
164,0,231445,1,2,0:0:0:0:
88,60,231794,1,0,0:0:0:0:
72,156,232143,6,0,P|147:241|256:207,1,239.999999999999,4|0,0:0|0:0,0:0:0:0:
328,140,233538,2,0,P|326:100|304:67,1,79.9999999999998,4|2,0:0|0:0,0:0:0:0:
207,67,234236,2,0,P|185:100|184:140,1,79.9999999999998,4|2,0:0|0:0,0:0:0:0:
256,208,234933,5,4,0:0:0:0:
392,72,235631,2,0,L|511:81,2,120,2|4|0,0:0|0:0|0:0,0:0:0:0:
316,12,237026,1,2,0:0:0:0:
256,88,237375,1,0,0:0:0:0:
194,10,237724,6,0,P|83:36|52:146,1,239.999999999999,4|0,0:0|0:0,0:0:0:0:
113,223,239119,2,0,P|224:197|255:87,1,239.999999999999,4|0,0:0|0:0,0:0:0:0:
316,12,240515,6,0,L|403:24,1,79.9999999999998,4|0,0:0|0:0,0:0:0:0:
468,88,241212,2,0,P|488:144|472:208,2,120,2|4|0,0:0|0:0|0:0,0:0:0:0:
392,148,242608,1,2,0:0:0:0:
330,72,242957,1,0,0:0:0:0:
256,136,243305,6,0,P|187:172|111:154,1,160,4|2,0:0|0:0,0:0:0:0:
256,292,244701,2,0,P|324:255|400:273,1,160,4|2,0:0|0:0,0:0:0:0:
507,115,246096,6,0,P|496:77|495:37,1,79.9999999999998,4|0,0:0|0:0,0:0:0:0:
400,16,246794,2,0,P|408:75|395:133,1,120,2|4,0:0|0:0,0:0:0:0:
295,236,247840,2,0,P|257:244|217:236,2,79.9999999999998,2|0|2,0:0|0:0|0:0,0:0:0:0:
380,280,248887,6,0,P|384:304|392:332,1,39.9999999999999,4|0,0:0|0:0,0:0:0:0:
168,40,250282,2,0,P|256:109|346:42,1,239.999999999999,2|0,0:0|0:0,0:0:0:0:
436,76,251677,6,0,P|428:114|438:152,1,79.9999999999998,4|0,0:0|0:0,0:0:0:0:
468,244,252375,2,0,P|400:244|352:200,2,120,2|4|0,0:0|0:0|0:0,0:0:0:0:
452,340,253771,2,0,L|292:346,1,160,2|4,0:0|0:0,0:0:0:0:
196,364,254817,6,0,L|104:355,2,79.9999999999998,2|0|2,0:0|0:0|0:0,0:0:0:0:
240,280,255864,2,0,P|242:240|228:203,1,79.9999999999998,4|2,0:0|0:0,0:0:0:0:
152,144,256561,2,0,P|112:141|75:155,1,79.9999999999998,4|2,0:0|0:0,0:0:0:0:
40,244,257259,5,4,0:0:0:0:
200,352,257957,2,0,P|255:371|311:352,2,120,2|4|0,0:0|0:0|0:0,0:0:0:0:
128,292,259352,2,0,L|116:128,1,160,2|4,0:0|0:0,0:0:0:0:
76,44,260398,6,0,P|36:39|0:55,2,79.9999999999998,2|0|2,0:0|0:0|0:0,0:0:0:0:
164,8,261445,2,0,L|243:14,1,79.9999999999998,4|2,0:0|0:0,0:0:0:0:
312,84,262143,2,0,L|391:77,1,79.9999999999998,4|2,0:0|0:0,0:0:0:0:
476,24,262840,5,4,0:0:0:0:
164,276,265282,6,0,P|256:340|349:275,1,239.999999999999,4|0,0:0|0:0,0:0:0:0:
380,184,266677,2,0,L|372:144,1,39.9999999999999,2|4,0:0|0:0,0:0:0:0:
