osu file format v14

[General]
AudioFilename: audio.mp3
AudioLeadIn: 0
PreviewTime: 72190
Countdown: 0
SampleSet: Soft
StackLeniency: 0.2
Mode: 0
LetterboxInBreaks: 1
WidescreenStoryboard: 0

[Editor]
DistanceSpacing: 1.3
BeatDivisor: 4
GridSize: 16
TimelineZoom: 1.076

[Metadata]
Title:I Am... All Of Me (Game Ver.)
TitleUnicode:I Am... All Of Me (Game Ver.)
Artist:Crush 40
ArtistUnicode:Crush 40
Creator:-Zeraora
Version:Widespread Pandemonium
Source:SHADOW THE HEDGEHOG
Tags:シャドウ・ザ・ヘッジホッグ op opening ORIGINAL SOUNDTRAX Jun Senoue Johnny Gioeli Takeshi Taneda Toru Kawamura WAVE MASTER WAVEMASTER INC. Sonic ソニックザヘッジホッグ ソニック ザ ヘッジホッグ ソニック・ザ・ヘッジホッグ SEGA intro LOST AND FOUND VOCAL TRAX Track オリジナル サウンドトラックス Microsoft Xbox Nintendo Gamecube GCN NGC Sony Playstation 2 PS2 Main Theme Short Version English Video Game Rock シャドウザヘッジホッグ シャドウ OFFICIAL SOUNDTRACK Penguiness Error- -Keitaro -Harpuia-
BeatmapID:1724365
BeatmapSetID:819347

[Difficulty]
HPDrainRate:6
CircleSize:4.2
OverallDifficulty:9
ApproachRate:9.3
SliderMultiplier:1.9
SliderTickRate:1

[Events]
//Background and Video events
0,0,"BG6.jpg",0,0
Video,1415,"shadow.mp4"
//Break Periods
//Storyboard Layer 0 (Background)
//Storyboard Layer 1 (Fail)
//Storyboard Layer 2 (Pass)
//Storyboard Layer 3 (Foreground)
//Storyboard Layer 4 (Overlay)
//Storyboard Sound Samples

[TimingPoints]
1149,314.96062992126,4,2,33,60,1,0
1149,-125,4,2,33,60,0,0
3038,319.148936170213,4,2,33,60,1,0
3676,315.374507227332,4,2,33,60,1,0
3676,-125,4,2,33,60,0,0
5568,317.460317460317,4,2,33,60,1,0
5568,-125,4,2,33,60,0,0
6202,315.789473684211,4,2,33,60,1,0
6202,-125,4,2,33,60,0,0
8096,318.302387267905,4,2,33,60,1,0
8732,315.789473684211,4,2,33,60,1,0
8732,-125,4,2,33,60,0,0
9995,314.13612565445,4,2,33,60,1,0
9995,-125,4,2,33,60,0,0
11251,317.460317460317,4,2,33,60,1,0
11251,-125,4,2,33,60,0,0
12838,315.789473684211,4,2,33,60,1,0
12838,-125,4,2,33,60,0,0
13153,317.460317460317,4,2,33,60,1,0
13153,-125,4,2,33,60,0,0
13787,314.13612565445,4,2,33,60,1,0
13787,-125,4,2,33,60,0,0
14729,309.278350515464,4,2,33,60,1,0
15038,309.278350515464,4,2,44,40,1,0
15038,-125,4,2,44,40,0,0
15347,-125,4,2,44,50,0,0
15656,-125,4,2,44,65,0,0
15965,-125,4,2,44,80,0,0
16120,324.324324324324,4,2,44,80,1,0
16120,-125,4,2,44,75,0,0
16282,324.324324324324,4,2,44,75,1,0
16444,-125,4,2,44,50,0,0
16606,-100,4,2,55,75,0,0
16930,315.789473684211,4,2,55,75,1,0
17561,314.13612565445,4,2,55,75,1,0
19131,319.148936170213,4,2,55,75,1,0
20088,315.789473684211,4,2,55,75,1,0
20719,309.278350515464,4,2,55,75,1,0
21182,-125,4,2,44,50,0,0
21646,320.855614973262,4,2,44,50,1,0
21646,-100,4,2,55,75,0,0
22608,314.96062992126,4,2,55,75,1,0
24182,319.148936170213,4,2,55,75,1,0
25139,322.58064516129,4,2,55,75,1,0
25784,285.714285714286,4,2,55,75,1,0
25926,319.148936170213,4,2,55,75,1,0
26245,-125,4,2,44,40,0,0
26723,315.789473684211,4,2,55,80,1,0
26723,-100,4,2,55,80,0,0
27038,-100,4,2,55,40,0,0
27354,-100,4,2,55,80,0,0
27670,310.880829015544,4,2,55,40,1,0
27670,-100,4,2,55,40,0,0
27980,-100,4,2,55,80,0,0
28291,-100,4,2,55,40,0,0
28447,-100,4,2,55,80,0,0
28758,326.086956521739,4,2,55,80,1,0
28758,-125,4,2,55,50,0,0
28921,326.086956521739,4,2,55,50,1,0
29247,315.789473684211,4,2,55,70,1,0
29247,-100,4,2,55,70,0,0
30194,315.789473684211,4,2,55,70,1,0
30825,312.5,4,2,55,70,1,0
31293,317.460317460317,4,2,55,70,1,0
31451,317.460317460317,4,2,55,70,1,0
32720,312.5,4,2,55,70,1,0
33813,326.086956521739,4,2,55,70,1,0
33976,326.086956521739,4,2,55,70,1,0
34302,314.13612565445,4,2,55,70,1,0
35244,314.13612565445,4,2,55,70,1,0
36343,327.868852459016,4,2,55,70,1,0
36506,327.868852459016,4,2,55,70,1,0
36833,314.13612565445,4,2,55,85,1,0
36833,-90.9090909090909,4,2,55,85,0,0
38089,300,4,2,55,85,1,0
38389,315.789473684211,4,2,55,85,1,0
38546,-66.6666666666667,4,2,55,80,0,0
38862,326.086956521739,4,2,55,80,1,0
38862,-125,4,2,55,80,0,0
39025,326.086956521739,4,2,55,80,1,0
39188,-125,4,2,55,50,0,0
39351,315.374507227332,4,2,55,80,1,0
39351,-100,4,2,55,80,0,0
40297,315.374507227332,4,2,55,80,1,0
43923,319.148936170213,4,2,55,80,1,0
44082,319.148936170213,4,2,55,80,1,0
45358,310.880829015544,4,2,55,80,1,0
46446,324.324324324324,4,2,55,80,1,0
46608,324.324324324324,4,2,55,80,1,0
46932,313.31592689295,4,2,55,80,1,0
47871,309.278350515464,4,2,55,80,1,0
47871,-100,4,2,55,80,0,0
48953,352.941176470588,4,2,55,80,1,0
49129,320.855614973262,4,2,55,80,1,0
49129,-125,4,2,33,50,0,0
50412,315.457413249211,4,2,33,50,1,0
50412,-125,4,2,33,50,0,0
52935,315.789473684211,4,2,33,50,1,0
52935,-125,4,2,33,50,0,0
55461,317.460317460317,4,2,33,50,1,0
55461,-125,4,2,33,50,0,0
56730,315.623356128354,4,2,33,50,1,0
56730,-125,4,2,33,50,0,0
59254,316.622691292876,4,2,33,40,1,0
59254,-111.111111111111,4,2,33,40,0,0
59570,-111.111111111111,4,2,33,60,0,0
61786,314.13612565445,4,2,33,60,1,0
61786,-111.111111111111,4,2,33,60,0,0
63042,315.789473684211,4,2,33,60,1,0
63042,-111.111111111111,4,2,33,60,0,0
66831,-111.111111111111,4,2,33,65,0,0
68094,-111.111111111111,4,2,33,70,0,0
68726,310.880829015544,4,2,33,75,1,0
68726,-90.9090909090909,4,2,33,75,0,0
69036,-71.4285714285714,4,2,44,80,0,0
69347,319.148936170213,4,2,55,50,1,0
69347,-71.4285714285714,4,2,55,50,0,0
69666,-71.4285714285714,4,2,55,90,0,0
69985,-71.4285714285714,4,2,55,50,0,0
70304,308.483290488432,4,2,55,90,1,0
70304,-71.4285714285714,4,2,55,90,0,0
70612,315.789473684211,4,2,55,50,1,0
70612,-71.4285714285714,4,2,55,50,0,0
70927,-71.4285714285714,4,2,55,90,0,0
71243,-71.4285714285714,4,2,55,50,0,0
71401,-71.4285714285714,4,2,55,90,0,0
71875,-71.4285714285714,4,2,55,50,0,0
72190,-83.3333333333333,4,2,55,90,0,1
73612,319.148936170213,4,2,55,90,1,1
73612,-83.3333333333333,4,2,55,90,0,1
74090,307.692307692308,4,2,55,90,1,1
74243,331.491712707182,4,2,55,90,1,1
74243,-83.3333333333333,4,2,55,90,0,1
74408,331.491712707182,4,2,55,90,1,1
74739,312.5,4,2,55,90,1,1
74739,-83.3333333333333,4,2,55,90,0,1
75676,303.030303030303,4,2,55,90,1,1
76130,317.460317460317,4,2,55,90,1,1
76130,-83.3333333333333,4,2,55,90,0,1
76288,317.460317460317,4,2,55,90,1,1
76764,326.086956521739,4,2,55,90,1,1
76764,-83.3333333333333,4,2,55,90,0,1
76927,326.086956521739,4,2,55,90,1,1
77253,-83.3333333333333,4,2,55,90,0,1
77579,306.122448979592,4,2,55,90,1,1
77579,-83.3333333333333,4,2,55,90,0,1
78038,320.855614973262,4,2,55,90,1,1
78038,-83.3333333333333,4,2,55,90,0,1
78198,320.855614973262,4,2,55,90,1,1
78358,-83.3333333333333,4,2,55,90,0,1
78518,314.13612565445,4,2,55,90,1,1
79303,-83.3333333333333,4,2,55,80,0,1
79460,317.460317460317,4,2,55,80,1,0
79460,-83.3333333333333,4,2,55,80,0,0
79618,-100,4,2,55,80,0,0
80094,315.789473684211,4,2,55,85,1,0
80094,-83.3333333333333,4,2,55,85,0,0
80409,-71.4285714285714,4,2,55,90,0,0
80725,315.789473684211,4,2,55,50,1,0
80725,-111.111111111111,4,2,55,50,0,0
81040,-83.3333333333333,4,2,55,90,0,1
81988,312.5,4,2,55,90,1,1
81988,-83.3333333333333,4,2,55,90,0,1
83550,326.086956521739,4,2,55,90,1,1
83550,-83.3333333333333,4,2,55,90,0,1
83876,315.789473684211,4,2,55,90,1,1
83876,-83.3333333333333,4,2,55,90,0,1
84507,315.789473684211,4,2,55,90,1,1
84507,-83.3333333333333,4,2,55,90,0,1
85612,322.58064516129,4,2,55,90,1,1
85612,-83.3333333333333,4,2,55,90,0,1
85773,322.58064516129,4,2,55,90,1,1
86095,314.13612565445,4,2,55,90,1,1
86095,-83.3333333333333,4,2,55,90,0,1
87037,314.13612565445,4,2,55,90,1,1
87665,315.789473684211,4,2,55,90,1,1
88138,-83.3333333333333,4,2,55,80,0,1
88296,-83.3333333333333,4,2,55,80,0,0
88454,322.58064516129,4,2,55,80,1,0
88454,-100,4,2,55,80,0,0
88615,322.58064516129,4,2,55,80,1,0
88937,-83.3333333333333,4,2,55,85,0,0
89260,315.789473684211,4,2,55,90,1,0
89260,-71.4285714285714,4,2,55,90,0,0
89575,-111.111111111111,4,2,55,90,0,0
89733,-111.111111111111,4,2,55,40,0,0
90207,307.692307692308,4,2,55,90,1,0
90207,-100,4,2,55,90,0,0
90668,322.58064516129,4,2,55,90,1,0
90829,322.58064516129,4,2,55,90,1,0
91474,310.880829015544,4,2,55,90,1,0
92095,314.96062992126,4,2,55,90,1,0
93669,320,4,2,55,90,1,0
93989,307.692307692308,4,2,55,90,1,0
94604,319.148936170213,4,2,55,90,1,0
96199,324.324324324324,4,2,55,90,1,0
96523,314.13612565445,4,2,55,90,1,0
97151,314.13612565445,4,2,55,90,1,0
98407,314.96062992126,4,2,55,90,1,0
99666,-100,4,2,55,50,0,0
99981,-100,4,2,55,80,0,0
100139,-100,4,2,55,50,0,0
100296,330.214639515685,4,2,55,90,1,0
100296,-100,4,2,55,90,0,0
100461,-100,4,2,55,70,0,0
100626,-100,4,2,55,80,0,0
100791,315.789473684211,4,2,55,100,1,0
100791,-180.18018018018,4,2,55,100,0,0
100869,-180.18018018018,4,2,55,5,0,0
100948,315.789473684211,4,2,55,5,1,0

[Colours]
Combo1 : 215,215,215
Combo2 : 238,92,92
Combo3 : 215,215,215
Combo4 : 238,172,92
SliderBorder : 255,105,35
SliderTrackOverride : 20,0,0

[HitObjects]
149,136,1149,6,0,L|73:142,1,75.8005249343831,6|0,0:0|0:0,0:0:0:0:
244,243,1463,2,0,L|168:236,1,75.8005249343831,2|0,0:0|0:0,0:0:0:0:
345,138,1778,2,0,B|335:192|335:192|352:228|352:228|342:284,1,151.601049868766,8|2,0:0|0:0,0:0:0:0:
257,349,2251,1,2,0:0:0:0:
442,306,2408,2,0,L|455:232,1,75.8005249343831,2|2,0:0|0:0,0:0:0:0:
298,121,2723,1,2,2:1:0:0:
334,252,2881,1,0,0:0:0:0:
509,107,3038,1,8,0:0:0:0:
509,107,3357,1,2,0:0:0:0:
509,107,3676,6,0,P|474:121|437:120,1,75.9001314060445,2|0,0:0|0:0,0:0:0:0:
280,23,3991,2,0,P|317:23|352:37,1,75.9001314060445,2|0,0:0|0:0,0:0:0:0:
298,121,4306,2,0,B|244:111|244:111|208:128|208:128|151:118,1,152,8|2,0:0|0:0,0:0:0:0:
33,23,4779,2,0,L|63:196,1,152,2|2,0:0|0:0,0:0:0:0:
18,271,5252,1,2,0:0:0:0:
18,271,5410,1,2,0:0:0:0:
215,255,5568,1,10,0:0:0:0:
94,190,5726,1,2,0:0:0:0:
189,363,5885,2,0,P|245:364|293:335,1,114.603174603174,2|0,0:0|0:0,0:0:0:0:
326,279,6202,6,0,L|332:358,1,76,6|0,0:0|0:0,0:0:0:0:
498,252,6517,2,0,L|491:327,1,76,2|0,0:0|0:0,0:0:0:0:
365,179,6833,2,0,B|311:169|311:169|275:186|275:186|218:176,1,152,8|2,0:0|0:0,0:0:0:0:
113,159,7307,1,2,0:0:0:0:
143,332,7465,2,0,P|153:295|150:258,1,76,2|2,0:0|0:0,0:0:0:0:
3,175,7780,1,2,2:1:0:0:
51,287,7938,1,0,0:0:0:0:
174,86,8096,1,8,0:0:0:0:
174,86,8414,1,2,0:0:0:0:
174,86,8732,6,0,P|209:100|246:99,1,76,2|0,0:0|0:0,0:0:0:0:
396,19,9047,2,0,P|358:17|323:31,1,76,2|0,0:0|0:0,0:0:0:0:
376,118,9363,2,0,B|386:171|386:171|369:207|369:207|379:265,1,152,8|2,0:0|0:0,0:0:0:0:
491,369,9837,2,0,B|451:341|451:341|349:359,1,152,2|2,0:0|0:0,0:0:0:0:
242,360,10309,1,2,0:0:0:0:
242,360,10466,1,2,0:0:0:0:
131,196,10623,1,10,0:0:0:0:
255,254,10780,1,2,0:0:0:0:
56,272,10937,2,0,P|27:224|27:168,1,114,2|0,0:0|0:0,0:0:0:0:
27,168,11251,6,0,L|70:104,1,76.4021164021162,6|0,0:0|0:0,0:0:0:0:
131,196,11568,2,0,L|206:182,1,76.4021164021162,2|0,0:0|0:0,0:0:0:0:
245,330,11885,2,0,P|218:303|183:288,1,76.4021164021162,8|0,0:0|0:0,0:0:0:0:
350,348,12203,2,0,P|350:310|336:274,1,76.4021164021162,2|0,0:0|0:0,0:0:0:0:
483,185,12520,2,0,P|469:220|469:258,1,76.4021164021162,2|0,0:0|0:0,0:0:0:0:
456,81,12838,2,0,P|421:96|394:123,1,76,2|0,0:0|0:0,0:0:0:0:
211,48,13153,2,0,L|322:57,1,76.4021164021162,10|0,0:0|0:0,0:0:0:0:
378,158,13470,2,0,L|302:164,1,76.4021164021162,2|0,0:0|0:0,0:0:0:0:
199,247,13787,5,2,0:0:0:0:
199,247,14101,1,2,0:0:0:0:
199,247,14415,2,0,B|216:223|216:223|247:283|216:341,1,152,14|2,0:0|0:0,0:0:0:0:
108,281,14883,1,0,0:0:0:0:
315,140,15038,5,12,0:0:0:0:
223,326,15192,1,8,0:0:0:0:
135,96,15347,5,8,0:0:0:0:
310,282,15501,1,8,0:0:0:0:
393,8,15656,5,12,0:0:0:0:
224,233,15811,1,8,0:0:0:0:
223,58,15965,1,8,0:0:0:0:
486,157,16120,6,0,B|496:213|496:213|478:249|478:249|488:302,1,152,4|2,1:2|0:0,0:0:0:0:
380,196,16606,5,10,1:2:0:0:
421,381,16768,1,2,0:0:0:0:
203,284,16930,2,0,L|313:264,1,95,2|0,1:2|1:2,0:0:0:0:
387,35,17245,1,8,0:0:0:0:
240,155,17403,1,2,0:0:0:0:
418,223,17561,1,2,1:2:0:0:
418,223,17718,1,0,1:2:0:0:
249,29,17875,1,10,0:0:0:0:
354,150,18032,1,0,0:0:0:0:
163,294,18189,1,2,1:2:0:0:
163,294,18346,1,2,0:0:0:0:
240,155,18503,1,8,1:2:0:0:
6,9,18660,6,0,L|39:198,1,190,6|0,1:2|1:2,0:0:0:0:
293,152,19131,2,0,L|276:245,1,95,10|0,0:0|0:0,0:0:0:0:
108,89,19450,2,0,L|124:182,1,95,2|0,1:2|1:2,0:0:0:0:
386,130,19769,2,0,L|369:223,1,95,10|0,0:0|0:0,0:0:0:0:
193,75,20088,1,2,1:2:0:0:
239,337,20245,1,2,1:2:0:0:
293,152,20403,1,8,0:0:0:0:
56,290,20561,2,0,L|39:197,1,95.6016666666667,2|8,0:0|1:2,0:0:0:0:
145,357,20873,2,0,P|154:286|219:242,1,142.5,6|0,1:2|0:0,0:0:0:0:
385,337,21182,6,0,B|331:346|331:346|296:327|296:327|239:336,1,152,4|2,1:2|0:0,0:0:0:0:
351,217,21646,5,10,1:2:0:0:
157,248,21806,1,2,0:0:0:0:
375,95,21966,1,2,1:2:0:0:
398,360,22127,1,2,1:2:0:0:
221,161,22287,1,8,0:0:0:0:
482,109,22448,1,2,0:0:0:0:
388,250,22608,1,2,1:2:0:0:
388,250,22765,1,0,1:2:0:0:
245,13,22922,1,10,0:0:0:0:
333,159,23080,1,0,0:0:0:0:
98,284,23237,1,2,1:2:0:0:
98,284,23395,1,2,1:2:0:0:
203,125,23552,1,8,0:0:0:0:
405,339,23710,6,0,L|381:148,1,189.501312335958,6|0,1:2|1:2,0:0:0:0:
265,347,24182,1,10,0:0:0:0:
367,175,24341,1,0,0:0:0:0:
265,347,24501,2,0,L|253:252,1,95,2|0,1:2|1:2,0:0:0:0:
510,284,24820,2,0,L|498:189,1,95,10|0,0:0|0:0,0:0:0:0:
385,367,25139,1,2,1:2:0:0:
352,102,25300,1,2,1:2:0:0:
239,279,25461,1,8,0:0:0:0:
95,33,25622,2,0,L|190:45,1,95,2|8,0:0|1:2,0:0:0:0:
35,122,25926,2,0,P|106:131|154:196,1,142.5,6|0,1:2|0:0,0:0:0:0:
58,364,26245,6,0,B|49:313|49:313|68:269|68:269|59:218,1,152,4|0,1:2|0:0,0:0:0:0:
339,313,26723,1,14,0:0:0:0:
339,313,27038,5,0,1:2:0:0:
371,97,27196,1,0,1:2:0:0:
143,325,27354,1,14,0:0:0:0:
143,325,27670,5,0,1:2:0:0:
291,177,27825,1,0,1:2:0:0:
6,86,27980,1,14,0:0:0:0:
6,86,28291,5,0,1:2:0:0:
233,313,28447,1,14,0:0:0:0:
317,3,28602,1,0,1:2:0:0:
95,155,28758,6,0,B|146:146|146:146|190:165|190:165|241:156,1,152,4|0,1:2|1:2,0:0:0:0:
356,41,29247,6,0,P|331:84|328:130,1,95,10|0,1:2|0:0,0:0:0:0:
502,246,29562,1,2,1:2:0:0:
443,116,29720,1,0,1:2:0:0:
266,249,29878,2,0,L|360:232,1,95,8|0,0:0|0:0,0:0:0:0:
482,352,30194,2,0,L|388:335,1,95,2|0,1:2|1:2,0:0:0:0:
229,370,30509,1,8,0:0:0:0:
405,225,30667,1,2,0:0:0:0:
191,145,30825,1,0,1:2:0:0:
277,269,30981,1,2,1:2:0:0:
383,33,31137,1,10,0:0:0:0:
322,168,31293,6,0,L|100:128,1,190,4|0,1:2|1:2,0:0:0:0:
3,274,31768,2,0,L|96:257,1,95,10|0,1:2|0:0,0:0:0:0:
312,298,32085,1,2,1:2:0:0:
221,187,32244,1,0,1:2:0:0:
436,227,32403,2,0,P|455:285|442:350,1,95,10|0,0:0|0:0,0:0:0:0:
317,144,32720,2,0,P|317:96|334:52,1,95,2|0,1:2|1:2,0:0:0:0:
458,124,33032,1,8,0:0:0:0:
234,85,33188,1,2,0:0:0:0:
312,298,33345,1,0,1:2:0:0:
354,162,33501,1,2,1:2:0:0:
88,259,33657,1,10,0:0:0:0:
232,366,33813,6,0,B|201:321|201:321|225:187,1,190,4|0,1:2|1:2,0:0:0:0:
80,53,34302,2,0,P|104:94|109:141,1,94.5026178010469,10|0,1:2|0:0,0:0:0:0:
72,347,34616,1,2,1:2:0:0:
12,217,34773,1,0,1:2:0:0:
208,350,34930,2,0,L|225:256,1,94.5026178010469,10|0,0:0|0:0,0:0:0:0:
385,152,35244,2,0,L|369:246,1,94.5026178010469,2|0,1:2|1:2,0:0:0:0:
418,369,35558,1,8,0:0:0:0:
236,216,35715,1,2,0:0:0:0:
460,137,35872,1,0,1:2:0:0:
380,265,36029,1,2,1:2:0:0:
291,14,36186,1,8,0:0:0:0:
342,157,36343,6,0,B|277:150|277:150|224:179|224:179|159:173,1,190,4|0,1:2|1:2,0:0:0:0:
99,67,36833,6,0,L|203:78,1,104.500003189087,10|0,1:2|0:0,0:0:0:0:
305,274,37147,2,0,L|201:264,1,104.500003189087,2|0,1:2|1:2,0:0:0:0:
31,160,37461,6,0,L|135:170,1,104.500003189087,10|0,0:0|0:0,0:0:0:0:
236,366,37775,2,0,L|130:355,1,104.500003189087,2|0,1:2|1:2,0:0:0:0:
353,154,38089,5,10,0:0:0:0:
173,261,38239,1,2,0:0:0:0:
173,261,38314,1,0,0:0:0:0:
173,261,38389,1,8,1:2:0:0:
466,298,38546,6,0,P|394:338|431:251,1,213.750008153916,6|0,1:2|0:0,0:0:0:0:
503,193,38862,6,0,P|441:144|342:162,1,152,4|0,1:2|1:2,0:0:0:0:
285,326,39351,6,0,L|297:232,1,95,10|0,0:0|0:0,0:0:0:0:
71,358,39666,2,0,L|59:263,1,94.8751642575556,2|2,1:2|1:2,0:0:0:0:
218,175,39981,2,0,L|206:269,1,94.8751642575556,10|0,0:0|0:0,0:0:0:0:
37,87,40297,1,2,1:2:0:0:
54,228,40454,1,0,1:2:0:0:
285,117,40612,1,8,0:0:0:0:
268,258,40770,1,0,0:0:0:0:
117,48,40927,1,2,1:2:0:0:
148,302,41085,1,2,1:2:0:0:
128,132,41243,1,8,0:0:0:0:
381,271,41400,6,0,P|332:350|241:368,1,190,6|0,1:2|1:2,0:0:0:0:
251,164,41873,2,0,L|268:258,1,94.8751642575556,10|0,1:2|0:0,0:0:0:0:
498,106,42189,2,0,L|481:199,1,94.8751642575556,2|2,1:2|1:2,0:0:0:0:
354,284,42504,2,0,L|337:190,1,94.8751642575556,10|0,0:0|0:0,0:0:0:0:
158,17,42819,1,2,1:2:0:0:
132,167,42977,1,0,1:2:0:0:
369,47,43135,1,8,0:0:0:0:
395,197,43293,1,0,0:0:0:0:
192,28,43450,1,2,1:2:0:0:
146,290,43608,1,2,1:2:0:0:
249,130,43766,1,8,0:0:0:0:
466,299,43923,6,0,B|402:311|402:311|348:287|348:287|284:299,1,190,6|0,1:2|1:2,0:0:0:0:
109,210,44401,2,0,B|158:235|158:235|292:212,1,190,10|2,1:2|1:2,0:0:0:0:
372,131,44879,1,2,1:2:0:0:
168,32,45039,2,0,L|184:125,1,95,10|0,0:0|0:0,0:0:0:0:
439,37,45358,2,0,P|487:120|433:230,1,190,6|10,1:2|0:0,0:0:0:0:
372,131,45824,1,0,0:0:0:0:
300,275,45979,1,2,1:2:0:0:
281,19,46135,1,10,1:2:0:0:
511,132,46290,1,10,0:0:0:0:
350,131,46446,1,8,1:2:0:0:
490,345,46608,6,0,P|399:323|315:364,1,190,6|8,0:0|1:2,0:0:0:0:
147,240,47088,1,0,0:0:0:0:
147,240,47245,2,0,P|237:261|321:220,1,190,2|10,1:2|0:0,0:0:0:0:
221,118,47715,1,0,1:2:0:0:
250,372,47871,5,10,0:0:0:0:
26,161,48025,1,10,0:0:0:0:
331,199,48180,1,10,0:0:0:0:
62,348,48334,1,10,0:0:0:0:
191,69,48489,1,10,0:0:0:0:
250,372,48644,1,10,0:0:0:0:
26,161,48798,1,10,0:0:0:0:
331,199,48953,1,10,0:0:0:0:
164,290,49129,5,4,0:0:0:0:
164,290,49449,2,0,L|259:278,1,76,2|0,2:1|0:0,0:0:0:0:
405,358,49770,2,0,P|410:283|366:223,1,152,10|0,2:1|0:0,0:0:0:0:
308,313,50251,1,0,2:1:0:0:
308,313,50412,1,0,2:1:0:0:
225,141,50569,2,0,L|405:118,1,151.840168243953,2|0,2:1|2:1,0:0:0:0:
442,233,51042,2,0,L|366:223,1,75.9200841219767,8|0,2:1|0:0,0:0:0:0:
247,54,51358,2,0,L|322:44,1,75.9200841219767,2|0,2:1|2:1,0:0:0:0:
209,158,51673,5,2,0:0:0:0:
209,158,51989,1,2,2:1:0:0:
330,143,52147,1,0,0:0:0:0:
124,94,52304,2,0,P|103:166|134:234,1,151.840168243953,10|0,0:0|0:0,0:0:0:0:
209,158,52777,1,0,0:0:0:0:
312,325,52935,2,0,L|217:341,1,76,2|0,0:0|0:0,0:0:0:0:
133,260,53250,2,0,L|207:246,1,76
312,351,53566,2,0,L|217:334,1,76,10|0,2:1|0:0,0:0:0:0:
133,233,53882,2,0,L|207:246,1,76,2|0,2:1|0:0,0:0:0:0:
46,345,54198,5,2,0:0:0:0:
46,345,54513,1,2,2:1:0:0:
112,261,54671,1,0,0:0:0:0:
0,116,54829,2,0,P|66:149|139:133,1,152,8|2,0:0|0:0,0:0:0:0:
80,35,55303,1,2,0:0:0:0:
246,95,55461,2,0,L|246:170,1,76.4021164021162,2|2,0:0|2:1,0:0:0:0:
139,133,55778,1,2,2:0:0:0:
139,133,56095,1,10,0:0:0:0:
224,204,56254,1,2,0:0:0:0:
246,95,56413,1,2,2:0:0:0:
314,276,56572,1,2,2:1:0:0:
355,62,56730,6,0,B|354:95|355:118|355:118|377:151|377:151|377:174|377:208,1,151.920042083114,2|0,0:0|0:0,0:0:0:0:
454,84,57203,1,2,2:1:0:0:
511,276,57361,2,0,P|450:231|376:235,1,151.920042083114,8|2,0:0|0:0,0:0:0:0:
418,341,57834,1,2,0:0:0:0:
265,254,57992,2,0,L|281:159,1,75.9600210415571,2|2,0:0|2:1,0:0:0:0:
132,279,58308,2,0,L|144:353,1,75.9600210415571,2|0,0:0|0:0,0:0:0:0:
36,203,58623,2,0,P|101:160|171:163,2,152,8|2|2,0:0|2:1|0:0,0:0:0:0:
36,203,59570,6,0,L|20:291,1,85.7255936675461,0|2,0:0|2:1,0:0:0:0:
145,362,59887,2,0,B|182:326|182:326|302:326,1,171.451187335092,8|0,0:0|0:0,0:0:0:0:
302,326,60520,1,2,0:0:0:0:
228,220,60678,1,2,0:0:0:0:
404,284,60837,2,0,P|412:325|404:367,1,85.7255936675461,2|0,2:1|0:0,0:0:0:0:
302,326,61153,2,0,P|293:284|301:242,1,85.7255936675461,8|0,0:0|0:0,0:0:0:0:
506,242,61470,2,0,P|481:206|446:183,1,85.7255936675461,2|0,2:1|0:0,0:0:0:0:
404,284,61786,5,2,0:0:0:0:
404,284,62100,1,2,0:0:0:0:
301,243,62257,1,2,2:1:0:0:
430,70,62414,2,0,L|345:80,1,85.0523560209423,10|0,2:1|0:0,0:0:0:0:
420,174,62728,2,0,L|504:163,1,85.0523560209423,2|0,2:0|0:0,0:0:0:0:
301,243,63042,2,0,B|269:202|269:202|150:188,1,171,2|0,2:1|0:0,0:0:0:0:
192,301,63515,1,0,0:0:0:0:
18,252,63673,2,0,L|7:167,1,85.5000000000001,10|0,0:0|0:0,0:0:0:0:
138,101,63989,2,0,L|127:186,1,85.5000000000001
108,357,64305,5,2,0:0:0:0:
108,357,64620,2,0,P|133:322|171:304,1,85.5000000000001,2|2,2:1|0:0,0:0:0:0:
354,382,64936,2,0,P|353:299|289:242,1,171,10|2,2:1|0:0,0:0:0:0:
260,341,65410,1,2,2:1:0:0:
319,153,65568,2,0,L|403:142,1,85.5000000000001,2|0,0:0|0:0,0:0:0:0:
479,267,65884,2,0,L|394:256,1,85.5000000000001,2|0,0:0|0:0,0:0:0:0:
199,231,66199,1,8,0:0:0:0:
199,231,66515,2,0,P|217:192|218:150,1,85.5000000000001,2|0,2:1|0:0,0:0:0:0:
39,235,66831,6,0,P|18:154|63:84,1,171,2|2,0:0|2:1,0:0:0:0:
116,168,67305,1,2,0:0:0:0:
189,23,67463,2,0,B|221:64|221:64|340:78,1,171,8|2,0:0|0:0,0:0:0:0:
278,181,67936,1,2,2:1:0:0:
451,109,68094,2,0,P|455:66|443:25,1,85.5000000000001,2|0,0:0|0:0,0:0:0:0:
372,186,68410,2,0,P|367:228|379:269,1,85.5000000000001,2|0,0:0|0:0,0:0:0:0:
450,360,68726,6,0,L|259:336,1,156.750004783631,10|0,2:1|0:0,0:0:0:0:
96,288,69036,6,0,P|124:353|145:273,1,199.499993911743,6|0,0:0|0:0,0:0:0:0:
16,240,69347,5,0,1:2:0:0:
16,240,69506,1,0,1:2:0:0:
243,49,69666,1,14,0:0:0:0:
295,340,69825,1,0,0:0:0:0:
112,167,69985,5,0,1:2:0:0:
112,167,70144,1,0,1:2:0:0:
369,312,70304,1,14,0:0:0:0:
367,17,70458,1,0,0:0:0:0:
231,172,70612,5,0,1:2:0:0:
231,172,70769,1,0,1:2:0:0:
508,69,70927,1,14,0:0:0:0:
458,360,71085,1,0,0:0:0:0:
376,144,71243,5,2,1:2:0:0:
241,370,71401,1,4,0:0:0:0:
175,27,71559,5,10,1:2:0:0:
352,336,71717,1,4,0:0:0:0:
302,102,71875,5,2,1:2:0:0:
302,102,72033,1,0,1:2:0:0:
137,300,72190,6,0,L|24:280,1,114,10|0,0:0|0:0,0:0:0:0:
194,184,72506,2,0,L|307:204,1,114,2|0,1:2|1:2,0:0:0:0:
137,68,72822,2,0,L|23:48,1,114,10|0,0:0|0:0,0:0:0:0:
137,300,73138,1,2,1:2:0:0:
296,77,73296,1,2,1:2:0:0:
158,177,73454,1,8,0:0:0:0:
371,348,73612,2,0,P|434:257|403:152,1,227.999993041992,6|4,1:2|1:2,0:0:0:0:
311,238,74090,1,8,0:2:0:0:
75,72,74243,6,0,B|157:86|157:86|213:62|213:62|295:76,1,227.999993041992,6|0,1:2|1:2,0:0:0:0:
157,327,74739,2,0,P|133:275|137:219,1,113.999996520996,10|0,0:0|1:2,0:0:0:0:
384,148,75051,2,0,P|408:97|405:41,1,113.999996520996,2|0,0:0|1:2,0:0:0:0:
245,255,75364,2,0,P|220:204|223:147,1,113.999996520996,10|0,0:0|1:2,0:0:0:0:
350,350,75676,1,6,1:2:0:0:
109,357,75827,1,2,1:2:0:0:
264,240,75979,1,10,0:0:0:0:
91,18,76130,2,0,P|28:109|59:214,1,227.999993041992,6|6,1:2|1:2,0:0:0:0:
151,128,76605,1,8,0:0:0:0:
121,320,76764,6,0,B|163:277|163:277|331:277,1,227.999993041992,6|0,1:2|1:2,0:0:0:0:
484,327,77253,2,0,P|461:266|468:216,1,113.999996520996,10|0,0:0|0:0,0:0:0:0:
335,17,77579,2,0,P|340:73|318:125,1,113.999996520996,2|0,1:2|1:2,0:0:0:0:
227,52,77885,1,8,0:0:0:0:
47,208,78038,2,0,L|175:208,1,113.999996520996,6|2,1:2|0:0,0:0:0:0:
400,352,78358,2,0,L|272:352,1,113.999996520996,2|8,1:2|0:0,0:0:0:0:
344,227,78675,1,2,0:0:0:0:
106,338,78832,1,0,1:2:0:0:
129,77,78989,1,10,0:0:0:0:
267,352,79146,1,10,1:2:0:0:
187,187,79303,1,0,1:2:0:0:
187,187,79381,1,0,1:2:0:0:
187,187,79460,1,8,1:2:0:0:
480,221,79618,6,0,B|504:227|504:227|426:249|426:249|344:227,1,191.00529100529,6|0,1:2|1:2,0:0:0:0:
187,187,80094,6,0,P|252:208|223:147,1,171,6|0,1:2|0:0,0:0:0:0:
115,284,80409,6,0,P|38:307|72:236,1,199.5,6|0,1:2|0:0,0:0:0:0:
199,337,80725,6,0,P|252:339|294:319,1,85.5000000000001,6|0,0:0|0:0,0:0:0:0:
443,26,81040,6,0,L|460:168,1,114,10|0,1:2|0:0,0:0:0:0:
308,314,81356,2,0,L|325:171,1,114,2|0,1:2|1:2,0:0:0:0:
173,26,81672,2,0,L|190:169,1,114,10|0,0:0|0:0,0:0:0:0:
411,302,81988,1,2,1:2:0:0:
443,26,82144,1,2,1:2:0:0:
322,201,82300,1,8,0:0:0:0:
75,83,82456,2,0,P|59:137|72:191,1,113.999996520996,2|0,1:2|0:0,0:0:0:0:
186,139,82769,1,2,1:2:0:0:
186,139,82925,1,10,1:2:0:0:
5,313,83081,6,0,B|87:299|87:299|143:323|143:323|225:309,1,227.999993041992,6|0,1:2|1:2,0:0:0:0:
497,356,83550,2,0,L|474:229,1,113.999996520996,10|0,0:0|0:0,0:0:0:0:
254,300,83876,2,0,L|276:173,1,114,2|0,1:2|1:2,0:0:0:0:
428,147,84191,1,8,0:0:0:0:
274,187,84349,1,2,1:2:0:0:
507,52,84507,2,0,P|457:25|400:27,1,114,2|0,0:0|1:2,0:0:0:0:
507,242,84822,2,0,P|457:268|400:266,1,114,10|0,0:0|1:2,0:0:0:0:
274,187,85138,2,0,B|243:360|243:360|207:288,1,228,2|8,0:0|0:0,0:0:0:0:
45,68,85612,6,0,P|4:170|59:265,1,227.999993041992,6|0,1:2|1:2,0:0:0:0:
242,148,86095,2,0,L|129:162,1,113.403141361256,10|0,0:0|1:2,0:0:0:0:
207,289,86409,2,0,B|242:241|242:241|409:220,1,227.999993041992,6|8,0:0|1:2,0:0:0:0:
492,16,86880,2,0,L|265:43,1,227.277993041992,6|2,1:2|0:0,0:0:0:0:
371,175,87351,1,8,1:2:0:0:
371,175,87665,1,12,1:2:0:0:
212,369,87822,1,8,0:0:0:0:
123,134,87980,1,12,1:2:0:0:
253,239,88138,1,0,1:2:0:0:
253,239,88217,1,0,1:2:0:0:
253,239,88296,1,8,1:2:0:0:
0,330,88454,6,0,B|41:336|41:336|69:340|69:340|115:319|115:319|142:324|142:324|184:330,1,190,6|0,1:2|1:2,0:0:0:0:
367,332,88937,6,0,P|300:313|328:376,1,170.999994781494,14|0,1:2|0:0,0:0:0:0:
413,231,89260,6,0,P|491:210|465:287,1,199.5,14|0,1:2|0:0,0:0:0:0:
296,210,89575,5,6,1:2:0:0:
204,311,89733,1,2,1:2:0:0:
296,210,89891,2,0,L|280:84,1,85.5000000000001,10|0,0:0|0:0,0:0:0:0:
508,43,90207,6,0,B|443:54|443:54|389:31|389:31|324:43,1,190,2|8,1:2|0:0,0:0:0:0:
193,14,90668,2,0,P|242:104|210:182,1,190,6|2,1:2|1:2,0:0:0:0:
39,117,91151,2,0,L|134:105,1,95,10|0,0:0|1:2,0:0:0:0:
71,297,91474,1,10,1:2:0:0:
71,297,91784,1,10,1:2:0:0:
71,297,92095,6,0,B|39:314|39:314|111:361|184:314,1,189.501312335958,4|10,1:2|0:0,0:0:0:0:
111,215,92567,1,0,1:2:0:0:
311,324,92724,2,0,B|305:282|302:254|302:254|325:210|325:210|321:182|316:141,1,189.501312335958,2|8,1:2|0:0,0:0:0:0:
385,38,93197,2,0,L|408:226,1,189.501312335958,6|0,1:2|1:2,0:0:0:0:
274,363,93669,2,0,L|262:268,1,95,10|2,0:0|1:2,0:0:0:0:
423,105,93989,1,10,1:2:0:0:
423,105,94296,1,10,1:2:0:0:
423,105,94604,6,0,B|448:117|448:117|412:121|389:124|389:124|350:105|350:105|326:108|291:112,1,190,6|10,1:2|0:0,0:0:0:0:
331,211,95082,1,0,1:2:0:0:
254,12,95242,2,0,P|187:89|202:172,1,190,2|8,1:2|0:0,0:0:0:0:
331,211,95721,2,0,B|197:194|197:194|149:222,1,190,6|0,1:2|1:2,0:0:0:0:
8,75,96199,2,0,L|120:89,1,95,10|0,0:0|1:2,0:0:0:0:
0,296,96523,1,10,1:2:0:0:
0,296,96837,1,10,1:2:0:0:
0,296,97151,5,6,1:2:0:0:
55,184,97308,1,2,1:2:0:0:
145,349,97465,2,0,L|239:337,1,94.5026178010469,10|0,0:0|0:0,0:0:0:0:
395,195,97779,2,0,B|324:203|324:203|287:236|287:236|218:244,1,190,6|8,1:2|0:0,0:0:0:0:
66,144,98250,2,0,B|114:172|114:172|248:155,1,189.398333333333,6|0,1:2|1:2,0:0:0:0:
469,286,98721,2,0,L|373:297,1,94.7506561679789,14|0,0:0|0:0,0:0:0:0:
258,240,99036,1,2,1:2:0:0:
258,240,99194,1,2,1:2:0:0:
489,183,99351,2,0,L|393:194,1,94.7506561679789,14|0,0:0|0:0,0:0:0:0:
278,137,99666,5,2,1:2:0:0:
238,343,99824,1,0,1:2:0:0:
238,343,99903,1,0,1:2:0:0:
238,343,99981,1,2,0:0:0:0:
79,205,100139,1,2,1:2:0:0:
340,255,100296,1,10,1:2:0:0:
101,40,100461,1,14,1:2:0:0:
35,354,100626,1,14,0:0:0:0:
326,76,100791,5,6,1:2:0:0:
256,192,100869,12,0,105684,0:0:0:0:
