osu file format v14

[General]
AudioFilename: audio.mp3
AudioLeadIn: 0
PreviewTime:72190
Countdown: 0
SampleSet: Soft
StackLeniency: 0.2
Mode: 0
LetterboxInBreaks: 1
WidescreenStoryboard: 0

[Editor]
DistanceSpacing: 1.3
BeatDivisor: 4
GridSize: 16
TimelineZoom: 1.6

[Metadata]
Title:I Am... All Of Me (Game Ver.)
TitleUnicode:I Am... All Of Me (Game Ver.)
Artist:Crush 40
ArtistUnicode:Crush 40
Creator:-Zeraora
Version:Penguiness' Insane
Source:SHADOW THE HEDGEHOG
Tags:シャドウ・ザ・ヘッジホッグ op opening ORIGINAL SOUNDTRAX Jun Senoue Johnny Gioeli Takeshi Taneda Toru Kawamura WAVE MASTER WAVEMASTER INC. Sonic ソニックザヘッジホッグ ソニック ザ ヘッジホッグ ソニック・ザ・ヘッジホッグ SEGA intro LOST AND FOUND VOCAL TRAX Track オリジナル サウンドトラックス Microsoft Xbox Nintendo Gamecube GCN NGC Sony Playstation 2 PS2 Main Theme Short Version English Video Game Rock シャドウザヘッジホッグ シャドウ OFFICIAL SOUNDTRACK Penguiness Error- -Keitaro -Harpuia-
BeatmapID:1717837
BeatmapSetID:819347

[Difficulty]
HPDrainRate:6
CircleSize:3.5
OverallDifficulty:7
ApproachRate:9
SliderMultiplier:1.79999990463257
SliderTickRate:1

[Events]
//Background and Video events
0,0,"BG7.jpg",0,0
Video,1415,"shadow.mp4"
//Break Periods
//Storyboard Layer 0 (Background)
//Storyboard Layer 1 (Fail)
//Storyboard Layer 2 (Pass)
//Storyboard Layer 3 (Foreground)
//Storyboard Layer 4 (Overlay)
//Storyboard Sound Samples

[TimingPoints]
1149,314.96062992126,4,2,33,60,1,0
1149,-142.857142857143,4,2,33,60,0,0
3038,319.148936170213,4,2,33,60,1,0
3038,-142.857142857143,4,2,33,60,0,0
3676,315.374507227332,4,2,33,60,1,0
3676,-142.857142857143,4,2,33,60,0,0
5568,317.460317460317,4,2,33,60,1,0
5568,-142.857142857143,4,2,33,60,0,0
6202,315.789473684211,4,2,33,60,1,0
6202,-142.857142857143,4,2,33,60,0,0
8096,318.302387267905,4,2,33,60,1,0
8096,-142.857142857143,4,2,33,60,0,0
8732,315.789473684211,4,2,33,60,1,0
8732,-142.857142857143,4,2,33,60,0,0
9995,314.13612565445,4,2,33,60,1,0
9995,-142.857142857143,4,2,33,60,0,0
11251,317.460317460317,4,2,33,60,1,0
11251,-142.857142857143,4,2,33,60,0,0
12838,315.789473684211,4,2,33,60,1,0
12838,-142.857142857143,4,2,33,60,0,0
13153,317.460317460317,4,2,33,60,1,0
13153,-142.857142857143,4,2,33,60,0,0
13787,314.13612565445,4,2,33,60,1,0
13787,-142.857142857143,4,2,33,60,0,0
14729,309.278350515464,4,2,33,60,1,0
15038,309.278350515464,4,2,44,40,1,0
15038,-142.857142857143,4,2,44,40,0,0
15347,-142.857142857143,4,2,44,50,0,0
15656,-142.857142857143,4,2,44,65,0,0
15965,-142.857142857143,4,2,44,80,0,0
16120,324.324324324324,4,2,44,80,1,0
16120,-100,4,2,55,75,0,0
16282,324.324324324324,4,2,55,75,1,0
16282,-100,4,2,55,75,0,0
16930,315.789473684211,4,2,55,75,1,0
17561,314.13612565445,4,2,55,75,1,0
18267,-100,4,2,55,5,0,0
18346,-100,4,2,55,75,0,0
19131,319.148936170213,4,2,55,75,1,0
20088,315.789473684211,4,2,55,75,1,0
20719,309.278350515464,4,2,55,75,1,0
20796,-100,4,2,55,5,0,0
20873,-100,4,2,55,75,0,0
21105,-100,4,2,55,5,0,0
21182,-100,4,2,55,75,0,0
21646,320.855614973262,4,2,55,75,1,0
22608,314.96062992126,4,2,55,75,1,0
23316,-100,4,2,55,5,0,0
23395,-100,4,2,55,75,0,0
24182,319.148936170213,4,2,55,75,1,0
25139,322.58064516129,4,2,55,75,1,0
25784,285.714285714286,4,2,55,75,1,0
25855,-100,4,2,55,5,0,0
25926,319.148936170213,4,2,55,75,1,0
25926,-100,4,2,55,75,0,0
26165,-100,4,2,55,5,0,0
26245,-125,4,2,44,40,0,0
26723,315.789473684211,4,2,55,75,1,0
26723,-125,4,2,55,75,0,0
27670,310.880829015544,4,2,55,75,1,0
28291,-125,4,2,55,75,0,0
28369,-125,4,2,55,5,0,0
28447,-125,4,2,55,40,0,0
28758,326.086956521739,4,2,55,40,1,0
28758,-100,4,2,55,70,0,0
28921,326.086956521739,4,2,55,70,1,0
29247,315.789473684211,4,2,55,70,1,0
30194,315.789473684211,4,2,55,70,1,0
30825,312.5,4,2,55,70,1,0
31293,317.460317460317,4,2,55,70,1,0
31451,317.460317460317,4,2,55,70,1,0
32720,312.5,4,2,55,70,1,0
33813,326.086956521739,4,2,55,70,1,0
33976,326.086956521739,4,2,55,70,1,0
34302,314.13612565445,4,2,55,70,1,0
35244,314.13612565445,4,2,55,70,1,0
36343,327.868852459016,4,2,55,85,1,0
36343,-83.3333333333333,4,2,55,85,0,0
36506,327.868852459016,4,2,55,85,1,0
36833,314.13612565445,4,2,55,85,1,0
37147,-83.3333333333333,4,2,55,85,0,0
38089,300,4,2,55,85,1,0
38389,315.789473684211,4,2,55,85,1,0
38389,-83.3333333333333,4,2,55,85,0,0
38467,-83.3333333333333,4,2,55,5,0,0
38546,-83.3333333333333,4,2,55,85,0,0
38862,326.086956521739,4,2,55,85,1,0
38862,-100,4,2,55,75,0,0
39025,326.086956521739,4,2,55,75,1,0
39351,315.374507227332,4,2,55,75,1,0
40297,315.374507227332,4,2,55,75,1,0
43529,-100,4,2,55,5,0,0
43608,-100,4,2,55,75,0,0
43923,319.148936170213,4,2,55,75,1,0
44082,319.148936170213,4,2,55,75,1,0
45358,310.880829015544,4,2,55,75,1,0
46446,324.324324324324,4,2,55,75,1,0
46608,324.324324324324,4,2,55,75,1,0
46932,313.31592689295,4,2,55,75,1,0
47871,309.278350515464,4,2,55,80,1,0
47871,-100,4,2,55,80,0,0
48953,352.941176470588,4,2,55,80,1,0
49129,320.855614973262,4,2,55,80,1,0
49129,-125,4,2,33,50,0,0
50412,315.457413249211,4,2,33,50,1,0
50412,-125,4,2,33,50,0,0
52935,315.789473684211,4,2,33,50,1,0
52935,-125,4,2,33,50,0,0
55461,317.460317460317,4,2,33,50,1,0
55461,-125,4,2,33,50,0,0
56730,315.623356128354,4,2,33,50,1,0
56730,-125,4,2,33,50,0,0
59254,316.622691292876,4,2,33,60,1,0
59254,-111.111111111111,4,2,33,60,0,0
61786,314.13612565445,4,2,33,60,1,0
61786,-111.111111111111,4,2,33,60,0,0
63042,315.789473684211,4,2,33,60,1,0
63042,-111.111111111111,4,2,33,60,0,0
68726,310.880829015544,4,2,33,60,1,0
69347,319.148936170213,4,2,55,80,1,0
69347,-90.9090909090908,4,2,55,80,0,0
70304,308.483290488432,4,2,55,80,1,0
70304,-90.9090909090908,4,2,55,80,0,0
70612,315.789473684211,4,2,55,80,1,0
70612,-90.9090909090908,4,2,55,80,0,0
71875,-76.9230769230769,4,2,55,80,0,1
73612,319.148936170213,4,2,55,80,1,1
73612,-76.9230769230769,4,2,55,80,0,1
74090,307.692307692308,4,2,55,80,1,1
74243,331.491712707182,4,2,55,80,1,1
74243,-76.9230769230769,4,2,55,80,0,1
74408,331.491712707182,4,2,55,80,1,1
74739,312.5,4,2,55,80,1,1
74739,-76.9230769230769,4,2,55,80,0,1
75676,303.030303030303,4,2,55,80,1,1
75676,-76.9230769230769,4,2,55,80,0,1
76130,317.460317460317,4,2,55,80,1,1
76130,-76.9230769230769,4,2,55,80,0,1
76288,317.460317460317,4,2,55,80,1,1
76764,326.086956521739,4,2,55,80,1,1
76764,-76.9230769230769,4,2,55,80,0,1
76927,326.086956521739,4,2,55,80,1,1
77253,-76.9230769230769,4,2,55,80,0,1
77579,306.122448979592,4,2,55,80,1,1
77579,-76.9230769230769,4,2,55,80,0,1
78038,320.855614973262,4,2,55,80,1,1
78038,-76.9230769230769,4,2,55,80,0,1
78198,320.855614973262,4,2,55,80,1,1
78518,314.13612565445,4,2,55,80,1,1
78518,-76.9230769230769,4,2,55,80,0,1
79460,317.460317460317,4,2,55,75,1,0
79460,-111.111111111111,4,2,55,75,0,0
80094,315.789473684211,4,2,55,75,1,0
80094,-76.9230769230769,4,2,55,75,0,0
80725,315.789473684211,4,2,55,80,1,1
80725,-76.9230769230769,4,2,55,80,0,1
81988,312.5,4,2,55,80,1,1
81988,-76.9230769230769,4,2,55,80,0,1
83550,326.086956521739,4,2,55,80,1,1
83550,-76.9230769230769,4,2,55,80,0,1
83876,315.789473684211,4,2,55,80,1,1
83876,-76.9230769230769,4,2,55,80,0,1
84507,315.789473684211,4,2,55,80,1,1
84507,-76.9230769230769,4,2,55,80,0,1
85612,322.58064516129,4,2,55,80,1,1
85612,-76.9230769230769,4,2,55,80,0,1
85773,322.58064516129,4,2,55,80,1,1
86095,314.13612565445,4,2,55,80,1,1
86095,-76.9230769230769,4,2,55,80,0,1
87037,314.13612565445,4,2,55,80,1,1
87351,-76.9230769230769,4,2,55,80,0,1
87665,315.789473684211,4,2,55,80,1,1
88296,-111.111111111111,4,2,55,80,0,0
88454,322.58064516129,4,2,55,80,1,0
88454,-111.111111111111,4,2,55,80,0,0
88615,322.58064516129,4,2,55,80,1,0
88937,-76.9230769230769,4,2,55,70,0,0
89260,315.789473684211,4,2,55,70,1,0
89575,-76.9230769230769,4,2,55,70,0,0
90207,307.692307692308,4,2,55,80,1,0
90207,-90.9090909090909,4,2,55,80,0,0
90668,322.58064516129,4,2,55,80,1,0
90668,-90.9090909090909,4,2,55,80,0,0
90829,322.58064516129,4,2,55,80,1,0
91474,310.880829015544,4,2,55,80,1,0
91474,-90.9090909090909,4,2,55,80,0,0
92095,314.96062992126,4,2,55,80,1,0
92095,-90.9090909090909,4,2,55,80,0,0
93669,320,4,2,55,80,1,0
93669,-90.9090909090909,4,2,55,80,0,0
93989,307.692307692308,4,2,55,80,1,0
93989,-90.9090909090909,4,2,55,80,0,0
94604,319.148936170213,4,2,55,80,1,0
94604,-90.9090909090909,4,2,55,80,0,0
96199,324.324324324324,4,2,55,80,1,0
96523,314.13612565445,4,2,55,80,1,0
96523,-90.9090909090909,4,2,55,80,0,0
97151,314.13612565445,4,2,55,80,1,0
97151,-90.9090909090909,4,2,55,80,0,0
98407,314.96062992126,4,2,55,80,1,0
98407,-90.9090909090909,4,2,55,80,0,0
99666,-90.9090909090909,4,2,55,50,0,0
99981,-90.9090909090909,4,2,55,80,0,0
100139,-90.9090909090909,4,2,55,50,0,0
100296,330.214639515685,4,2,55,90,1,0
100296,-90.9090909090909,4,2,55,90,0,0
100461,-90.9090909090909,4,2,55,70,0,0
100626,-90.9090909090909,4,2,55,80,0,0
100791,315.789473684211,4,2,55,100,1,0
100791,-181.818181818182,4,2,55,100,0,0
100869,-181.818181818182,4,2,55,5,0,0
100948,315.789473684211,4,2,55,5,1,0

[Colours]
Combo1 : 215,215,215
Combo2 : 238,92,92
Combo3 : 215,215,215
Combo4 : 238,172,92
SliderBorder : 255,105,35
SliderTrackOverride : 20,0,0

[HitObjects]
81,150,1149,6,0,L|162:143,1,62.9999947395327,6|0,0:0|0:0,0:0:0:0:
210,192,1463,2,0,L|291:199,1,62.9999947395327,2|0,0:0|0:0,0:0:0:0:
454,248,1778,2,0,L|313:261,1,125.999989479065,8|2,0:0|0:0,0:0:0:0:
353,180,2251,6,0,P|350:124|291:89,1,125.999989479065,2|2,0:0|0:0,0:0:0:0:
214,108,2723,2,0,L|121:102,1,62.9999947395327,2|0,2:1|0:0,0:0:0:0:
88,155,3038,5,8,0:0:0:0:
88,155,3357,1,2,0:0:0:0:
304,322,3676,5,0,0:0:0:0:
297,240,3833,1,0,0:0:0:0:
375,276,3991,2,0,L|453:278,1,62.9999947395327,2|0,0:0|0:0,0:0:0:0:
487,211,4306,2,0,L|479:81,1,125.999989479065,8|0,0:0|0:0,0:0:0:0:
395,74,4779,6,0,P|346:111|334:172,1,125.999989479065,2|2,0:0|0:0,0:0:0:0:
253,157,5252,2,0,L|166:164,1,62.9999947395327,2|2,0:0|0:0,0:0:0:0:
130,218,5568,1,10,0:0:0:0:
109,139,5726,1,2,0:0:0:0:
189,281,5885,2,0,L|307:270,1,94.499992109299,2|0,0:0|0:0,0:0:0:0:
319,290,6202,6,0,L|312:367,1,62.9999947395327,6|0,0:0|0:0,0:0:0:0:
396,245,6517,2,0,L|403:322,1,62.9999947395327,2|0,0:0|0:0,0:0:0:0:
327,187,6833,2,0,L|336:49,1,125.999989479065,8|2,0:0|0:0,0:0:0:0:
255,83,7307,6,0,P|205:56|127:81,1,125.999989479065,2|2,0:0|0:0,0:0:0:0:
196,202,7780,2,0,L|189:130,1,62.9999947395327,2|0,2:1|0:0,0:0:0:0:
135,268,8096,5,8,0:0:0:0:
135,268,8414,1,2,0:0:0:0:
429,301,8732,5,0,0:0:0:0:
509,289,8889,1,0,0:0:0:0:
457,223,9047,2,0,L|375:216,1,62.9999947395327,2|0,0:0|0:0,0:0:0:0:
312,225,9363,2,0,L|320:82,1,125.999989479065,8|0,0:0|0:0,0:0:0:0:
392,62,9837,2,0,P|355:27|264:37,1,125.999989479065,2|2,0:0|0:0,0:0:0:0:
209,62,10309,2,0,L|127:54,1,62.9999947395327,2|2,0:0|0:0,0:0:0:0:
101,126,10623,1,10,0:0:0:0:
63,53,10780,1,2,0:0:0:0:
235,218,10937,2,0,L|115:205,1,94.499992109299,2|0,0:0|0:0,0:0:0:0:
105,228,11251,6,0,L|112:302,1,62.9999947395327,6|0,0:0|0:0,0:0:0:0:
29,278,11568,2,0,L|22:352,1,62.9999947395327,2|0,0:0|0:0,0:0:0:0:
186,342,11885,2,0,L|263:330,1,62.9999947395327,8|0,0:0|0:0,0:0:0:0:
364,265,12203,2,0,L|287:253,1,62.9999947395327,2|0,0:0|0:0,0:0:0:0:
446,226,12520,6,0,L|455:307,1,62.9999947395327,2|0,0:0|0:0,0:0:0:0:
338,180,12838,2,0,L|344:117,1,62.9999947395327,2|0,0:0|0:0,0:0:0:0:
375,40,13153,2,0,L|305:43,1,62.9999947395327,10|0,0:0|0:0,0:0:0:0:
190,116,13470,2,0,L|260:119,1,62.9999947395327,2|0,0:0|0:0,0:0:0:0:
108,79,13787,6,0,L|114:165,1,62.9999947395327,2|0,0:0|0:0,0:0:0:0:
31,29,14101,2,0,L|25:115,1,62.9999947395327,2|0,0:0|0:0,0:0:0:0:
175,195,14415,2,0,P|120:223|44:187,1,125.999989479065,14|2,0:0|0:0,0:0:0:0:
191,70,15038,5,12,0:0:0:0:
282,37,15192,1,8,0:0:0:0:
235,142,15347,5,8,0:0:0:0:
41,129,15501,1,8,0:0:0:0:
115,15,15656,5,12,0:0:0:0:
103,222,15811,1,8,0:0:0:0:
235,142,15965,1,8,0:0:0:0:
59,305,16120,6,0,L|251:312,1,179.999990463257,4|2,1:2|0:0,0:0:0:0:
390,243,16606,2,0,L|285:250,1,89.9999952316285,10|2,1:2|0:0,0:0:0:0:
447,167,16930,1,2,1:2:0:0:
456,334,17087,1,0,1:2:0:0:
345,164,17245,1,8,0:0:0:0:
324,330,17403,1,2,0:0:0:0:
232,142,17561,6,0,L|223:244,1,89.9999952316285,2|0,1:2|1:2,0:0:0:0:
118,339,17875,2,0,L|109:237,1,89.9999952316285,10|0,0:0|0:0,0:0:0:0:
5,174,18189,2,0,L|-3:238,1,44.9999976158143,2|0,1:2|0:0,0:0:0:0:
75,129,18346,2,0,L|66:27,1,89.9999952316285,2|8,0:0|1:2,0:0:0:0:
345,164,18660,6,0,B|277:153|277:153|159:174,1,179.999990463257,6|0,1:2|1:2,0:0:0:0:
298,72,19131,1,10,0:0:0:0:
274,250,19290,1,0,0:0:0:0:
425,204,19450,1,2,1:2:0:0:
217,164,19609,1,0,1:2:0:0:
144,298,19769,2,0,L|140:200,1,89.9999952316285,10|0,0:0|0:0,0:0:0:0:
202,367,20088,5,2,1:2:0:0:
274,250,20245,1,2,1:2:0:0:
46,250,20403,1,8,0:0:0:0:
217,164,20561,1,2,0:0:0:0:
74,126,20719,6,0,L|68:173,1,44.9999976158143,8|0,1:2|0:0,0:0:0:0:
86,40,20873,2,0,P|42:1|48:63,1,134.999992847443,6|0,1:2|0:0,0:0:0:0:
153,96,21182,6,0,B|215:82|215:82|343:97,1,179.999990463257,4|2,1:2|0:0,0:0:0:0:
484,163,21646,2,0,L|386:168,1,89.9999952316285,10|2,1:2|0:0,0:0:0:0:
483,76,21966,1,2,1:2:0:0:
448,258,22127,1,2,1:2:0:0:
270,187,22287,1,8,0:0:0:0:
394,167,22448,1,2,0:0:0:0:
356,331,22608,6,0,L|345:224,1,89.9999952316285,2|0,1:2|1:2,0:0:0:0:
186,139,22922,2,0,L|175:246,1,89.9999952316285,10|0,0:0|0:0,0:0:0:0:
343,106,23237,2,0,L|287:101,1,44.9999976158143,2|0,1:2|0:0,0:0:0:0:
394,167,23395,2,0,L|515:160,1,89.9999952316285,2|8,1:2|0:0,0:0:0:0:
356,331,23710,6,0,L|166:318,1,179.999990463257,6|0,1:2|1:2,0:0:0:0:
16,270,24182,2,0,L|137:263,1,89.9999952316285,10|0,0:0|0:0,0:0:0:0:
253,244,24501,1,2,1:2:0:0:
89,179,24660,1,0,1:2:0:0:
186,143,24820,1,10,0:0:0:0:
176,318,24979,1,0,0:0:0:0:
342,249,25139,2,0,L|238:243,1,89.9999952316285,2|2,1:2|1:2,0:0:0:0:
349,136,25461,2,0,L|453:130,1,89.9999952316285,8|2,0:0|0:0,0:0:0:0:
270,29,25784,6,0,L|265:101,1,44.9999976158143,8|0,1:2|0:0,0:0:0:0:
186,143,25926,2,0,B|88:139|88:139|24:112,1,134.999992847443,6|0,1:2|0:0,0:0:0:0:
117,55,26245,6,0,P|152:7|176:62,1,143.999992370606,4|0,1:2|0:0,0:0:0:0:
124,225,26723,1,14,0:0:0:0:
376,242,27038,5,0,1:2:0:0:
353,333,27196,1,0,1:2:0:0:
286,268,27354,1,14,0:0:0:0:
124,225,27670,5,0,1:2:0:0:
146,134,27825,1,0,1:2:0:0:
56,158,27980,1,14,0:0:0:0:
311,117,28291,6,0,L|306:52,1,35.9999980926514,0|0,1:2|0:0,0:0:0:0:
378,170,28447,2,0,L|375:265,1,71.9999961853028,14|0,0:0|1:2,0:0:0:0:
140,320,28758,6,0,L|338:313,1,179.999990463257,4|0,1:2|1:2,0:0:0:0:
198,228,29247,2,0,L|90:217,1,89.9999952316285,10|0,1:2|0:0,0:0:0:0:
233,144,29562,1,2,1:2:0:0:
307,237,29720,1,0,1:2:0:0:
346,62,29878,2,0,L|362:167,1,89.9999952316285,8|0,0:0|0:0,0:0:0:0:
424,346,30194,6,0,P|462:307|425:194,1,179.999990463257,2|8,1:2|0:0,0:0:0:0:
208,276,30667,2,0,L|392:267,1,179.999990463257,2|2,0:0|1:2,0:0:0:0:
499,142,31137,1,10,0:0:0:0:
286,192,31293,6,0,L|102:183,1,179.999990463257,4|0,1:2|1:2,0:0:0:0:
67,12,31768,2,0,L|56:111,1,89.9999952316285,10|0,1:2|0:0,0:0:0:0:
12,210,32085,1,2,1:2:0:0:
159,107,32244,1,0,1:2:0:0:
127,272,32403,2,0,L|139:375,1,89.9999952316285,10|0,0:0|0:0,0:0:0:0:
221,274,32720,6,0,P|269:241|379:314,1,179.999990463257,2|8,1:2|0:0,0:0:0:0:
444,179,33188,2,0,L|461:360,1,179.999990463257,2|2,0:0|1:2,0:0:0:0:
290,321,33657,1,10,0:0:0:0:
153,171,33813,6,0,B|137:283|137:283|157:347,1,179.999990463257,4|0,1:2|1:2,0:0:0:0:
270,198,34302,2,0,L|253:109,1,89.9999952316285,10|0,1:2|0:0,0:0:0:0:
87,75,34616,2,0,L|69:172,1,89.9999952316285,2|0,1:2|1:2,0:0:0:0:
219,263,34930,1,10,0:0:0:0:
11,273,35087,1,0,0:0:0:0:
157,347,35244,6,0,L|355:336,1,179.999990463257,2|8,1:2|0:0,0:0:0:0:
426,231,35715,2,0,P|367:252|279:183,1,179.999990463257,2|2,0:0|1:2,0:0:0:0:
489,168,36186,1,8,0:0:0:0:
293,96,36343,2,0,B|273:239|273:239|290:309,1,215.999981964112,4|0,1:2|1:2,0:0:0:0:
143,242,36833,5,10,1:2:0:0:
365,164,36990,1,0,0:0:0:0:
195,147,37147,2,0,L|206:22,1,107.999990982056,2|0,1:2|1:2,0:0:0:0:
43,103,37461,2,0,L|54:228,1,107.999990982056,10|0,0:0|0:0,0:0:0:0:
264,337,37775,6,0,P|224:286|76:320,1,215.999981964112,2|10,1:2|0:0,0:0:0:0:
164,363,38239,1,2,0:0:0:0:
348,231,38389,6,0,L|343:293,1,53.999995491028,8|0,1:2|0:0,0:0:0:0:
236,181,38546,2,0,L|230:66,1,107.999990982056,6|0,1:2|0:0,0:0:0:0:
494,116,38862,6,0,B|434:86|434:86|303:112,1,179.999990463257,4|0,1:2|1:2,0:0:0:0:
437,263,39351,2,0,L|426:160,1,89.9999952316285,10|0,0:0|0:0,0:0:0:0:
275,262,39666,2,0,L|264:365,1,89.9999952316285,2|2,1:2|1:2,0:0:0:0:
383,341,39981,1,10,0:0:0:0:
180,307,40139,1,0,0:0:0:0:
100,358,40297,6,0,L|90:167,1,179.999990463257,2|8,1:2|0:0,0:0:0:0:
309,148,40770,2,0,P|256:131|170:214,1,179.999990463257,0|2,0:0|1:2,0:0:0:0:
255,214,41243,1,8,0:0:0:0:
375,24,41400,6,0,B|390:153|390:153|370:224,1,179.999990463257,6|0,1:2|1:2,0:0:0:0:
333,359,41873,2,0,L|319:230,1,89.9999952316285,10|0,1:2|0:0,0:0:0:0:
170,205,42189,2,0,L|156:334,1,89.9999952316285,2|2,1:2|1:2,0:0:0:0:
59,354,42504,1,10,0:0:0:0:
239,338,42662,1,0,0:0:0:0:
80,227,42819,6,0,L|70:34,1,179.999990463257,2|8,1:2|0:0,0:0:0:0:
167,107,43293,1,0,0:0:0:0:
304,80,43450,2,0,L|227:70,1,44.9999976158143,2|0,1:2|0:0,0:0:0:0:
364,144,43608,2,0,L|473:134,1,89.9999952316285,2|8,1:2|0:0,0:0:0:0:
213,188,43923,6,0,B|199:317|199:317|216:381,1,179.999990463257,6|0,1:2|1:2,0:0:0:0:
434,317,44401,2,0,P|368:271|278:318,1,179.999990463257,10|2,1:2|1:2,0:0:0:0:
106,363,44879,2,0,L|127:173,1,179.999990463257,2|0,1:2|0:0,0:0:0:0:
300,192,45358,6,0,P|284:141|147:132,1,179.999990463257,6|10,1:2|0:0,0:0:0:0:
13,55,45824,2,0,L|34:245,1,179.999990463257,0|10,0:0|1:2,0:0:0:0:
205,268,46290,2,0,L|84:277,1,89.9999952316285,10|8,0:0|1:2,0:0:0:0:
281,320,46608,6,0,B|412:333|412:333|481:319,1,179.999990463257,6|8,0:0|1:2,0:0:0:0:
408,216,47088,1,0,0:0:0:0:
306,83,47245,2,0,P|275:132|328:236,1,179.999990463257,2|10,1:2|0:0,0:0:0:0:
205,268,47715,1,0,1:2:0:0:
103,145,47871,5,10,0:0:0:0:
71,256,48025,1,10,0:0:0:0:
195,177,48180,5,10,0:0:0:0:
12,196,48334,1,10,0:0:0:0:
170,77,48489,5,10,0:0:0:0:
205,268,48644,1,10,0:0:0:0:
274,131,48798,5,10,0:0:0:0:
62,83,48953,1,10,0:0:0:0:
260,53,49129,6,0,L|422:46,1,143.999992370606,4|2,2:0|2:1,2:0:0:0:
481,99,49610,1,0,2:0:0:0:
416,166,49770,2,0,P|360:168|336:324,1,215.999988555908,10|0,2:1|2:0,2:0:0:0:
394,253,50412,6,0,B|238:230|238:230|150:250,1,215.999988555908,0|0,2:1|2:0,2:0:0:0:
172,336,51042,2,0,P|111:307|140:155,1,215.999988555908,8|0,2:1|2:0,2:0:0:0:
126,81,51673,6,0,L|269:87,1,143.999992370606,2|0,2:0|2:0,2:0:0:0:
362,106,52147,1,0,2:0:0:0:
439,54,52304,2,0,P|470:120|438:274,1,215.999988555908,10|0,2:0|2:0,2:0:0:0:
354,253,52935,6,0,B|203:241|203:241|129:266,1,215.999988555908,2|0,2:0|2:0,2:0:0:0:
96,180,53566,2,0,P|56:229|125:357,1,215.999988555908,10|0,2:0|2:0,2:0:0:0:
205,367,54198,6,0,L|300:361,1,71.9999961853028,0|0,2:1|2:1,2:1:0:0:
370,371,54513,1,2,2:1:0:0:
383,278,54671,1,2,2:1:0:0:
290,263,54829,2,0,L|308:105,1,143.999992370606,8|2,2:1|2:1,2:1:0:0:
265,34,55303,1,2,2:1:0:0:
180,77,55461,6,0,L|81:70,1,71.9999961853028,2|2,2:1|2:1,2:1:0:0:
32,16,55778,2,0,P|16:67|64:158,1,143.999992370606,2|10,2:1|2:1,2:1:0:0:
128,199,56254,1,2,2:1:0:0:
99,288,56413,2,0,L|196:281,1,71.9999961853028,2|2,2:1|2:1,2:1:0:0:
252,329,56730,6,0,L|401:337,1,143.999992370606,2|2,2:1|2:1,2:1:0:0:
475,288,57203,1,2,2:1:0:0:
432,204,57361,2,0,L|446:51,1,143.999992370606,8|2,2:1|2:1,2:1:0:0:
370,3,57834,1,2,2:1:0:0:
291,54,57992,6,2,L|199:61,1,71.9999961853028,2|2,2:1|2:1,2:1:0:0:
146,119,58308,2,0,P|105:176|120:244,1,143.999992370606,2|8,2:1|2:1,2:1:0:0:
80,329,58781,2,0,L|151:334,1,71.9999961853028,0|0,2:1|2:1,2:1:0:0:
244,352,59097,1,0,2:1:0:0:
325,284,59254,6,0,L|412:294,1,80.999993236542,2|0,2:0|2:0,2:0:0:0:
405,152,59570,2,0,L|322:161,1,80.999993236542,2|0,2:0|2:0,2:0:0:0:
461,83,59887,2,0,P|489:121|449:229,1,161.999986473084,8|0,2:0|2:0,2:0:0:0:
269,28,60520,6,0,L|260:123,1,80.999993236542,2|0,2:0|2:0,2:0:0:0:
197,193,60837,2,0,L|216:359,2,161.999986473084,0|8|0,2:0|2:0|2:0,2:0:0:0:
475,231,61786,6,0,P|442:198|320:228,1,161.999986473084,2|0,2:0|2:0,2:0:0:0:
419,102,62257,1,0,2:0:0:0:
396,269,62414,2,0,L|405:353,1,80.999993236542,8|0,2:0|2:0,2:0:0:0:
244,311,62728,2,0,L|253:227,1,80.999993236542,0|0,2:0|2:0,2:0:0:0:
199,137,63042,6,0,P|187:27|136:114,1,242.999979709626,2|0,2:0|2:0,2:0:0:0:
117,184,63673,2,0,B|130:360|130:360|158:289,1,242.999979709626,10|0,2:0|2:0,2:0:0:0:
266,341,64305,6,0,L|362:350,1,80.999993236542,2|0,2:0|2:0,2:0:0:0:
445,223,64620,2,0,L|349:232,1,80.999993236542,2|0,2:0|2:0,2:0:0:0:
282,87,64936,2,0,L|274:261,1,161.999986473084,10|0,2:0|2:0,2:0:0:0:
187,308,65410,1,0,2:0:0:0:
93,260,65568,6,0,L|85:177,1,80.999993236542,2|0,2:0|2:0,2:0:0:0:
175,123,65884,2,0,P|126:85|7:106,2,161.999986473084,0|8|0,2:0|2:0|2:0,2:0:0:0:
256,189,66673,1,0,2:0:0:0:
343,129,66831,6,0,L|508:117,2,161.999986473084,2|0|8,2:0|2:0|2:0,2:0:0:0:
256,189,67620,1,0,2:0:0:0:
320,272,67778,2,0,L|332:365,1,80.999993236542,0|0,2:0|2:0,2:0:0:0:
155,272,68094,6,0,L|167:179,1,80.999993236542,2|0,2:0|2:0,2:0:0:0:
233,307,68410,2,0,P|193:347|80:318,1,161.999986473084,0|10,2:0|2:0,2:0:0:0:
330,352,69036,1,6,2:0:0:0:
468,260,69347,5,0,1:2:0:0:
468,260,69506,1,0,1:2:0:0:
370,175,69666,2,0,L|379:68,1,98.9999977760315,14|0,0:0|0:0,0:0:0:0:
207,135,69985,5,0,1:2:0:0:
207,135,70144,1,0,1:2:0:0:
102,59,70304,2,0,L|-11:62,1,98.9999977760315,14|0,0:0|0:0,0:0:0:0:
131,240,70612,5,0,1:2:0:0:
131,240,70769,1,0,1:2:0:0:
207,135,70927,2,0,L|204:22,1,98.9999977760315,14|0,0:0|0:0,0:0:0:0:
254,223,71243,5,2,1:2:0:0:
254,223,71401,1,4,0:0:0:0:
370,279,71559,2,0,L|480:256,1,98.9999977760315,10|4,1:2|0:0,0:0:0:0:
311,136,71875,5,2,1:2:0:0:
284,342,72033,1,0,1:2:0:0:
417,174,72190,2,0,L|433:35,1,116.999988445283,10|0,0:0|0:0,0:0:0:0:
254,223,72506,1,2,1:2:0:0:
370,279,72664,1,0,1:2:0:0:
184,318,72822,2,0,L|65:305,1,116.999988445283,10|0,0:0|0:0,0:0:0:0:
120,65,73138,6,0,B|99:168|136:232|136:232|185:135,1,233.999976890565,2|8,1:2|0:0,0:0:0:0:
424,103,73612,2,0,B|264:77|264:77|187:110,1,233.999976890565,6|4,1:2|1:2,0:0:0:0:
356,5,74090,1,8,0:2:0:0:
376,256,74243,6,0,P|467:200|423:102,1,233.999976890565,6|0,1:2|1:2,0:0:0:0:
511,318,74739,1,10,0:0:0:0:
388,176,74895,1,0,1:2:0:0:
287,279,75051,1,2,0:0:0:0:
429,338,75207,1,0,1:2:0:0:
181,315,75364,2,0,L|194:184,1,116.999988445283,10|0,0:0|1:2,0:0:0:0:
137,14,75676,6,0,B|109:77|109:77|91:241,1,233.999976890565,6|10,1:2|0:0,0:0:0:0:
285,161,76130,2,0,P|243:113|100:160,1,233.999976890565,6|6,1:2|1:2,0:0:0:0:
303,240,76605,1,8,0:0:0:0:
398,59,76764,6,0,B|426:146|399:234|399:234|365:174,1,233.999976890565,6|0,1:2|1:2,0:0:0:0:
245,328,77253,2,0,L|361:338,1,116.999988445283,10|0,0:0|0:0,0:0:0:0:
279,150,77579,2,0,L|162:160,1,116.999988445283,2|0,1:2|1:2,0:0:0:0:
314,46,77885,1,8,0:0:0:0:
93,77,78038,6,0,B|75:162|75:162|102:318,1,233.999976890565,6|2,1:2|1:2,0:0:0:0:
317,251,78518,2,0,L|172:244,1,116.999988445283,8|2,0:0|0:0,0:0:0:0:
373,154,78832,1,0,1:2:0:0:
414,339,78989,1,10,0:0:0:0:
420,300,79067,1,10,0:0:0:0:
427,264,79146,1,10,1:2:0:0:
256,80,79303,1,0,1:2:0:0:
262,119,79381,1,0,1:2:0:0:
269,155,79460,5,8,1:2:0:0:
453,175,79618,2,0,P|445:114|336:81,1,161.999986473084,6|0,1:2|1:2,0:0:0:0:
262,247,80094,2,0,L|136:258,1,116.999988445283,6|0,1:2|0:0,0:0:0:0:
48,97,80409,2,0,L|194:114,1,116.999988445283,6|0,1:2|0:0,0:0:0:0:
362,305,80725,6,0,L|358:177,1,116.999988445283,6|0,0:0|0:0,0:0:0:0:
276,342,81040,1,10,1:2:0:0:
474,294,81198,1,0,0:0:0:0:
273,124,81356,2,0,L|257:244,1,116.999988445283,2|0,1:2|1:2,0:0:0:0:
447,168,81672,2,0,L|431:48,1,116.999988445283,10|0,0:0|0:0,0:0:0:0:
257,239,81988,2,0,B|201:209|201:209|31:228,1,233.999976890565,2|8,1:2|0:0,0:0:0:0:
172,123,82456,2,0,P|161:56|118:141,1,233.999976890565,2|2,1:2|1:2,0:0:0:0:
151,309,82925,1,10,1:2:0:0:
314,132,83081,6,0,B|346:210|346:210|332:365,1,233.999976890565,6|0,1:2|1:2,0:0:0:0:
53,227,83550,2,0,L|175:220,1,116.999988445283,10|0,0:0|0:0,0:0:0:0:
243,50,83876,2,0,L|121:43,1,116.999988445283,2|0,1:2|1:2,0:0:0:0:
335,2,84191,1,8,0:0:0:0:
190,137,84349,1,2,1:2:0:0:
390,147,84507,6,0,B|427:220|389:318|389:318|355:259,1,233.999976890565,2|10,0:0|0:0,0:0:0:0:
272,132,84980,1,0,1:2:0:0:
297,328,85138,2,0,B|223:309|223:309|48:327,1,233.999976890565,2|8,0:0|0:0,0:0:0:0:
98,110,85612,6,0,P|51:147|153:224,1,233.999976890565,6|0,1:2|1:2,0:0:0:0:
172,21,86095,2,0,L|191:144,1,116.999988445283,10|0,0:0|0:0,0:0:0:0:
339,252,86409,2,0,L|358:129,1,116.999988445283,6|0,0:0|0:0,0:0:0:0:
245,219,86723,1,8,1:2:0:0:
461,174,86880,6,0,B|489:256|456:355|456:355|417:277,1,233.999976890565,6|2,1:2|0:0,0:0:0:0:
247,353,87351,2,0,L|372:349,1,116.999988445283,8|0,1:2|0:0,0:0:0:0:
161,263,87665,1,12,1:2:0:0:
225,30,87822,1,8,0:0:0:0:
228,66,87901,1,10,0:0:0:0:
233,104,87980,1,12,1:2:0:0:
339,252,88138,1,0,1:2:0:0:
342,215,88217,1,0,1:2:0:0:
347,177,88296,5,8,1:2:0:0:
140,182,88454,2,0,P|89:221|114:333,1,161.999986473084,6|0,1:2|1:2,0:0:0:0:
161,263,88937,1,14,1:2:0:0:
331,339,89098,1,0,0:0:0:0:
196,365,89260,1,14,1:2:0:0:
269,174,89417,1,0,0:0:0:0:
455,243,89575,6,0,L|335:252,1,116.999988445283,6|2,1:2|1:2,0:0:0:0:
211,82,89891,2,0,L|331:91,1,116.999988445283,10|0,0:0|0:0,0:0:0:0:
147,136,90207,2,0,P|128:85|231:0,1,197.999995552063,2|8,1:2|0:0,0:0:0:0:
201,207,90668,6,0,B|137:224|137:224|-14:204,1,197.999995552063,6|2,1:2|1:2,0:0:0:0:
59,127,91151,1,10,0:0:0:0:
95,304,91312,1,0,1:2:0:0:
164,118,91474,2,0,L|269:130,1,98.9999977760315,10|0,1:2|0:0,0:0:0:0:
347,318,91784,2,0,L|242:330,1,98.9999977760315,10|0,1:2|0:0,0:0:0:0:
444,199,92095,6,0,B|470:269|453:347|453:347|431:305,1,197.999995552063,4|10,1:2|0:0,0:0:0:0:
356,150,92567,1,0,1:2:0:0:
492,80,92724,2,0,B|415:57|415:57|261:77,1,197.999995552063,2|8,1:2|0:0,0:0:0:0:
74,119,93197,6,0,P|112:167|236:128,1,197.999995552063,6|0,1:2|1:2,0:0:0:0:
157,95,93669,1,10,0:0:0:0:
174,270,93829,1,2,1:2:0:0:
76,247,93989,1,10,1:2:0:0:
307,269,94142,1,0,0:0:0:0:
86,345,94296,2,0,L|74:235,1,98.9999977760315,10|0,1:2|0:0,0:0:0:0:
238,205,94604,6,0,B|296:178|296:178|429:201,1,197.999995552063,6|10,1:2|0:0,0:0:0:0:
342,103,95082,1,0,1:2:0:0:
165,12,95242,2,0,B|139:87|160:170|160:170|201:122,1,197.999995552063,2|8,1:2|0:0,0:0:0:0:
228,361,95721,6,0,P|277:314|207:195,1,197.999995552063,6|0,1:2|1:2,0:0:0:0:
195,281,96199,1,10,0:0:0:0:
383,303,96361,1,0,1:2:0:0:
162,165,96523,2,0,L|178:67,1,98.9999977760315,10|0,1:2|0:0,0:0:0:0:
349,104,96837,2,0,L|367:211,1,98.9999977760315,10|0,1:2|0:0,0:0:0:0:
73,220,97151,6,0,P|114:177|251:229,1,197.999995552063,6|10,1:2|0:0,0:0:0:0:
129,78,97622,1,0,0:0:0:0:
149,353,97779,2,0,L|158:248,1,98.9999977760315,6|0,1:2|0:0,0:0:0:0:
271,338,98093,1,8,0:0:0:0:
63,314,98250,1,6,1:2:0:0:
236,203,98407,6,0,L|363:219,1,98.9999977760315,0|0,0:0|1:2,0:0:0:0:
400,88,98721,1,14,0:0:0:0:
424,267,98879,1,0,0:0:0:0:
497,88,99036,2,0,L|488:191,1,98.9999977760315,2|2,1:2|1:2,0:0:0:0:
306,117,99351,2,0,L|297:14,1,98.9999977760315,14|0,0:0|0:0,0:0:0:0:
78,193,99666,6,0,L|127:194,3,49.4999988880158,2|0|0|0,1:2|0:0|1:2|1:2,0:0:0:0:
153,215,99981,2,0,L|142:317,1,98.9999977760315,2|2,0:0|1:2,0:0:0:0:
180,122,100296,1,10,1:2:0:0:
247,283,100461,1,14,1:2:0:0:
351,141,100626,1,14,0:0:0:0:
256,192,100791,5,6,1:2:0:0:
256,192,100869,12,0,105684,0:0:0:0:
