osu file format v14

[General]
AudioFilename: audio.mp3
AudioLeadIn: 0
PreviewTime:72190
Countdown: 0
SampleSet: Soft
StackLeniency: 0.4
Mode: 0
LetterboxInBreaks: 1
WidescreenStoryboard: 1

[Editor]
DistanceSpacing: 1.6
BeatDivisor: 4
GridSize: 16
TimelineZoom: 2.1

[Metadata]
Title:I Am... All Of Me (Game Ver.)
TitleUnicode:I Am... All Of Me (Game Ver.)
Artist:Crush 40
ArtistUnicode:Crush 40
Creator:-Zeraora
Version:Hard
Source:SHADOW THE HEDGEHOG
Tags:シャドウ・ザ・ヘッジホッグ op opening ORIGINAL SOUNDTRAX Jun Senoue Johnny Gioeli Takeshi Taneda Toru Kawamura WAVE MASTER WAVEMASTER INC. Sonic ソニックザヘッジホッグ ソニック ザ ヘッジホッグ ソニック・ザ・ヘッジホッグ SEGA intro LOST AND FOUND VOCAL TRAX Track オリジナル サウンドトラックス Microsoft Xbox Nintendo Gamecube GCN NGC Sony Playstation 2 PS2 Main Theme Short Version English Video Game Rock シャドウザヘッジホッグ シャドウ OFFICIAL SOUNDTRACK Penguiness Error- -Keitaro -Harpuia-
BeatmapID:1717836
BeatmapSetID:819347

[Difficulty]
HPDrainRate:5
CircleSize:3.5
OverallDifficulty:6.5
ApproachRate:8
SliderMultiplier:1.4
SliderTickRate:1

[Events]
//Background and Video events
0,0,"BG7.jpg",0,0
Video,1415,"shadow.mp4"
//Break Periods
//Storyboard Layer 0 (Background)
//Storyboard Layer 1 (Fail)
//Storyboard Layer 2 (Pass)
//Storyboard Layer 3 (Foreground)
//Storyboard Layer 4 (Overlay)
//Storyboard Sound Samples

[TimingPoints]
1149,314.96062992126,4,2,33,60,1,0
1149,-100,4,2,33,60,0,0
3038,319.148936170213,4,2,33,60,1,0
3676,315.374507227332,4,2,33,60,1,0
5568,317.460317460317,4,2,33,60,1,0
6202,315.789473684211,4,2,33,60,1,0
8096,318.302387267905,4,2,33,60,1,0
8732,315.789473684211,4,2,33,60,1,0
9995,314.13612565445,4,2,33,60,1,0
11251,317.460317460317,4,2,33,60,1,0
12838,315.789473684211,4,2,33,60,1,0
13153,317.460317460317,4,2,33,60,1,0
13787,314.13612565445,4,2,33,60,1,0
14729,309.278350515464,4,2,33,60,1,0
15038,309.278350515464,4,2,44,40,1,0
15038,-100,4,2,44,40,0,0
15347,-100,4,2,44,50,0,0
15656,-100,4,2,44,65,0,0
15965,-100,4,2,44,80,0,0
16120,324.324324324324,4,2,44,80,1,0
16120,-100,4,2,44,75,0,0
16282,324.324324324324,4,2,44,75,1,0
16282,-100,4,2,44,75,0,0
16444,-100,4,2,44,50,0,0
16606,-100,4,2,55,75,0,0
16930,315.789473684211,4,2,55,75,1,0
17561,314.13612565445,4,2,55,75,1,0
19131,319.148936170213,4,2,55,75,1,0
20088,315.789473684211,4,2,55,75,1,0
20719,309.278350515464,4,2,55,75,1,0
21105,-100,4,2,55,5,0,0
21182,-100,4,2,44,50,0,0
21646,320.855614973262,4,2,44,50,1,0
21646,-100,4,2,55,75,0,0
22608,314.96062992126,4,2,55,75,1,0
24182,319.148936170213,4,2,55,75,1,0
25139,322.58064516129,4,2,55,75,1,0
25784,285.714285714286,4,2,55,75,1,0
25926,319.148936170213,4,2,55,75,1,0
26245,-100,4,2,44,40,0,0
26723,315.789473684211,4,2,55,80,1,0
26723,-100,4,2,55,80,0,0
27038,-100,4,2,55,40,0,0
27354,-100,4,2,55,80,0,0
27670,310.880829015544,4,2,55,40,1,0
27670,-100,4,2,55,40,0,0
27980,-100,4,2,55,80,0,0
28291,-100,4,2,55,40,0,0
28447,-100,4,2,55,80,0,0
28758,326.086956521739,4,2,55,80,1,0
28758,-100,4,2,55,50,0,0
28921,326.086956521739,4,2,55,50,1,0
29247,315.789473684211,4,2,55,70,1,0
29247,-100,4,2,55,70,0,0
30194,315.789473684211,4,2,55,70,1,0
30667,-99.7,4,2,55,70,0,0
30825,312.5,4,2,55,70,1,0
31293,317.460317460317,4,2,55,70,1,0
31451,317.460317460317,4,2,55,70,1,0
32720,312.5,4,2,55,70,1,0
33813,326.086956521739,4,2,55,70,1,0
33976,326.086956521739,4,2,55,70,1,0
34302,314.13612565445,4,2,55,70,1,0
35244,314.13612565445,4,2,55,70,1,0
36343,327.868852459016,4,2,55,70,1,0
36506,327.868852459016,4,2,55,70,1,0
36833,314.13612565445,4,2,55,85,1,0
36833,-100,4,2,55,85,0,0
38089,300,4,2,55,85,1,0
38389,315.789473684211,4,2,55,85,1,0
38546,-100,4,2,55,80,0,0
38862,326.086956521739,4,2,55,80,1,0
38862,-100,4,2,55,80,0,0
39025,326.086956521739,4,2,55,80,1,0
39188,-100,4,2,55,50,0,0
39351,315.374507227332,4,2,55,80,1,0
39351,-100,4,2,55,80,0,0
40297,315.374507227332,4,2,55,80,1,0
43923,319.148936170213,4,2,55,80,1,0
44082,319.148936170213,4,2,55,80,1,0
45358,310.880829015544,4,2,55,80,1,0
46446,324.324324324324,4,2,55,80,1,0
46608,324.324324324324,4,2,55,80,1,0
46932,313.31592689295,4,2,55,80,1,0
47871,309.278350515464,4,2,55,80,1,0
47871,-100,4,2,55,80,0,0
48953,352.941176470588,4,2,55,80,1,0
49129,320.855614973262,4,2,55,80,1,0
49129,-117.647058823529,4,2,33,50,0,0
50412,315.457413249211,4,2,33,50,1,0
50412,-117.647058823529,4,2,33,50,0,0
52935,315.789473684211,4,2,33,50,1,0
52935,-117.647058823529,4,2,33,50,0,0
55461,317.460317460317,4,2,33,50,1,0
55461,-117.647058823529,4,2,33,50,0,0
56730,315.623356128354,4,2,33,50,1,0
56730,-117.647058823529,4,2,33,50,0,0
59254,316.622691292876,4,2,33,40,1,0
59254,-117.647058823529,4,2,33,40,0,0
59570,-117.647058823529,4,2,33,60,0,0
61786,314.13612565445,4,2,33,60,1,0
61786,-117.647058823529,4,2,33,60,0,0
63042,315.789473684211,4,2,33,60,1,0
63042,-117.647058823529,4,2,33,60,0,0
66831,-117.647058823529,4,2,33,65,0,0
68094,-117.647058823529,4,2,33,70,0,0
68726,310.880829015544,4,2,33,75,1,0
68726,-117.647058823529,4,2,33,75,0,0
69036,-117.647058823529,4,2,44,80,0,0
69347,319.148936170213,4,2,55,50,1,0
69347,-100,4,2,55,50,0,0
69666,-100,4,2,55,90,0,0
69985,-100,4,2,55,50,0,0
70304,308.483290488432,4,2,55,90,1,0
70304,-100,4,2,55,90,0,0
70612,315.789473684211,4,2,55,50,1,0
70612,-100,4,2,55,50,0,0
70927,-100,4,2,55,90,0,0
71243,-100,4,2,55,50,0,0
71401,-100,4,2,55,90,0,0
71875,-100,4,2,55,50,0,0
72190,-100,4,2,55,90,0,1
73612,319.148936170213,4,2,55,90,1,1
74090,307.692307692308,4,2,55,90,1,1
74243,331.491712707182,4,2,55,90,1,1
74408,331.491712707182,4,2,55,90,1,1
74739,312.5,4,2,55,90,1,1
75676,303.030303030303,4,2,55,90,1,1
76130,317.460317460317,4,2,55,90,1,1
76288,317.460317460317,4,2,55,90,1,1
76764,326.086956521739,4,2,55,90,1,1
76927,326.086956521739,4,2,55,90,1,1
77579,306.122448979592,4,2,55,90,1,1
78038,320.855614973262,4,2,55,90,1,1
78198,320.855614973262,4,2,55,90,1,1
78518,314.13612565445,4,2,55,90,1,1
79303,-100,4,2,55,80,0,1
79460,317.460317460317,4,2,55,80,1,0
79460,-76.9230769230769,4,2,55,80,0,0
79618,-100,4,2,55,80,0,0
80094,315.789473684211,4,2,55,85,1,0
80094,-100,4,2,55,85,0,0
80409,-100,4,2,55,90,0,0
80725,315.789473684211,4,2,55,50,1,0
80725,-100,4,2,55,50,0,0
81040,-100,4,2,55,90,0,1
81988,312.5,4,2,55,90,1,1
83550,326.086956521739,4,2,55,90,1,1
83876,315.789473684211,4,2,55,90,1,1
84507,315.789473684211,4,2,55,90,1,1
85612,322.58064516129,4,2,55,90,1,1
85773,322.58064516129,4,2,55,90,1,1
86095,314.13612565445,4,2,55,90,1,1
87037,314.13612565445,4,2,55,90,1,1
87665,315.789473684211,4,2,55,90,1,1
88138,-100,4,2,55,80,0,1
88296,-76.9230769230769,4,2,55,80,0,0
88454,322.58064516129,4,2,55,80,1,0
88454,-100,4,2,55,80,0,0
88615,322.58064516129,4,2,55,80,1,0
88937,-100,4,2,55,85,0,0
89260,315.789473684211,4,2,55,90,1,0
89260,-100,4,2,55,90,0,0
89575,-100,4,2,55,90,0,0
89733,-100,4,2,55,40,0,0
90207,307.692307692308,4,2,55,90,1,0
90207,-100,4,2,55,90,0,0
90668,322.58064516129,4,2,55,90,1,0
90829,322.58064516129,4,2,55,90,1,0
91474,310.880829015544,4,2,55,90,1,0
92095,314.96062992126,4,2,55,90,1,0
93669,320,4,2,55,90,1,0
93989,307.692307692308,4,2,55,90,1,0
94604,319.148936170213,4,2,55,90,1,0
96199,324.324324324324,4,2,55,90,1,0
96523,314.13612565445,4,2,55,90,1,0
97151,314.13612565445,4,2,55,90,1,0
98407,314.96062992126,4,2,55,90,1,0
99666,-100,4,2,55,50,0,0
99981,-100,4,2,55,80,0,0
100139,-100,4,2,55,50,0,0
100296,330.214639515685,4,2,55,90,1,0
100296,-100,4,2,55,90,0,0
100461,-100,4,2,55,70,0,0
100626,-100,4,2,55,80,0,0
100791,315.789473684211,4,2,55,100,1,0
100791,-100,4,2,55,100,0,0
100869,-100,4,2,55,5,0,0
100948,315.789473684211,4,2,55,5,1,0

[Colours]
Combo1 : 215,215,215
Combo2 : 238,92,92
Combo3 : 215,215,215
Combo4 : 238,172,92
SliderBorder : 255,105,35
SliderTrackOverride : 20,0,0

[HitObjects]
126,26,1149,6,0,L|133:106,1,70,6|0,0:0|0:0,0:0:0:0:
200,167,1463,2,0,L|194:247,1,70,2|0,0:0|0:0,0:0:0:0:
128,352,1778,2,0,B|161:321|161:321|256:313,1,140,8|2,0:0|0:0,0:0:0:0:
354,304,2251,1,2,0:0:0:0:
482,339,2408,6,0,P|460:300|458:270,1,70,2|2,0:0|0:0,0:0:0:0:
391,202,2723,2,0,P|409:172|414:138,1,70,2|0,2:1|0:0,0:0:0:0:
377,47,3038,1,8,0:0:0:0:
377,47,3357,1,2,0:0:0:0:
377,47,3676,6,0,L|297:54,1,70,2|0,0:0|0:0,0:0:0:0:
236,121,3991,2,0,L|156:115,1,70,2|0,0:0|0:0,0:0:0:0:
49,52,4306,2,0,P|73:116|49:180,1,140,8|0,0:0|0:0,0:0:0:0:
5,267,4779,6,0,L|164:253,1,140,2|2,0:0|0:0,0:0:0:0:
210,327,5252,2,0,P|235:290|242:261,1,70,2|2,0:0|0:0,0:0:0:0:
325,161,5568,2,0,P|335:194|357:221,1,70,10|2,0:0|0:0,0:0:0:0:
449,255,5885,2,0,P|390:287|365:351,1,105,2|0,0:0|0:0,0:0:0:0:
368,353,6202,6,0,L|283:344,1,70,6|0,0:0|0:0,0:0:0:0:
241,266,6517,2,0,L|171:271,1,70,2|0,0:0|0:0,0:0:0:0:
82,371,6833,2,0,B|86:318|86:318|73:286|73:286|77:233,1,140,8|2,0:0|0:0,0:0:0:0:
28,147,7307,1,2,0:0:0:0:
84,27,7465,6,0,P|121:52|150:59,1,70,2|2,0:0|0:0,0:0:0:0:
220,121,7780,2,0,P|247:99|280:89,1,70,2|0,2:1|0:0,0:0:0:0:
373,55,8096,1,8,0:0:0:0:
373,55,8414,1,2,0:0:0:0:
373,55,8732,6,0,L|368:125,1,70,2|0,0:0|0:0,0:0:0:0:
293,187,9047,2,0,L|298:257,1,70,2|0,0:0|0:0,0:0:0:0:
385,358,9363,2,0,B|347:333|347:333|252:341,1,140,8|0,0:0|0:0,0:0:0:0:
155,328,9837,6,0,P|198:277|198:207,1,140,2|2,0:0|0:0,0:0:0:0:
185,110,10309,2,0,P|157:130|123:141,1,70,2|2,0:0|0:0,0:0:0:0:
8,207,10623,2,0,P|41:217|69:238,1,70,10|2,0:0|0:0,0:0:0:0:
118,331,10937,2,0,L|245:319,1,105,2|0,0:0|0:0,0:0:0:0:
253,341,11251,6,0,L|322:334,1,70,6|0,0:0|0:0,0:0:0:0:
378,253,11568,2,0,L|358:185,1,70,2|0,0:0|0:0,0:0:0:0:
399,58,11885,2,0,P|371:78|337:89,1,70,8|0,0:0|0:0,0:0:0:0:
265,156,12203,2,0,P|237:135|203:124,1,70,2|0,0:0|0:0,0:0:0:0:
104,34,12520,6,0,L|110:103,1,70,2|0,0:0|0:0,0:0:0:0:
23,150,12838,2,0,L|16:219,1,70,2|0,0:0|0:0,0:0:0:0:
144,177,13153,2,0,L|150:246,1,70,10|0,0:0|0:0,0:0:0:0:
63,293,13470,2,0,L|56:362,1,70,2|0,0:0|0:0,0:0:0:0:
183,320,13787,5,2,0:0:0:0:
183,320,14101,1,2,0:0:0:0:
183,320,14415,2,0,B|167:309|167:309|225:280|283:309,1,140,14|2,0:0|0:0,0:0:0:0:
367,359,14883,1,0,0:0:0:0:
457,255,15038,5,12,0:0:0:0:
457,255,15192,1,8,0:0:0:0:
353,165,15347,1,8,0:0:0:0:
353,165,15501,1,8,0:0:0:0:
263,269,15656,1,12,0:0:0:0:
263,269,15811,1,8,0:0:0:0:
360,262,15965,1,8,0:0:0:0:
273,363,16120,6,0,B|220:357|220:357|190:339|190:339|137:334,1,140,4|2,1:2|0:0,0:0:0:0:
22,270,16606,2,0,P|48:246|81:235,1,70,10|2,1:2|0:0,0:0:0:0:
180,246,16930,2,0,B|155:208|155:208|163:113,1,140,2|8,1:2|0:0,0:0:0:0:
176,15,17403,1,2,0:0:0:0:
282,94,17561,6,0,L|351:88,1,70,2|0,1:2|1:2,0:0:0:0:
417,14,17875,1,10,0:0:0:0:
417,14,18032,1,0,0:0:0:0:
492,131,18189,2,0,P|502:175|497:205,2,70,2|2|8,1:2|0:0|1:2,0:0:0:0:
403,174,18660,6,0,B|350:180|350:180|320:198|320:198|267:203,1,140,6|0,1:2|1:2,0:0:0:0:
176,105,19131,2,0,L|182:174,1,70,10|0,0:0|0:0,0:0:0:0:
49,161,19450,2,0,L|41:230,1,70,2|0,1:2|1:2,0:0:0:0:
175,248,19769,2,0,L|181:317,1,70,10|0,0:0|0:0,0:0:0:0:
60,377,20088,6,0,P|81:350|92:316,1,70,2|2,1:2|1:2,0:0:0:0:
43,231,20403,1,8,0:0:0:0:
175,248,20561,1,2,0:0:0:0:
175,248,20873,1,6,1:2:0:0:
175,248,21182,6,0,B|158:239|158:239|217:224|217:224|276:239,1,140,4|2,1:2|0:0,0:0:0:0:
404,278,21646,1,10,1:2:0:0:
404,278,21806,1,2,0:0:0:0:
361,190,21966,1,2,1:2:0:0:
361,190,22127,1,2,1:2:0:0:
475,122,22287,1,8,0:0:0:0:
432,34,22448,1,2,0:0:0:0:
318,102,22608,6,0,P|283:107|249:101,1,70,2|0,1:2|1:2,0:0:0:0:
171,40,22922,1,10,0:0:0:0:
171,40,23080,1,0,0:0:0:0:
56,108,23237,2,0,P|49:142|55:176,2,70,2|2|8,1:2|1:2|0:0,0:0:0:0:
148,143,23710,6,0,B|148:239|148:239|94:285,1,140,6|0,1:2|1:2,0:0:0:0:
208,363,24182,2,0,L|277:357,1,70,10|0,0:0|0:0,0:0:0:0:
246,226,24501,2,0,L|315:232,1,70,2|0,1:2|1:2,0:0:0:0:
361,358,24820,2,0,L|430:352,1,70,10|0,0:0|0:0,0:0:0:0:
466,222,25139,6,0,P|429:197|400:190,1,70,2|2,1:2|1:2,0:0:0:0:
316,232,25461,1,8,0:0:0:0:
356,105,25622,1,2,0:0:0:0:
356,105,25926,1,6,1:2:0:0:
356,105,26245,6,0,B|372:94|372:94|314:65|256:94,1,140,4|0,1:2|0:0,0:0:0:0:
145,18,26723,1,14,0:0:0:0:
145,18,27038,5,0,1:2:0:0:
159,115,27196,1,0,1:2:0:0:
28,140,27354,1,14,0:0:0:0:
28,140,27670,5,0,1:2:0:0:
107,198,27825,1,0,1:2:0:0:
37,311,27980,1,14,0:0:0:0:
37,311,28291,5,0,1:2:0:0:
106,198,28447,2,0,P|141:203|170:221,1,70,14|0,0:0|1:2,0:0:0:0:
256,272,28758,6,0,L|256:132,1,140,4|0,1:2|1:2,0:0:0:0:
221,40,29247,2,0,P|255:34|289:39,1,70,10|0,1:2|0:0,0:0:0:0:
338,164,29562,2,0,B|376:140|376:140|471:147,1,140,2|8,1:2|0:0,0:0:0:0:
425,234,30036,1,0,0:0:0:0:
501,342,30194,6,0,B|448:336|448:336|418:318|418:318|365:313,1,140,2|8,1:2|0:0,0:0:0:0:
248,377,30667,2,0,P|273:312|249:248,1,140,2|2,0:0|1:2,0:0:0:0:
175,313,31137,1,10,0:0:0:0:
56,252,31293,1,4,1:2:0:0:
56,252,31609,5,0,1:2:0:0:
131,187,31768,2,0,P|136:152|131:118,1,70,10|0,1:2|0:0,0:0:0:0:
16,50,32085,2,0,B|69:44|69:44|99:26|99:26|152:21,1,140,2|10,1:2|0:0,0:0:0:0:
224,87,32562,1,0,0:0:0:0:
347,37,32720,6,0,B|338:20|338:20|323:79|323:79|338:138,1,140,2|8,1:2|0:0,0:0:0:0:
465,177,33188,2,0,P|402:205|373:267,1,140,2|2,0:0|1:2,0:0:0:0:
417,356,33657,1,10,0:0:0:0:
289,317,33813,1,4,1:2:0:0:
289,317,34139,5,0,1:2:0:0:
373,267,34302,2,0,P|378:232|373:198,1,70,10|0,1:2|0:0,0:0:0:0:
454,93,34616,2,0,L|310:105,1,140,2|10,1:2|0:0,0:0:0:0:
255,183,35087,1,0,0:0:0:0:
200,61,35244,6,0,B|162:85|162:85|67:78,1,140,2|8,1:2|0:0,0:0:0:0:
32,207,35715,2,0,P|88:167|156:175,1,140,2|2,0:0|1:2,0:0:0:0:
112,263,36186,1,8,0:0:0:0:
243,280,36343,1,4,1:2:0:0:
243,280,36669,5,0,1:2:0:0:
307,353,36833,2,0,P|332:316|339:287,1,70,10|0,1:2|0:0,0:0:0:0:
469,262,37147,2,0,P|447:235|437:202,1,70,2|0,1:2|1:2,0:0:0:0:
305,178,37461,2,0,P|330:141|337:112,1,70,10|0,0:0|0:0,0:0:0:0:
466,85,37775,6,0,P|455:51|433:24,1,70,2|0,1:2|1:2,0:0:0:0:
300,11,38089,1,10,0:0:0:0:
342,111,38239,1,2,0:0:0:0:
342,111,38314,1,0,0:0:0:0:
342,111,38389,1,8,1:2:0:0:
262,217,38546,1,6,1:2:0:0:
262,217,38862,6,0,B|242:211|242:211|286:207|286:207|317:216|317:216|360:212,1,140,4|0,1:2|1:2,0:0:0:0:
452,306,39351,2,0,L|357:315,1,70,10|0,0:0|0:0,0:0:0:0:
299,365,39666,1,2,1:2:0:0:
299,365,39824,1,2,1:2:0:0:
264,236,39981,2,0,P|235:255|201:265,1,70,10|0,0:0|0:0,0:0:0:0:
106,359,40297,6,0,L|119:206,1,140,2|8,1:2|0:0,0:0:0:0:
77,130,40770,2,0,B|61:119|61:119|119:90|177:119,1,140,0|2,0:0|1:2,0:0:0:0:
225,205,41243,1,8,0:0:0:0:
225,205,41400,2,0,P|268:154|268:84,1,140,6|0,1:2|1:2,0:0:0:0:
391,29,41873,6,0,L|400:124,1,70,10|0,1:2|0:0,0:0:0:0:
470,164,42189,1,2,1:2:0:0:
470,164,42346,1,2,1:2:0:0:
341,197,42504,2,0,P|361:224|372:258,1,70,10|0,0:0|0:0,0:0:0:0:
451,367,42819,6,0,B|413:343|413:343|318:350,1,140,2|8,1:2|0:0,0:0:0:0:
219,355,43293,2,0,B|208:371|208:371|179:313|208:255,1,140,0|2,0:0|1:2,0:0:0:0:
265,175,43766,1,8,0:0:0:0:
265,175,43923,2,0,P|198:157|136:187,1,140,6|0,1:2|1:2,0:0:0:0:
39,96,44401,6,0,L|51:239,1,140,10|2,1:2|1:2,0:0:0:0:
137,187,44879,1,2,1:2:0:0:
194,306,45039,2,0,P|221:285|254:274,1,70,10|0,0:0|0:0,0:0:0:0:
265,175,45358,6,0,P|316:218|386:217,1,140,6|10,1:2|0:0,0:0:0:0:
482,244,45824,2,0,L|473:149,1,70,0|2,0:0|1:2,0:0:0:0:
472,76,46135,1,10,1:2:0:0:
472,76,46290,1,10,0:0:0:0:
353,133,46446,1,8,1:2:0:0:
280,21,46608,6,0,B|246:51|246:51|151:60,1,140,6|8,0:0|1:2,0:0:0:0:
56,34,47088,1,0,0:0:0:0:
3,156,47245,2,0,B|56:152|56:152|88:165|88:165|141:160,1,140,2|10,1:2|0:0,0:0:0:0:
140,160,47871,6,0,L|133:229,1,70,10|10,0:0|0:0,0:0:0:0:
228,204,48180,2,0,L|248:281,1,70,10|10,0:0|0:0,0:0:0:0:
325,215,48489,1,10,0:0:0:0:
381,295,48644,1,10,0:0:0:0:
420,192,48798,1,10,0:0:0:0:
501,247,48953,1,10,0:0:0:0:
502,138,49129,5,4,0:0:0:0:
502,138,49449,2,0,P|500:108|509:80,1,59.5000011348725,2|0,2:1|0:0,0:0:0:0:
415,94,49770,2,0,B|366:63|366:63|245:72,1,178.500003404617,10|0,2:1|2:1,0:0:0:0:
172,134,50412,2,0,B|220:164|220:164|341:155,1,178.500003404617,2|0,2:1|2:1,0:0:0:0:
428,253,51042,2,0,B|360:258|360:258|320:241|320:241|253:247,1,178.500003404617,10|0,2:1|2:1,0:0:0:0:
170,295,51673,5,2,0:0:0:0:
170,295,51989,2,0,P|145:278|116:273,1,59.5000011348725,2|0,2:1|0:0,0:0:0:0:
33,319,52304,2,0,P|30:232|98:179,1,178.500003404617,10|0,0:0|0:0,0:0:0:0:
172,72,52935,2,0,B|213:100|213:100|126:164|40:100,2,238.00000453949,2|8|2,0:0|0:0|0:0,0:0:0:0:
172,72,54513,6,0,L|240:72,1,59.5000011348725,2|0,2:1|0:0,0:0:0:0:
345,5,54829,2,0,P|333:62|359:114,1,119.000002269745,8|2,0:0|0:0,0:0:0:0:
450,138,55303,1,2,0:0:0:0:
344,213,55461,6,0,L|349:280,1,59.5000011348725,2|2,0:0|2:1,0:0:0:0:
267,324,55778,1,2,2:0:0:0:
267,324,56095,2,0,P|238:316|208:318,1,59.5000011348725,10|2,0:0|0:0,0:0:0:0:
192,225,56413,2,0,P|163:233|140:251,1,59.5000011348725,2|2,2:0|2:1,0:0:0:0:
41,339,56730,6,0,L|50:220,1,119.000002269745,2|0,0:0|0:0,0:0:0:0:
124,159,57203,1,2,2:1:0:0:
56,46,57361,2,0,L|199:33,1,119.000002269745,8|2,0:0|0:0,0:0:0:0:
270,32,57834,1,2,0:0:0:0:
356,131,57992,6,0,P|347:159|347:188,1,59.5000011348725,2|2,0:0|2:1,0:0:0:0:
252,201,58308,2,0,P|259:229|276:254,1,59.5000011348725,2|0,0:0|0:0,0:0:0:0:
364,351,58623,2,0,B|318:348|318:348|291:357|291:357|246:354,2,119.000002269745,8|2|2,0:0|2:1|0:0,0:0:0:0:
364,351,59570,6,0,L|369:291,1,59.5000011348725,0|2,0:0|2:1,0:0:0:0:
490,240,59887,2,0,B|463:211|463:211|456:131,1,119.000002269745,8|0,0:0|0:0,0:0:0:0:
456,132,60520,5,2,0:0:0:0:
367,165,60678,1,2,0:0:0:0:
292,57,60837,2,0,P|262:52|233:56,1,59.5000011348725,2|0,2:1|0:0,0:0:0:0:
164,123,61153,2,0,P|138:70|149:13,2,119.000002269745,8|2|2,0:0|2:1|0:0,0:0:0:0:
164,123,62100,5,2,0:0:0:0:
79,166,62257,1,2,2:1:0:0:
157,270,62414,2,0,L|158:329,1,59.5000011348725,10|0,2:1|0:0,0:0:0:0:
66,356,62728,2,0,L|65:297,1,59.5000011348725,2|0,2:0|0:0,0:0:0:0:
79,166,63042,6,0,B|111:187|111:187|191:180,1,119.000002269745,2|0,2:1|0:0,0:0:0:0:
286,170,63515,1,0,0:0:0:0:
364,115,63673,2,0,P|382:170|363:225,2,119.000002269745,10|0|2,0:0|0:0|0:0,0:0:0:0:
364,115,64620,6,0,L|369:55,1,59.5000011348725,2|2,2:1|0:0,0:0:0:0:
500,37,64936,2,0,L|489:155,1,119.000002269745,10|2,2:1|0:0,0:0:0:0:
476,250,65410,1,2,2:1:0:0:
371,330,65568,6,0,P|341:335|312:330,1,59.5000011348725,2|0,0:0|0:0,0:0:0:0:
246,260,65884,2,0,P|216:255|187:260,1,59.5000011348725,2|0,0:0|0:0,0:0:0:0:
101,298,66199,1,8,0:0:0:0:
101,298,66515,2,0,L|95:238,1,59.5000011348725,2|0,2:1|0:0,0:0:0:0:
9,138,66831,6,0,B|54:140|54:140|81:131|81:131|126:134,1,119.000002269745,2|2,0:0|2:1,0:0:0:0:
190,206,67305,1,2,0:0:0:0:
255,92,67463,2,0,P|298:131|356:137,1,119.000002269745,8|2,0:0|0:0,0:0:0:0:
423,72,67936,1,2,2:1:0:0:
439,201,68094,6,0,L|444:260,1,59.5000011348725,2|0,0:0|0:0,0:0:0:0:
351,239,68410,2,0,L|335:296,1,59.5000011348725,2|0,0:0|0:0,0:0:0:0:
255,244,68726,2,0,L|220:292,1,59.5000011348725,10|0,2:1|0:0,0:0:0:0:
115,250,69036,2,0,L|163:215,1,59.5000011348725,6|0,0:0|0:0,0:0:0:0:
25,215,69347,5,0,1:2:0:0:
25,215,69506,1,0,1:2:0:0:
123,124,69666,2,0,L|43:117,1,70,14|0,0:0|0:0,0:0:0:0:
94,29,69985,1,0,1:2:0:0:
94,29,70144,1,0,1:2:0:0:
192,118,70304,2,0,L|122:124,1,70,14|0,0:0|0:0,0:0:0:0:
164,215,70612,5,0,1:2:0:0:
164,215,70769,1,0,1:2:0:0:
262,125,70927,2,0,L|182:118,1,70,14|0,0:0|0:0,0:0:0:0:
233,29,71243,1,2,1:2:0:0:
233,29,71401,1,4,0:0:0:0:
331,118,71559,2,0,L|262:125,1,70,10|4,1:2|0:0,0:0:0:0:
304,216,71875,5,2,1:2:0:0:
304,216,72033,1,0,1:2:0:0:
210,309,72190,6,0,P|173:284|144:277,1,70,10|0,0:0|0:0,0:0:0:0:
16,250,72506,2,0,P|49:236|74:212,1,70,2|0,1:2|1:2,0:0:0:0:
164,112,72822,2,0,P|159:146|167:180,1,70,10|0,0:0|0:0,0:0:0:0:
210,309,73138,6,0,B|305:300|305:300|338:269,1,140,2|8,1:2|0:0,0:0:0:0:
411,333,73612,2,0,P|386:268|410:204,1,140,6|4,1:2|1:2,0:0:0:0:
494,153,74090,1,8,0:2:0:0:
412,47,74243,6,0,B|344:63|344:63|276:47,1,140,6|0,1:2|1:2,0:0:0:0:
181,19,74739,2,0,L|187:98,1,70,10|0,0:0|1:2,0:0:0:0:
100,43,75051,2,0,L|106:122,1,70,2|0,0:0|1:2,0:0:0:0:
19,67,75364,2,0,L|25:146,1,70,10|0,0:0|1:2,0:0:0:0:
37,270,75676,6,0,B|21:259|21:259|79:230|137:259,1,140,6|10,1:2|0:0,0:0:0:0:
222,209,76130,2,0,L|236:368,1,140,6|6,1:2|1:2,0:0:0:0:
319,298,76605,1,8,0:0:0:0:
441,349,76764,6,0,B|410:316|410:316|401:221,1,140,6|0,1:2|1:2,0:0:0:0:
447,135,77253,2,0,L|441:65,1,70,10|0,0:0|1:2,0:0:0:0:
337,73,77579,2,0,L|342:142,1,70,2|0,1:2|1:2,0:0:0:0:
401,221,77885,1,8,0:0:0:0:
286,269,78038,6,0,P|249:244|220:237,1,70,6|2,1:2|0:0,0:0:0:0:
184,148,78358,2,0,P|157:170|124:180,1,70,2|8,1:2|0:0,0:0:0:0:
33,141,78675,2,0,L|20:281,2,140,2|10|0,0:0|0:0|1:2,0:0:0:0:
42,43,79460,1,8,1:2:0:0:
152,117,79618,6,0,B|136:106|136:106|194:77|252:106,1,140,6|0,1:2|1:2,0:0:0:0:
327,42,80094,2,0,P|343:72|350:106,1,70,6|0,1:2|0:0,0:0:0:0:
443,140,80409,2,0,P|425:169|398:192,1,70,6|0,1:2|0:0,0:0:0:0:
415,289,80725,5,6,0:0:0:0:
415,289,80882,1,0,0:0:0:0:
307,366,81040,6,0,P|274:354|239:353,1,70,10|0,1:2|0:0,0:0:0:0:
103,365,81356,2,0,P|130:341|147:311,1,70,2|0,1:2|1:2,0:0:0:0:
205,189,81672,2,0,P|210:222|227:253,1,70,10|0,0:0|0:0,0:0:0:0:
361,268,81988,6,0,P|398:210|388:143,1,140,2|8,1:2|0:0,0:0:0:0:
416,49,82456,2,0,L|272:61,1,140,2|2,1:2|1:2,0:0:0:0:
178,73,82925,1,10,1:2:0:0:
59,11,83081,6,0,P|84:75|60:139,1,140,6|0,1:2|1:2,0:0:0:0:
33,234,83550,2,0,L|112:227,1,70,10|0,0:0|0:0,0:0:0:0:
62,317,83876,2,0,B|157:308|157:308|190:277,1,140,2|8,1:2|0:0,0:0:0:0:
305,343,84349,6,0,P|280:279|304:215,1,140,2|0,1:2|1:2,0:0:0:0:
331,120,84822,2,0,L|251:126,1,70,10|0,0:0|1:2,0:0:0:0:
185,63,85138,2,0,B|218:31|218:31|313:23,1,140,2|8,0:0|0:0,0:0:0:0:
431,82,85612,6,0,B|442:66|442:66|471:124|442:182,1,140,6|0,1:2|1:2,0:0:0:0:
494,265,86095,1,10,0:0:0:0:
494,265,86409,2,0,L|354:277,1,140,2|8,0:0|1:2,0:0:0:0:
240,347,86880,6,0,P|274:290|262:220,1,140,6|2,1:2|0:0,0:0:0:0:
288,126,87351,1,8,1:2:0:0:
288,126,87665,2,0,P|252:122|218:131,1,70,8|8,1:2|0:0,0:0:0:0:
165,48,87980,2,0,P|139:72|124:104,1,70,8|0,1:2|1:2,0:0:0:0:
151,199,88296,5,8,1:2:0:0:
53,288,88454,2,0,B|106:284|106:284|138:297|138:297|191:292,1,140,6|0,1:2|1:2,0:0:0:0:
282,257,88937,2,0,L|282:327,1,70,14|0,1:2|0:0,0:0:0:0:
345,181,89260,2,0,L|380:242,1,70,14|0,1:2|0:0,0:0:0:0:
422,119,89575,6,0,L|289:42,1,140,6|10,1:2|0:0,0:0:0:0:
301,49,90207,2,0,P|239:73|173:49,1,140,2|8,1:2|0:0,0:0:0:0:
41,22,90668,6,0,B|71:55|71:55|80:150,1,140,6|2,1:2|1:2,0:0:0:0:
30,274,91151,2,0,P|67:249|96:242,1,70,10|0,0:0|1:2,0:0:0:0:
173,295,91474,1,10,1:2:0:0:
173,295,91784,1,10,1:2:0:0:
173,295,92095,6,0,B|226:295|226:295|256:311|256:311|310:311,1,140,4|10,1:2|0:0,0:0:0:0:
309,311,92724,2,0,P|335:250|399:220,1,140,2|8,1:2|0:0,0:0:0:0:
485,118,93197,6,0,B|447:141|447:141|352:134,1,140,6|0,1:2|1:2,0:0:0:0:
229,187,93669,2,0,P|249:159|260:125,1,70,10|0,0:0|1:2,0:0:0:0:
236,31,93989,1,10,1:2:0:0:
236,31,94296,1,10,1:2:0:0:
236,31,94604,6,0,B|168:47|168:47|100:31,1,140,6|10,1:2|0:0,0:0:0:0:
100,31,95242,2,0,P|99:97|52:149,1,140,2|8,1:2|0:0,0:0:0:0:
23,280,95721,6,0,B|56:250|56:250|150:241,1,140,6|0,1:2|1:2,0:0:0:0:
283,227,96199,2,0,P|259:201|246:168,1,70,10|0,0:0|1:2,0:0:0:0:
262,73,96523,1,10,1:2:0:0:
262,73,96837,1,10,1:2:0:0:
262,73,97151,5,6,1:2:0:0:
355,120,97308,1,2,1:2:0:0:
476,68,97465,2,0,L|467:163,1,70,10|0,0:0|0:0,0:0:0:0:
495,233,97779,2,0,P|434:259|404:323,1,140,6|8,1:2|0:0,0:0:0:0:
274,354,98250,6,0,B|297:316|297:316|290:221,1,140,6|0,1:2|1:2,0:0:0:0:
166,272,98721,2,0,P|129:247|100:240,1,70,14|0,0:0|0:0,0:0:0:0:
11,270,99036,1,2,1:2:0:0:
11,270,99194,1,2,1:2:0:0:
23,137,99351,2,0,L|102:130,1,70,14|0,0:0|0:0,0:0:0:0:
183,170,99666,5,2,1:2:0:0:
280,162,99824,1,0,1:2:0:0:
280,162,99903,1,0,1:2:0:0:
280,162,99981,2,0,L|382:151,1,70,2|2,0:0|1:2,0:0:0:0:
367,22,100296,1,10,1:2:0:0:
461,46,100461,5,14,1:2:0:0:
448,143,100626,1,14,0:0:0:0:
425,281,100791,1,6,1:2:0:0:
256,192,100869,12,0,105684,0:0:0:0:
