osu file format v14

[General]
AudioFilename: audio.mp3
AudioLeadIn: 0
PreviewTime:72190
Countdown: 0
SampleSet: Soft
StackLeniency: 0.2
Mode: 0
LetterboxInBreaks: 1
WidescreenStoryboard: 0

[Editor]
DistanceSpacing: 1
BeatDivisor: 4
GridSize: 16
TimelineZoom: 1.49

[Metadata]
Title:I Am... All Of Me (Game Ver.)
TitleUnicode:I Am... All Of Me (Game Ver.)
Artist:Crush 40
ArtistUnicode:Crush 40
Creator:-Zeraora
Version:Extra
Source:SHADOW THE HEDGEHOG
Tags:シャドウ・ザ・ヘッジホッグ op opening ORIGINAL SOUNDTRAX Jun Senoue Johnny Gioeli Takeshi Taneda Toru Kawamura WAVE MASTER WAVEMASTER INC. Sonic ソニックザヘッジホッグ ソニック ザ ヘッジホッグ ソニック・ザ・ヘッジホッグ SEGA intro LOST AND FOUND VOCAL TRAX Track オリジナル サウンドトラックス Microsoft Xbox Nintendo Gamecube GCN NGC Sony Playstation 2 PS2 Main Theme Short Version English Video Game Rock シャドウザヘッジホッグ シャドウ OFFICIAL SOUNDTRACK Penguiness Error- -Keitaro -Harpuia-
BeatmapID:1717839
BeatmapSetID:819347

[Difficulty]
HPDrainRate:6
CircleSize:3.8
OverallDifficulty:8
ApproachRate:9.2
SliderMultiplier:1.8
SliderTickRate:1

[Events]
//Background and Video events
Video,1415,"shadow.mp4"
0,0,"BG6.jpg",0,0
//Break Periods
//Storyboard Layer 0 (Background)
//Storyboard Layer 1 (Fail)
//Storyboard Layer 2 (Pass)
//Storyboard Layer 3 (Foreground)
//Storyboard Layer 4 (Overlay)
//Storyboard Sound Samples

[TimingPoints]
1149,314.96062992126,4,2,33,60,1,0
1149,-142.857142857143,4,2,33,60,0,0
3038,319.148936170213,4,2,33,60,1,0
3038,-142.857142857143,4,2,33,60,0,0
3676,315.374507227332,4,2,33,60,1,0
3676,-142.857142857143,4,2,33,60,0,0
5568,317.460317460317,4,2,33,60,1,0
5568,-142.857142857143,4,2,33,60,0,0
6202,315.789473684211,4,2,33,60,1,0
6202,-142.857142857143,4,2,33,60,0,0
8096,318.302387267905,4,2,33,60,1,0
8096,-142.857142857143,4,2,33,60,0,0
8732,315.789473684211,4,2,33,60,1,0
8732,-142.857142857143,4,2,33,60,0,0
9995,314.13612565445,4,2,33,60,1,0
9995,-142.857142857143,4,2,33,60,0,0
11251,317.460317460317,4,2,33,60,1,0
11251,-142.857142857143,4,2,33,60,0,0
12838,315.789473684211,4,2,33,60,1,0
12838,-142.857142857143,4,2,33,60,0,0
13153,317.460317460317,4,2,33,60,1,0
13153,-142.857142857143,4,2,33,60,0,0
13787,314.13612565445,4,2,33,60,1,0
13787,-142.857142857143,4,2,33,60,0,0
14729,309.278350515464,4,2,33,60,1,0
15038,309.278350515464,4,2,44,40,1,0
15038,-142.857142857143,4,2,44,40,0,0
15347,-142.857142857143,4,2,44,50,0,0
15656,-142.857142857143,4,2,44,65,0,0
15965,-142.857142857143,4,2,44,80,0,0
16120,324.324324324324,4,2,44,80,1,0
16120,-117.647058823529,4,2,44,75,0,0
16282,324.324324324324,4,2,44,75,1,0
16282,-100,4,2,44,75,0,0
16444,-117.647058823529,4,2,44,50,0,0
16606,-100,4,2,55,75,0,0
16930,315.789473684211,4,2,55,75,1,0
17561,314.13612565445,4,2,55,75,1,0
19131,319.148936170213,4,2,55,75,1,0
20088,315.789473684211,4,2,55,75,1,0
20719,309.278350515464,4,2,55,75,1,0
21182,-117.647058823529,4,2,44,50,0,0
21646,320.855614973262,4,2,44,50,1,0
21646,-100,4,2,55,75,0,0
22608,314.96062992126,4,2,55,75,1,0
24182,319.148936170213,4,2,55,75,1,0
25139,322.58064516129,4,2,55,75,1,0
25784,285.714285714286,4,2,55,75,1,0
25926,319.148936170213,4,2,55,75,1,0
26245,-125,4,2,44,40,0,0
26723,315.789473684211,4,2,55,80,1,0
26723,-83.3333333333333,4,2,55,80,0,0
27038,-100,4,2,55,40,0,0
27354,-83.3333333333333,4,2,55,80,0,0
27670,310.880829015544,4,2,55,40,1,0
27670,-100,4,2,55,40,0,0
27980,-83.3333333333333,4,2,55,80,0,0
28291,-100,4,2,55,40,0,0
28447,-83.3333333333333,4,2,55,80,0,0
28758,326.086956521739,4,2,55,80,1,0
28758,-117.647058823529,4,2,55,50,0,0
28921,326.086956521739,4,2,55,50,1,0
29247,315.789473684211,4,2,55,70,1,0
29247,-100,4,2,55,70,0,0
30194,315.789473684211,4,2,55,70,1,0
30825,312.5,4,2,55,70,1,0
31293,317.460317460317,4,2,55,70,1,0
31451,317.460317460317,4,2,55,70,1,0
32720,312.5,4,2,55,70,1,0
33813,326.086956521739,4,2,55,70,1,0
33976,326.086956521739,4,2,55,70,1,0
34302,314.13612565445,4,2,55,70,1,0
35244,314.13612565445,4,2,55,70,1,0
36343,327.868852459016,4,2,55,70,1,0
36343,-99.6,4,2,55,70,0,0
36506,327.868852459016,4,2,55,70,1,0
36833,314.13612565445,4,2,55,85,1,0
36833,-83.3333333333333,4,2,55,85,0,0
38089,300,4,2,55,85,1,0
38089,-83.3333333333333,4,2,55,85,0,0
38389,315.789473684211,4,2,55,85,1,0
38546,-66.6666666666667,4,2,55,80,0,0
38862,326.086956521739,4,2,55,80,1,0
38862,-111.111111111111,4,2,55,80,0,0
39025,326.086956521739,4,2,55,80,1,0
39188,-111.111111111111,4,2,55,50,0,0
39351,315.374507227332,4,2,55,80,1,0
39351,-100,4,2,55,80,0,0
40297,315.374507227332,4,2,55,80,1,0
43923,319.148936170213,4,2,55,80,1,0
44082,319.148936170213,4,2,55,80,1,0
45358,310.880829015544,4,2,55,80,1,0
46446,324.324324324324,4,2,55,80,1,0
46608,324.324324324324,4,2,55,80,1,0
46932,313.31592689295,4,2,55,80,1,0
47871,309.278350515464,4,2,55,80,1,0
47871,-100,4,2,55,80,0,0
48953,352.941176470588,4,2,55,80,1,0
49129,320.855614973262,4,2,55,80,1,0
49129,-125,4,2,33,50,0,0
50412,315.457413249211,4,2,33,50,1,0
50412,-125,4,2,33,50,0,0
52935,315.789473684211,4,2,33,50,1,0
52935,-125,4,2,33,50,0,0
55461,317.460317460317,4,2,33,50,1,0
55461,-125,4,2,33,50,0,0
56730,315.623356128354,4,2,33,50,1,0
56730,-125,4,2,33,50,0,0
59254,316.622691292876,4,2,33,40,1,0
59254,-111.111111111111,4,2,33,40,0,0
59570,-111.111111111111,4,2,33,60,0,0
61786,314.13612565445,4,2,33,60,1,0
61786,-111.111111111111,4,2,33,60,0,0
63042,315.789473684211,4,2,33,60,1,0
63042,-111.111111111111,4,2,33,60,0,0
66831,-111.111111111111,4,2,33,65,0,0
68094,-111.111111111111,4,2,33,70,0,0
68726,310.880829015544,4,2,33,75,1,0
68726,-83.3333333333333,4,2,33,75,0,0
69036,-71.4285714285714,4,2,44,80,0,0
69347,319.148936170213,4,2,55,50,1,0
69347,-71.4285714285714,4,2,55,50,0,0
69666,-71.4285714285714,4,2,55,90,0,0
69985,-71.4285714285714,4,2,55,50,0,0
70304,308.483290488432,4,2,55,90,1,0
70304,-71.4285714285714,4,2,55,90,0,0
70612,315.789473684211,4,2,55,50,1,0
70612,-71.4285714285714,4,2,55,50,0,0
70927,-71.4285714285714,4,2,55,90,0,0
71243,-71.4285714285714,4,2,55,50,0,0
71401,-71.4285714285714,4,2,55,90,0,0
71875,-71.4285714285714,4,2,55,50,0,0
72190,-76.9230769230769,4,2,55,90,0,1
73612,319.148936170213,4,2,55,90,1,1
73612,-76.9230769230769,4,2,55,90,0,1
74090,307.692307692308,4,2,55,90,1,1
74243,331.491712707182,4,2,55,90,1,1
74243,-76.9230769230769,4,2,55,90,0,1
74408,331.491712707182,4,2,55,90,1,1
74739,312.5,4,2,55,90,1,1
74739,-76.9230769230769,4,2,55,90,0,1
75676,303.030303030303,4,2,55,90,1,1
76130,317.460317460317,4,2,55,90,1,1
76130,-76.9230769230769,4,2,55,90,0,1
76288,317.460317460317,4,2,55,90,1,1
76764,326.086956521739,4,2,55,90,1,1
76764,-76.9230769230769,4,2,55,90,0,1
76927,326.086956521739,4,2,55,90,1,1
77253,-76.9230769230769,4,2,55,90,0,1
77579,306.122448979592,4,2,55,90,1,1
77579,-76.9230769230769,4,2,55,90,0,1
78038,320.855614973262,4,2,55,90,1,1
78038,-76.9230769230769,4,2,55,90,0,1
78198,320.855614973262,4,2,55,90,1,1
78358,-76.9230769230769,4,2,55,90,0,1
78518,314.13612565445,4,2,55,90,1,1
78675,-76.9230769230769,4,2,55,90,0,1
78989,-76.9230769230769,4,2,55,90,0,1
79303,-76.9230769230769,4,2,55,80,0,1
79460,317.460317460317,4,2,55,80,1,0
79460,-76.9230769230769,4,2,55,80,0,0
79618,-111.111111111111,4,2,55,80,0,0
80094,315.789473684211,4,2,55,85,1,0
80094,-76.9230769230769,4,2,55,85,0,0
80409,-62.5,4,2,55,90,0,0
80725,315.789473684211,4,2,55,50,1,0
80725,-100,4,2,55,50,0,0
81040,-76.9230769230769,4,2,55,90,0,1
81988,312.5,4,2,55,90,1,1
81988,-76.9230769230769,4,2,55,90,0,1
83550,326.086956521739,4,2,55,90,1,1
83550,-76.9230769230769,4,2,55,90,0,1
83876,315.789473684211,4,2,55,90,1,1
83876,-76.9230769230769,4,2,55,90,0,1
84507,315.789473684211,4,2,55,90,1,1
84507,-76.9230769230769,4,2,55,90,0,1
85612,322.58064516129,4,2,55,90,1,1
85612,-76.9230769230769,4,2,55,90,0,1
85773,322.58064516129,4,2,55,90,1,1
86095,314.13612565445,4,2,55,90,1,1
86095,-76.9230769230769,4,2,55,90,0,1
86409,-76.9230769230769,4,2,55,90,0,1
87037,314.13612565445,4,2,55,90,1,1
87194,-76.9230769230769,4,2,55,90,0,1
87665,315.789473684211,4,2,55,90,1,1
87822,-76.9230769230769,4,2,55,90,0,1
88138,-76.9230769230769,4,2,55,80,0,1
88296,-76.9230769230769,4,2,55,80,0,0
88454,322.58064516129,4,2,55,80,1,0
88454,-111.111111111111,4,2,55,80,0,0
88615,322.58064516129,4,2,55,80,1,0
88937,-76.9230769230769,4,2,55,85,0,0
89260,315.789473684211,4,2,55,90,1,0
89260,-62.5,4,2,55,90,0,0
89575,-100,4,2,55,90,0,0
89733,-100,4,2,55,40,0,0
90207,307.692307692308,4,2,55,90,1,0
90207,-90.9090909090909,4,2,55,90,0,0
90668,322.58064516129,4,2,55,90,1,0
90668,-90.9090909090909,4,2,55,90,0,0
90829,322.58064516129,4,2,55,90,1,0
91151,-90.9090909090909,4,2,55,90,0,0
91474,310.880829015544,4,2,55,90,1,0
92095,314.96062992126,4,2,55,90,1,0
92095,-90.9090909090909,4,2,55,90,0,0
93669,320,4,2,55,90,1,0
93669,-90.9090909090909,4,2,55,90,0,0
93989,307.692307692308,4,2,55,90,1,0
94604,319.148936170213,4,2,55,90,1,0
94604,-90.9090909090909,4,2,55,90,0,0
96199,324.324324324324,4,2,55,90,1,0
96199,-90.9090909090909,4,2,55,90,0,0
96523,314.13612565445,4,2,55,90,1,0
97151,314.13612565445,4,2,55,90,1,0
97465,-90.9090909090909,4,2,55,90,0,0
98407,314.96062992126,4,2,55,90,1,0
98721,-90.9090909090909,4,2,55,90,0,0
99666,-90.9090909090909,4,2,55,50,0,0
99981,-90.9090909090909,4,2,55,80,0,0
100139,-90.9090909090909,4,2,55,50,0,0
100296,330.214639515685,4,2,55,90,1,0
100296,-90.9090909090909,4,2,55,90,0,0
100461,-90.9090909090909,4,2,55,70,0,0
100626,-90.9090909090909,4,2,55,80,0,0
100791,315.789473684211,4,2,55,100,1,0
100791,-178.571428571429,4,2,55,100,0,0
100869,-178.571428571429,4,2,55,5,0,0
100948,315.789473684211,4,2,55,5,1,0

[Colours]
Combo1 : 215,215,215
Combo2 : 238,92,92
Combo3 : 215,215,215
Combo4 : 238,172,92
SliderBorder : 255,105,35
SliderTrackOverride : 20,0,0

[HitObjects]
97,71,1149,6,0,L|160:76,1,62.9999980773926,6|0,0:0|0:0,0:0:0:0:
231,138,1463,2,0,L|294:132,1,62.9999980773926,2|0,0:0|0:0,0:0:0:0:
391,50,1778,2,0,P|382:82|436:173,1,125.999996154785,8|2,0:0|0:0,0:0:0:0:
477,87,2251,1,2,0:0:0:0:
505,252,2408,6,0,L|442:245,1,62.9999980773926,2|2,0:0|0:0,0:0:0:0:
356,169,2723,2,0,L|418:163,1,62.9999980773926,2|0,2:1|0:0,0:0:0:0:
366,338,3038,1,8,0:0:0:0:
366,338,3357,1,2,0:0:0:0:
366,338,3676,6,0,P|344:315|316:301,1,62.9999980773926,2|0,0:0|0:0,0:0:0:0:
253,230,3991,2,0,P|231:252|203:266,1,62.9999980773926,2|0,0:0|0:0,0:0:0:0:
101,371,4306,2,0,L|112:243,1,125.999996154785,8|0,0:0|0:0,0:0:0:0:
167,111,4779,6,0,L|173:173,1,62.9999980773926,2|0,0:0|0:0,0:0:0:0:
267,238,5095,1,2,0:0:0:0:
267,238,5252,2,0,L|273:176,1,62.9999980773926,2|2,0:0|0:0,0:0:0:0:
320,37,5568,2,0,P|343:58|372:68,1,62.9999980773926,10|2,0:0|0:0,0:0:0:0:
468,117,5885,2,0,P|438:127|415:148,1,62.9999980773926,2|0,0:0|0:0,0:0:0:0:
398,310,6202,6,0,L|336:304,1,62.9999980773926,6|0,0:0|0:0,0:0:0:0:
267,238,6517,2,0,L|205:244,1,62.9999980773926,2|0,0:0|0:0,0:0:0:0:
126,344,6833,2,0,P|128:310|60:230,1,125.999996154785,8|2,0:0|0:0,0:0:0:0:
34,322,7307,1,2,0:0:0:0:
0,139,7465,6,0,L|62:133,1,62.9999980773926,2|2,0:0|0:0,0:0:0:0:
141,243,7780,2,0,L|79:237,1,62.9999980773926,2|0,2:1|0:0,0:0:0:0:
161,69,8096,1,8,0:0:0:0:
161,69,8414,1,2,0:0:0:0:
161,69,8732,6,0,P|184:91|198:119,1,62.9999980773926,2|0,0:0|0:0,0:0:0:0:
269,182,9047,2,0,P|247:204|233:232,1,62.9999980773926,2|0,0:0|0:0,0:0:0:0:
126,340,9363,2,0,L|251:329,1,125.999996154785,8|0,0:0|0:0,0:0:0:0:
390,268,9837,6,0,L|327:262,1,62.9999980773926,2|0,0:0|0:0,0:0:0:0:
263,168,10152,1,2,0:0:0:0:
263,168,10309,2,0,L|325:162,1,62.9999980773926,2|2,0:0|0:0,0:0:0:0:
470,176,10623,2,0,P|449:153|439:124,1,62.9999980773926,10|2,0:0|0:0,0:0:0:0:
388,20,10937,2,0,P|377:49|356:72,1,62.9999980773926,2|0,0:0|0:0,0:0:0:0:
160,46,11251,6,0,L|166:108,1,62.9999980773926,6|0,0:0|0:0,0:0:0:0:
239,171,11568,2,0,L|233:233,1,62.9999980773926,2|0,0:0|0:0,0:0:0:0:
163,350,11885,2,0,P|190:333|221:328,1,62.9999980773926,8|0,0:0|0:0,0:0:0:0:
368,312,12203,2,0,P|337:307|310:291,1,62.9999980773926,2|0,0:0|0:0,0:0:0:0:
379,157,12520,6,0,L|373:219,1,62.9999980773926,2|0,0:0|0:0,0:0:0:0:
478,262,12838,2,0,L|472:200,1,62.9999980773926,2|0,0:0|0:0,0:0:0:0:
498,42,13153,2,0,P|474:62|444:74,1,62.9999980773926,10|0,0:0|0:0,0:0:0:0:
380,143,13470,2,0,P|356:122|326:110,1,62.9999980773926,2|0,0:0|0:0,0:0:0:0:
233,124,13787,5,2,0:0:0:0:
233,124,14101,1,2,0:0:0:0:
233,124,14415,6,0,B|244:101|244:101|276:154|244:207,1,125.999996154785,14|2,0:0|0:0,0:0:0:0:
192,272,14883,1,0,0:0:0:0:
408,184,15038,5,12,0:0:0:0:
233,124,15192,1,8,0:0:0:0:
443,108,15347,5,8,0:0:0:0:
173,180,15501,1,8,0:0:0:0:
487,210,15656,5,12,0:0:0:0:
133,108,15811,1,8,0:0:0:0:
365,76,15965,1,8,0:0:0:0:
24,41,16120,6,0,L|36:193,1,153.000002918243,4|2,1:2|0:0,0:0:0:0:
206,134,16606,5,10,1:2:0:0:
47,304,16768,1,2,0:0:0:0:
274,360,16930,2,0,P|229:309|229:254,1,90,2|0,1:2|1:2,1:2:0:0:
338,148,17245,1,8,0:0:0:0:
322,273,17403,1,2,0:0:0:0:
512,176,17561,6,0,L|422:186,1,90,2|0,1:2|1:2,1:2:0:0:
322,273,17875,2,0,L|411:283,1,90,10|0,0:0|0:0,0:0:0:0:
512,72,18189,1,2,1:2:0:0:
512,297,18346,1,2,0:0:0:0:
406,162,18503,1,8,1:2:0:0:
271,370,18660,6,0,B|302:355|302:355|230:311|158:355,1,180,6|0,1:2|1:2,0:0:0:0:
0,288,19131,2,0,P|46:290|98:263,1,90,10|0,0:0|0:0,0:0:0:0:
107,94,19450,1,2,1:2:0:0:
25,178,19609,1,0,1:2:0:0:
192,245,19769,2,0,P|233:227|277:230,1,90,10|0,0:0|0:0,0:0:0:0:
140,374,20088,5,2,1:2:0:0:
85,183,20245,1,2,1:2:0:0:
204,279,20403,1,8,0:0:0:0:
328,69,20561,2,0,L|238:79,1,90,2|8,0:0|1:2,0:0:0:0:
226,177,20873,2,0,L|361:162,1,135,6|0,1:2|0:0,0:0:0:0:
497,147,21182,6,0,P|443:206|455:304,1,153.000002918243,4|2,1:2|0:0,0:0:0:0:
242,187,21646,5,10,1:2:0:0:
304,327,21806,1,2,0:0:0:0:
369,121,21966,1,2,1:2:0:0:
158,167,22127,1,2,1:2:0:0:
363,264,22287,1,8,0:0:0:0:
345,39,22448,1,2,0:0:0:0:
242,187,22608,6,0,L|249:276,1,90,2|0,1:2|1:2,1:2:0:0:
100,344,22922,2,0,L|107:255,1,90,10|0,0:0|0:0,0:0:0:0:
327,336,23237,1,2,1:2:0:0:
288,105,23395,1,2,1:2:0:0:
195,264,23552,1,8,0:0:0:0:
64,48,23710,6,0,B|33:63|33:63|105:107|177:63,1,180,6|0,1:2|1:2,0:0:0:0:
349,44,24182,2,0,P|322:79|315:123,1,90,10|0,0:0|0:0,0:0:0:0:
484,213,24501,1,2,1:2:0:0:
415,118,24660,1,0,1:2:0:0:
240,189,24820,2,0,P|267:224|274:268,1,90,10|0,0:0|0:0,0:0:0:0:
117,130,25139,5,2,1:2:0:0:
314,67,25300,1,2,1:2:0:0:
214,204,25461,1,8,0:0:0:0:
441,261,25622,2,0,L|431:171,1,90,2|8,0:0|1:2,0:0:0:0:
332,159,25926,2,0,L|346:293,1,135,6|0,1:2|0:0,0:0:0:0:
283,370,26245,6,0,P|237:320|138:322,1,144,4|0,1:2|0:0,0:0:0:0:
0,240,26723,6,0,P|64:249|112:224,1,107.999996704102,14|0,0:0|0:0,0:0:0:0:
44,149,27038,5,0,1:2:0:0:
44,149,27196,1,0,1:2:0:0:
242,62,27354,2,0,L|230:169,1,107.999996704102,14|0,0:0|0:0,0:0:0:0:
128,209,27670,5,0,1:2:0:0:
128,209,27825,1,0,1:2:0:0:
347,293,27980,2,0,L|335:185,1,107.999996704102,14|0,0:0|0:0,0:0:0:0:
216,141,28291,5,0,1:2:0:0:
457,19,28447,2,0,P|419:55|409:108,1,107.999996704102,14|0,0:0|1:2,0:0:0:0:
473,193,28758,6,0,P|406:161|335:185,1,153.000002918243,4|0,1:2|1:2,0:0:0:0:
411,351,29247,6,0,L|400:261,1,90,10|0,1:2|0:0,0:0:0:0:
259,133,29562,2,0,L|244:265,1,90,2|0,1:2|1:2,1:2:0:0:
258,331,29878,2,0,P|220:306|176:301,1,90,8|0,0:0|0:0,0:0:0:0:
0,256,30194,6,0,P|44:250|81:226,1,90,2|0,1:2|1:2,1:2:0:0:
6,148,30509,1,8,0:0:0:0:
186,79,30667,2,0,L|176:169,1,90,2|0,0:0|1:2,0:0:0:0:
73,205,30981,1,2,1:2:0:0:
237,298,31137,1,10,0:0:0:0:
191,51,31293,6,0,B|160:66|160:66|232:110|304:66,1,180,4|0,1:2|1:2,1:2:0:0:
470,16,31768,2,0,P|439:48|426:91,1,90,10|0,1:2|0:0,0:0:0:0:
256,154,32085,2,0,P|286:186|299:229,1,90,2|0,1:2|1:2,1:2:0:0:
380,327,32403,2,0,P|393:284|423:251,1,90,10|0,0:0|0:0,0:0:0:0:
254,347,32720,6,0,L|121:335,1,90,2|0,1:2|1:2,1:2:0:0:
62,375,33032,1,8,0:0:0:0:
54,167,33188,2,0,L|143:174,1,90,2|0,0:0|1:2,0:0:0:0:
160,309,33501,1,2,1:2:0:0:
285,144,33657,1,10,0:0:0:0:
400,368,33813,6,0,L|381:160,1,180,4|0,1:2|1:2,1:2:0:0:
456,22,34302,2,0,P|423:52|380:65,1,90,10|0,1:2|0:0,0:0:0:0:
198,85,34616,2,0,P|241:98|274:129,1,90,2|0,1:2|1:2,1:2:0:0:
384,189,34930,2,0,L|391:278,1,90,10|0,0:0|0:0,0:0:0:0:
179,282,35244,6,0,L|187:193,1,90,2|0,1:2|1:2,1:2:0:0:
274,129,35558,1,8,0:0:0:0:
82,56,35715,2,0,L|89:145,1,90,2|0,0:0|1:2,0:0:0:0:
187,192,36029,1,2,1:2:0:0:
0,216,36186,1,8,0:0:0:0:
197,344,36343,6,0,B|254:339|254:339|285:313|285:313|342:308|342:308|318:326,1,180,4|0,1:2|1:2,1:2:0:0:
512,378,36833,6,0,P|475:339|459:288,1,107.999996704102,10|0,1:2|0:0,0:0:0:0:
434,105,37147,2,0,P|419:157|383:196,1,107.999996704102,2|0,1:2|1:2,1:2:0:0:
238,309,37461,2,0,P|290:296|342:308,1,107.999996704102,10|0,0:0|0:0,0:0:0:0:
112,368,37775,6,0,L|121:260,1,107.999996704102,2|0,1:2|1:2,1:2:0:0:
245,221,38089,1,10,0:0:0:0:
21,182,38239,2,0,L|30:289,1,107.999996704102,2|8,0:0|1:2,0:0:0:0:
137,85,38546,6,0,B|103:101|103:101|181:148|259:101,1,202.500007724762,6|0,1:2|0:0,0:0:0:0:
395,74,38862,6,0,P|336:87|393:107,1,161.999995056153,4|0,1:2|1:2,1:2:0:0:
494,29,39351,6,0,P|504:74|490:132,1,90,10|0,0:0|0:0,0:0:0:0:
310,155,39666,1,2,1:2:0:0:
396,75,39824,1,2,1:2:0:0:
496,232,39981,2,0,P|464:201|421:189,1,90,10|0,0:0|0:0,0:0:0:0:
256,320,40297,6,0,L|256:230,1,90,2|0,1:2|1:2,1:2:0:0:
386,196,40612,2,0,L|378:285,1,90,8|0,0:0|0:0,0:0:0:0:
162,192,40927,1,2,1:2:0:0:
256,346,41085,1,2,1:2:0:0:
342,188,41243,1,8,0:0:0:0:
127,351,41400,6,0,B|96:336|96:336|168:292|234:333,1,180,6|0,1:2|1:2,1:2:0:0:
422,377,41873,2,0,P|391:345|378:302,1,90,10|0,1:2|0:0,0:0:0:0:
506,175,42189,1,2,1:2:0:0:
485,290,42346,1,2,1:2:0:0:
305,206,42504,2,0,L|395:214,1,90,10|0,0:0|0:0,0:0:0:0:
512,20,42819,6,0,L|422:27,1,90,2|0,1:2|1:2,1:2:0:0:
320,116,43135,2,0,L|409:123,1,90,8|0,0:0|0:0,0:0:0:0:
176,102,43450,1,2,1:2:0:0:
316,215,43608,1,2,1:2:0:0:
344,37,43766,1,8,0:0:0:0:
213,209,43923,6,0,B|159:213|146:214|146:214|104:191|104:191|51:195|39:196,1,180,6|0,1:2|1:2,1:2:0:0:
0,354,44401,2,0,B|38:319|38:319|166:308,1,180,10|2,1:2|1:2,0:0:0:0:
274,297,44879,1,2,1:2:0:0:
441,359,45039,2,0,P|410:327|397:284,1,90,10|0,0:0|0:0,0:0:0:0:
462,115,45358,6,0,B|493:130|493:130|421:174|355:133,1,180,6|10,1:2|0:0,0:0:0:0:
420,35,45824,1,0,0:0:0:0:
232,122,45979,1,2,1:2:0:0:
401,241,46135,1,10,1:2:0:0:
327,107,46290,1,10,0:0:0:0:
202,259,46446,1,8,1:2:0:0:
91,43,46608,6,8,B|96:109|96:109|73:151|73:151|79:217,1,180,6|8,0:0|1:2,0:0:0:0:
8,299,47088,1,0,0:0:0:0:
8,299,47245,2,0,P|83:255|166:283,1,180,2|10,1:2|0:0,0:0:0:0:
93,364,47715,1,0,1:2:0:0:
266,180,47871,5,10,0:0:0:0:
379,351,48025,1,10,0:0:0:0:
495,137,48180,5,10,0:0:0:0:
346,281,48334,1,10,0:0:0:0:
280,46,48489,5,10,0:0:0:0:
393,217,48644,1,10,0:0:0:0:
509,10,48798,5,10,0:0:0:0:
360,147,48953,1,10,0:0:0:0:
512,368,49129,5,4,0:0:0:0:
512,368,49449,2,0,P|483:346|466:315,1,72,2|0,2:1|0:0,0:0:0:0:
461,177,49770,6,0,P|428:275|328:301,1,216,10|0,2:1|2:1,2:2:0:0:
286,124,50412,2,0,P|388:103|461:177,1,216,2|0,2:1|2:1,2:2:0:0:
328,301,51042,2,0,P|259:223|287:124,1,216,10|0,2:1|2:1,2:2:0:0:
366,200,51673,5,2,0:0:0:0:
366,200,51989,2,0,L|273:223,1,72,2|0,2:1|0:0,0:0:0:0:
169,287,52304,2,0,P|236:233|151:218,1,216,10|0,0:0|0:0,0:0:0:0:
71,285,52935,6,0,B|23:217|71:150|71:150|117:83|71:16,2,288,2|8|2,0:0|0:0|0:0,0:0:0:0:
71,285,54513,6,0,L|166:293,1,72,2|0,2:1|0:0,0:0:0:0:
211,344,54829,2,0,P|248:284|317:271,1,144,8|2,0:0|0:0,0:0:0:0:
399,302,55303,1,2,0:0:0:0:
399,302,55461,6,0,P|403:265|394:231,1,72,2|2,0:0|2:1,0:0:0:0:
464,172,55778,2,0,L|321:185,1,144,2|10,2:0|0:0,0:0:0:0:
244,226,56254,1,2,0:0:0:0:
244,226,56413,6,0,L|172:219,1,72,2|2,2:0|2:1,2:2:0:0:
96,262,56730,2,0,B|129:227|129:227|137:131,1,144,2|0,0:0|0:0,0:0:0:0:
76,71,57203,1,2,2:1:0:0:
137,132,57361,2,0,B|233:124|233:124|268:91,1,144,8|2,0:0|0:0,0:0:0:0:
330,30,57834,1,2,0:0:0:0:
330,30,57992,6,0,P|361:47|381:76,1,72,2|2,0:0|2:1,0:0:0:0:
393,163,58308,2,0,P|407:94|467:58,2,144,2|8|2,0:0|0:0|2:1,0:0:0:0:
294,270,59254,5,2,0:0:0:0:
294,270,59570,2,0,L|373:261,1,80.9999975280763,0|2,0:0|2:1,0:0:0:0:
494,374,59887,2,0,B|449:345|449:345|342:355,1,161.999995056153,8|0,0:0|0:0,0:0:0:0:
342,355,60520,5,2,0:0:0:0:
375,263,60678,1,2,0:0:0:0:
245,355,60837,2,0,P|216:327|178:315,1,80.9999975280763,2|0,2:1|0:0,0:0:0:0:
20,274,61153,2,0,P|104:275|159:204,1,161.999995056153,8|2,0:0|2:1,0:0:0:0:
63,187,61786,5,2,0:0:0:0:
63,187,62100,1,2,0:0:0:0:
138,126,62257,1,2,2:1:0:0:
163,261,62414,2,0,P|194:235|233:226,1,80.9999975280763,10|0,2:1|0:0,0:0:0:0:
395,209,62728,2,0,P|355:200|324:174,1,80.9999975280763,2|0,2:0|0:0,0:0:0:0:
449,70,63042,6,0,B|400:73|388:74|388:74|350:53|350:53|303:57|292:58,1,161.999995056153,2|0,2:1|0:0,0:0:0:0:
146,129,63673,2,0,P|192:84|117:96,1,161.999995056153,10|0,0:0|0:0,0:0:0:0:
27,236,64305,5,2,0:0:0:0:
27,236,64620,2,0,L|106:227,1,80.9999975280763,2|2,2:1|0:0,0:0:0:0:
265,271,64936,2,0,P|186:267|130:323,1,161.999995056153,10|2,2:1|0:0,0:0:0:0:
222,358,65410,1,2,2:1:0:0:
108,229,65568,6,0,L|113:136,1,80.9999975280763,2|0,0:0|0:0,0:0:0:0:
213,78,65884,2,0,L|218:171,1,80.9999975280763,2|0,0:0|0:0,0:0:0:0:
265,271,66199,2,0,P|320:215|399:218,1,161.999995056153,8|2,0:0|2:1,0:0:0:0:
441,356,66831,6,0,P|450:278|399:218,1,161.999995056153,2|2,0:0|2:1,0:0:0:0:
357,306,67305,1,2,0:0:0:0:
277,138,67463,2,0,B|326:141|338:142|338:142|376:121|376:121|423:125|434:126,1,161.999995056153,8|2,0:0|0:0,0:0:0:0:
495,202,67936,1,2,2:1:0:0:
500,32,68094,6,0,L|407:37,1,80.9999975280763,2|0,0:0|0:0,0:0:0:0:
343,133,68410,2,0,L|262:128,1,80.9999975280763,2|0,0:0|0:0,0:0:0:0:
114,59,68726,6,0,B|126:33|126:33|143:97|143:97|126:162,1,161.999995056153,10|0,2:1|0:0,0:0:0:0:
103,305,69036,6,0,P|125:236|148:305,1,188.999994232178,6|0,0:0|0:0,0:0:0:0:
13,251,69347,5,0,1:2:0:0:
13,251,69506,1,0,1:2:0:0:
324,355,69666,2,0,L|334:230,1,125.999996154785,14|0,0:0|0:0,0:0:0:0:
32,369,69985,5,0,1:2:0:0:
32,369,70144,1,0,1:2:0:0:
334,230,70304,2,0,L|345:374,1,125.999996154785,14|0,0:0|0:0,0:0:0:0:
42,251,70612,5,0,1:2:0:0:
42,251,70769,1,0,1:2:0:0:
345,356,70927,2,0,L|355:231,1,125.999996154785,14|0,0:0|0:0,0:0:0:0:
61,370,71243,5,2,1:2:0:0:
61,370,71401,1,4,0:0:0:0:
356,230,71559,2,0,L|367:370,1,125.999996154785,10|4,1:2|0:0,0:0:0:0:
407,122,71875,5,2,1:2:0:0:
407,122,72033,1,0,1:2:0:0:
468,223,72190,6,0,P|412:241|356:230,1,116.999994644165,10|0,0:0|0:0,0:0:0:0:
228,39,72506,2,0,P|270:78|289:133,1,116.999994644165,2|0,1:2|1:2,1:2:0:0:
188,339,72822,2,0,P|200:281|237:238,1,116.999994644165,10|0,0:0|0:0,0:0:0:0:
468,223,73138,5,2,1:2:0:0:
289,133,73296,1,2,1:2:0:0:
306,336,73454,1,8,0:0:0:0:
396,74,73612,2,0,P|297:13|193:60,1,233.999989288331,6|4,1:2|1:2,1:2:0:0:
289,133,74090,1,8,0:2:0:0:
23,93,74243,6,0,B|45:56|45:56|109:144|45:232,1,233.999989288331,6|0,1:2|1:2,1:2:0:0:
43,373,74739,2,0,P|89:338|147:329,1,116.999994644165,10|0,0:0|1:2,0:0:0:0:
380,321,75051,2,0,P|322:311|276:276,1,116.999994644165,2|0,0:0|1:2,0:0:0:0:
156,72,75364,2,0,L|167:189,1,116.999994644165,10|0,0:0|1:2,0:0:0:0:
43,373,75676,5,6,1:2:0:0:
248,290,75827,1,2,1:2:0:0:
73,154,75979,1,10,0:0:0:0:
342,39,76130,2,0,P|328:154|415:228,1,233.999989288331,6|6,1:2|1:2,1:2:0:0:
440,111,76605,1,8,0:0:0:0:
470,355,76764,6,0,B|452:356|383:362|383:362|329:332|329:332|312:334|243:340,1,233.999989288331,6|0,1:2|1:2,1:2:0:0:
33,358,77253,2,0,P|36:300|65:250,1,116.999994644165,10|0,0:0|0:0,0:0:0:0:
227,112,77579,2,0,P|257:161|260:218,1,116.999994644165,2|0,1:2|1:2,1:2:0:0:
173,298,77885,1,8,0:0:0:0:
433,341,78038,6,0,L|444:224,1,116.999994644165,6|2,1:2|0:0,0:0:0:0:
308,47,78358,2,0,L|295:190,1,116.999994644165,2|8,1:2|0:0,0:0:0:0:
318,282,78675,2,0,P|269:251|211:247,1,116.999994644165,2|0,0:0|1:2,0:0:0:0:
0,229,78989,2,0,P|57:225|106:194,1,116.999994644165,10|10,0:0|1:2,0:0:0:0:
147,84,79303,1,0,1:2:0:0:
147,84,79381,1,0,1:2:0:0:
147,84,79460,1,8,1:2:0:0:
0,229,79618,6,0,P|131:201|169:225,1,161.999995056153,6|0,1:2|1:2,1:2:0:0:
86,323,80094,6,0,B|98:324|150:328|150:328|191:306|191:306|204:307|256:311,1,175.499991966248,6|0,1:2|0:0,0:0:0:0:
379,319,80409,6,0,P|281:300|375:281,1,216,6|0,1:2|0:0,0:0:0:0:
466,358,80725,6,0,P|474:310|450:251,1,90,6|0,0:0|0:0,0:0:0:0:
486,144,81040,6,0,P|437:175|379:178,1,116.999994644165,10|0,1:2|0:0,0:0:0:0:
207,30,81356,2,0,P|258:56|290:104,1,116.999994644165,2|0,1:2|1:2,1:2:0:0:
246,330,81672,2,0,P|243:272|269:220,1,116.999994644165,10|0,0:0|0:0,0:0:0:0:
486,144,81988,5,2,1:2:0:0:
290,105,82144,1,2,1:2:0:0:
361,298,82300,1,8,0:0:0:0:
103,370,82456,2,0,L|112:245,1,116.999994644165,2|0,1:2|0:0,0:0:0:0:
239,227,82769,1,2,1:2:0:0:
239,227,82925,1,10,1:2:0:0:
45,121,83081,6,0,B|2:136|2:136|92:164|92:164|183:134,1,233.999989288331,6|0,1:2|1:2,1:2:0:0:
345,19,83550,2,0,P|314:67|310:125,1,116.999994644165,10|0,0:0|0:0,0:0:0:0:
468,283,83876,2,0,P|463:225|433:176,1,116.999994644165,2|0,1:2|1:2,1:2:0:0:
351,260,84191,1,8,0:0:0:0:
218,122,84349,1,2,1:2:0:0:
49,347,84507,6,0,L|173:356,1,116.999994644165,2|0,0:0|1:2,0:0:0:0:
240,222,84822,2,0,L|123:231,1,116.999994644165,10|0,0:0|1:2,0:0:0:0:
340,278,85138,2,0,B|318:315|318:315|254:227|318:139,1,233.999989288331,2|8,0:0|0:0,0:0:0:0:
491,47,85612,6,0,B|473:48|404:54|404:54|350:24|350:24|333:26|264:32,1,233.999989288331,6|0,1:2|1:2,1:2:0:0:
30,52,86095,2,0,P|87:55|136:86,1,116.999994644165,10|0,0:0|1:2,0:0:0:0:
241,32,86409,2,0,L|220:265,1,233.999989288331,2|8,0:0|1:2,0:0:0:0:
447,268,86880,6,0,P|398:237|340:233,1,116.999994644165,6|0,1:2|1:2,0:0:0:0:
139,337,87194,2,0,P|187:367|246:371,1,116.999994644165,2|8,0:0|1:2,0:0:0:0:
210,148,87508,2,0,L|221:265,1,116.999994644165,2|8,0:0|1:2,0:0:0:0:
436,384,87822,2,8,L|447:268,1,116.999994644165,8|8,0:0|1:2,0:0:0:0:
331,208,88138,1,0,1:2:0:0:
331,208,88217,1,0,1:2:0:0:
331,208,88296,1,8,1:2:0:0:
480,75,88454,6,0,B|507:84|507:84|444:101|444:101|378:83,1,161.999995056153,6|0,1:2|1:2,1:2:0:0:
259,30,88937,6,0,P|306:89|302:188,1,175.499991966248,14|0,1:2|0:0,0:0:0:0:
138,122,89260,6,0,P|221:122|157:176,1,216,14|0,1:2|0:0,0:0:0:0:
50,76,89575,6,6,L|40:187,1,90,6|2,1:2|1:2,1:2:0:0:
167,218,89891,2,0,L|176:329,1,90,10|0,0:0|0:0,0:0:0:0:
46,363,90207,6,0,B|60:364|118:368|118:368|164:342|164:342|179:344|237:348,1,198.000006042481,2|8,1:2|0:0,0:0:0:0:
391,304,90668,2,0,P|321:337|348:265,1,198.000006042481,6|2,1:2|1:2,0:0:0:0:
487,376,91151,6,0,P|508:331|506:279,1,99.0000030212403,10|0,0:0|1:2,0:0:0:0:
370,187,91474,1,10,1:2:0:0:
370,187,91784,1,10,1:2:0:0:
370,187,92095,6,0,B|392:168|392:168|312:120|232:168,1,198.000006042481,4|10,1:2|0:0,0:0:0:0:
313,283,92567,1,0,1:2:0:0:
128,313,92724,2,0,B|149:265|128:217|128:217|105:170|128:122,1,198.000006042481,2|8,1:2|0:0,0:0:0:0:
63,21,93197,2,0,P|119:71|238:61,1,198.000006042481,6|0,1:2|1:2,0:0:0:0:
416,0,93669,6,0,B|413:24|406:112|415:48|392:71|440:87|367:84|439:139|390:62|415:89|405:116|403:136,1,99.0000030212403,10|2,0:0|1:2,0:0:0:0:
455,218,93989,1,10,1:2:0:0:
455,218,94296,1,10,1:2:0:0:
455,218,94604,6,0,B|478:207|478:207|413:203|413:203|372:222|372:222|360:221|310:217,1,198.000006042481,6|10,1:2|0:0,0:0:0:0:
390,128,95082,1,0,1:2:0:0:
206,168,95242,2,0,P|203:260|286:329,1,198.000006042481,2|8,1:2|0:0,0:0:0:0:
395,316,95721,2,0,L|155:336,1,198.000006042481,6|0,1:2|1:2,1:2:0:0:
11,350,96199,6,0,P|69:328|94:270,1,99.0000030212403,10|0,0:0|1:2,0:0:0:0:
122,163,96523,1,10,1:2:0:0:
122,163,96837,1,10,1:2:0:0:
122,163,97151,5,6,1:2:0:0:
99,259,97308,1,2,1:2:0:0:
45,59,97465,2,0,L|156:68,1,99.0000030212403,10|0,0:0|0:0,0:0:0:0:
349,15,97779,2,0,P|263:41|236:166,1,198.000006042481,6|8,1:2|0:0,0:0:0:0:
187,237,98250,2,0,B|237:241|249:242|249:242|290:223|290:223|355:227|355:227|332:238,1,198.000006042481,6|0,1:2|1:2,1:2:0:0:
496,93,98721,6,0,L|397:101,1,99.0000030212403,14|0,0:0|0:0,0:0:0:0:
443,263,99036,1,2,1:2:0:0:
443,263,99194,1,2,1:2:0:0:
397,84,99351,6,0,L|495:92,1,99.0000030212403,14|0,0:0|0:0,0:0:0:0:
442,280,99666,1,2,1:2:0:0:
369,186,99824,1,0,1:2:0:0:
369,186,99903,1,0,1:2:0:0:
369,186,99981,1,2,0:0:0:0:
222,311,100139,1,2,1:2:0:0:
89,89,100296,1,10,1:2:0:0:
250,158,100461,5,14,1:2:0:0:
59,346,100626,1,14,0:0:0:0:
452,308,100791,1,6,1:2:0:0:
256,192,100869,12,0,105684,0:2:0:0:
