osu file format v14

[General]
AudioFilename: audio.mp3
AudioLeadIn: 0
PreviewTime:72190
Countdown: 0
SampleSet: Soft
StackLeniency: 0.7
Mode: 0
LetterboxInBreaks: 1
WidescreenStoryboard: 0

[Editor]
DistanceSpacing: 1.1
BeatDivisor: 4
GridSize: 16
TimelineZoom: 1.2

[Metadata]
Title:I Am... All Of Me (Game Ver.)
TitleUnicode:I Am... All Of Me (Game Ver.)
Artist:Crush 40
ArtistUnicode:Crush 40
Creator:-Zeraora
Version:Advanced
Source:SHADOW THE HEDGEHOG
Tags:シャドウ・ザ・ヘッジホッグ op opening ORIGINAL SOUNDTRAX Jun Senoue Johnny Gioeli Takeshi Taneda Toru Kawamura WAVE MASTER WAVEMASTER INC. Sonic ソニックザヘッジホッグ ソニック ザ ヘッジホッグ ソニック・ザ・ヘッジホッグ SEGA intro LOST AND FOUND VOCAL TRAX Track オリジナル サウンドトラックス Microsoft Xbox Nintendo Gamecube GCN NGC Sony Playstation 2 PS2 Main Theme Short Version English Video Game Rock シャドウザヘッジホッグ シャドウ OFFICIAL SOUNDTRACK Penguiness Error- -Keitaro -Harpuia-
BeatmapID:1717838
BeatmapSetID:819347

[Difficulty]
HPDrainRate:4.5
CircleSize:4
OverallDifficulty:5
ApproachRate:6
SliderMultiplier:1.2
SliderTickRate:1

[Events]
//Background and Video events
0,0,"BG7.jpg",0,0
Video,1415,"shadow.mp4"
//Break Periods
//Storyboard Layer 0 (Background)
//Storyboard Layer 1 (Fail)
//Storyboard Layer 2 (Pass)
//Storyboard Layer 3 (Foreground)
//Storyboard Layer 4 (Overlay)
//Storyboard Sound Samples

[TimingPoints]
1149,314.96062992126,4,2,33,60,1,0
1149,-100,4,2,33,60,0,0
3038,319.148936170213,4,2,33,60,1,0
3676,315.374507227332,4,2,33,60,1,0
5568,317.460317460317,4,2,33,60,1,0
6202,315.789473684211,4,2,33,60,1,0
8096,318.302387267905,4,2,33,60,1,0
8732,315.789473684211,4,2,33,60,1,0
9995,314.13612565445,4,2,33,60,1,0
11251,317.460317460317,4,2,33,60,1,0
12838,315.789473684211,4,2,33,60,1,0
13153,317.460317460317,4,2,33,60,1,0
13787,314.13612565445,4,2,33,60,1,0
14729,309.278350515464,4,2,33,60,1,0
15038,309.278350515464,4,2,44,40,1,0
15038,-100,4,2,44,40,0,0
15347,-100,4,2,44,50,0,0
15656,-100,4,2,44,65,0,0
15965,-100,4,2,44,80,0,0
16120,324.324324324324,4,2,44,80,1,0
16120,-100,4,2,44,75,0,0
16282,324.324324324324,4,2,44,75,1,0
16282,-100,4,2,44,75,0,0
16444,-100,4,2,44,50,0,0
16606,-100,4,2,55,75,0,0
16930,315.789473684211,4,2,55,75,1,0
17561,314.13612565445,4,2,55,75,1,0
19131,319.148936170213,4,2,55,75,1,0
20088,315.789473684211,4,2,55,75,1,0
20719,309.278350515464,4,2,55,75,1,0
21105,-100,4,2,55,5,0,0
21182,-100,4,2,44,50,0,0
21646,320.855614973262,4,2,44,50,1,0
21646,-100,4,2,55,75,0,0
22608,314.96062992126,4,2,55,75,1,0
24182,319.148936170213,4,2,55,75,1,0
25139,322.58064516129,4,2,55,75,1,0
25784,285.714285714286,4,2,55,75,1,0
25926,319.148936170213,4,2,55,75,1,0
26245,-100,4,2,44,40,0,0
26723,315.789473684211,4,2,55,80,1,0
26723,-100,4,2,55,80,0,0
27038,-100,4,2,55,40,0,0
27354,-100,4,2,55,80,0,0
27670,310.880829015544,4,2,55,40,1,0
27670,-100,4,2,55,40,0,0
27980,-100,4,2,55,80,0,0
28291,-100,4,2,55,40,0,0
28447,-100,4,2,55,80,0,0
28758,326.086956521739,4,2,55,80,1,0
28758,-100,4,2,55,50,0,0
28921,326.086956521739,4,2,55,50,1,0
29247,315.789473684211,4,2,55,70,1,0
29247,-100,4,2,55,70,0,0
30194,315.789473684211,4,2,55,70,1,0
30825,312.5,4,2,55,70,1,0
31293,317.460317460317,4,2,55,70,1,0
31451,317.460317460317,4,2,55,70,1,0
32720,312.5,4,2,55,70,1,0
33813,326.086956521739,4,2,55,70,1,0
33976,326.086956521739,4,2,55,70,1,0
34302,314.13612565445,4,2,55,70,1,0
35244,314.13612565445,4,2,55,70,1,0
36343,327.868852459016,4,2,55,70,1,0
36506,327.868852459016,4,2,55,70,1,0
36833,314.13612565445,4,2,55,85,1,0
36833,-100,4,2,55,85,0,0
38089,300,4,2,55,85,1,0
38389,315.789473684211,4,2,55,85,1,0
38546,-100,4,2,55,80,0,0
38862,326.086956521739,4,2,55,80,1,0
38862,-100,4,2,55,80,0,0
39025,326.086956521739,4,2,55,80,1,0
39188,-100,4,2,55,50,0,0
39351,315.374507227332,4,2,55,80,1,0
39351,-100,4,2,55,80,0,0
40297,315.374507227332,4,2,55,80,1,0
43923,319.148936170213,4,2,55,80,1,0
44082,319.148936170213,4,2,55,80,1,0
45358,310.880829015544,4,2,55,80,1,0
46446,324.324324324324,4,2,55,80,1,0
46608,324.324324324324,4,2,55,80,1,0
46932,313.31592689295,4,2,55,80,1,0
47871,309.278350515464,4,2,55,80,1,0
47871,-100,4,2,55,80,0,0
48953,352.941176470588,4,2,55,80,1,0
49129,320.855614973262,4,2,55,80,1,0
49129,-100,4,2,33,50,0,0
50412,315.457413249211,4,2,33,50,1,0
52935,315.789473684211,4,2,33,50,1,0
55461,317.460317460317,4,2,33,50,1,0
56730,315.623356128354,4,2,33,50,1,0
59254,316.622691292876,4,2,33,40,1,0
59254,-100,4,2,33,40,0,0
59570,-100,4,2,33,60,0,0
61786,314.13612565445,4,2,33,60,1,0
63042,315.789473684211,4,2,33,60,1,0
66831,-100,4,2,33,65,0,0
68094,-100,4,2,33,70,0,0
68726,310.880829015544,4,2,33,75,1,0
68726,-100,4,2,33,75,0,0
69036,-100,4,2,44,80,0,0
69347,319.148936170213,4,2,55,50,1,0
69347,-100,4,2,55,50,0,0
69666,-100,4,2,55,90,0,0
69985,-100,4,2,55,50,0,0
70304,308.483290488432,4,2,55,90,1,0
70304,-100,4,2,55,90,0,0
70612,315.789473684211,4,2,55,50,1,0
70612,-100,4,2,55,50,0,0
70927,-100,4,2,55,90,0,0
71243,-100,4,2,55,50,0,0
71401,-100,4,2,55,90,0,0
71875,-100,4,2,55,50,0,0
72190,-100,4,2,55,90,0,1
73612,319.148936170213,4,2,55,90,1,1
74090,307.692307692308,4,2,55,90,1,1
74243,331.491712707182,4,2,55,90,1,1
74408,331.491712707182,4,2,55,90,1,1
74739,312.5,4,2,55,90,1,1
75676,303.030303030303,4,2,55,90,1,1
76130,317.460317460317,4,2,55,90,1,1
76288,317.460317460317,4,2,55,90,1,1
76764,326.086956521739,4,2,55,90,1,1
76927,326.086956521739,4,2,55,90,1,1
77579,306.122448979592,4,2,55,90,1,1
78038,320.855614973262,4,2,55,90,1,1
78198,320.855614973262,4,2,55,90,1,1
78518,314.13612565445,4,2,55,90,1,1
79303,-100,4,2,55,80,0,1
79460,317.460317460317,4,2,55,80,1,0
79460,-100,4,2,55,80,0,0
79618,-100,4,2,55,80,0,0
80094,315.789473684211,4,2,55,85,1,0
80094,-100,4,2,55,85,0,0
80409,-100,4,2,55,90,0,0
80725,315.789473684211,4,2,55,50,1,0
80725,-100,4,2,55,50,0,0
81040,-100,4,2,55,90,0,1
81988,312.5,4,2,55,90,1,1
83550,326.086956521739,4,2,55,90,1,1
83876,315.789473684211,4,2,55,90,1,1
84507,315.789473684211,4,2,55,90,1,1
85612,322.58064516129,4,2,55,90,1,1
85773,322.58064516129,4,2,55,90,1,1
86095,314.13612565445,4,2,55,90,1,1
87037,314.13612565445,4,2,55,90,1,1
87665,315.789473684211,4,2,55,90,1,1
88138,-100,4,2,55,80,0,1
88296,-100,4,2,55,80,0,0
88454,322.58064516129,4,2,55,80,1,0
88454,-100,4,2,55,80,0,0
88615,322.58064516129,4,2,55,80,1,0
88937,-100,4,2,55,85,0,0
89260,315.789473684211,4,2,55,90,1,0
89260,-100,4,2,55,90,0,0
89575,-100,4,2,55,90,0,0
89733,-100,4,2,55,40,0,0
90207,307.692307692308,4,2,55,90,1,0
90207,-100,4,2,55,90,0,0
90668,322.58064516129,4,2,55,90,1,0
90829,322.58064516129,4,2,55,90,1,0
91474,310.880829015544,4,2,55,90,1,0
92095,314.96062992126,4,2,55,90,1,0
93512,-101.010101010101,4,2,55,90,0,0
93669,320,4,2,55,90,1,0
93989,307.692307692308,4,2,55,90,1,0
94604,319.148936170213,4,2,55,90,1,0
96040,-102.040816326531,4,2,55,90,0,0
96199,324.324324324324,4,2,55,90,1,0
96523,314.13612565445,4,2,55,90,1,0
97151,314.13612565445,4,2,55,90,1,0
98407,314.96062992126,4,2,55,90,1,0
99666,-100,4,2,55,50,0,0
99981,-100,4,2,55,80,0,0
100139,-100,4,2,55,50,0,0
100296,330.214639515685,4,2,55,90,1,0
100296,-100,4,2,55,90,0,0
100461,-100,4,2,55,70,0,0
100626,-100,4,2,55,80,0,0
100791,315.789473684211,4,2,55,100,1,0
100791,-100,4,2,55,100,0,0
100869,-100,4,2,55,5,0,0
100948,315.789473684211,4,2,55,5,1,0

[Colours]
Combo1 : 215,215,215
Combo2 : 238,92,92
Combo3 : 215,215,215
Combo4 : 238,172,92
SliderBorder : 255,105,35
SliderTrackOverride : 20,0,0

[HitObjects]
422,233,1149,6,0,B|400:266|400:266|407:346,2,120,6|2|8,0:0|0:0|0:0,0:0:0:0:
441,102,2093,2,0,L|377:107,1,60,2|2,0:0|0:0,0:0:0:0:
325,142,2408,2,0,L|265:136,2,60,2|2|2,0:0|0:0|2:1,0:0:0:0:
270,21,3038,2,0,P|199:41|158:96,1,120,8|2,0:0|0:0,0:0:0:0:
36,62,3676,6,0,B|62:91|62:91|69:171,1,120,2|2,0:0|0:0,0:0:0:0:
31,298,4306,2,0,L|159:293,1,120,8|2,0:0|0:0,0:0:0:0:
216,294,4779,1,2,0:0:0:0:
335,351,5095,2,0,P|348:293|334:235,1,120,2|2,0:0|0:0,0:0:0:0:
290,185,5568,2,0,L|210:191,2,60,10|2|2,0:0|0:0|0:0,0:0:0:0:
364,75,6202,6,0,B|330:53|330:53|250:60,2,120,6|2|8,0:0|0:0|0:0,0:0:0:0:
493,43,7149,2,0,L|493:107,1,60,2|2,0:0|0:0,0:0:0:0:
464,162,7465,2,0,L|470:222,2,60,2|2|2,0:0|0:0|2:1,0:0:0:0:
364,75,8096,2,0,P|335:127|332:186,1,120,8|2,0:0|0:0,0:0:0:0:
242,283,8732,6,0,B|212:256|212:256|132:249,1,120,2|2,0:0|0:0,0:0:0:0:
27,329,9363,2,0,L|32:201,1,120,8|2,0:0|0:0,0:0:0:0:
74,157,9837,1,2,0:0:0:0:
17,38,10152,2,0,P|75:25|133:39,1,120,2|2,0:0|0:0,0:0:0:0:
182,83,10623,2,0,L|175:162,2,60,10|2|2,0:0|0:0|0:0,0:0:0:0:
298,21,11251,6,0,B|324:50|324:50|331:130,1,120,6|2,0:0|0:0,0:0:0:0:
455,85,11885,2,0,L|450:204,1,120,8|2,0:0|0:0,0:0:0:0:
405,253,12362,1,0,0:0:0:0:
359,301,12520,2,0,L|365:380,2,60,2|0|2,0:0|0:0|0:0,0:0:0:0:
293,186,13153,2,0,B|235:173|235:173|177:187,1,120,10|2,0:0|0:0,0:0:0:0:
52,141,13787,5,2,0:0:0:0:
52,141,14101,1,2,0:0:0:0:
52,141,14415,2,0,L|57:260,1,120,14|2,0:0|0:0,0:0:0:0:
89,319,14883,1,0,0:0:0:0:
132,367,15038,2,0,L|211:360,1,60,12|8,0:0|0:0,0:0:0:0:
258,356,15347,1,8,0:0:0:0:
212,232,15656,2,0,L|291:239,1,60,12|8,0:0|0:0,0:0:0:0:
337,246,15965,1,8,0:0:0:0:
402,253,16120,6,0,B|398:210|398:210|410:180|410:180|406:136,1,120,4|2,1:2|0:0,0:0:0:0:
369,80,16606,2,0,L|375:1,2,60,10|2|2,1:2|0:0|1:2,0:0:0:0:
242,117,17245,2,0,L|182:111,1,60,8|2,0:0|0:0,0:0:0:0:
123,80,17561,2,0,L|118:199,1,120,2|10,1:2|0:0,0:0:0:0:
53,315,18189,2,0,P|109:333|168:324,1,120,2|8,1:2|1:2,0:0:0:0:
222,363,18660,6,0,P|274:335|334:333,1,120,6|0,1:2|1:2,0:0:0:0:
393,363,19131,1,10,0:0:0:0:
473,258,19450,1,2,1:2:0:0:
358,191,19769,1,10,0:0:0:0:
438,86,20088,2,0,L|497:80,2,60,2|2|8,1:2|1:2|0:0,0:0:0:0:
377,60,20561,1,2,0:0:0:0:
255,110,20873,1,6,1:2:0:0:
136,51,21182,6,0,B|132:94|132:94|144:124|144:124|140:168,1,120,4|2,1:2|0:0,0:0:0:0:
92,214,21646,2,0,L|32:208,2,60,10|2|2,1:2|0:0|1:2,0:0:0:0:
194,299,22287,2,0,L|253:293,1,60,8|2,0:0|0:0,0:0:0:0:
315,318,22608,2,0,L|319:198,1,120,2|10,1:2|0:0,0:0:0:0:
252,84,23237,2,0,P|309:66|368:74,1,120,2|8,1:2|0:0,0:0:0:0:
430,53,23710,6,0,P|421:111|439:168,1,120,6|0,1:2|1:2,0:0:0:0:
491,208,24182,1,10,0:0:0:0:
397,300,24501,1,2,1:2:0:0:
290,221,24820,1,10,0:0:0:0:
196,313,25139,2,0,L|201:372,2,60,2|2|8,1:2|1:2|0:0,0:0:0:0:
146,269,25622,1,2,0:0:0:0:
14,280,25926,1,6,1:2:0:0:
77,164,26245,6,0,B|56:131|56:131|63:51,1,120,4|0,1:2|0:0,0:0:0:0:
119,15,26723,1,14,0:0:0:0:
213,106,27038,2,0,L|208:165,1,60,0|0,1:2|1:2,0:0:0:0:
257,211,27354,1,14,0:0:0:0:
356,123,27670,2,0,L|362:64,1,60,0|0,1:2|1:2,0:0:0:0:
418,28,27980,1,14,0:0:0:0:
482,144,28291,1,0,1:2:0:0:
475,210,28447,2,0,L|469:269,1,60,14|0,0:0|1:2,0:0:0:0:
480,335,28758,6,0,B|441:331|441:331|411:342|411:342|362:337,1,120,4|0,1:2|1:2,0:0:0:0:
297,328,29247,1,10,1:2:0:0:
167,352,29562,2,0,L|156:292,1,60,2|0,1:2|1:2,0:0:0:0:
144,228,29878,1,8,0:0:0:0:
13,244,30194,2,0,L|28:124,1,120,2|8,1:2|0:0,0:0:0:0:
9,61,30667,2,0,L|128:76,1,120,2|2,0:0|1:2,0:0:0:0:
194,69,31137,1,10,0:0:0:0:
259,62,31293,6,0,B|237:95|237:95|244:175,1,120,4|0,1:2|1:2,0:0:0:0:
251,241,31768,1,10,1:2:0:0:
363,310,32085,2,0,L|357:373,2,60,2|0|10,1:2|1:2|0:0,0:0:0:0:
475,239,32720,2,0,P|442:188|436:129,1,120,2|8,1:2|0:0,0:0:0:0:
455,66,33188,2,0,P|404:98|345:104,1,120,2|2,0:0|1:2,0:0:0:0:
282,86,33657,1,10,0:0:0:0:
243,32,33813,6,0,B|204:38|204:38|178:56|178:56|130:65,1,120,4|0,1:2|1:2,0:0:0:0:
64,56,34302,1,10,1:2:0:0:
20,180,34616,2,0,L|79:190,1,60,2|0,1:2|1:2,0:0:0:0:
144,179,34930,1,10,0:0:0:0:
113,307,35244,2,0,L|232:291,1,120,2|8,1:2|0:0,0:0:0:0:
291,320,35715,2,0,L|276:200,1,120,2|2,0:0|1:2,0:0:0:0:
265,135,36186,1,8,0:0:0:0:
217,89,36343,1,4,1:2:0:0:
401,17,36833,5,10,1:2:0:0:
393,148,37147,2,0,B|450:129|450:129|507:147,1,120,2|10,1:2|0:0,0:0:0:0:
507,279,37775,2,0,B|449:297|449:297|392:279,1,120,2|10,1:2|0:0,0:0:0:0:
330,254,38239,2,0,L|270:258,1,60,2|8,0:0|1:2,0:0:0:0:
213,293,38546,1,6,1:2:0:0:
103,367,38862,6,0,B|107:324|107:324|96:294|96:294|100:250,1,120,4|0,1:2|1:2,0:0:0:0:
119,186,39351,2,0,B|90:213|90:213|10:220,2,120,10|2|10,0:0|1:2|0:0,0:0:0:0:
51,72,40297,2,0,P|108:53|167:62,1,120,2|8,1:2|0:0,0:0:0:0:
250,164,40927,2,0,L|244:227,2,60,2|2|8,1:2|1:2|0:0,0:0:0:0:
302,123,41400,6,0,B|345:127|345:127|375:116|375:116|419:120,1,120,6|0,1:2|1:2,0:0:0:0:
473,159,41873,2,0,P|474:99|507:47,2,120,10|2|10,1:2|1:2|0:0,0:0:0:0:
508,286,42819,2,0,L|364:273,1,120,2|8,1:2|0:0,0:0:0:0:
259,305,43450,2,0,L|264:368,2,60,2|2|8,1:2|1:2|0:0,0:0:0:0:
211,258,43923,6,0,B|167:261|167:261|140:277|140:277|96:281,1,120,6|0,1:2|1:2,0:0:0:0:
34,255,44401,1,10,1:2:0:0:
15,124,44720,2,0,L|94:130,1,60,2|2,1:2|1:2,0:0:0:0:
135,104,45039,1,10,0:0:0:0:
256,52,45358,2,0,L|256:196,1,120,6|10,1:2|0:0,0:0:0:0:
256,304,45979,2,0,L|330:297,1,60,2|10,1:2|1:2,0:0:0:0:
362,251,46290,2,0,L|436:257,1,60,10|8,0:0|1:2,0:0:0:0:
487,265,46608,6,0,P|454:210|464:142,1,120,6|8,0:0|1:2,0:0:0:0:
483,25,47245,2,0,P|428:57|360:47,1,120,2|10,1:2|0:0,0:0:0:0:
291,157,47871,2,0,L|297:231,2,60,10|10|10,0:0|0:0|0:0,0:0:0:0:
180,83,48489,2,0,L|186:8,2,60,10|10|10,0:0|0:0|0:0,0:0:0:0:
97,186,49129,5,4,0:0:0:0:
97,186,49449,2,0,L|103:260,1,60,2|0,2:1|0:0,0:0:0:0:
75,306,49770,2,0,L|266:322,1,180,10|0,2:1|2:1,0:0:0:0:
306,362,50412,2,0,L|256:176,1,180,0|0,2:1|2:1,0:0:0:0:
210,144,51042,2,0,L|401:160,1,180,8|0,2:1|2:1,0:0:0:0:
455,167,51673,5,2,0:0:0:0:
455,167,51989,2,0,L|449:241,1,60,2|0,2:1|0:0,0:0:0:0:
477,287,52304,2,0,L|286:269,1,180,10|0,0:0|0:0,0:0:0:0:
235,290,52935,2,0,B|252:248|252:248|235:200|235:200|287:187|331:105|280:40|218:19|145:44|134:114|134:114|122:191,1,480,2|2,0:0|0:0,0:0:0:0:
52,277,54513,6,0,L|131:284,1,60,2|0,2:1|0:0,0:0:0:0:
151,335,54829,2,0,B|184:313|184:313|264:320,1,120,8|2,0:0|0:0,0:0:0:0:
329,332,55303,1,2,0:0:0:0:
393,343,55461,2,0,L|472:336,2,60,2|2|2,0:0|2:1|2:0,0:0:0:0:
359,214,56095,2,0,L|280:207,2,60,10|2|2,0:0|0:0|2:0,0:0:0:0:
430,102,56730,6,0,B|401:74|401:74|321:67,1,120,2|0,0:0|0:0,0:0:0:0:
256,61,57203,1,2,2:1:0:0:
190,67,57361,2,0,B|110:74|110:74|82:102,1,120,8|2,0:0|0:0,0:0:0:0:
153,214,57992,2,0,L|212:208,2,60,2|2|2,0:0|2:1|0:0,0:0:0:0:
82,326,58623,2,0,P|39:281|21:216,2,120,8|2|2,0:0|2:1|0:0,0:0:0:0:
214,331,59570,6,0,L|273:324,1,60,0|2,0:0|2:1,0:0:0:0:
333,352,59887,2,0,B|309:319|309:319|316:239,1,120,8|0,0:0|0:0,0:0:0:0:
446,219,60520,2,0,L|441:279,2,60,2|2|2,0:0|0:0|2:1,0:0:0:0:
362,116,61153,2,0,B|329:140|329:140|249:133,1,120,8|2,0:0|2:1,0:0:0:0:
130,77,61786,5,2,0:0:0:0:
130,77,62100,2,0,L|66:82,1,60,2|2,0:0|2:1,0:0:0:0:
4,93,62414,2,0,P|34:142|22:221,1,120,10|2,2:1|2:0,0:0:0:0:
7,333,63042,2,0,P|57:301|116:305,1,120,2|0,2:1|0:0,0:0:0:0:
219,221,63673,2,0,P|215:279|246:330,1,120,10|0,0:0|0:0,0:0:0:0:
372,373,64305,5,2,0:0:0:0:
372,373,64620,2,0,L|378:309,1,60,2|2,2:1|0:0,0:0:0:0:
425,267,64936,2,0,B|396:240|396:240|388:159,1,120,10|2,2:1|0:0,0:0:0:0:
450,134,65410,1,2,2:1:0:0:
511,110,65568,2,0,B|503:29|503:29|474:2,2,120,2|2|8,0:0|0:0|0:0,0:0:0:0:
388,160,66515,2,0,B|345:164|345:164|315:152|315:152|271:156,1,120,2|2,2:1|0:0,0:0:0:0:
177,61,67147,6,0,L|171:125,1,60,2|2,2:1|0:0,0:0:0:0:
120,163,67463,2,0,L|131:291,1,120,8|2,0:0|0:0,0:0:0:0:
186,317,67936,1,2,2:1:0:0:
240,354,68094,2,0,L|228:227,2,120,2|2|10,0:0|0:0|2:1,0:0:0:0:
130,282,69036,1,6,0:0:0:0:
20,214,69347,6,0,L|15:153,1,60,0|0,1:2|1:2,0:0:0:0:
11,88,69666,1,14,0:0:0:0:
142,103,69985,6,0,L|181:57,1,60,0|0,1:2|1:2,0:0:0:0:
224,6,70304,1,14,0:0:0:0:
306,110,70612,6,0,L|366:105,1,60,0|0,1:2|1:2,0:0:0:0:
432,100,70927,1,14,0:0:0:0:
458,227,71243,6,0,L|416:270,1,60,2|4,1:2|0:0,0:0:0:0:
370,318,71559,2,0,L|310:318,1,60,10|4,1:2|0:0,0:0:0:0:
243,318,71875,5,2,1:2:0:0:
125,376,72190,2,0,B|99:345|99:345|99:264,2,120,10|2|10,0:0|1:2|0:0,0:0:0:0:
5,321,73138,2,0,L|5:201,1,120,2|8,1:2|0:0,0:0:0:0:
53,156,73612,2,0,P|110:146|177:175,1,120,6|4,1:2|1:2,0:0:0:0:
208,219,74090,1,8,0:2:0:0:
216,284,74243,6,0,B|245:255|245:255|324:247,1,120,6|0,1:2|1:2,0:0:0:0:
387,266,74739,1,10,0:0:0:0:
321,151,75051,1,2,0:0:0:0:
453,152,75364,1,10,0:0:0:0:
387,37,75676,2,0,L|267:47,1,120,6|10,1:2|0:0,0:0:0:0:
201,53,76130,1,6,1:2:0:0:
69,64,76446,2,0,L|74:127,1,60,6|8,1:2|0:0,0:0:0:0:
54,187,76764,6,0,B|88:164|88:164|166:172,1,120,6|0,1:2|1:2,0:0:0:0:
231,184,77253,1,10,0:0:0:0:
347,122,77579,2,0,P|362:201|347:246,1,120,2|8,1:2|0:0,0:0:0:0:
392,289,78038,2,0,L|249:301,1,120,6|2,1:2|1:2,0:0:0:0:
146,258,78675,2,0,P|180:306|190:365,2,120,2|10|0,0:0|0:0|1:2,0:0:0:0:
89,226,79460,1,8,1:2:0:0:
23,226,79618,6,0,B|24:182|24:182|40:153|40:153|42:110,1,120,6|0,1:2|1:2,0:0:0:0:
51,44,80094,1,6,1:2:0:0:
166,108,80409,1,6,1:2:0:0:
273,31,80725,1,6,0:0:0:0:
388,95,81040,6,0,B|414:126|414:126|414:207,2,120,10|2|10,1:2|1:2|0:0,0:0:0:0:
508,150,81988,2,0,L|508:278,1,120,2|8,1:2|0:0,0:0:0:0:
457,312,82456,2,0,P|392:319|332:284,1,120,2|2,1:2|1:2,0:0:0:0:
306,241,82925,1,10,1:2:0:0:
304,175,83081,6,0,B|270:198|270:198|192:190,1,120,6|0,1:2|1:2,0:0:0:0:
130,162,83550,1,10,0:0:0:0:
12,100,83876,2,0,L|23:227,1,120,2|8,1:2|0:0,0:0:0:0:
4,282,84349,2,0,P|69:281|121:315,1,120,2|0,1:2|1:2,0:0:0:0:
142,368,84822,1,10,0:0:0:0:
239,277,85138,2,0,P|290:305|350:303,1,120,2|8,0:0|0:0,0:0:0:0:
403,341,85612,6,0,B|380:307|380:307|388:229,1,120,6|0,1:2|1:2,0:0:0:0:
400,163,86095,1,10,0:0:0:0:
461,46,86409,2,0,P|400:31|335:48,1,120,6|8,0:0|1:2,0:0:0:0:
293,85,86880,2,0,P|234:96|177:82,1,120,6|2,1:2|0:0,0:0:0:0:
124,42,87351,1,8,1:2:0:0:
27,132,87665,2,0,L|38:259,1,120,12|12,1:2|1:2,0:0:0:0:
154,311,88296,5,8,1:2:0:0:
203,268,88454,2,0,P|262:254|337:286,1,120,6|0,1:2|1:2,0:0:0:0:
368,228,88937,1,14,1:2:0:0:
421,349,89260,1,14,1:2:0:0:
496,240,89575,1,6,1:2:0:0:
444,119,89891,6,0,L|364:112,1,60,10|0,0:0|0:0,0:0:0:0:
318,105,90207,2,0,B|288:76|288:76|210:70,1,120,2|8,1:2|0:0,0:0:0:0:
143,63,90668,1,6,1:2:0:0:
43,148,90990,2,0,L|170:160,1,120,2|0,1:2|1:2,0:0:0:0:
219,205,91474,1,10,1:2:0:0:
219,205,91784,1,10,1:2:0:0:
319,121,92095,5,4,1:2:0:0:
377,238,92409,2,0,L|456:232,1,60,10|0,0:0|1:2,0:0:0:0:
497,206,92724,2,0,P|522:264|494:330,1,120,2|8,1:2|0:0,0:0:0:0:
446,343,93197,1,6,1:2:0:0:
320,305,93512,2,0,L|192:317,1,120,0|2,1:2|1:2,0:0:0:0:
157,369,93989,1,10,1:2:0:0:
157,369,94296,1,10,1:2:0:0:
142,242,94604,5,6,1:2:0:0:
11,259,94923,2,0,L|4:179,1,60,10|0,0:0|1:2,0:0:0:0:
0,133,95242,2,0,B|34:156|34:156|112:148,1,120,2|8,1:2|0:0,0:0:0:0:
178,138,95721,1,6,1:2:0:0:
165,9,96040,2,0,L|284:19,1,118.799999637451,0|0,1:2|1:2,0:0:0:0:
327,76,96523,1,10,1:2:0:0:
327,76,96837,1,10,1:2:0:0:
461,75,97151,6,0,L|455:138,1,60,6|2,1:2|1:2,0:0:0:0:
403,175,97465,2,0,L|408:238,1,60,10|0,0:0|0:0,0:0:0:0:
418,300,97779,2,0,P|364:274|305:278,1,120,6|8,1:2|0:0,0:0:0:0:
249,315,98250,1,6,1:2:0:0:
267,184,98564,2,0,L|196:191,1,60,0|14,1:2|0:0,0:0:0:0:
75,203,99036,2,0,L|80:139,2,60,2|2|14,1:2|1:2|0:0,0:0:0:0:
33,328,99666,6,0,L|92:322,1,60,2|0,1:2|1:2,0:0:0:0:
140,276,99981,2,0,L|199:285,1,60,2|2,0:0|1:2,0:0:0:0:
256,320,100296,1,10,1:2:0:0:
313,285,100461,2,0,L|372:276,2,60,14|14|6,1:2|0:0|1:2,0:0:0:0:
256,192,100948,12,0,105684,0:0:0:0:
