osu file format v14

[General]
AudioFilename: audio.mp3
AudioLeadIn: 0
PreviewTime: 13
Countdown: 0
SampleSet: Normal
StackLeniency: 0.7
Mode: 1
LetterboxInBreaks: 0
WidescreenStoryboard: 1

[Editor]
DistanceSpacing: 1
BeatDivisor: 3
GridSize: 32
TimelineZoom: 1.6

[Metadata]
Title:The Letter
TitleUnicode:The Letter
Artist:Crumb
ArtistUnicode:Crumb
Creator:Skull Kid
Version:ideal's muzukashii
Source:
Tags:Ideal Idealism Jinx english indie dream pop Lila Ramani Jesse Brotter Brian Aronow Jonathan Gilad
BeatmapID:3652075
BeatmapSetID:1274857

[Difficulty]
HPDrainRate:9
CircleSize:4
OverallDifficulty:4.3
ApproachRate:9
SliderMultiplier:1.4
SliderTickRate:1

[Events]
//Background and Video events
0,0,"BG.jpg",0,-100
//Break Periods
//Storyboard Layer 0 (Background)
//Storyboard Layer 1 (Fail)
//Storyboard Layer 2 (Pass)
//Storyboard Layer 3 (Foreground)
//Storyboard Layer 4 (Overlay)
//Storyboard Sound Samples

[TimingPoints]
212,512.820512820513,6,1,0,10,1,0
212,-166.666666666667,6,1,0,10,0,0
18673,-153.846153846154,6,1,0,10,0,0
19442,-142.857142857143,6,1,0,10,0,0
20212,-133.333333333333,6,1,0,10,0,0
20981,-142.857142857143,6,1,0,10,0,0
21750,-153.846153846154,6,1,0,10,0,0
22519,-142.857142857143,6,1,0,10,0,0
23288,-133.333333333333,6,1,0,10,0,0
24058,-142.857142857143,6,1,0,10,0,0
24827,-153.846153846154,6,1,0,10,0,0
30981,-142.857142857143,6,1,0,10,0,0
31750,-133.333333333333,6,1,0,10,0,0
32519,-125,6,1,0,10,0,0
33288,-133.333333333333,6,1,0,10,0,0
34058,-142.857142857143,6,1,0,10,0,0
34827,-133.333333333333,6,1,0,10,0,0
35596,-125,6,1,0,10,0,0
36365,-133.333333333333,6,1,0,10,0,0
36878,-142.857142857143,6,1,0,15,0,0
37904,-144.927536231884,6,1,0,15,0,0
38417,-147.058823529412,6,1,0,15,0,0
38673,-149.253731343284,6,1,0,15,0,0
39442,-151.515151515152,6,1,0,15,0,0
40212,-153.846153846154,6,1,0,15,0,0
40981,-156.25,6,1,0,15,0,0
41494,-158.730158730159,6,1,0,15,0,0
41750,-161.290322580645,6,1,0,15,0,0
42263,-163.934426229508,6,1,0,15,0,0
42776,-166.666666666667,6,1,0,15,0,0
43288,-169.491525423729,6,1,0,15,0,0
44058,-172.413793103448,6,1,0,15,0,0
44827,-175.438596491228,6,1,0,15,0,0
45596,-178.571428571429,6,1,0,15,0,0
46109,-178.571428571429,6,1,0,30,0,0
46365,512.820512820513,6,1,0,30,1,8
46375,512.820512820513,3,1,0,30,1,0
90990,-102.040816326531,3,1,0,30,0,0
91246,-104.166666666667,3,1,0,30,0,0
91503,-106.382978723404,3,1,0,30,0,0
91759,-108.695652173913,3,1,0,30,0,0
92016,-111.111111111111,3,1,0,30,0,0
92272,-113.636363636364,3,1,0,30,0,0
92528,512.820512820513,6,1,0,10,1,8
92529,770.218228498074,2,1,0,30,1,0
92529,-62.5,4,1,0,30,0,0
93042,-61.5384615384615,4,1,0,30,0,0
93299,-60.6060606060606,4,1,0,30,0,0
93812,-59.7014925373134,4,1,0,30,0,0
94069,-58.8235294117647,4,1,0,30,0,0
94582,-57.9710144927536,4,1,0,30,0,0
94839,-57.1428571428571,4,1,0,30,0,0
95353,-56.3380281690141,4,1,0,30,0,0
95609,-55.5555555555556,4,1,0,30,0,0
96123,-54.7945205479452,4,1,0,30,0,0
96380,-54.054054054054,4,1,0,30,0,0
96893,-53.3333333333333,4,1,0,30,0,0
97150,-52.6315789473684,4,1,0,30,0,0
97663,-51.9480519480519,4,1,0,30,0,0
97920,-51.2820512820513,4,1,0,30,0,0
98434,-50.6329113924051,4,1,0,30,0,0
98690,-50,4,1,0,30,0,0
102541,-49.5049504950495,4,1,0,30,0,0
102798,-49.0196078431373,4,1,0,30,0,0
103055,-48.5436893203883,4,1,0,30,0,0
103312,-48.0769230769231,4,1,0,30,0,0
103568,-47.6190476190476,4,1,0,30,0,0
103825,-47.1698113207547,4,1,0,30,0,0
104082,-46.7289719626168,4,1,0,30,0,0
104339,-46.2962962962963,4,1,0,30,0,0
104595,-45.8715596330275,4,1,0,30,0,0
104852,-45.4545454545455,4,1,0,30,0,0
109730,-45.045045045045,4,1,0,30,0,0
109987,-44.6428571428571,4,1,0,30,0,0
110244,-44.2477876106195,4,1,0,30,0,0
110500,-43.859649122807,4,1,0,30,0,0
110586,-43.4782608695652,4,1,0,30,0,0
110671,-43.1034482758621,4,1,0,30,0,0
110757,-42.7350427350427,4,1,0,30,0,0
110843,-42.3728813559322,4,1,0,30,0,0
110928,-42.0168067226891,4,1,0,30,0,0
111014,-41.6666666666667,4,1,0,30,0,0
114095,759.493670886076,2,1,0,30,1,0
114095,-41.6666666666667,4,1,0,30,0,0
116120,-40,4,1,0,30,0,0
116373,-38.4615384615385,4,1,0,30,0,0
116626,-37.037037037037,4,1,0,30,0,0
116879,-35.7142857142857,4,1,0,30,0,0
117006,-41.6666666666667,4,1,0,20,0,0
117132,517.241379310345,3,1,0,20,1,0
123209,-100,3,1,0,10,0,0

[HitObjects]
216,235,12519,5,8,0:0:0:0:
233,245,14058,1,0,0:0:0:0:
233,245,15596,1,8,0:0:0:0:
233,245,16622,1,0,0:0:0:0:
233,245,17135,1,8,0:0:0:0:
231,219,18673,1,8,0:0:0:0:
231,219,19699,1,0,0:0:0:0:
231,219,20212,1,8,0:0:0:0:
231,219,20981,1,0,0:0:0:0:
223,203,21750,1,8,0:0:0:0:
214,197,23288,1,0,0:0:0:0:
222,202,24827,1,8,0:0:0:0:
222,202,26365,1,0,0:0:0:0:
222,202,27904,1,8,0:0:0:0:
222,202,28673,1,0,0:0:0:0:
222,202,29442,1,8,0:0:0:0:
213,191,29955,1,0,0:0:0:0:
213,191,30981,1,8,0:0:0:0:
213,191,32006,1,0,0:0:0:0:
213,191,32519,1,8,0:0:0:0:
216,198,33801,1,0,0:0:0:0:
213,191,34314,1,8,0:0:0:0:
226,189,37135,1,0,0:0:0:0:
226,189,38417,1,8,0:0:0:0:
233,182,38673,1,0,0:0:0:0:
228,181,39442,1,0,0:0:0:0:
249,187,39955,1,8,0:0:0:0:
220,185,40212,1,0,0:0:0:0:
234,179,41494,1,8,0:0:0:0:
234,179,41750,1,0,0:0:0:0:
234,179,42519,1,0,0:0:0:0:
240,177,43032,1,0,0:0:0:0:
234,179,43288,1,8,0:0:0:0:
231,180,44058,1,8,0:0:0:0:
231,180,44827,1,0,0:0:0:0:
240,182,45596,1,0,0:0:0:0:
240,182,46375,1,8,0:0:0:0:
228,222,46887,1,0,0:0:0:0:
231,208,47143,1,8,0:0:0:0:
231,199,47657,1,8,0:0:0:0:
231,199,47913,1,0,0:0:0:0:
220,207,48169,1,0,0:0:0:0:
231,199,48426,1,8,0:0:0:0:
220,207,48682,1,0,0:0:0:0:
231,199,48939,1,0,0:0:0:0:
220,207,49195,1,0,0:0:0:0:
231,199,49451,1,12,0:0:0:0:
231,199,49964,1,8,0:0:0:0:
231,199,50990,1,0,0:0:0:0:
231,199,51503,1,8,0:0:0:0:
231,199,52016,1,0,0:0:0:0:
231,199,52272,1,0,0:0:0:0:
231,199,52528,1,8,0:0:0:0:
228,203,53041,1,0,0:0:0:0:
226,203,53298,1,8,0:0:0:0:
240,211,54067,1,8,0:0:0:0:
240,211,54580,1,0,0:0:0:0:
240,211,55092,1,0,0:0:0:0:
240,211,55605,1,8,0:0:0:0:
240,211,56118,1,0,0:0:0:0:
240,211,56375,1,0,0:0:0:0:
240,211,56631,1,8,0:0:0:0:
240,211,57144,1,0,0:0:0:0:
240,211,57657,1,8,0:0:0:0:
240,211,57913,1,0,0:0:0:0:
240,211,58169,1,8,0:0:0:0:
227,217,58682,1,8,0:0:0:0:
227,217,59195,1,0,0:0:0:0:
216,207,59451,1,0,0:0:0:0:
227,217,59708,1,0,0:0:0:0:
227,217,60221,1,8,0:0:0:0:
221,209,60733,1,8,0:0:0:0:
221,209,60990,1,8,0:0:0:0:
221,209,61246,1,0,0:0:0:0:
221,209,61759,1,8,0:0:0:0:
221,209,63041,1,0,0:0:0:0:
221,209,63298,1,8,0:0:0:0:
221,209,63810,1,0,0:0:0:0:
221,209,64580,1,8,0:0:0:0:
221,209,64836,1,0,0:0:0:0:
221,209,65349,1,0,0:0:0:0:
231,209,65605,1,8,0:0:0:0:
231,209,66375,1,0,0:0:0:0:
231,209,66887,1,8,0:0:0:0:
231,209,67400,1,0,0:0:0:0:
231,209,67913,1,8,0:0:0:0:
231,209,68426,1,8,0:0:0:0:
231,209,68682,1,8,0:0:0:0:
231,209,68939,1,0,0:0:0:0:
231,209,69451,1,8,0:0:0:0:
231,209,69964,1,8,0:0:0:0:
231,209,70221,1,0,0:0:0:0:
231,209,70477,1,8,0:0:0:0:
231,209,70990,1,0,0:0:0:0:
215,201,71503,1,8,0:0:0:0:
189,176,71759,1,8,0:0:0:0:
208,197,72016,1,0,0:0:0:0:
176,183,72528,1,8,0:0:0:0:
176,183,72785,1,0,0:0:0:0:
176,183,73041,1,0,0:0:0:0:
176,183,73554,1,8,0:0:0:0:
176,183,73810,1,0,0:0:0:0:
176,183,74067,1,8,0:0:0:0:
176,183,74580,1,8,0:0:0:0:
173,173,75349,1,0,0:0:0:0:
173,173,75605,1,0,0:0:0:0:
167,175,76118,1,8,0:0:0:0:
173,173,76375,1,0,0:0:0:0:
173,173,76887,1,0,0:0:0:0:
173,173,77144,1,0,0:0:0:0:
176,167,77657,1,8,0:0:0:0:
176,167,77913,1,0,0:0:0:0:
176,167,78426,1,0,0:0:0:0:
176,167,78682,1,0,0:0:0:0:
196,170,79195,1,8,0:0:0:0:
194,170,79451,1,0,0:0:0:0:
176,167,79708,1,8,0:0:0:0:
177,162,80221,1,0,0:0:0:0:
176,167,80733,1,8,0:0:0:0:
177,162,80990,1,0,0:0:0:0:
176,167,81503,1,0,0:0:0:0:
159,162,81759,1,8,0:0:0:0:
159,162,82272,1,0,0:0:0:0:
159,162,82785,1,8,0:0:0:0:
159,162,83041,1,0,0:0:0:0:
170,160,83554,1,0,0:0:0:0:
170,160,83810,1,8,0:0:0:0:
170,160,84323,1,0,0:0:0:0:
170,160,84836,1,8,0:0:0:0:
170,160,85092,1,0,0:0:0:0:
170,160,85605,1,0,0:0:0:0:
170,160,85862,1,8,0:0:0:0:
170,160,86375,1,0,0:0:0:0:
179,162,86887,1,8,0:0:0:0:
179,162,87144,1,0,0:0:0:0:
179,162,87657,1,0,0:0:0:0:
179,162,87913,1,0,0:0:0:0:
179,162,88426,1,8,0:0:0:0:
179,162,88682,1,0,0:0:0:0:
179,162,89195,1,0,0:0:0:0:
179,162,89451,1,0,0:0:0:0:
179,162,89964,1,8,0:0:0:0:
179,162,90221,1,0,0:0:0:0:
226,165,90733,1,0,0:0:0:0:
226,165,90990,1,8,0:0:0:0:
226,165,91246,1,8,0:0:0:0:
226,165,91503,1,8,0:0:0:0:
226,165,91759,1,0,0:0:0:0:
226,165,92016,1,8,0:0:0:0:
226,165,92272,1,0,0:0:0:0:
226,165,92529,1,0,0:0:0:0:
224,173,93299,1,8,0:0:0:0:
224,173,93555,1,0,0:0:0:0:
224,173,93812,1,0,0:0:0:0:
224,173,94069,1,8,0:0:0:0:
213,175,94839,1,8,0:0:0:0:
213,175,95096,1,8,0:0:0:0:
213,175,95353,1,0,0:0:0:0:
213,175,95609,1,8,0:0:0:0:
243,188,96380,1,0,0:0:0:0:
243,188,96636,1,0,0:0:0:0:
237,187,96893,1,8,0:0:0:0:
226,188,97150,1,0,0:0:0:0:
224,188,97920,1,0,0:0:0:0:
226,188,98177,1,8,0:0:0:0:
224,188,98434,1,0,0:0:0:0:
224,188,98690,1,0,0:0:0:0:
224,188,99460,1,8,0:0:0:0:
224,188,99717,1,8,0:0:0:0:
224,188,99974,1,8,0:0:0:0:
224,188,100231,1,0,0:0:0:0:
224,188,101001,1,8,0:0:0:0:
224,188,101258,1,0,0:0:0:0:
224,188,101514,1,0,0:0:0:0:
224,188,101771,1,0,0:0:0:0:
224,188,102541,1,8,0:0:0:0:
224,188,102798,1,8,0:0:0:0:
224,188,103055,1,0,0:0:0:0:
224,188,103312,1,0,0:0:0:0:
241,192,103825,1,0,0:0:0:0:
224,188,104082,1,0,0:0:0:0:
218,191,104339,1,12,0:0:0:0:
224,188,104852,1,0,0:0:0:0:
224,188,105109,1,8,0:0:0:0:
224,191,105365,1,0,0:0:0:0:
224,188,105622,1,8,0:0:0:0:
224,188,106136,1,8,0:0:0:0:
224,188,106392,1,0,0:0:0:0:
224,188,106649,1,0,0:0:0:0:
224,188,106906,1,0,0:0:0:0:
224,188,107163,1,8,0:0:0:0:
218,192,107676,1,0,0:0:0:0:
214,194,107933,1,8,0:0:0:0:
218,192,108190,1,0,0:0:0:0:
218,192,108446,1,0,0:0:0:0:
214,194,108703,1,8,0:0:0:0:
212,194,109473,1,12,0:0:0:0:
214,194,109730,1,0,0:0:0:0:
212,194,109987,1,0,0:0:0:0:
212,194,110244,1,12,0:0:0:0:
207,188,110500,1,0,0:0:0:0:
214,194,110757,1,0,0:0:0:0:
214,194,110928,1,0,0:0:0:0:
212,194,111014,1,8,0:0:0:0:
207,188,111784,1,8,0:0:0:0:
207,188,112041,1,0,0:0:0:0:
207,188,112297,1,0,0:0:0:0:
207,188,112554,1,8,0:0:0:0:
207,188,113068,1,8,0:0:0:0:
207,188,113324,1,8,0:0:0:0:
207,188,113581,1,0,0:0:0:0:
207,188,113838,1,0,0:0:0:0:
207,188,114095,1,0,0:0:0:0:
207,188,114854,1,8,0:0:0:0:
207,188,115107,1,0,0:0:0:0:
207,188,115360,1,0,0:0:0:0:
207,188,115613,1,8,0:0:0:0:
207,188,116120,1,12,0:0:0:0:
207,188,116373,1,12,0:0:0:0:
207,188,116626,1,12,0:0:0:0:
207,188,116879,1,12,0:0:0:0:
212,196,117132,1,0,0:0:0:0:
211,181,117907,1,8,0:0:0:0:
211,181,118166,1,0,0:0:0:0:
211,181,118683,1,8,0:0:0:0:
204,182,119459,1,0,0:0:0:0:
204,182,119718,1,8,0:0:0:0:
204,182,120235,1,0,0:0:0:0:
204,182,120752,1,8,0:0:0:0:
204,182,121011,1,0,0:0:0:0:
191,180,121528,1,0,0:0:0:0:
204,182,121787,1,8,0:0:0:0:
204,182,122304,1,8,0:0:0:0:
177,180,122563,1,0,0:0:0:0:
186,178,122821,1,8,0:0:0:0:
204,182,123338,1,0,0:0:0:0:
